  0
SECTION
  2
HEADER
  9
$ACADVER
  1
AC1015
  9
$ACADMAINTVER
 70
     6
  9
$DWGCODEPAGE
  3
ANSI_932
  9
$INSBASE
 10
0.0
 20
0.0
 30
0.0
  9
$EXTMIN
 10
-117.6069841392893
 20
817.5308658634675
 30
0.0
  9
$EXTMAX
 10
682.3930158607106
 20
1367.530865863467
 30
0.0
  9
$LIMMIN
 10
0.0
 20
0.0
  9
$LIMMAX
 10
420.0
 20
297.0
  9
$ORTHOMODE
 70
     0
  9
$REGENMODE
 70
     1
  9
$FILLMODE
 70
     1
  9
$QTEXTMODE
 70
     0
  9
$MIRRTEXT
 70
     1
  9
$LTSCALE
 40
1.0
  9
$ATTMODE
 70
     1
  9
$TEXTSIZE
 40
2.5
  9
$TRACEWID
 40
1.0
  9
$TEXTSTYLE
  7
Standard
  9
$CLAYER
  8
0
  9
$CELTYPE
  6
ByLayer
  9
$CECOLOR
 62
     0
  9
$CELTSCALE
 40
0.5
  9
$DISPSILH
 70
     0
  9
$DIMSCALE
 40
1.0
  9
$DIMASZ
 40
5.0
  9
$DIMEXO
 40
2.0
  9
$DIMDLI
 40
3.75
  9
$DIMRND
 40
0.0
  9
$DIMDLE
 40
0.0
  9
$DIMEXE
 40
5.0
  9
$DIMTP
 40
0.0
  9
$DIMTM
 40
0.0
  9
$DIMTXT
 40
6.0
  9
$DIMCEN
 40
2.5
  9
$DIMTSZ
 40
0.0
  9
$DIMTOL
 70
     0
  9
$DIMLIM
 70
     0
  9
$DIMTIH
 70
     0
  9
$DIMTOH
 70
     0
  9
$DIMSE1
 70
     0
  9
$DIMSE2
 70
     0
  9
$DIMTAD
 70
     1
  9
$DIMZIN
 70
     8
  9
$DIMBLK
  1

  9
$DIMASO
 70
     1
  9
$DIMSHO
 70
     1
  9
$DIMPOST
  1

  9
$DIMAPOST
  1

  9
$DIMALT
 70
     0
  9
$DIMALTD
 70
     3
  9
$DIMALTF
 40
0.1
  9
$DIMLFAC
 40
1.0
  9
$DIMTOFL
 70
     1
  9
$DIMTVP
 40
0.0
  9
$DIMTIX
 70
     0
  9
$DIMSOXD
 70
     0
  9
$DIMSAH
 70
     0
  9
$DIMBLK1
  1

  9
$DIMBLK2
  1

  9
$DIMSTYLE
  2
ISO-25
  9
$DIMCLRD
 70
     7
  9
$DIMCLRE
 70
     7
  9
$DIMCLRT
 70
     0
  9
$DIMTFAC
 40
1.0
  9
$DIMGAP
 40
3.0
  9
$DIMJUST
 70
     0
  9
$DIMSD1
 70
     0
  9
$DIMSD2
 70
     0
  9
$DIMTOLJ
 70
     0
  9
$DIMTZIN
 70
     8
  9
$DIMALTZ
 70
     0
  9
$DIMALTTZ
 70
     0
  9
$DIMUPT
 70
     0
  9
$DIMDEC
 70
     2
  9
$DIMTDEC
 70
     2
  9
$DIMALTU
 70
     2
  9
$DIMALTTD
 70
     3
  9
$DIMTXSTY
  7
Standard
  9
$DIMAUNIT
 70
     0
  9
$DIMADEC
 70
     0
  9
$DIMALTRND
 40
0.0
  9
$DIMAZIN
 70
     0
  9
$DIMDSEP
 70
    46
  9
$DIMATFIT
 70
     3
  9
$DIMFRAC
 70
     0
  9
$DIMLDRBLK
  1

  9
$DIMLUNIT
 70
     2
  9
$DIMLWD
 70
     9
  9
$DIMLWE
 70
     9
  9
$DIMTMOVE
 70
     0
  9
$LUNITS
 70
     2
  9
$LUPREC
 70
     4
  9
$SKETCHINC
 40
1.0
  9
$FILLETRAD
 40
0.15
  9
$AUNITS
 70
     0
  9
$AUPREC
 70
     0
  9
$MENU
  1
.
  9
$ELEVATION
 40
0.0
  9
$PELEVATION
 40
0.0
  9
$THICKNESS
 40
0.0
  9
$LIMCHECK
 70
     0
  9
$CHAMFERA
 40
0.3
  9
$CHAMFERB
 40
0.3
  9
$CHAMFERC
 40
20.0
  9
$CHAMFERD
 40
0.0
  9
$SKPOLY
 70
     0
  9
$TDCREATE
 40
2454873.622250069
  9
$TDUCREATE
 40
2454873.247250069
  9
$TDUPDATE
 40
2459635.596730972
  9
$TDUUPDATE
 40
2459635.221730972
  9
$TDINDWG
 40
0.7426158565
  9
$TDUSRTIMER
 40
0.7426158565
  9
$USRTIMER
 70
     1
  9
$ANGBASE
 50
0.0
  9
$ANGDIR
 70
     0
  9
$PDMODE
 70
     0
  9
$PDSIZE
 40
0.0
  9
$PLINEWID
 40
0.0
  9
$SPLFRAME
 70
     0
  9
$SPLINETYPE
 70
     6
  9
$SPLINESEGS
 70
     8
  9
$HANDSEED
  5
A64E
  9
$SURFTAB1
 70
     6
  9
$SURFTAB2
 70
     6
  9
$SURFTYPE
 70
     6
  9
$SURFU
 70
     6
  9
$SURFV
 70
     6
  9
$UCSBASE
  2

  9
$UCSNAME
  2

  9
$UCSORG
 10
0.0
 20
0.0
 30
0.0
  9
$UCSXDIR
 10
1.0
 20
0.0
 30
0.0
  9
$UCSYDIR
 10
0.0
 20
1.0
 30
0.0
  9
$UCSORTHOREF
  2

  9
$UCSORTHOVIEW
 70
     0
  9
$UCSORGTOP
 10
0.0
 20
0.0
 30
0.0
  9
$UCSORGBOTTOM
 10
0.0
 20
0.0
 30
0.0
  9
$UCSORGLEFT
 10
0.0
 20
0.0
 30
0.0
  9
$UCSORGRIGHT
 10
0.0
 20
0.0
 30
0.0
  9
$UCSORGFRONT
 10
0.0
 20
0.0
 30
0.0
  9
$UCSORGBACK
 10
0.0
 20
0.0
 30
0.0
  9
$PUCSBASE
  2

  9
$PUCSNAME
  2

  9
$PUCSORG
 10
0.0
 20
0.0
 30
0.0
  9
$PUCSXDIR
 10
1.0
 20
0.0
 30
0.0
  9
$PUCSYDIR
 10
0.0
 20
1.0
 30
0.0
  9
$PUCSORTHOREF
  2

  9
$PUCSORTHOVIEW
 70
     0
  9
$PUCSORGTOP
 10
0.0
 20
0.0
 30
0.0
  9
$PUCSORGBOTTOM
 10
0.0
 20
0.0
 30
0.0
  9
$PUCSORGLEFT
 10
0.0
 20
0.0
 30
0.0
  9
$PUCSORGRIGHT
 10
0.0
 20
0.0
 30
0.0
  9
$PUCSORGFRONT
 10
0.0
 20
0.0
 30
0.0
  9
$PUCSORGBACK
 10
0.0
 20
0.0
 30
0.0
  9
$USERI1
 70
     0
  9
$USERI2
 70
     0
  9
$USERI3
 70
     0
  9
$USERI4
 70
     0
  9
$USERI5
 70
     0
  9
$USERR1
 40
0.0
  9
$USERR2
 40
0.0
  9
$USERR3
 40
0.0
  9
$USERR4
 40
0.0
  9
$USERR5
 40
0.0
  9
$WORLDVIEW
 70
     1
  9
$SHADEDGE
 70
     3
  9
$SHADEDIF
 70
    70
  9
$TILEMODE
 70
     1
  9
$MAXACTVP
 70
    64
  9
$PINSBASE
 10
0.0
 20
0.0
 30
0.0
  9
$PLIMCHECK
 70
     0
  9
$PEXTMIN
 10
1.042221639059562
 20
1.08829855961801
 30
0.0
  9
$PEXTMAX
 10
407.82803226079
 20
284.1844718556203
 30
0.0
  9
$PLIMMIN
 10
-5.873748779296875
 20
-5.873749732971191
  9
$PLIMMAX
 10
414.0729064941406
 20
291.0522451400757
  9
$UNITMODE
 70
     0
  9
$VISRETAIN
 70
     1
  9
$PLINEGEN
 70
     0
  9
$PSLTSCALE
 70
     1
  9
$TREEDEPTH
 70
  3020
  9
$CMLSTYLE
  2
Standard
  9
$CMLJUST
 70
     0
  9
$CMLSCALE
 40
20.0
  9
$PROXYGRAPHICS
 70
     1
  9
$MEASUREMENT
 70
     1
  9
$CELWEIGHT
370
    -1
  9
$ENDCAPS
280
     0
  9
$JOINSTYLE
280
     0
  9
$LWDISPLAY
290
     0
  9
$INSUNITS
 70
     4
  9
$HYPERLINKBASE
  1

  9
$STYLESHEET
  1

  9
$XEDIT
290
     1
  9
$CEPSNTYPE
380
     0
  9
$PSTYLEMODE
290
     1
  9
$FINGERPRINTGUID
  2
{951E45A9-2098-449B-99F4-687C375CF490}
  9
$VERSIONGUID
  2
{2B518316-1C9E-4366-8BD3-0458766C9D6E}
  9
$EXTNAMES
290
     1
  9
$PSVPSCALE
 40
0.0
  9
$OLESTARTUP
290
     0
  0
ENDSEC
  0
SECTION
  2
CLASSES
  0
CLASS
  1
ACDBDICTIONARYWDFLT
  2
AcDbDictionaryWithDefault
  3
AutoCAD 2000
 90
        0
280
     0
281
     0
  0
CLASS
  1
ACDBPLACEHOLDER
  2
AcDbPlaceHolder
  3
AutoCAD 2000
 90
        0
280
     0
281
     0
  0
CLASS
  1
LAYOUT
  2
AcDbLayout
  3
AutoCAD 2000
 90
        0
280
     0
281
     0
  0
CLASS
  1
RASTERVARIABLES
  2
AcDbRasterVariables
  3
ISM
 90
        0
280
     0
281
     0
  0
CLASS
  1
DICTIONARYVAR
  2
AcDbDictionaryVar
  3
AutoCAD 2000
 90
        0
280
     0
281
     0
  0
ENDSEC
  0
SECTION
  2
TABLES
  0
TABLE
  2
VPORT
  5
8
330
0
100
AcDbSymbolTable
 70
     4
  0
VPORT
  5
A64D
330
8
100
AcDbSymbolTableRecord
100
AcDbViewportTableRecord
  2
*Active
 70
     0
 10
0.0
 20
0.0
 11
1.0
 21
1.0
 12
315.0970568371958
 22
1156.7171405987
 13
0.0
 23
0.0
 14
10.0
 24
10.0
 15
10.0
 25
10.0
 16
0.0
 26
0.0
 36
1.0
 17
0.0
 27
0.0
 37
0.0
 40
996.0936613153695
 41
1.477300613496932
 42
50.0
 43
0.0
 44
0.0
 50
0.0
 51
0.0
 71
     0
 72
   100
 73
     1
 74
     3
 75
     0
 76
     0
 77
     0
 78
     0
281
     0
 65
     1
110
0.0
120
0.0
130
0.0
111
1.0
121
0.0
131
0.0
112
0.0
122
1.0
132
0.0
 79
     0
146
0.0
  0
ENDTAB
  0
TABLE
  2
LTYPE
  5
5
330
0
100
AcDbSymbolTable
 70
     5
  0
LTYPE
  5
14
330
5
100
AcDbSymbolTableRecord
100
AcDbLinetypeTableRecord
  2
ByBlock
 70
     0
  3

 72
    65
 73
     0
 40
0.0
  0
LTYPE
  5
15
330
5
100
AcDbSymbolTableRecord
100
AcDbLinetypeTableRecord
  2
ByLayer
 70
     0
  3

 72
    65
 73
     0
 40
0.0
  0
LTYPE
  5
16
330
5
100
AcDbSymbolTableRecord
100
AcDbLinetypeTableRecord
  2
Continuous
 70
     0
  3
Solid line
 72
    65
 73
     0
 40
0.0
  0
LTYPE
  5
35
330
5
100
AcDbSymbolTableRecord
100
AcDbLinetypeTableRecord
  2
HIDDEN
 70
     0
  3
Hidden __ __ __ __ __ __ __ __ __ __ __ __ __ _
 72
    65
 73
     2
 40
9.524999999999998
 49
6.349999999999999
 74
     0
 49
-3.174999999999999
 74
     0
  0
LTYPE
  5
36
330
5
100
AcDbSymbolTableRecord
100
AcDbLinetypeTableRecord
  2
HIDDEN2
 70
     0
  3
Hidden (.5x) _ _ _ _ _ _ _ _ _ _ _ _ _ _ _ _ _
 72
    65
 73
     2
 40
4.762499999999999
 49
3.174999999999999
 74
     0
 49
-1.587499999999999
 74
     0
  0
LTYPE
  5
37
330
5
100
AcDbSymbolTableRecord
100
AcDbLinetypeTableRecord
  2
CENTER
 70
     0
  3
Center ____ _ ____ _ ____ _ ____ _ ____ _ ____
 72
    65
 73
     4
 40
50.8
 49
31.75
 74
     0
 49
-6.349999999999999
 74
     0
 49
6.349999999999999
 74
     0
 49
-6.349999999999999
 74
     0
  0
LTYPE
  5
38
330
5
100
AcDbSymbolTableRecord
100
AcDbLinetypeTableRecord
  2
PHANTOM2
 70
     0
  3
Phantom (.5x) ___ _ _ ___ _ _ ___ _ _ ___ _ _
 72
    65
 73
     6
 40
31.75
 49
15.875
 74
     0
 49
-3.174999999999999
 74
     0
 49
3.174999999999999
 74
     0
 49
-3.174999999999999
 74
     0
 49
3.174999999999999
 74
     0
 49
-3.174999999999999
 74
     0
  0
ENDTAB
  0
TABLE
  2
LAYER
  5
2
330
0
100
AcDbSymbolTable
 70
    15
  0
LAYER
  5
10
330
2
100
AcDbSymbolTableRecord
100
AcDbLayerTableRecord
  2
0
 70
     0
 62
     7
  6
Continuous
370
     9
390
F
  0
LAYER
  5
39
330
2
100
AcDbSymbolTableRecord
100
AcDbLayerTableRecord
  2
１
 70
     0
 62
     2
  6
Continuous
370
     9
390
F
  0
LAYER
  5
3A
330
2
100
AcDbSymbolTableRecord
100
AcDbLayerTableRecord
  2
２
 70
     0
 62
     3
  6
Continuous
370
    20
390
F
  0
LAYER
  5
3B
330
2
100
AcDbSymbolTableRecord
100
AcDbLayerTableRecord
  2
３
 70
     0
 62
     4
  6
HIDDEN
370
    15
390
F
  0
LAYER
  5
3C
330
2
100
AcDbSymbolTableRecord
100
AcDbLayerTableRecord
  2
４
 70
     0
 62
     4
  6
HIDDEN2
370
    15
390
F
  0
LAYER
  5
3D
330
2
100
AcDbSymbolTableRecord
100
AcDbLayerTableRecord
  2
５
 70
     0
 62
     6
  6
CENTER
370
    15
390
F
  0
LAYER
  5
3E
330
2
100
AcDbSymbolTableRecord
100
AcDbLayerTableRecord
  2
６
 70
     0
 62
     5
  6
PHANTOM2
370
    15
390
F
  0
LAYER
  5
46
330
2
100
AcDbSymbolTableRecord
100
AcDbLayerTableRecord
  2
Defpoints
 70
     0
 62
     7
  6
Continuous
290
     0
370
    -3
390
F
  0
LAYER
  5
AB
330
2
100
AcDbSymbolTableRecord
100
AcDbLayerTableRecord
  2
Object
 70
     0
 62
     3
  6
Continuous
370
    20
390
F
  0
LAYER
  5
63B4
330
2
100
AcDbSymbolTableRecord
100
AcDbLayerTableRecord
  2
HIDDEN2
 70
     0
 62
     7
  6
HIDDEN2
370
    15
390
F
  0
LAYER
  5
64C8
330
2
100
AcDbSymbolTableRecord
100
AcDbLayerTableRecord
  2
1
 70
     0
 62
     7
  6
Continuous
370
     9
390
F
  0
LAYER
  5
64C9
330
2
100
AcDbSymbolTableRecord
100
AcDbLayerTableRecord
  2
2
 70
     0
 62
     3
  6
Continuous
370
    20
390
F
  0
LAYER
  5
88C5
330
2
100
AcDbSymbolTableRecord
100
AcDbLayerTableRecord
  2
Defined Points
 70
     0
 62
     2
  6
Continuous
370
    13
390
F
  0
LAYER
  5
9CA0
330
2
100
AcDbSymbolTableRecord
100
AcDbLayerTableRecord
  2
CENTER
 70
     0
 62
     7
  6
CENTER
370
     5
390
F
  0
LAYER
  5
9EEA
330
2
100
AcDbSymbolTableRecord
100
AcDbLayerTableRecord
  2
Hidden
 70
     0
 62
     4
  6
HIDDEN
370
    13
390
F
  0
ENDTAB
  0
TABLE
  2
STYLE
  5
3
330
0
100
AcDbSymbolTable
 70
     3
  0
STYLE
  5
11
330
3
100
AcDbSymbolTableRecord
100
AcDbTextStyleTableRecord
  2
Standard
 70
     0
 40
0.0
 41
1.0
 50
0.0
 71
     0
 42
2.5
  3
romans.shx
  4
bigfont.shx
  0
STYLE
  5
34
330
3
100
AcDbSymbolTableRecord
100
AcDbTextStyleTableRecord
  2

 70
     1
 40
0.0
 41
1.0
 50
0.0
 71
     0
 42
2.5
  3
ltypeshp.shx
  4

  0
STYLE
  5
12E
330
3
100
AcDbSymbolTableRecord
100
AcDbTextStyleTableRecord
  2
ｽﾀｲﾙ1
 70
     0
 40
2.5
 41
1.0
 50
0.0
 71
     0
 42
2.5
  3
txt.shx
  4

  0
ENDTAB
  0
TABLE
  2
VIEW
  5
6
330
0
100
AcDbSymbolTable
 70
     0
  0
ENDTAB
  0
TABLE
  2
UCS
  5
7
330
0
100
AcDbSymbolTable
 70
     0
  0
ENDTAB
  0
TABLE
  2
APPID
  5
9
330
0
100
AcDbSymbolTable
 70
     1
  0
APPID
  5
12
330
9
100
AcDbSymbolTableRecord
100
AcDbRegAppTableRecord
  2
ACAD
 70
     0
  0
ENDTAB
  0
TABLE
  2
DIMSTYLE
  5
A
330
0
100
AcDbSymbolTable
 70
     3
100
AcDbDimStyleTable
 71
     1
340
27
  0
DIMSTYLE
105
27
102
{ACAD_REACTORS
330
A371
330
A379
102
}
330
A
100
AcDbSymbolTableRecord
100
AcDbDimStyleTableRecord
  2
ISO-25
 70
     0
 41
5.0
 42
2.0
 43
3.75
 44
5.0
 73
     0
 74
     0
 77
     1
 78
     8
140
6.0
141
2.5
143
0.1
147
3.0
171
     3
172
     1
176
     7
177
     7
271
     2
272
     2
274
     3
283
     0
284
     8
340
11
371
     9
372
     9
  0
DIMSTYLE
105
AC
330
A
100
AcDbSymbolTableRecord
100
AcDbDimStyleTableRecord
  2
JIS
 70
     0
 41
2.5
 42
1.0
 43
7.0
 44
1.0
 73
     0
 74
     0
 77
     1
 78
     8
140
2.5
141
0.0
143
0.0394
147
0.0
172
     1
174
     1
175
     1
340
11
  0
DIMSTYLE
105
61DD
330
A
100
AcDbSymbolTableRecord
100
AcDbDimStyleTableRecord
  2
ｺﾋﾟｰ - ISO-25
 70
     0
 41
2.5
 42
0.625
 43
3.75
 44
1.25
 73
     0
 74
     0
 77
     1
 78
     8
140
2.5
141
2.5
143
0.03937007874016
147
0.625
171
     3
172
     1
271
     2
272
     2
274
     3
283
     0
284
     8
340
11
343
61D8
  0
ENDTAB
  0
TABLE
  2
BLOCK_RECORD
  5
1
330
0
100
AcDbSymbolTable
 70
     9
  0
BLOCK_RECORD
  5
1F
330
1
100
AcDbSymbolTableRecord
100
AcDbBlockTableRecord
  2
*Model_Space
340
22
  0
BLOCK_RECORD
  5
1B
330
1
100
AcDbSymbolTableRecord
100
AcDbBlockTableRecord
  2
*Paper_Space
340
1E
  0
BLOCK_RECORD
  5
23
330
1
100
AcDbSymbolTableRecord
100
AcDbBlockTableRecord
  2
*Paper_Space0
340
26
  0
BLOCK_RECORD
  5
61D8
330
1
100
AcDbSymbolTableRecord
100
AcDbBlockTableRecord
  2
_Dot
340
0
  0
BLOCK_RECORD
  5
A398
330
1
100
AcDbSymbolTableRecord
100
AcDbBlockTableRecord
  2
*D5
340
0
  0
BLOCK_RECORD
  5
A3A4
330
1
100
AcDbSymbolTableRecord
100
AcDbBlockTableRecord
  2
*D6
340
0
  0
ENDTAB
  0
ENDSEC
  0
SECTION
  2
BLOCKS
  0
BLOCK
  5
20
330
1F
100
AcDbEntity
  8
0
100
AcDbBlockBegin
  2
*Model_Space
 70
     0
 10
0.0
 20
0.0
 30
0.0
  3
*Model_Space
  1

  0
ENDBLK
  5
21
330
1F
100
AcDbEntity
  8
0
100
AcDbBlockEnd
  0
BLOCK
  5
1C
330
1B
100
AcDbEntity
 67
     1
  8
0
100
AcDbBlockBegin
  2
*Paper_Space
 70
     0
 10
0.0
 20
0.0
 30
0.0
  3
*Paper_Space
  1

  0
ENDBLK
  5
1D
330
1B
100
AcDbEntity
 67
     1
  8
0
100
AcDbBlockEnd
  0
BLOCK
  5
24
330
23
100
AcDbEntity
  8
0
100
AcDbBlockBegin
  2
*Paper_Space0
 70
     0
 10
0.0
 20
0.0
 30
0.0
  3
*Paper_Space0
  1

  0
VIEWPORT
  5
922
330
23
100
AcDbEntity
  8
0
100
AcDbViewport
 10
0.0
 20
0.0
 30
0.0
 40
0.0
 41
0.0
 69
     0
 12
0.0
 22
0.0
 13
0.0
 23
0.0
 14
10.0
 24
10.0
 15
10.0
 25
10.0
 16
0.0
 26
0.0
 36
1.0
 17
0.0
 27
0.0
 37
0.0
 42
50.0
 43
0.0
 44
0.0
 45
0.0
 50
0.0
 51
0.0
 72
   100
 90
    32800
  1

281
     0
 71
     1
 74
     0
110
0.0
120
0.0
130
0.0
111
1.0
121
0.0
131
0.0
112
0.0
122
1.0
132
0.0
 79
     0
146
0.0
  0
VIEWPORT
  5
924
330
23
100
AcDbEntity
  8
0
100
AcDbViewport
 10
0.0
 20
0.0
 30
0.0
 40
0.0
 41
0.0
 69
     0
 12
8199.401833840978
 22
6162.095030619208
 13
0.0
 23
0.0
 14
10.0
 24
10.0
 15
10.0
 25
10.0
 16
0.0
 26
0.0
 36
1.0
 17
0.0
 27
0.0
 37
0.0
 42
50.0
 43
0.0
 44
0.0
 45
12844.48115925182
 50
0.0
 51
0.0
 72
   100
 90
    32864
  1

281
     0
 71
     1
 74
     0
110
0.0
120
0.0
130
0.0
111
1.0
121
0.0
131
0.0
112
0.0
122
1.0
132
0.0
 79
     0
146
0.0
  0
ENDBLK
  5
25
330
23
100
AcDbEntity
  8
0
100
AcDbBlockEnd
  0
BLOCK
  5
61DB
330
61D8
100
AcDbEntity
  8
0
100
AcDbBlockBegin
  2
_Dot
 70
     0
 10
0.0
 20
0.0
 30
0.0
  3
_Dot
  1

  0
LWPOLYLINE
  5
61D9
330
61D8
100
AcDbEntity
  8
0
 62
     0
100
AcDbPolyline
 90
        2
 70
     1
 43
0.5
 10
-0.25
 20
0.0
 42
1.0
 10
0.25
 20
0.0
 42
1.0
  0
LINE
  5
61DA
330
61D8
100
AcDbEntity
  8
0
 62
     0
370
    -2
100
AcDbLine
 10
-0.5
 20
0.0
 30
0.0
 11
-1.0
 21
0.0
 31
0.0
  0
ENDBLK
  5
61DC
330
61D8
100
AcDbEntity
  8
0
100
AcDbBlockEnd
  0
BLOCK
  5
A3A2
330
A398
100
AcDbEntity
  8
0
 62
     0
 48
0.5
100
AcDbBlockBegin
  2
*D5
 70
     1
 10
0.0
 20
0.0
 30
0.0
  3
*D5
  1

  0
LINE
  5
A630
330
A398
100
AcDbEntity
  8
0
 62
     7
 48
0.5
370
     9
100
AcDbLine
 10
580.9172044918686
 20
987.6245377808201
 30
0.0
 11
580.9172044918686
 21
998.0851681717098
 31
0.0
  0
LINE
  5
A631
330
A398
100
AcDbEntity
  8
0
 62
     7
 48
0.5
370
     9
100
AcDbLine
 10
620.9172044918687
 20
987.6245377808201
 30
0.0
 11
620.9172044918687
 21
998.0851681717098
 31
0.0
  0
LINE
  5
A632
330
A398
100
AcDbEntity
  8
0
 62
     7
 48
0.5
370
     9
100
AcDbLine
 10
585.9172044918686
 20
993.0851681717099
 30
0.0
 11
615.9172044918687
 21
993.0851681717099
 31
0.0
  0
SOLID
  5
A633
330
A398
100
AcDbEntity
  8
0
 62
     7
 48
0.5
100
AcDbTrace
 10
585.9172044918686
 20
993.9185015050432
 30
0.0
 11
585.9172044918686
 21
992.2518348383764
 31
0.0
 12
580.9172044918686
 22
993.0851681717099
 32
0.0
 13
580.9172044918686
 23
993.0851681717099
 33
0.0
  0
SOLID
  5
A634
330
A398
100
AcDbEntity
  8
0
 62
     7
 48
0.5
100
AcDbTrace
 10
615.9172044918687
 20
993.9185015050432
 30
0.0
 11
615.9172044918687
 21
992.2518348383764
 31
0.0
 12
620.9172044918687
 22
993.0851681717099
 32
0.0
 13
620.9172044918687
 23
993.0851681717099
 33
0.0
  0
MTEXT
  5
A635
330
A398
100
AcDbEntity
  8
0
 62
     0
 48
0.5
100
AcDbMText
 10
600.9172044918686
 20
999.0851681717098
 30
0.0
 40
6.0
 41
0.0
 71
     5
 72
     1
  1
L
 73
     1
 44
1.0
  0
POINT
  5
A636
330
A398
100
AcDbEntity
  8
Defpoints
 62
     0
 48
0.5
100
AcDbPoint
 10
580.9172044918686
 20
985.6245377808201
 30
0.0
  0
POINT
  5
A637
330
A398
100
AcDbEntity
  8
Defpoints
 62
     0
 48
0.5
100
AcDbPoint
 10
620.9172044918687
 20
985.6245377808201
 30
0.0
  0
POINT
  5
A638
330
A398
100
AcDbEntity
  8
Defpoints
 62
     0
 48
0.5
100
AcDbPoint
 10
620.9172044918687
 20
993.0851681717099
 30
0.0
  0
ENDBLK
  5
A3A3
330
A398
100
AcDbEntity
  8
0
 62
     0
 48
0.5
100
AcDbBlockEnd
  0
BLOCK
  5
A3B0
330
A3A4
100
AcDbEntity
  8
0
 62
     0
 48
0.5
100
AcDbBlockBegin
  2
*D6
 70
     1
 10
0.0
 20
0.0
 30
0.0
  3
*D6
  1

  0
LINE
  5
A639
330
A3A4
100
AcDbEntity
  8
0
 62
     7
 48
0.5
370
     9
100
AcDbLine
 10
578.9172044918687
 20
985.6245377808201
 30
0.0
 11
566.1765729389899
 21
985.6245377808201
 31
0.0
  0
LINE
  5
A63A
330
A3A4
100
AcDbEntity
  8
0
 62
     7
 48
0.5
370
     9
100
AcDbLine
 10
578.9172044918687
 20
975.6245377808202
 30
0.0
 11
566.1765729389899
 21
975.6245377808202
 31
0.0
  0
LINE
  5
A63B
330
A3A4
100
AcDbEntity
  8
0
 62
     7
 48
0.5
370
     9
100
AcDbLine
 10
571.1765729389899
 20
990.6245377808202
 30
0.0
 11
571.1765729389899
 21
995.6245377808201
 31
0.0
  0
LINE
  5
A63C
330
A3A4
100
AcDbEntity
  8
0
 62
     7
 48
0.5
370
     9
100
AcDbLine
 10
571.1765729389899
 20
970.6245377808201
 30
0.0
 11
571.1765729389899
 21
965.6245377808202
 31
0.0
  0
MTEXT
  5
A63D
330
A3A4
100
AcDbEntity
  8
0
 62
     0
 48
0.5
100
AcDbMText
 10
562.5141159092054
 20
980.2652810811071
 30
0.0
 40
6.0
 41
0.0
 71
     5
 72
     1
  1
%%c10
 11
0.0000000000000001
 21
1.0
 31
0.0
 73
     1
 44
1.0
  0
LINE
  5
A63E
330
A3A4
100
AcDbEntity
  8
0
 62
     7
 48
0.5
370
     9
100
AcDbLine
 10
571.1765729389899
 20
985.6245377808201
 30
0.0
 11
571.1765729389899
 21
975.6245377808202
 31
0.0
  0
SOLID
  5
A63F
330
A3A4
100
AcDbEntity
  8
0
 62
     7
 48
0.5
100
AcDbTrace
 10
570.3432396056565
 20
990.6245377808202
 30
0.0
 11
572.0099062723233
 21
990.6245377808202
 31
0.0
 12
571.1765729389899
 22
985.6245377808201
 32
0.0
 13
571.1765729389899
 23
985.6245377808201
 33
0.0
  0
SOLID
  5
A640
330
A3A4
100
AcDbEntity
  8
0
 62
     7
 48
0.5
100
AcDbTrace
 10
570.3432396056565
 20
970.6245377808201
 30
0.0
 11
572.0099062723233
 21
970.6245377808201
 31
0.0
 12
571.1765729389899
 22
975.6245377808202
 32
0.0
 13
571.1765729389899
 23
975.6245377808202
 33
0.0
  0
POINT
  5
A641
330
A3A4
100
AcDbEntity
  8
Defpoints
 62
     0
 48
0.5
100
AcDbPoint
 10
580.9172044918686
 20
985.6245377808201
 30
0.0
  0
POINT
  5
A642
330
A3A4
100
AcDbEntity
  8
Defpoints
 62
     0
 48
0.5
100
AcDbPoint
 10
580.9172044918686
 20
975.6245377808202
 30
0.0
  0
POINT
  5
A643
330
A3A4
100
AcDbEntity
  8
Defpoints
 62
     0
 48
0.5
100
AcDbPoint
 10
571.1765729389899
 20
975.6245377808202
 30
0.0
  0
ENDBLK
  5
A3B1
330
A3A4
100
AcDbEntity
  8
0
 62
     0
 48
0.5
100
AcDbBlockEnd
  0
ENDSEC
  0
SECTION
  2
ENTITIES
  0
LINE
  5
60DA
330
1F
100
AcDbEntity
  8
２
 62
     0
370
    20
100
AcDbLine
 10
-113.6069841392893
 20
817.5308658634676
 30
0.0
 11
682.3930158607106
 21
817.5308658634676
 31
0.0
  0
LINE
  5
60DB
330
1F
100
AcDbEntity
  8
２
 62
     0
 48
25.0
100
AcDbLine
 10
-113.6069841392893
 20
837.5308658634676
 30
0.0
 11
682.3930158607106
 21
837.5308658634676
 31
0.0
  0
LINE
  5
60DC
330
1F
100
AcDbEntity
  8
２
 62
     0
 48
25.0
100
AcDbLine
 10
-113.6069841392893
 20
837.5308658634676
 30
0.0
 11
682.3930158607106
 21
837.5308658634676
 31
0.0
  0
LINE
  5
60DD
330
1F
100
AcDbEntity
  8
0
 62
     0
 48
25.0
100
AcDbLine
 10
279.1215549150597
 20
837.5308658634676
 30
0.0
 11
318.4215549150597
 21
837.5308658634676
 31
0.0
  0
LINE
  5
60DE
330
1F
100
AcDbEntity
  8
２
 62
     0
370
    20
100
AcDbLine
 10
682.3930158607106
 20
817.5308658634676
 30
0.0
 11
-67.60698413928935
 21
817.5308658634678
 31
0.0
  0
LINE
  5
60DF
330
1F
100
AcDbEntity
  8
１
 62
     0
 48
25.0
100
AcDbLine
 10
-103.8208647361605
 20
827.5308658634676
 30
0.0
 11
173.6637676806376
 21
827.5308658634671
 31
0.0
  0
LINE
  5
60E0
330
1F
100
AcDbEntity
  8
１
 62
     0
 48
25.0
100
AcDbLine
 10
173.6637676806376
 20
822.5308658634673
 30
0.0
 11
-103.8208647361605
 21
822.5308658634672
 31
0.0
  0
LINE
  5
60E1
330
1F
100
AcDbEntity
  8
１
 62
     0
 48
25.0
100
AcDbLine
 10
173.6637676806376
 20
832.5308658634677
 30
0.0
 11
-103.8208647361605
 21
832.5308658634677
 31
0.0
  0
LINE
  5
60E2
330
1F
100
AcDbEntity
  8
0
 62
     0
100
AcDbLine
 10
-67.60698413928935
 20
817.5308658634676
 30
0.0
 11
-113.6069841392893
 21
817.5308658634676
 31
0.0
  0
LINE
  5
60E3
330
1F
100
AcDbEntity
  8
２
 62
     0
 48
25.0
100
AcDbLine
 10
-107.8208647361605
 20
837.5308658634676
 30
0.0
 11
-107.8208647361605
 21
817.5308658634676
 31
0.0
  0
LINE
  5
60E4
330
1F
100
AcDbEntity
  8
２
 62
     0
 48
25.0
100
AcDbLine
 10
-113.6069841392893
 20
817.5308658634676
 30
0.0
 11
-117.6069841392893
 21
817.5308658634676
 31
0.0
  0
LINE
  5
60E5
330
1F
100
AcDbEntity
  8
２
 62
     0
 48
25.0
100
AcDbLine
 10
-117.6069841392893
 20
817.6093089910487
 30
0.0
 11
-117.6069841392893
 21
817.5308658634676
 31
0.0
  0
LINE
  5
60E6
330
1F
100
AcDbEntity
  8
0
 62
     0
 48
25.0
100
AcDbLine
 10
-113.6069841392893
 20
837.5308658634676
 30
0.0
 11
-107.8208647361605
 21
837.5308658634676
 31
0.0
  0
MTEXT
  5
60E7
330
1F
100
AcDbEntity
  8
２
 62
     0
 48
25.0
100
AcDbMText
 10
-112.2139241392893
 20
827.5308658634678
 30
0.0
 40
4.5
 41
9.78612
 71
     5
 72
     5
  1
記\P事
 73
     1
 44
1.0
  0
LINE
  5
60E8
330
1F
100
AcDbEntity
  8
２
 62
     0
 48
25.0
100
AcDbLine
 10
-113.6069841392893
 20
837.5308658634676
 30
0.0
 11
-117.6069841392893
 21
837.5308658634676
 31
0.0
  0
LINE
  5
60E9
330
1F
100
AcDbEntity
  8
１
 62
     0
 48
25.0
100
AcDbLine
 10
-103.8208647361605
 20
822.5308658634672
 30
0.0
 11
-107.8208647361605
 21
822.5308658634672
 31
0.0
  0
LINE
  5
60EA
330
1F
100
AcDbEntity
  8
１
 62
     0
 48
25.0
100
AcDbLine
 10
-103.8208647361605
 20
827.5308658634676
 30
0.0
 11
-107.8208647361605
 21
827.5308658634676
 31
0.0
  0
LINE
  5
60EB
330
1F
100
AcDbEntity
  8
１
 62
     0
 48
25.0
100
AcDbLine
 10
-103.8208647361605
 20
832.5308658634677
 30
0.0
 11
-107.8208647361605
 21
832.5308658634677
 31
0.0
  0
LINE
  5
60EC
330
1F
100
AcDbEntity
  8
２
 62
     0
 48
25.0
100
AcDbLine
 10
173.6637676806376
 20
837.5308658634676
 30
0.0
 11
279.1215549150597
 21
837.5308658634676
 31
0.0
  0
LINE
  5
60ED
330
1F
100
AcDbEntity
  8
１
 62
     0
 48
25.0
100
AcDbLine
 10
173.6637676806376
 20
827.5308658634676
 30
0.0
 11
279.1215549150597
 21
827.5308658634676
 31
0.0
  0
MTEXT
  5
60EE
330
1F
100
AcDbEntity
  8
２
 62
     0
 48
25.0
100
AcDbMText
 10
193.3117526806377
 20
822.5308658634677
 30
0.0
 40
6.0
 41
39.296
 71
     5
 72
     5
  1
作図者
 73
     1
 44
1.0
  0
MTEXT
  5
60EF
330
1F
100
AcDbEntity
  8
２
 62
     0
 48
25.0
100
AcDbMText
 10
194.0347626806376
 20
832.5308658634677
 30
0.0
 40
6.0
 41
40.742
 71
     5
 72
     5
  1
作図日
 73
     1
 44
1.0
  0
LINE
  5
60F0
330
1F
100
AcDbEntity
  8
２
 62
     0
 48
25.0
100
AcDbLine
 10
173.6637676806376
 20
827.5308658634671
 30
0.0
 11
173.6637676806376
 21
817.5308658634676
 31
0.0
  0
LINE
  5
60F1
330
1F
100
AcDbEntity
  8
２
 62
     0
 48
25.0
100
AcDbLine
 10
173.6637676806376
 20
837.5308658634676
 30
0.0
 11
173.6637676806376
 21
817.5308658634676
 31
0.0
  0
LINE
  5
60F2
330
1F
100
AcDbEntity
  8
0
 62
     0
 48
25.0
100
AcDbLine
 10
173.6637676806376
 20
837.5308658634676
 30
0.0
 11
173.6637676806376
 21
827.5308658634676
 31
0.0
  0
LINE
  5
60F3
330
1F
100
AcDbEntity
  8
２
 62
     0
 48
25.0
100
AcDbLine
 10
212.9597354275438
 20
837.5308658634676
 30
0.0
 11
212.9597354275438
 21
817.5308658634676
 31
0.0
  0
MTEXT
  5
60F4
330
1F
100
AcDbEntity
  8
２
 62
     0
 48
25.0
100
AcDbMText
 10
246.0406454275439
 20
832.5308658634677
 30
0.0
 40
3.5
 41
66.16179999999999
 71
     5
 72
     5
  1
2022-
 73
     1
 44
1.0
  0
MTEXT
  5
60F5
330
1F
100
AcDbEntity
  8
２
 62
     0
 48
25.0
100
AcDbMText
 10
246.0406454275439
 20
822.5308658634677
 30
0.0
 40
3.5
 41
66.16182000000001
 71
     5
 72
     5
  1
E.Nomura
 73
     1
 44
1.0
  0
LINE
  5
60F6
330
1F
100
AcDbEntity
  8
２
 62
     0
 48
25.0
100
AcDbLine
 10
279.1215549150597
 20
837.5308658634677
 30
0.0
 11
279.1215549150597
 21
817.5308658634678
 31
0.0
  0
LINE
  5
60F7
330
1F
100
AcDbEntity
  8
１
 62
     0
 48
25.0
100
AcDbLine
 10
318.4215549150597
 20
827.5308658634676
 30
0.0
 11
528.649591227999
 21
827.5308658634676
 31
0.0
  0
LINE
  5
60F8
330
1F
100
AcDbEntity
  8
0
 62
     0
 48
25.0
100
AcDbLine
 10
341.3965544355929
 20
837.5308658634676
 30
0.0
 11
460.2880544355928
 21
837.5308658634676
 31
0.0
  0
MTEXT
  5
60F9
330
1F
100
AcDbEntity
  8
２
 62
     0
 48
25.0
100
AcDbMText
 10
338.0715549150596
 20
822.5308658634677
 30
0.0
 40
6.0
 41
39.29999999999999
 71
     5
 72
     5
  1
図　　名
 73
     1
 44
1.0
  0
MTEXT
  5
60FA
330
1F
100
AcDbEntity
  8
２
 62
     0
 48
25.0
100
AcDbMText
 10
338.0715549150596
 20
832.5308658634677
 30
0.0
 40
6.0
 41
39.29999999999999
 71
     5
 72
     5
  1
物件名称
 73
     1
 44
1.0
  0
LINE
  5
60FB
330
1F
100
AcDbEntity
  8
0
 62
     0
 48
25.0
100
AcDbLine
 10
318.4215549150597
 20
837.5308658634676
 30
0.0
 11
357.7215549150596
 21
837.5308658634676
 31
0.0
  0
MTEXT
  5
60FC
330
1F
100
AcDbEntity
  8
２
 62
     0
 48
25.0
100
AcDbMText
 10
298.2565124150596
 20
827.5308658634678
 30
0.0
 40
4.5
 41
32.06989999999999
 71
     5
 72
     5
  1
Ｓ＝1/2
 73
     1
 44
1.0
  0
LINE
  5
60FD
330
1F
100
AcDbEntity
  8
２
 62
     0
 48
25.0
100
AcDbLine
 10
318.4215549150597
 20
837.5308658634676
 30
0.0
 11
318.4215549150597
 21
817.5308658634676
 31
0.0
  0
LINE
  5
60FE
330
1F
100
AcDbEntity
  8
0
 62
     0
 48
25.0
100
AcDbLine
 10
318.4215549150597
 20
837.5308658634676
 30
0.0
 11
318.4215549150597
 21
817.5308658634676
 31
0.0
  0
LINE
  5
60FF
330
1F
100
AcDbEntity
  8
２
 62
     0
 48
25.0
100
AcDbLine
 10
357.7215549150596
 20
837.5308658634676
 30
0.0
 11
357.7215549150596
 21
817.5308658634676
 31
0.0
  0
LINE
  5
6100
330
1F
100
AcDbEntity
  8
２
 62
     0
 48
25.0
100
AcDbLine
 10
528.649591227999
 20
837.5308658634676
 30
0.0
 11
528.649591227999
 21
817.5308658634676
 31
0.0
  0
MTEXT
  5
6101
330
1F
100
AcDbEntity
  8
２
 62
     0
 48
25.0
100
AcDbMText
 10
626.0641145896142
 20
827.5308658634678
 30
0.0
 40
6.0
 41
103.21335
 71
     5
 72
     5
  1
株式会社{\H1.25x; アルティマ}
 73
     1
 44
1.0
  0
ARC
  5
6102
330
1F
100
AcDbEntity
  8
Object
 62
     0
 48
0.3
100
AcDbCircle
 10
568.3681132541858
 20
824.3086653690383
 30
0.0
 40
4.049999999999999
100
AcDbArc
 50
180.0
 51
257.3448222610501
  0
LINE
  5
6103
102
{ACAD_REACTORS
330
6105
102
}
330
1F
100
AcDbEntity
  8
Object
 62
     0
 48
0.3
100
AcDbLine
 10
546.6185729416677
 20
834.8220867758399
 30
0.0
 11
549.3185729416677
 21
834.8220867758399
 31
0.0
  0
ARC
  5
6104
102
{ACAD_REACTORS
330
6105
102
}
330
1F
100
AcDbEntity
  8
Object
 62
     0
 48
0.3
100
AcDbCircle
 10
545.2685729416677
 20
824.29208677584
 30
0.0
 40
4.049999999999999
100
AcDbArc
 50
180.0
 51
0.0
  0
HATCH
  5
6105
330
1F
100
AcDbEntity
  8
Object
 62
     0
 48
0.3
100
AcDbHatch
 10
0.0
 20
0.0
 30
0.0
210
0.0
220
0.0
230
1.0
  2
ANSI31
 70
     0
 71
     1
 91
        1
 92
        1
 93
        8
 72
     1
 10
543.9185729416676
 20
834.8220867758399
 11
541.2185729416676
 21
834.8220867758399
 72
     1
 10
541.2185729416676
 20
834.8220867758399
 11
541.2185729416676
 21
824.29208677584
 72
     2
 10
545.2685729416677
 20
824.29208677584
 40
4.049999999999999
 50
180.0
 51
360.0
 73
     1
 72
     1
 10
549.3185729416677
 20
824.29208677584
 11
549.3185729416677
 21
834.8220867758399
 72
     1
 10
549.3185729416677
 20
834.8220867758399
 11
546.6185729416677
 21
834.8220867758399
 72
     1
 10
546.6185729416677
 20
834.8220867758399
 11
546.6185729416677
 21
824.29208677584
 72
     2
 10
545.2685729416677
 20
824.29208677584
 40
1.35
 50
360.0
 51
540.0
 73
     0
 72
     1
 10
543.9185729416676
 20
824.29208677584
 11
543.9185729416676
 21
834.8220867758399
 97
        8
330
610B
330
6106
330
6104
330
610D
330
6103
330
6108
330
6109
330
6107
 75
     0
 76
     1
 52
0.0
 41
0.01125
 77
     0
 78
     1
 53
45.0
 43
388.6807673218097
 44
717.6334720785245
 45
-0.025256970340507
 46
0.025256970340507
 79
     0
 98
        1
 10
388.6807673218097
 20
717.6334720785245
  0
LINE
  5
6106
102
{ACAD_REACTORS
330
6105
102
}
330
1F
100
AcDbEntity
  8
Object
 62
     0
 48
0.3
100
AcDbLine
 10
541.2185729416676
 20
824.29208677584
 30
0.0
 11
541.2185729416676
 21
834.8220867758399
 31
0.0
  0
LINE
  5
6107
102
{ACAD_REACTORS
330
6105
102
}
330
1F
100
AcDbEntity
  8
Object
 62
     0
 48
0.3
100
AcDbLine
 10
543.9185729416676
 20
834.8220867758399
 30
0.0
 11
543.9185729416676
 21
824.29208677584
 31
0.0
  0
LINE
  5
6108
102
{ACAD_REACTORS
330
6105
102
}
330
1F
100
AcDbEntity
  8
Object
 62
     0
 48
0.3
100
AcDbLine
 10
546.6185729416677
 20
834.8220867758399
 30
0.0
 11
546.6185729416677
 21
824.29208677584
 31
0.0
  0
ARC
  5
6109
102
{ACAD_REACTORS
330
6105
102
}
330
1F
100
AcDbEntity
  8
Object
 62
     0
 48
0.3
100
AcDbCircle
 10
545.2685729416677
 20
824.29208677584
 30
0.0
 40
1.35
100
AcDbArc
 50
180.0
 51
0.0
  0
LINE
  5
610A
330
1F
100
AcDbEntity
  8
Object
 62
     0
 48
0.3
100
AcDbLine
 10
541.2185729416676
 20
834.8220867758399
 30
0.0
 11
543.9185729416676
 21
834.8220867758399
 31
0.0
  0
LINE
  5
610B
102
{ACAD_REACTORS
330
6105
102
}
330
1F
100
AcDbEntity
  8
Object
 62
     0
 48
0.3
100
AcDbLine
 10
543.9185729416676
 20
834.8220867758399
 30
0.0
 11
541.2185729416676
 21
834.8220867758399
 31
0.0
  0
LINE
  5
610C
102
{ACAD_REACTORS
330
610F
102
}
330
1F
100
AcDbEntity
  8
Object
 62
     0
 48
0.3
100
AcDbLine
 10
556.5185729416677
 20
834.8220867758399
 30
0.0
 11
556.5185729416677
 21
822.9420867758401
 31
0.0
  0
LINE
  5
610D
102
{ACAD_REACTORS
330
6105
102
}
330
1F
100
AcDbEntity
  8
Object
 62
     0
 48
0.3
100
AcDbLine
 10
549.3185729416677
 20
834.8220867758399
 30
0.0
 11
549.3185729416677
 21
824.29208677584
 31
0.0
  0
LINE
  5
610E
102
{ACAD_REACTORS
330
610F
102
}
330
1F
100
AcDbEntity
  8
Object
 62
     0
 48
0.3
100
AcDbLine
 10
553.8185729416677
 20
834.8220867758399
 30
0.0
 11
553.8185729416677
 21
820.24208677584
 31
0.0
  0
HATCH
  5
610F
330
1F
100
AcDbEntity
  8
Object
 62
     0
 48
0.3
100
AcDbHatch
 10
0.0
 20
0.0
 30
0.0
210
0.0
220
0.0
230
1.0
  2
ANSI31
 70
     0
 71
     1
 91
        1
 92
        1
 93
        6
 72
     1
 10
553.8185729416677
 20
834.8220867758399
 11
556.5185729416677
 21
834.8220867758399
 72
     1
 10
556.5185729416677
 20
834.8220867758399
 11
556.5185729416677
 21
822.9420867758401
 72
     1
 10
556.5185729416677
 20
822.9420867758401
 11
561.9185729416677
 21
822.9420867758401
 72
     1
 10
561.9185729416677
 20
822.9420867758401
 11
561.9185729416677
 21
820.24208677584
 72
     1
 10
561.9185729416677
 20
820.24208677584
 11
553.8185729416677
 21
820.24208677584
 72
     1
 10
553.8185729416677
 20
820.24208677584
 11
553.8185729416677
 21
834.8220867758399
 97
        6
330
6113
330
610C
330
6112
330
6111
330
6110
330
610E
 75
     0
 76
     1
 52
0.0
 41
0.01125
 77
     0
 78
     1
 53
45.0
 43
388.6807673218097
 44
717.6334720785245
 45
-0.025256970340507
 46
0.025256970340507
 79
     0
 98
        1
 10
388.6807673218097
 20
717.6334720785245
  0
LINE
  5
6110
102
{ACAD_REACTORS
330
610F
102
}
330
1F
100
AcDbEntity
  8
Object
 62
     0
 48
0.3
100
AcDbLine
 10
553.8185729416677
 20
820.24208677584
 30
0.0
 11
561.9185729416677
 21
820.24208677584
 31
0.0
  0
LINE
  5
6111
102
{ACAD_REACTORS
330
610F
102
}
330
1F
100
AcDbEntity
  8
Object
 62
     0
 48
0.3
100
AcDbLine
 10
561.9185729416677
 20
820.24208677584
 30
0.0
 11
561.9185729416677
 21
822.9420867758401
 31
0.0
  0
LINE
  5
6112
102
{ACAD_REACTORS
330
610F
102
}
330
1F
100
AcDbEntity
  8
Object
 62
     0
 48
0.3
100
AcDbLine
 10
561.9185729416677
 20
822.9420867758401
 30
0.0
 11
556.5185729416677
 21
822.9420867758401
 31
0.0
  0
LINE
  5
6113
102
{ACAD_REACTORS
330
610F
102
}
330
1F
100
AcDbEntity
  8
Object
 62
     0
 48
0.3
100
AcDbLine
 10
553.8185729416677
 20
834.8220867758399
 30
0.0
 11
556.5185729416677
 21
834.8220867758399
 31
0.0
  0
LINE
  5
6114
330
1F
100
AcDbEntity
  8
Object
 62
     0
 48
0.3
100
AcDbLine
 10
572.4181132541859
 20
830.7720867758398
 30
0.0
 11
572.4181132541859
 21
829.2123630550754
 31
0.0
  0
LINE
  5
6115
330
1F
100
AcDbEntity
  8
Object
 62
     0
 48
0.3
100
AcDbLine
 10
567.0181132541858
 20
824.3086653690383
 30
0.0
 11
567.0181132541858
 21
830.7720867758398
 31
0.0
  0
LINE
  5
6116
330
1F
100
AcDbEntity
  8
Object
 62
     0
 48
0.3
100
AcDbLine
 10
564.3181132541858
 20
824.1537331999293
 30
0.0
 11
564.3181132541858
 21
830.7720867758398
 31
0.0
  0
LINE
  5
6117
330
1F
100
AcDbEntity
  8
Object
 62
     0
 48
0.3
100
AcDbLine
 10
569.7181132541859
 20
829.2123630550754
 30
0.0
 11
569.7181132541859
 21
830.7720867758398
 31
0.0
  0
LINE
  5
6118
330
1F
100
AcDbEntity
  8
Object
 62
     0
 48
0.3
100
AcDbLine
 10
567.0181132541858
 20
824.3086653690383
 30
0.0
 11
567.0181132541858
 21
830.7720867758398
 31
0.0
  0
HATCH
  5
6119
330
1F
100
AcDbEntity
  8
Object
 62
     0
 48
0.3
100
AcDbHatch
 10
0.0
 20
0.0
 30
0.0
210
0.0
220
0.0
230
1.0
  2
ANSI31
 70
     0
 71
     0
 91
        1
 92
        7
 72
     1
 73
     1
 93
       17
 10
567.0181132541858
 20
824.3086653690385
 42
0.0
 10
567.0181132541858
 20
830.77208677584
 42
-1.0
 10
569.7181132541859
 20
830.77208677584
 42
0.0
 10
569.7181132541859
 20
829.2123630550756
 42
0.0
 10
572.4181132541859
 20
829.2123630550756
 42
0.0
 10
572.4181132541859
 20
830.77208677584
 42
1.0
 10
564.3181132541858
 20
830.77208677584
 42
0.0
 10
564.3181132541858
 20
824.3086653690385
 42
0.3509045778193816
 10
567.4808271837385
 20
820.3570551365903
 42
0.4071999015487891
 10
569.7181132541859
 20
821.6727720151556
 42
0.0
 10
569.7181132541859
 20
820.24208677584
 42
0.0
 10
572.4181132541859
 20
820.24208677584
 42
0.0
 10
572.4181132541859
 20
827.58962883278
 42
0.0
 10
568.371917058751
 20
827.58962883278
 42
0.0
 10
568.3719170587507
 20
824.8896288327799
 42
0.0
 10
569.7181132541859
 20
824.8896288327799
 42
0.0
 10
569.7181132541859
 20
824.3086653690385
 42
-1.0
 97
        0
 75
     0
 76
     1
 52
0.0
 41
0.01125
 77
     0
 78
     1
 53
45.0
 43
388.6807673218097
 44
717.6334720785245
 45
-0.025256970340507
 46
0.025256970340507
 79
     0
 47
0.0407053698821989
 98
        1
 10
568.0942869891232
 20
822.1037355012922
  0
LINE
  5
611A
330
1F
100
AcDbEntity
  8
Object
 62
     0
 48
0.3
100
AcDbLine
 10
569.7181132541859
 20
829.2123630550754
 30
0.0
 11
572.4181132541859
 21
829.2123630550754
 31
0.0
  0
LINE
  5
611B
330
1F
100
AcDbEntity
  8
Object
 62
     0
 48
0.3
100
AcDbLine
 10
572.4181132541859
 20
827.5896288327798
 30
0.0
 11
568.371917058751
 21
827.5896288327798
 31
0.0
  0
LINE
  5
611C
330
1F
100
AcDbEntity
  8
Object
 62
     0
 48
0.3
100
AcDbLine
 10
569.7181132541859
 20
820.24208677584
 30
0.0
 11
572.4181132541859
 21
820.24208677584
 31
0.0
  0
LINE
  5
611D
330
1F
100
AcDbEntity
  8
Object
 62
     0
 48
0.3
100
AcDbLine
 10
572.4181132541859
 20
820.24208677584
 30
0.0
 11
569.7181132541859
 21
820.24208677584
 31
0.0
  0
LINE
  5
611E
330
1F
100
AcDbEntity
  8
Object
 62
     0
 48
0.3
100
AcDbLine
 10
568.371917058751
 20
827.5896288327798
 30
0.0
 11
568.371917058751
 21
824.8896288327799
 31
0.0
  0
LINE
  5
611F
330
1F
100
AcDbEntity
  8
Object
 62
     0
 48
0.3
100
AcDbLine
 10
568.371917058751
 20
824.8896288327799
 30
0.0
 11
569.7181132541859
 21
824.8896288327799
 31
0.0
  0
LINE
  5
6120
330
1F
100
AcDbEntity
  8
Object
 62
     0
 48
0.3
100
AcDbLine
 10
569.7181132541859
 20
824.3086653690383
 30
0.0
 11
569.7181132541859
 21
824.8896288327799
 31
0.0
  0
LINE
  5
6121
330
1F
100
AcDbEntity
  8
Object
 62
     0
 48
0.3
100
AcDbLine
 10
569.7181132541859
 20
824.8896288327799
 30
0.0
 11
569.7181132541859
 21
824.2651066341716
 31
0.0
  0
LINE
  5
6122
330
1F
100
AcDbEntity
  8
Object
 62
     0
 48
0.3
100
AcDbLine
 10
568.371917058751
 20
824.8896288327799
 30
0.0
 11
569.7181132541859
 21
824.8896288327799
 31
0.0
  0
LINE
  5
6123
330
1F
100
AcDbEntity
  8
Object
 62
     0
 48
0.3
100
AcDbLine
 10
569.7181132541859
 20
824.8896288327799
 30
0.0
 11
569.7181132541859
 21
824.3086653690383
 31
0.0
  0
ARC
  5
6124
330
1F
100
AcDbEntity
  8
Object
 62
     0
 48
0.3
100
AcDbCircle
 10
568.3681132541858
 20
824.3086653690383
 30
0.0
 40
1.35
100
AcDbArc
 50
180.0
 51
0.0
  0
ARC
  5
6125
330
1F
100
AcDbEntity
  8
Object
 62
     0
 48
0.3
100
AcDbCircle
 10
567.9256270136168
 20
822.1607376065174
 30
0.0
 40
1.857718315833298
100
AcDbArc
 50
256.1468978562146
 51
344.7714912032799
  0
LINE
  5
6126
330
1F
100
AcDbEntity
  8
Object
 62
     0
 48
0.3
100
AcDbLine
 10
569.7181132541859
 20
821.672772015151
 30
0.0
 11
569.7181132541859
 21
820.24208677584
 31
0.0
  0
LINE
  5
6127
330
1F
100
AcDbEntity
  8
Object
 62
     0
 48
0.3
100
AcDbLine
 10
572.4181132541859
 20
827.5896288327794
 30
0.0
 11
572.4181132541859
 21
820.24208677584
 31
0.0
  0
ARC
  5
6128
330
1F
100
AcDbEntity
  8
Object
 62
     0
 48
0.3
100
AcDbCircle
 10
568.3681132541858
 20
830.7720867758398
 30
0.0
 40
4.049999999999999
100
AcDbArc
 50
0.0
 51
180.0
  0
ARC
  5
6129
330
1F
100
AcDbEntity
  8
Object
 62
     0
 48
0.3
100
AcDbCircle
 10
568.3681132541858
 20
830.7720867758398
 30
0.0
 40
1.35
100
AcDbArc
 50
0.0
 51
180.0
  0
LINE
  5
612A
330
1F
100
AcDbEntity
  8
２
 62
     0
 48
25.0
100
AcDbLine
 10
-117.6069841392893
 20
817.5308658634676
 30
0.0
 11
682.3930158607106
 21
817.5308658634675
 31
0.0
  0
LINE
  5
61A6
330
1F
100
AcDbEntity
  8
２
 62
     0
 48
25.0
100
AcDbLine
 10
-117.6069841392893
 20
817.5308658634675
 30
0.0
 11
-117.6069841392893
 21
1367.530865863467
 31
0.0
  0
LINE
  5
61A7
330
1F
100
AcDbEntity
  8
２
 62
     0
 48
25.0
100
AcDbLine
 10
-117.6069841392893
 20
1367.530865863467
 30
0.0
 11
682.3930158607105
 21
1367.530865863467
 31
0.0
  0
LINE
  5
61A8
330
1F
100
AcDbEntity
  8
２
 62
     0
 48
25.0
100
AcDbLine
 10
682.3930158607105
 20
1367.530865863467
 30
0.0
 11
682.3930158607106
 21
817.5308658634675
 31
0.0
  0
MTEXT
  5
6487
330
1F
100
AcDbEntity
  8
４
 62
     0
 48
0.5
100
AcDbMText
 10
171.1613615566535
 20
820.0308658634675
 30
0.0
 40
2.5
 41
7.0048
 71
     5
 72
     5
  1
6
 73
     1
 44
1.0
  0
MTEXT
  5
805E
330
1F
100
AcDbEntity
  8
0
 48
0.5
100
AcDbMText
 10
29.16955816236122
 20
1035.5359660895
 30
0.0
 40
6.0
 41
20.438
 71
     9
 72
     1
  1

 73
     1
 44
1.0
  0
MTEXT
  5
8061
330
1F
100
AcDbEntity
  8
0
 48
0.5
100
AcDbMText
 10
18.39555542707603
 20
1011.50872061242
 30
0.0
 40
6.0
 41
20.438
 71
     9
 72
     1
  1

 73
     1
 44
1.0
  0
MTEXT
  5
9B28
330
1F
100
AcDbEntity
  8
0
 62
     0
 48
0.5
100
AcDbMText
 10
362.9328509482752
 20
825.4715461828554
 30
0.0
 40
6.0
 41
0.0
 71
     1
 72
     5
  1
%%c6・%%c5水平部施工イメージ
 73
     1
 44
1.0
  0
LINE
  5
9B86
330
1F
100
AcDbEntity
  8
0
 62
     0
 48
0.5
100
AcDbLine
 10
17.85873855681347
 20
1165.541921442408
 30
0.0
 11
17.85873855681347
 21
1275.541921442408
 31
0.0
  0
LINE
  5
9B87
330
1F
100
AcDbEntity
  8
0
 62
     0
 48
0.5
100
AcDbLine
 10
17.85873855681347
 20
1275.541921442408
 30
0.0
 11
167.8587385568134
 21
1275.541921442408
 31
0.0
  0
LINE
  5
9B88
330
1F
100
AcDbEntity
  8
0
 62
     0
 48
0.5
100
AcDbLine
 10
167.8587385568134
 20
1275.541921442408
 30
0.0
 11
167.8587385568134
 21
1165.541921442408
 31
0.0
  0
LINE
  5
9B89
330
1F
100
AcDbEntity
  8
0
 62
     0
 48
0.5
100
AcDbLine
 10
167.8587385568134
 20
1275.541921442408
 30
0.0
 11
317.8587385568135
 21
1275.541921442408
 31
0.0
  0
LINE
  5
9B8A
330
1F
100
AcDbEntity
  8
0
 62
     0
 48
0.5
100
AcDbLine
 10
167.8587385568134
 20
1165.541921442408
 30
0.0
 11
167.8587385568134
 21
1275.541921442408
 31
0.0
  0
LINE
  5
9B8B
330
1F
100
AcDbEntity
  8
0
 62
     0
 48
0.5
100
AcDbLine
 10
317.8587385568135
 20
1275.541921442408
 30
0.0
 11
317.8587385568134
 21
1262.067419020654
 31
0.0
  0
LINE
  5
9B8C
330
1F
100
AcDbEntity
  8
0
 62
     0
 48
0.5
100
AcDbLine
 10
317.8587385568134
 20
1275.541921442408
 30
0.0
 11
467.8587385568135
 21
1275.541921442408
 31
0.0
  0
LINE
  5
9B8D
330
1F
100
AcDbEntity
  8
0
 62
     0
 48
0.5
100
AcDbLine
 10
317.8587385568134
 20
1165.541921442408
 30
0.0
 11
317.8587385568134
 21
1251.503259617648
 31
0.0
  0
LINE
  5
9B8E
330
1F
100
AcDbEntity
  8
0
 62
     0
 48
0.5
100
AcDbLine
 10
317.8587385568135
 20
1275.541921442408
 30
0.0
 11
317.8587385568135
 21
1262.067419020654
 31
0.0
  0
LINE
  5
9B8F
330
1F
100
AcDbEntity
  8
0
 62
     0
 48
0.5
100
AcDbLine
 10
467.8587385568135
 20
1275.541921442408
 30
0.0
 11
467.8587385568134
 21
1165.541921442408
 31
0.0
  0
LINE
  5
9B90
330
1F
100
AcDbEntity
  8
0
 62
     0
 48
0.5
100
AcDbLine
 10
17.85873855681347
 20
1277.141921442408
 30
0.0
 11
167.8587385568134
 21
1277.141921442408
 31
0.0
  0
LINE
  5
9B91
330
1F
100
AcDbEntity
  8
0
 62
     0
 48
0.5
100
AcDbLine
 10
167.8587385568134
 20
1277.141921442408
 30
0.0
 11
317.8587385568135
 21
1277.141921442408
 31
0.0
  0
LINE
  5
9B92
330
1F
100
AcDbEntity
  8
0
 62
     0
 48
0.5
100
AcDbLine
 10
317.8587385568134
 20
1277.141921442408
 30
0.0
 11
467.8587385568135
 21
1277.141921442408
 31
0.0
  0
LINE
  5
9B93
330
1F
100
AcDbEntity
  8
0
 62
     0
 48
0.5
100
AcDbLine
 10
19.4587385568135
 20
1165.541921442408
 30
0.0
 11
19.4587385568135
 21
1275.541921442408
 31
0.0
  0
LINE
  5
9B94
330
1F
100
AcDbEntity
  8
0
 62
     0
 48
0.5
100
AcDbLine
 10
169.4587385568135
 20
1275.541921442408
 30
0.0
 11
169.4587385568134
 21
1165.541921442408
 31
0.0
  0
LINE
  5
9B95
330
1F
100
AcDbEntity
  8
0
 62
     0
 48
0.5
100
AcDbLine
 10
169.4587385568134
 20
1165.541921442408
 30
0.0
 11
169.4587385568134
 21
1275.541921442408
 31
0.0
  0
LINE
  5
9B96
330
1F
100
AcDbEntity
  8
0
 62
     0
 48
0.5
100
AcDbLine
 10
319.4587385568135
 20
1275.541921442408
 30
0.0
 11
319.4587385568135
 21
1262.067419020654
 31
0.0
  0
LINE
  5
9B97
330
1F
100
AcDbEntity
  8
0
 62
     0
 48
0.5
100
AcDbLine
 10
319.4587385568134
 20
1165.541921442408
 30
0.0
 11
319.4587385568134
 21
1251.503259617648
 31
0.0
  0
LINE
  5
9B98
330
1F
100
AcDbEntity
  8
0
 62
     0
 48
0.5
100
AcDbLine
 10
319.4587385568135
 20
1275.541921442408
 30
0.0
 11
319.4587385568135
 21
1262.067419020654
 31
0.0
  0
LINE
  5
9B99
330
1F
100
AcDbEntity
  8
0
 62
     0
 48
0.5
100
AcDbLine
 10
469.4587385568135
 20
1275.541921442408
 30
0.0
 11
469.4587385568134
 21
1165.541921442408
 31
0.0
  0
LINE
  5
9B9A
330
1F
100
AcDbEntity
  8
0
 62
     0
 48
0.5
100
AcDbLine
 10
17.85873855681347
 20
1277.141921442408
 30
0.0
 11
17.85873855681347
 21
1275.541921442408
 31
0.0
  0
LINE
  5
9B9B
330
1F
100
AcDbEntity
  8
0
 62
     0
 48
0.5
100
AcDbLine
 10
467.8587385568135
 20
1277.141921442408
 30
0.0
 11
469.4587385568135
 21
1277.141921442408
 31
0.0
  0
LINE
  5
9B9C
330
1F
100
AcDbEntity
  8
0
 62
     0
 48
0.5
100
AcDbLine
 10
469.4587385568135
 20
1277.141921442408
 30
0.0
 11
469.4587385568134
 21
1275.541921442408
 31
0.0
  0
LINE
  5
9C46
330
1F
100
AcDbEntity
  8
0
 62
     0
 48
0.5
100
AcDbLine
 10
19.4587385568135
 20
1245.545916078807
 30
0.0
 11
19.4587385568135
 21
1241.745916078807
 31
0.0
  0
LINE
  5
9C57
330
1F
100
AcDbEntity
  8
0
 62
     0
 48
0.5
100
AcDbLine
 10
167.8587385568134
 20
1245.545916078807
 30
0.0
 11
167.8587385568134
 21
1241.745916078807
 31
0.0
  0
LINE
  5
9C5A
330
1F
100
AcDbEntity
  8
0
 62
     0
 48
0.5
100
AcDbLine
 10
169.4587385568134
 20
1245.545916078807
 30
0.0
 11
169.4587385568134
 21
1241.745916078807
 31
0.0
  0
MTEXT
  5
9D2A
330
1F
100
AcDbEntity
  8
0
 62
     0
 48
0.5
100
AcDbMText
 10
46.60048434216514
 20
1159.242862580887
 30
0.0
 40
6.0
 41
0.0
 71
     1
 72
     1
  1
M6ボルト（孔径%%c7～8）
 73
     1
 44
1.0
  0
LEADER
  5
9D2B
330
1F
100
AcDbEntity
  8
0
 62
     0
 48
0.5
100
AcDbLeader
  3
ISO-25
 73
     0
 40
6.0
 76
     3
 10
17.85873855681347
 20
1208.482267186444
 30
0.0
 10
42.78716601893847
 20
1155.865560384055
 30
0.0
 10
44.19671475426276
 20
1155.865560384055
 30
0.0
340
9D2C
213
0.0
223
-3.0
233
0.0
1001
ACAD
1000
DSTYLE
1002
{
1070
   147
1040
3.0
1070
    77
1070
     0
1002
}
  0
MTEXT
  5
9D2C
102
{ACAD_REACTORS
330
9D2B
102
}
330
1F
100
AcDbEntity
  8
0
 62
     0
 48
0.5
100
AcDbMText
 10
87.30455956487459
 20
1175.438614636807
 30
0.0
 40
6.0
 41
20.438
 71
     1
 72
     1
  1

 73
     1
 44
1.0
  0
LEADER
  5
9D2D
330
1F
100
AcDbEntity
  8
0
 62
     0
 48
0.5
100
AcDbLeader
  3
ISO-25
 40
6.0
 76
     3
 10
168.6587385568135
 20
1208.482267186444
 30
0.0
 10
193.5871660189384
 20
1155.865560384055
 30
0.0
 10
194.9967147542627
 20
1155.865560384055
 30
0.0
213
0.0
223
-3.0
233
0.0
1001
ACAD
1000
DSTYLE
1002
{
1070
   147
1040
3.0
1070
    77
1070
     0
1002
}
  0
MTEXT
  5
9D2E
330
1F
100
AcDbEntity
  8
0
 62
     0
 48
0.5
100
AcDbMText
 10
197.4004843421651
 20
1159.242862580887
 30
0.0
 40
6.0
 41
0.0
 71
     1
 72
     1
  1
M6ジョイント（孔径%%c7～8）
 73
     1
 44
1.0
  0
LEADER
  5
9D2F
330
1F
100
AcDbEntity
  8
0
 62
     0
 48
0.5
100
AcDbLeader
  3
ISO-25
 40
6.0
 76
     3
 10
318.6587385568134
 20
1208.482267186444
 30
0.0
 10
343.5871660189384
 20
1155.865560384055
 30
0.0
 10
344.9967147542627
 20
1155.865560384055
 30
0.0
213
0.0
223
-3.0
233
0.0
1001
ACAD
1000
DSTYLE
1002
{
1070
   147
1040
3.0
1070
    77
1070
     0
1002
}
  0
MTEXT
  5
9D30
330
1F
100
AcDbEntity
  8
0
 62
     0
 48
0.5
100
AcDbMText
 10
347.4004843421651
 20
1159.242862580887
 30
0.0
 40
6.0
 41
0.0
 71
     1
 72
     1
  1
中間貫通部（孔径%%c7～8）
 73
     1
 44
1.0
  0
MTEXT
  5
9D31
330
1F
100
AcDbEntity
  8
0
 62
     0
 48
0.5
100
AcDbMText
 10
77.60920440185043
 20
1259.921783069315
 30
0.0
 40
6.0
 41
70.4722
 71
     1
 72
     5
  1
4A-1N
 73
     1
 44
1.0
  0
LWPOLYLINE
  5
9D32
330
1F
100
AcDbEntity
  8
0
 62
     0
 48
0.5
100
AcDbPolyline
 90
        4
 70
     1
 43
0.0
 10
72.98591511788799
 20
1262.067419020654
 10
109.879039495373
 20
1262.067419020654
 10
109.879039495373
 20
1251.503259617648
 10
72.98591511788799
 20
1251.503259617648
  0
LWPOLYLINE
  5
9D33
330
1F
100
AcDbEntity
  8
0
 62
     0
 48
0.5
100
AcDbPolyline
 90
        4
 70
     1
 43
0.0
 10
301.2911726268011
 20
1262.067419020654
 10
338.1842970042862
 20
1262.067419020654
 10
338.1842970042862
 20
1251.503259617648
 10
301.2911726268011
 20
1251.503259617648
  0
MTEXT
  5
9D34
330
1F
100
AcDbEntity
  8
0
 62
     0
 48
0.5
100
AcDbMText
 10
305.9144619107636
 20
1259.921783069315
 30
0.0
 40
6.0
 41
70.4722
 71
     1
 72
     5
  1
4A-1N
 73
     1
 44
1.0
  0
LINE
  5
9D35
330
1F
100
AcDbEntity
  8
0
 62
     0
 48
0.5
100
AcDbLine
 10
319.4587385568135
 20
1251.503259617648
 30
0.0
 11
319.4587385568134
 21
1165.541921442408
 31
0.0
  0
LINE
  5
9D36
330
1F
100
AcDbEntity
  8
0
 62
     0
 48
0.5
100
AcDbLine
 10
317.8587385568135
 20
1251.503259617648
 30
0.0
 11
317.8587385568134
 21
1165.541921442408
 31
0.0
  0
LINE
  5
9D37
330
1F
100
AcDbEntity
  8
0
 62
     0
 48
0.5
100
AcDbLine
 10
319.4587385568134
 20
1262.067419020654
 30
0.0
 11
319.4587385568134
 21
1275.541921442408
 31
0.0
  0
LINE
  5
9D39
330
1F
100
AcDbEntity
  8
0
 62
     0
 48
0.5
100
AcDbLine
 10
317.8587385568134
 20
1262.067419020654
 30
0.0
 11
317.8587385568134
 21
1275.541921442408
 31
0.0
  0
LINE
  5
9D3B
330
1F
100
AcDbEntity
  8
0
 62
     0
 48
0.5
100
AcDbLine
 10
319.4587385568135
 20
1251.503259617648
 30
0.0
 11
319.4587385568134
 21
1165.541921442408
 31
0.0
  0
LINE
  5
9D3C
330
1F
100
AcDbEntity
  8
0
 62
     0
 48
0.5
100
AcDbLine
 10
317.8587385568134
 20
1251.503259617648
 30
0.0
 11
317.8587385568134
 21
1165.541921442408
 31
0.0
  0
MTEXT
  5
9D44
330
1F
100
AcDbEntity
  8
0
 62
     0
 48
0.5
100
AcDbMText
 10
197.4004843421651
 20
979.7501014824279
 30
0.0
 40
6.0
 41
0.0
 71
     1
 72
     1
  1
M6ジョイント（孔径%%c7～8）
 73
     1
 44
1.0
  0
LINE
  5
9D4A
330
1F
100
AcDbEntity
  8
0
 62
     0
 48
0.5
100
AcDbLine
 10
17.85873855681347
 20
988.7574069541424
 30
0.0
 11
17.85873855681347
 21
1098.757406954142
 31
0.0
  0
MTEXT
  5
9D4F
330
1F
100
AcDbEntity
  8
0
 62
     0
 48
0.5
100
AcDbMText
 10
46.60048434216514
 20
979.7501014824279
 30
0.0
 40
6.0
 41
0.0
 71
     1
 72
     1
  1
M6ボルト（孔径%%c7～8）
 73
     1
 44
1.0
  0
LEADER
  5
9D54
330
1F
100
AcDbEntity
  8
0
 62
     0
 48
0.5
100
AcDbLeader
  3
ISO-25
 40
6.0
 76
     3
 10
17.85873855681347
 20
1028.989506087984
 30
0.0
 10
42.78716601893847
 20
976.3727992855951
 30
0.0
 10
44.19671475426276
 20
976.3727992855951
 30
0.0
213
0.0
223
-3.0
233
0.0
1001
ACAD
1000
DSTYLE
1002
{
1070
   147
1040
3.0
1070
    77
1070
     0
1002
}
  0
LEADER
  5
9D8B
330
1F
100
AcDbEntity
  8
0
 62
     0
 48
0.5
100
AcDbLeader
  3
ISO-25
 40
6.0
 76
     3
 10
168.6587385568135
 20
1028.989506087984
 30
0.0
 10
193.5871660189384
 20
976.3727992855951
 30
0.0
 10
194.9967147542627
 20
976.3727992855951
 30
0.0
213
0.0
223
-3.0
233
0.0
1001
ACAD
1000
DSTYLE
1002
{
1070
   147
1040
3.0
1070
    77
1070
     0
1002
}
  0
LINE
  5
9DB2
330
1F
100
AcDbEntity
  8
0
 62
     0
 48
0.5
100
AcDbLine
 10
17.85873855681347
 20
1100.357406954142
 30
0.0
 11
17.85873855681347
 21
1098.757406954142
 31
0.0
  0
LINE
  5
9DB3
330
1F
100
AcDbEntity
  8
0
 62
     0
 48
0.5
100
AcDbLine
 10
469.4587385568135
 20
1098.757406954142
 30
0.0
 11
469.4587385568134
 21
988.7574069541424
 31
0.0
  0
MTEXT
  5
9DBF
330
1F
100
AcDbEntity
  8
0
 62
     0
 48
0.5
100
AcDbMText
 10
345.2240132941285
 20
979.7501014824279
 30
0.0
 40
6.0
 41
0.0
 71
     1
 72
     1
  1
中間貫通部（孔径%%c11）
 73
     1
 44
1.0
  0
LEADER
  5
9DC1
330
1F
100
AcDbEntity
  8
0
 62
     0
 48
0.5
100
AcDbLeader
  3
ISO-25
 40
6.0
 76
     3
 10
316.4822675087768
 20
1028.989506087984
 30
0.0
 10
341.4106949709018
 20
976.3727992855951
 30
0.0
 10
342.8202437062261
 20
976.3727992855951
 30
0.0
213
0.0
223
-3.0
233
0.0
1001
ACAD
1000
DSTYLE
1002
{
1070
   147
1040
3.0
1070
    77
1070
     0
1002
}
  0
LINE
  5
9E04
330
1F
100
AcDbEntity
  8
0
 62
     0
 48
0.5
100
AcDbLine
 10
25.85873855681347
 20
1100.357406954142
 30
0.0
 11
25.85873855681347
 21
988.4844565265083
 31
0.0
  0
LINE
  5
9E06
330
1F
100
AcDbEntity
  8
0
 62
     0
 48
0.5
100
AcDbLine
 10
17.85873855681347
 20
1100.357406954142
 30
0.0
 11
17.85873855681347
 21
988.7574069541424
 31
0.0
  0
ARC
  5
9E07
330
1F
100
AcDbEntity
  8
0
 62
     0
 48
0.5
100
AcDbCircle
 10
21.85873855681347
 20
1098.209192174825
 30
0.0
 40
4.540355353722197
100
AcDbArc
 50
28.23818630815503
 51
151.7618136918448
  0
LINE
  5
9E08
330
1F
100
AcDbEntity
  8
0
 62
     0
 48
0.5
100
AcDbLine
 10
461.4587385568134
 20
1101.957406954142
 30
0.0
 11
461.4587385568134
 21
990.3574069541424
 31
0.0
  0
LINE
  5
9E09
330
1F
100
AcDbEntity
  8
0
 62
     0
 48
0.5
100
AcDbLine
 10
469.4587385568134
 20
1101.957406954142
 30
0.0
 11
469.4587385568134
 21
990.0844565265083
 31
0.0
  0
LINE
  5
9E0A
330
1F
100
AcDbEntity
  8
0
 62
     0
 48
0.5
100
AcDbLine
 10
461.4587385568134
 20
990.3574069541424
 30
0.0
 11
461.4587385568134
 21
1100.357406954142
 31
0.0
  0
ARC
  5
9E0B
330
1F
100
AcDbEntity
  8
0
 62
     0
 48
0.5
100
AcDbCircle
 10
465.4587385568134
 20
1099.809192174825
 30
0.0
 40
4.540355353722197
100
AcDbArc
 50
28.23818630815503
 51
151.7618136918448
  0
LINE
  5
9E0C
330
1F
100
AcDbEntity
  8
0
 62
     0
 48
0.5
100
AcDbLine
 10
461.4587385568134
 20
1101.957406954142
 30
0.0
 11
461.4587385568134
 21
1100.357406954142
 31
0.0
  0
LINE
  5
9E13
330
1F
100
AcDbEntity
  8
0
 62
     0
 48
0.5
100
AcDbLine
 10
164.8587385568134
 20
1100.357406954142
 30
0.0
 11
164.8587385568134
 21
988.7574069541424
 31
0.0
  0
LINE
  5
9E14
330
1F
100
AcDbEntity
  8
0
 62
     0
 48
0.5
100
AcDbLine
 10
172.8587385568134
 20
1100.357406954142
 30
0.0
 11
172.8587385568134
 21
988.4844565265083
 31
0.0
  0
LINE
  5
9E15
330
1F
100
AcDbEntity
  8
0
 62
     0
 48
0.5
100
AcDbLine
 10
164.8587385568134
 20
988.7574069541424
 30
0.0
 11
164.8587385568134
 21
1098.757406954142
 31
0.0
  0
ARC
  5
9E16
330
1F
100
AcDbEntity
  8
0
 62
     0
 48
0.5
100
AcDbCircle
 10
168.8587385568134
 20
1098.209192174825
 30
0.0
 40
4.540355353722197
100
AcDbArc
 50
28.23818630815503
 51
151.7618136918448
  0
LINE
  5
9E17
330
1F
100
AcDbEntity
  8
0
 62
     0
 48
0.5
100
AcDbLine
 10
164.8587385568134
 20
1100.357406954142
 30
0.0
 11
164.8587385568134
 21
1098.757406954142
 31
0.0
  0
LINE
  5
9E18
330
1F
100
AcDbEntity
  8
0
 62
     0
 48
0.5
100
AcDbLine
 10
312.8587385568134
 20
988.7574069541424
 30
0.0
 11
312.8587385568134
 21
1044.363731568476
 31
0.0
  0
LINE
  5
9E19
330
1F
100
AcDbEntity
  8
0
 62
     0
 48
0.5
100
AcDbLine
 10
320.8587385568134
 20
1100.357406954142
 30
0.0
 11
320.8587385568134
 21
1078.159990105326
 31
0.0
  0
LINE
  5
9E1A
330
1F
100
AcDbEntity
  8
0
 62
     0
 48
0.5
100
AcDbLine
 10
312.8587385568134
 20
1100.357406954142
 30
0.0
 11
312.8587385568134
 21
1078.159990105326
 31
0.0
  0
ARC
  5
9E1B
330
1F
100
AcDbEntity
  8
0
 62
     0
 48
0.5
100
AcDbCircle
 10
316.8587385568134
 20
1098.209192174825
 30
0.0
 40
4.540355353722197
100
AcDbArc
 50
28.23818630815503
 51
151.7618136918448
  0
LINE
  5
9E1C
330
1F
100
AcDbEntity
  8
0
 62
     0
 48
0.5
100
AcDbLine
 10
312.8587385568134
 20
1100.357406954142
 30
0.0
 11
312.8587385568134
 21
1098.757406954142
 31
0.0
  0
LINE
  5
9E2A
330
1F
100
AcDbEntity
  8
0
 62
     0
 48
0.5
100
AcDbLine
 10
25.85873855681347
 20
1097.005800410695
 30
0.0
 11
164.8587385568134
 21
1097.005800410695
 31
0.0
  0
LINE
  5
9E2B
330
1F
100
AcDbEntity
  8
0
 62
     0
 48
0.5
100
AcDbLine
 10
25.85873855681347
 20
1092.705800410695
 30
0.0
 11
164.8587385568134
 21
1092.705800410694
 31
0.0
  0
LINE
  5
9E2C
330
1F
100
AcDbEntity
  8
0
 62
     0
 48
0.5
100
AcDbLine
 10
320.8587385568135
 20
1097.005800410695
 30
0.0
 11
461.4587385568133
 21
1097.005800410695
 31
0.0
  0
LINE
  5
9E2D
330
1F
100
AcDbEntity
  8
0
 62
     0
 48
0.5
100
AcDbLine
 10
320.8587385568135
 20
1092.705800410695
 30
0.0
 11
461.4587385568133
 21
1092.705800410695
 31
0.0
  0
LINE
  5
9E2E
330
1F
100
AcDbEntity
  8
0
 62
     0
 48
0.5
100
AcDbLine
 10
172.8587385568134
 20
1097.005800410695
 30
0.0
 11
312.8587385568134
 21
1097.005800410695
 31
0.0
  0
LINE
  5
9E2F
330
1F
100
AcDbEntity
  8
0
 62
     0
 48
0.5
100
AcDbLine
 10
172.8587385568134
 20
1092.705800410694
 30
0.0
 11
312.8587385568134
 21
1092.705800410694
 31
0.0
  0
LINE
  5
9E30
330
1F
100
AcDbEntity
  8
0
 62
     0
 48
0.5
100
AcDbLine
 10
17.85873855681347
 20
1098.757406954142
 30
0.0
 11
25.85873855681347
 21
1098.757406954142
 31
0.0
  0
LINE
  5
9E31
330
1F
100
AcDbEntity
  8
0
 62
     0
 48
0.5
100
AcDbLine
 10
164.8587385568134
 20
1098.757406954142
 30
0.0
 11
172.8587385568134
 21
1098.757406954142
 31
0.0
  0
LINE
  5
9E32
330
1F
100
AcDbEntity
  8
0
 62
     0
 48
0.5
100
AcDbLine
 10
461.4587385568134
 20
1098.757406954142
 30
0.0
 11
469.4587385568133
 21
1098.757406954142
 31
0.0
  0
LINE
  5
9E33
330
1F
100
AcDbEntity
  8
0
 62
     0
 48
0.5
100
AcDbLine
 10
312.8587385568134
 20
1098.757406954142
 30
0.0
 11
320.8587385568134
 21
1098.757406954142
 31
0.0
  0
LINE
  5
9EBF
330
1F
100
AcDbEntity
  8
0
 62
     0
 48
0.5
100
AcDbLine
 10
17.85873855681347
 20
1099.957406954142
 30
0.0
 11
25.85873855681347
 21
1099.957406954142
 31
0.0
  0
LINE
  5
9EC0
330
1F
100
AcDbEntity
  8
0
 62
     0
 48
0.5
100
AcDbLine
 10
164.8587385568134
 20
1099.957406954142
 30
0.0
 11
172.8587385568134
 21
1099.957406954142
 31
0.0
  0
LINE
  5
9EC1
330
1F
100
AcDbEntity
  8
0
 62
     0
 48
0.5
100
AcDbLine
 10
312.8587385568134
 20
1099.957406954142
 30
0.0
 11
320.8587385568134
 21
1099.957406954142
 31
0.0
  0
LINE
  5
9EC2
330
1F
100
AcDbEntity
  8
0
 62
     0
 48
0.5
100
AcDbLine
 10
461.4587385568134
 20
1099.957406954142
 30
0.0
 11
469.4587385568133
 21
1099.957406954142
 31
0.0
  0
MTEXT
  5
A073
330
1F
100
AcDbEntity
  8
0
 62
     0
 48
0.5
100
AcDbMText
 10
77.60920440185038
 20
1076.014354153986
 30
0.0
 40
6.0
 41
70.4722
 71
     1
 72
     5
  1
4A-1N
 73
     1
 44
1.0
  0
LWPOLYLINE
  5
A074
330
1F
100
AcDbEntity
  8
0
 62
     0
 48
0.5
100
AcDbPolyline
 90
        4
 70
     1
 43
0.0
 10
72.98591511788794
 20
1078.159990105326
 10
109.8790394953729
 20
1078.159990105326
 10
109.8790394953729
 20
1067.595830702319
 10
72.98591511788794
 20
1067.595830702319
  0
LWPOLYLINE
  5
A075
330
1F
100
AcDbEntity
  8
0
 62
     0
 48
0.5
100
AcDbPolyline
 90
        4
 70
     1
 43
0.0
 10
299.342894603741
 20
1078.159990105326
 10
336.236018981226
 20
1078.159990105326
 10
336.236018981226
 20
1067.595830702319
 10
299.342894603741
 20
1067.595830702319
  0
MTEXT
  5
A076
330
1F
100
AcDbEntity
  8
0
 62
     0
 48
0.5
100
AcDbMText
 10
303.9661838877035
 20
1076.014354153986
 30
0.0
 40
6.0
 41
70.4722
 71
     1
 72
     5
  1
4A-1N
 73
     1
 44
1.0
  0
LINE
  5
A077
330
1F
100
AcDbEntity
  8
0
 62
     0
 48
0.5
100
AcDbLine
 10
320.8587385568134
 20
1044.363731568476
 30
0.0
 11
320.8587385568134
 21
988.4844565265083
 31
0.0
  0
LINE
  5
A078
330
1F
100
AcDbEntity
  8
0
 62
     0
 48
0.5
100
AcDbLine
 10
312.8587385568134
 20
1054.927890971483
 30
0.0
 11
312.8587385568134
 21
1067.595830702319
 31
0.0
  0
LINE
  5
A079
330
1F
100
AcDbEntity
  8
0
 62
     0
 48
0.5
100
AcDbLine
 10
312.8587385568134
 20
1044.363731568476
 30
0.0
 11
312.8587385568134
 21
988.7574069541424
 31
0.0
  0
MTEXT
  5
A084
330
1F
100
AcDbEntity
  8
0
 62
     0
 48
0.5
100
AcDbMText
 10
23.09424185500938
 20
1299.896370369802
 30
0.0
 40
6.0
 41
70.4722
 71
     1
 72
     5
  1
FBへの取付け
 73
     1
 44
1.0
  0
LWPOLYLINE
  5
A085
330
1F
100
AcDbEntity
  8
0
 62
     0
 48
0.5
100
AcDbPolyline
 90
        4
 70
     1
 43
0.0
 10
18.1515447045142
 20
1302.816958041245
 10
70.50311488627267
 20
1302.816958041245
 10
70.50311488627267
 20
1289.745686192615
 10
18.1515447045142
 20
1289.745686192615
  0
MTEXT
  5
A087
330
1F
100
AcDbEntity
  8
0
 62
     0
 48
0.5
100
AcDbMText
 10
23.09424185500938
 20
1121.511855881536
 30
0.0
 40
6.0
 41
0.0
 71
     1
 72
     5
  1
角パイプ・丸パイプへの取付け
 73
     1
 44
1.0
  0
LWPOLYLINE
  5
A088
330
1F
100
AcDbEntity
  8
0
 62
     0
 48
0.5
100
AcDbPolyline
 90
        4
 70
     1
 43
0.0
 10
18.1515447045142
 20
1124.432443552979
 10
125.848219461649
 20
1124.432443552979
 10
125.848219461649
 20
1111.22288483785
 10
18.1515447045142
 20
1111.22288483785
  0
LINE
  5
A097
330
1F
100
AcDbEntity
  8
0
 62
     0
 48
0.5
100
AcDbLine
 10
312.8587385568134
 20
1058.484227023859
 30
0.0
 11
312.8587385568134
 21
1047.920067620853
 31
0.0
  0
LINE
  5
A098
330
1F
100
AcDbEntity
  8
0
 62
     0
 48
0.5
100
AcDbLine
 10
320.8587385568134
 20
1058.484227023859
 30
0.0
 11
320.8587385568134
 21
1047.920067620853
 31
0.0
  0
LINE
  5
A099
330
1F
100
AcDbEntity
  8
0
 62
     0
 48
0.5
100
AcDbLine
 10
320.8587385568134
 20
1067.595830702319
 30
0.0
 11
320.8587385568134
 21
1054.927890971483
 31
0.0
  0
LINE
  5
A09A
330
1F
100
AcDbEntity
  8
0
 62
     0
 48
0.5
100
AcDbLine
 10
312.8587385568134
 20
1078.159990105326
 30
0.0
 11
312.8587385568134
 21
1098.757406954142
 31
0.0
  0
LINE
  5
A09B
330
1F
100
AcDbEntity
  8
0
 62
     0
 48
0.5
100
AcDbLine
 10
312.8587385568134
 20
1067.595830702319
 30
0.0
 11
312.8587385568134
 21
1054.927890971483
 31
0.0
  0
LINE
  5
A0D0
330
1F
100
AcDbEntity
  8
0
 62
     0
 48
0.5
100
AcDbLine
 10
312.8587385568134
 20
1024.927890971483
 30
0.0
 11
312.8587385568134
 21
1014.363731568477
 31
0.0
  0
LINE
  5
A0D1
330
1F
100
AcDbEntity
  8
0
 62
     0
 48
0.5
100
AcDbLine
 10
312.8587385568134
 20
1037.595830702319
 30
0.0
 11
312.8587385568134
 21
1024.927890971483
 31
0.0
  0
LINE
  5
A0D2
330
1F
100
AcDbEntity
  8
0
 62
     0
 48
0.5
100
AcDbLine
 10
312.8587385568134
 20
1024.927890971483
 30
0.0
 11
312.8587385568134
 21
1037.595830702319
 31
0.0
  0
LINE
  5
A0DA
330
1F
100
AcDbEntity
  8
0
 62
     0
 48
0.5
100
AcDbLine
 10
320.8587385568134
 20
1024.927890971483
 30
0.0
 11
320.8587385568134
 21
1014.363731568477
 31
0.0
  0
LINE
  5
A0DD
330
1F
100
AcDbEntity
  8
0
 62
     0
 48
0.5
100
AcDbLine
 10
320.8587385568134
 20
1037.595830702319
 30
0.0
 11
320.8587385568134
 21
1024.927890971483
 31
0.0
  0
LINE
  5
A134
330
1F
100
AcDbEntity
  8
0
 62
     0
 48
0.5
100
AcDbLine
 10
19.4587385568135
 20
1211.745916078807
 30
0.0
 11
19.4587385568135
 21
1207.945916078807
 31
0.0
  0
LINE
  5
A14B
330
1F
100
AcDbEntity
  8
0
 62
     0
 48
0.5
100
AcDbLine
 10
169.4587385568134
 20
1211.745916078807
 30
0.0
 11
169.4587385568134
 21
1207.945916078807
 31
0.0
  0
LINE
  5
A14C
330
1F
100
AcDbEntity
  8
0
 62
     0
 48
0.5
100
AcDbLine
 10
167.8587385568134
 20
1211.745916078807
 30
0.0
 11
167.8587385568134
 21
1207.945916078807
 31
0.0
  0
ARC
  5
A215
330
1F
100
AcDbEntity
  8
0
 62
     0
 48
0.5
100
AcDbCircle
 10
312.7587385568133
 20
1059.805800410695
 30
0.0
 40
0.3
100
AcDbArc
 50
180.0
 51
270.0
  0
ARC
  5
A216
330
1F
100
AcDbEntity
  8
0
 62
     0
 48
0.5
100
AcDbCircle
 10
312.7587385568135
 20
1061.805800410695
 30
0.0
 40
0.3
100
AcDbArc
 50
90.0
 51
180.0
  0
LINE
  5
A217
330
1F
100
AcDbEntity
  8
0
 62
     0
 48
0.5
100
AcDbLine
 10
312.7587385568133
 20
1059.505800410695
 30
0.0
 11
312.8587385568134
 21
1059.505800410695
 31
0.0
  0
LINE
  5
A21A
330
1F
100
AcDbEntity
  8
0
 62
     0
 48
0.5
100
AcDbLine
 10
312.8587385568134
 20
1060.805800410695
 30
0.0
 11
312.8587385568134
 21
1063.005800410695
 31
0.0
  0
LINE
  5
A228
330
1F
100
AcDbEntity
  8
0
 62
     0
 48
0.3
100
AcDbLine
 10
470.3710645735305
 20
1061.955200410695
 30
0.0
 11
469.5736785568133
 21
1061.955200410695
 31
0.0
  0
LINE
  5
A229
330
1F
100
AcDbEntity
  8
0
 62
     0
 48
0.3
100
AcDbLine
 10
470.3710645735305
 20
1061.380500410695
 30
0.0
 11
469.5736785568133
 21
1061.380500410695
 31
0.0
  0
LINE
  5
A22A
330
1F
100
AcDbEntity
  8
0
 62
     0
 48
0.3
100
AcDbLine
 10
469.5736785568133
 20
1059.656400410694
 30
0.0
 11
470.3710645735305
 21
1059.656400410694
 31
0.0
  0
LINE
  5
A22B
330
1F
100
AcDbEntity
  8
0
 62
     0
 48
0.3
100
AcDbLine
 10
470.3710645735305
 20
1060.231100410694
 30
0.0
 11
469.5736785568133
 21
1060.231100410694
 31
0.0
  0
LINE
  5
A234
330
1F
100
AcDbEntity
  8
0
100
AcDbLine
 10
469.5736785568133
 20
1060.231100410694
 30
0.0
 11
469.4587385568134
 21
1060.231100410694
 31
0.0
  0
LINE
  5
A235
330
1F
100
AcDbEntity
  8
0
100
AcDbLine
 10
469.5736785568133
 20
1059.656400410694
 30
0.0
 11
469.4587385568134
 21
1059.656400410694
 31
0.0
  0
LINE
  5
A236
330
1F
100
AcDbEntity
  8
0
100
AcDbLine
 10
469.5736785568133
 20
1061.955200410695
 30
0.0
 11
469.4587385568134
 21
1061.955200410695
 31
0.0
  0
LINE
  5
A237
330
1F
100
AcDbEntity
  8
0
100
AcDbLine
 10
469.5736785568133
 20
1061.380500410695
 30
0.0
 11
469.4587385568134
 21
1061.380500410695
 31
0.0
  0
LINE
  5
A238
330
1F
100
AcDbEntity
  8
0
 62
     0
 48
0.3
100
AcDbLine
 10
469.4587385568134
 20
1061.955200410695
 30
0.0
 11
469.4587385568134
 21
1059.656400410694
 31
0.0
  0
LINE
  5
A239
330
1F
100
AcDbEntity
  8
0
 62
     0
 48
0.3
100
AcDbLine
 10
470.4357285568133
 20
1060.805800410695
 30
0.0
 11
470.4357285568133
 21
1060.231100410694
 31
0.0
  0
LINE
  5
A23A
330
1F
100
AcDbEntity
  8
0
 62
     0
 48
0.3
100
AcDbLine
 10
470.4357285568133
 20
1061.656513436267
 30
0.0
 11
470.4357285568133
 21
1061.380500410695
 31
0.0
  0
LINE
  5
A23B
330
1F
100
AcDbEntity
  8
0
 62
     0
 48
0.3
100
AcDbLine
 10
470.4357285568133
 20
1059.931678254032
 30
0.0
 11
470.4357285568133
 21
1061.672211653367
 31
0.0
  0
LINE
  5
A23C
330
1F
100
AcDbEntity
  8
0
 62
     0
 48
0.3
100
AcDbLine
 10
470.4357285568133
 20
1061.380500410695
 30
0.0
 11
470.4357285568133
 21
1060.805800410695
 31
0.0
  0
ARC
  5
A23D
330
1F
100
AcDbEntity
  8
0
 62
     0
 48
0.3
100
AcDbCircle
 10
469.8052769202576
 20
1059.943750410694
 30
0.0
 40
0.6345751975971277
100
AcDbArc
 50
333.075075309887
 51
26.924924690113
  0
ARC
  5
A23E
330
1F
100
AcDbEntity
  8
0
 62
     0
 48
0.3
100
AcDbCircle
 10
469.7781050829155
 20
1061.667850429481
 30
0.0
 40
0.6589165038592072
100
AcDbArc
 50
334.1450295252206
 51
25.85497047477932
  0
ARC
  5
A23F
330
1F
100
AcDbEntity
  8
0
 62
     0
 48
0.3
100
AcDbCircle
 10
467.8495785568133
 20
1060.805800410695
 30
0.0
 40
2.586149999999999
100
AcDbArc
 50
347.160411228867
 51
12.83958840690441
  0
LINE
  5
A2A7
330
1F
100
AcDbEntity
  8
0
 62
     0
 48
0.5
100
AcDbLine
 10
312.8587385568134
 20
1028.484227023859
 30
0.0
 11
312.8587385568134
 21
1017.920067620852
 31
0.0
  0
LINE
  5
A2B1
330
1F
100
AcDbEntity
  8
0
 62
     0
 48
0.5
100
AcDbLine
 10
320.8587385568134
 20
1028.484227023859
 30
0.0
 11
320.8587385568134
 21
1017.920067620852
 31
0.0
  0
LINE
  5
A304
330
1F
100
AcDbEntity
  8
0
 62
     0
 48
0.5
100
AcDbLine
 10
312.8587385568134
 20
1047.920067620853
 30
0.0
 11
312.8587385568134
 21
1044.363731568476
 31
0.0
  0
LINE
  5
A305
330
1F
100
AcDbEntity
  8
0
 62
     0
 48
0.5
100
AcDbLine
 10
320.8587385568134
 20
1047.920067620853
 30
0.0
 11
320.8587385568134
 21
1044.363731568476
 31
0.0
  0
LEADER
  5
A320
330
1F
100
AcDbEntity
  8
0
 62
     0
 48
0.5
100
AcDbLeader
  3
ISO-25
 73
     0
 40
6.0
 41
35.42857142857143
 76
     3
 10
321.6587385568134
 20
1031.405800410695
 30
0.0
 10
332.2501766634741
 20
1043.544043858954
 30
0.0
 10
334.1356534870328
 20
1043.544043858954
 30
0.0
340
A321
213
0.0
223
-3.0
233
0.0
1001
ACAD
1000
DSTYLE
1002
{
1070
   147
1040
3.0
1070
    77
1070
     0
1002
}
  0
MTEXT
  5
A321
102
{ACAD_REACTORS
330
A320
102
}
330
1F
100
AcDbEntity
  8
0
 62
     0
 48
0.5
100
AcDbMText
 10
337.1356534870328
 20
1046.544043858953
 30
0.0
 40
6.0
 41
0.0
 71
     1
 72
     1
  1
保護パイプ
 73
     1
 44
1.0
  0
LWPOLYLINE
  5
A370
330
1F
100
AcDbEntity
  8
0
 62
     0
 48
0.5
100
AcDbPolyline
 90
        4
 70
     1
 43
0.0
 10
547.6566604208533
 20
1025.124845075885
 10
648.4699274963154
 20
1025.124845075885
 10
648.4699274963154
 20
944.8478738631168
 10
547.6566604208533
 20
944.8478738631168
  0
DIMENSION
  5
A371
330
1F
100
AcDbEntity
  8
0
 62
     0
 48
0.5
100
AcDbDimension
  2
*D5
 10
620.9172044918687
 20
993.0851681717099
 30
0.0
 11
600.9172044918686
 21
999.0851681717098
 31
0.0
 70
    33
  1
L
 71
     5
 42
40.0
  3
ISO-25
100
AcDbAlignedDimension
 13
580.9172044918686
 23
985.6245377808201
 33
0.0
 14
620.9172044918687
 24
985.6245377808201
 34
0.0
  0
LINE
  5
A372
330
1F
100
AcDbEntity
  8
Hidden
 62
     0
 48
0.3
100
AcDbLine
 10
620.9172044918687
 20
976.1245377808203
 30
0.0
 11
580.9172044918686
 21
976.1245377808203
 31
0.0
  0
LINE
  5
A373
330
1F
100
AcDbEntity
  8
Object
 62
     0
 48
0.3
100
AcDbLine
 10
620.9172044918687
 20
975.6245377808202
 30
0.0
 11
580.9172044918686
 21
975.6245377808202
 31
0.0
  0
LINE
  5
A374
330
1F
100
AcDbEntity
  8
Hidden
 62
     0
 48
0.3
100
AcDbLine
 10
580.9172044918686
 20
985.1245377808202
 30
0.0
 11
620.9172044918687
 21
985.1245377808202
 31
0.0
  0
LINE
  5
A375
330
1F
100
AcDbEntity
  8
0
 62
     0
 48
0.3
100
AcDbLine
 10
580.9172044918686
 20
985.6245377808201
 30
0.0
 11
620.9172044918687
 21
985.6245377808201
 31
0.0
  0
LINE
  5
A376
330
1F
100
AcDbEntity
  8
Object
 62
     0
 48
0.3
100
AcDbLine
 10
580.9172044918686
 20
985.6245377808201
 30
0.0
 11
620.9172044918687
 21
985.6245377808201
 31
0.0
  0
MTEXT
  5
A377
330
1F
100
AcDbEntity
  8
0
 62
     0
 48
0.5
100
AcDbMText
 10
556.406564243248
 20
1012.983342425333
 30
0.0
 40
6.0
 41
0.0
 71
     1
 72
     1
  1
貫通部ワイヤー保護パイプ
 73
     1
 44
1.0
  0
MTEXT
  5
A378
330
1F
100
AcDbEntity
  8
0
 62
     0
 48
0.5
100
AcDbMText
 10
560.2162340347733
 20
960.2438327574709
 30
0.0
 40
6.0
 41
0.0
 71
     1
 72
     1
  1
　　　L=支柱寸法
 73
     1
 44
1.0
  0
DIMENSION
  5
A379
330
1F
100
AcDbEntity
  8
0
 62
     0
 48
0.5
100
AcDbDimension
  2
*D6
 10
571.1765729389899
 20
975.6245377808202
 30
0.0
 11
562.5141159092054
 21
980.2652810811071
 31
0.0
 70
   161
  1
%%c10
 71
     5
 42
10.0
  3
ISO-25
100
AcDbAlignedDimension
 13
580.9172044918686
 23
985.6245377808201
 33
0.0
 14
580.9172044918686
 24
975.6245377808202
 34
0.0
1001
ACAD
1000
DSTYLE
1002
{
1070
   279
1070
     2
1002
}
  0
LINE
  5
A37A
330
1F
100
AcDbEntity
  8
Object
 62
     0
 48
0.3
100
AcDbLine
 10
580.9172044918686
 20
980.6245377808203
 30
0.0
 11
580.9172044918686
 21
987.1245377808202
 31
0.0
  0
LINE
  5
A37B
330
1F
100
AcDbEntity
  8
Object
 62
     0
 48
0.3
100
AcDbLine
 10
580.9172044918686
 20
987.1245377808202
 30
0.0
 11
580.0672044918687
 21
987.1245377808202
 31
0.0
  0
ARC
  5
A37C
330
1F
100
AcDbEntity
  8
Object
 62
     0
 48
0.3
100
AcDbCircle
 10
580.0672044918687
 20
986.1245377808202
 30
0.0
 40
1.0
100
AcDbArc
 50
90.0
 51
180.0
  0
LINE
  5
A37D
330
1F
100
AcDbEntity
  8
Object
 62
     0
 48
0.3
100
AcDbLine
 10
580.0672044918687
 20
974.1245377808201
 30
0.0
 11
580.9172044918686
 21
974.1245377808201
 31
0.0
  0
ARC
  5
A37E
330
1F
100
AcDbEntity
  8
Object
 62
     0
 48
0.3
100
AcDbCircle
 10
580.0672044918687
 20
975.1245377808201
 30
0.0
 40
1.0
100
AcDbArc
 50
180.0
 51
270.0
  0
LINE
  5
A37F
330
1F
100
AcDbEntity
  8
Object
 62
     0
 48
0.3
100
AcDbLine
 10
580.9172044918686
 20
974.1245377808201
 30
0.0
 11
580.9172044918686
 21
976.0245377808201
 31
0.0
  0
LINE
  5
A380
330
1F
100
AcDbEntity
  8
Object
 62
     0
 48
0.3
100
AcDbLine
 10
580.9172044918686
 20
976.0245377808201
 30
0.0
 11
580.9172044918686
 21
985.22453778082
 31
0.0
  0
LINE
  5
A381
330
1F
100
AcDbEntity
  8
Object
 62
     0
 48
0.3
100
AcDbLine
 10
580.9172044918686
 20
985.6245377808201
 30
0.0
 11
580.9172044918686
 21
975.6245377808202
 31
0.0
  0
LINE
  5
A382
330
1F
100
AcDbEntity
  8
Object
 62
     0
 48
0.3
100
AcDbLine
 10
579.0672044918686
 20
986.1245377808202
 30
0.0
 11
579.0672044918686
 21
975.1245377808201
 31
0.0
  0
LINE
  5
A383
330
1F
100
AcDbEntity
  8
Object
 62
     0
 48
0.3
100
AcDbLine
 10
632.791885432425
 20
985.2245377808202
 30
0.0
 11
628.791885432425
 21
985.2245377808202
 31
0.0
  0
LINE
  5
A384
330
1F
100
AcDbEntity
  8
Object
 62
     0
 48
0.3
100
AcDbLine
 10
632.791885432425
 20
976.0245377808201
 30
0.0
 11
628.791885432425
 21
976.0245377808201
 31
0.0
  0
LINE
  5
A385
330
1F
100
AcDbEntity
  8
Object
 62
     0
 48
0.3
100
AcDbLine
 10
622.791885432425
 20
985.0745377808202
 30
0.0
 11
625.791885432425
 21
985.0745377808202
 31
0.0
  0
LINE
  5
A386
330
1F
100
AcDbEntity
  8
0
 62
     0
 48
0.3
100
AcDbLine
 10
625.791885432425
 20
985.0745377808202
 30
0.0
 11
622.791885432425
 21
985.0745377808202
 31
0.0
  0
LINE
  5
A387
330
1F
100
AcDbEntity
  8
Object
 62
     0
 48
0.3
100
AcDbLine
 10
622.791885432425
 20
976.1745377808203
 30
0.0
 11
625.791885432425
 21
976.1745377808203
 31
0.0
  0
LINE
  5
A388
330
1F
100
AcDbEntity
  8
0
 62
     0
 48
0.3
100
AcDbLine
 10
622.791885432425
 20
976.1745377808203
 30
0.0
 11
625.791885432425
 21
976.1745377808203
 31
0.0
  0
HATCH
  5
A389
330
1F
100
AcDbEntity
  8
0
 62
     0
 48
0.3
100
AcDbHatch
 10
0.0
 20
0.0
 30
0.0
210
0.0
220
0.0
230
1.0
  2
ANSI31
 70
     0
 71
     0
 91
        1
 92
        7
 72
     0
 73
     1
 93
        4
 10
625.791885432425
 20
985.0745377808202
 10
622.791885432425
 20
985.0745377808202
 10
622.791885432425
 20
976.1745377808203
 10
625.791885432425
 20
976.1745377808203
 97
        0
 75
     0
 76
     1
 52
0.0
 41
0.5
 77
     0
 78
     1
 53
45.0
 43
384.8925403498325
 44
815.5219706197078
 45
-1.122532015133643
 46
1.122532015133644
 79
     0
 47
0.0842856864813277
 98
        1
 10
623.7971344242239
 20
980.4266719887325
  0
LINE
  5
A38A
330
1F
100
AcDbEntity
  8
0
 62
     0
 48
0.3
100
AcDbLine
 10
620.9172044918687
 20
985.6245377808201
 30
0.0
 11
620.9172044918687
 21
985.1245377808202
 31
0.0
  0
LINE
  5
A38B
330
1F
100
AcDbEntity
  8
0
 62
     0
 48
0.3
100
AcDbLine
 10
620.9172044918687
 20
976.1245377808203
 30
0.0
 11
620.9172044918687
 21
975.6245377808202
 31
0.0
  0
LINE
  5
A38C
330
1F
100
AcDbEntity
  8
Object
 62
     0
 48
0.3
100
AcDbLine
 10
622.791885432425
 20
985.0745377808202
 30
0.0
 11
622.791885432425
 21
976.1745377808203
 31
0.0
  0
LINE
  5
A38D
330
1F
100
AcDbEntity
  8
0
 62
     0
 48
0.3
100
AcDbLine
 10
622.791885432425
 20
985.0745377808202
 30
0.0
 11
622.791885432425
 21
976.1745377808203
 31
0.0
  0
LINE
  5
A38E
330
1F
100
AcDbEntity
  8
Object
 62
     0
 48
0.3
100
AcDbLine
 10
625.791885432425
 20
985.0745377808202
 30
0.0
 11
628.791885432425
 21
985.2245377808202
 31
0.0
  0
LINE
  5
A38F
330
1F
100
AcDbEntity
  8
Object
 62
     0
 48
0.3
100
AcDbLine
 10
625.791885432425
 20
976.1745377808203
 30
0.0
 11
628.791885432425
 21
976.0245377808201
 31
0.0
  0
LINE
  5
A390
330
1F
100
AcDbEntity
  8
Object
 62
     0
 48
0.3
100
AcDbLine
 10
633.6418854324251
 20
987.1245377808202
 30
0.0
 11
632.791885432425
 21
987.1245377808202
 31
0.0
  0
LINE
  5
A391
330
1F
100
AcDbEntity
  8
Object
 62
     0
 48
0.3
100
AcDbLine
 10
632.791885432425
 20
987.1245377808202
 30
0.0
 11
632.791885432425
 21
985.2245377808202
 31
0.0
  0
ARC
  5
A392
330
1F
100
AcDbEntity
  8
Object
 62
     0
 48
0.3
100
AcDbCircle
 10
633.6418854324251
 20
986.1245377808202
 30
0.0
 40
1.0
100
AcDbArc
 50
0.0
 51
90.0
  0
LINE
  5
A393
330
1F
100
AcDbEntity
  8
Object
 62
     0
 48
0.3
100
AcDbLine
 10
632.791885432425
 20
974.1245377808201
 30
0.0
 11
633.6418854324251
 21
974.1245377808201
 31
0.0
  0
ARC
  5
A394
330
1F
100
AcDbEntity
  8
Object
 62
     0
 48
0.3
100
AcDbCircle
 10
633.6418854324251
 20
975.1245377808201
 30
0.0
 40
1.0
100
AcDbArc
 50
270.0
 51
0.0
  0
LINE
  5
A395
330
1F
100
AcDbEntity
  8
Object
 62
     0
 48
0.3
100
AcDbLine
 10
634.6418854324252
 20
975.1245377808201
 30
0.0
 11
634.6418854324252
 21
986.1245377808202
 31
0.0
  0
LINE
  5
A396
330
1F
100
AcDbEntity
  8
Object
 62
     0
 48
0.3
100
AcDbLine
 10
632.791885432425
 20
985.2245377808202
 30
0.0
 11
632.791885432425
 21
976.0245377808201
 31
0.0
  0
LINE
  5
A397
330
1F
100
AcDbEntity
  8
Object
 62
     0
 48
0.3
100
AcDbLine
 10
632.791885432425
 20
980.6245377808203
 30
0.0
 11
632.791885432425
 21
974.1245377808201
 31
0.0
  0
LINE
  5
A470
330
1F
100
AcDbEntity
  8
0
 62
     0
100
AcDbLine
 10
17.69866019031773
 20
1031.381544416861
 30
0.0
 11
17.85873855681347
 21
1031.381544416861
 31
0.0
  0
LINE
  5
A471
330
1F
100
AcDbEntity
  8
0
 62
     0
100
AcDbLine
 10
17.83004539469475
 20
1031.955407659236
 30
0.0
 11
17.85873855681347
 21
1031.926714497117
 31
0.0
  0
ARC
  5
A472
330
1F
100
AcDbEntity
  8
0
 62
     0
100
AcDbCircle
 10
17.24714814812569
 20
1031.668476038048
 30
0.0
 40
0.4147334306870116
100
AcDbArc
 50
136.2235944163307
 51
223.7764055836692
  0
LINE
  5
A473
330
1F
100
AcDbEntity
  8
0
 62
     0
100
AcDbLine
 10
16.94769186869221
 20
1031.381544416861
 30
0.0
 11
17.69866019031773
 21
1031.381544416861
 31
0.0
  0
LINE
  5
A474
330
1F
100
AcDbEntity
  8
0
 62
     0
100
AcDbLine
 10
16.94769186869221
 20
1031.955407659236
 30
0.0
 11
17.83004539469475
 21
1031.955407659236
 31
0.0
  0
LINE
  5
A475
330
1F
100
AcDbEntity
  8
0
 62
     0
100
AcDbLine
 10
16.94769186869221
 20
1031.955407659236
 30
0.0
 11
17.69866019031773
 21
1031.955407659236
 31
0.0
  0
LINE
  5
A476
330
1F
100
AcDbEntity
  8
0
 62
     0
100
AcDbLine
 10
17.85873855681347
 20
1030.805800410695
 30
0.0
 11
17.85873855681347
 21
1030.23193716832
 31
0.0
  0
LINE
  5
A477
330
1F
100
AcDbEntity
  8
0
 62
     0
100
AcDbLine
 10
17.69866019031773
 20
1030.233817932111
 30
0.0
 11
17.85873855681347
 21
1030.233817932111
 31
0.0
  0
LINE
  5
A478
330
1F
100
AcDbEntity
  8
0
 62
     0
100
AcDbLine
 10
17.83004563925737
 20
1029.656311629409
 30
0.0
 11
17.85873855681347
 21
1029.684886324272
 31
0.0
  0
LINE
  5
A479
330
1F
100
AcDbEntity
  8
0
 62
     0
100
AcDbLine
 10
17.85873855681347
 20
1030.805800410695
 30
0.0
 11
17.85873855681347
 21
1030.518868789507
 31
0.0
  0
ARC
  5
A47A
330
1F
100
AcDbEntity
  8
0
 62
     0
100
AcDbCircle
 10
17.25928191633479
 20
1029.946886310923
 30
0.0
 40
0.4235777532250373
100
AcDbArc
 50
137.359188147409
 51
222.6408118525909
  0
LINE
  5
A47B
330
1F
100
AcDbEntity
  8
0
 62
     0
100
AcDbLine
 10
16.94769186869221
 20
1030.233817932111
 30
0.0
 11
17.69866019031773
 21
1030.233817932111
 31
0.0
  0
LINE
  5
A47C
330
1F
100
AcDbEntity
  8
0
 62
     0
100
AcDbLine
 10
17.83004563925737
 20
1029.656311629409
 30
0.0
 11
16.94878034383464
 21
1029.656311629409
 31
0.0
  0
ARC
  5
A47D
330
1F
100
AcDbEntity
  8
0
 62
     0
100
AcDbCircle
 10
18.31339490372479
 20
1030.807681174486
 30
0.0
 40
1.481372269500913
100
AcDbArc
 50
157.2080385520316
 51
202.7919614479682
  0
LINE
  5
A47E
330
1F
100
AcDbEntity
  8
0
 62
     0
100
AcDbLine
 10
16.83241471743868
 20
1031.668476038048
 30
0.0
 11
16.83570416310972
 21
1029.946886310923
 31
0.0
  0
LINE
  5
A47F
330
1F
100
AcDbEntity
  8
0
 62
     0
100
AcDbLine
 10
17.85873855681347
 20
1031.926714497117
 30
0.0
 11
17.85873855681347
 21
1029.684886324272
 31
0.0
  0
LINE
  5
A480
330
1F
100
AcDbEntity
  8
0
 62
     0
100
AcDbLine
 10
17.83004539469475
 20
1061.955407659236
 30
0.0
 11
17.85873855681347
 21
1061.926714497117
 31
0.0
  0
LINE
  5
A481
330
1F
100
AcDbEntity
  8
0
 62
     0
100
AcDbLine
 10
17.69866019031773
 20
1061.381544416861
 30
0.0
 11
17.85873855681347
 21
1061.381544416861
 31
0.0
  0
LINE
  5
A482
330
1F
100
AcDbEntity
  8
0
 62
     0
100
AcDbLine
 10
17.85873855681347
 20
1060.805800410695
 30
0.0
 11
17.85873855681347
 21
1060.518868789507
 31
0.0
  0
LINE
  5
A483
330
1F
100
AcDbEntity
  8
0
 62
     0
100
AcDbLine
 10
17.83004563925737
 20
1059.656311629409
 30
0.0
 11
17.85873855681347
 21
1059.684886324272
 31
0.0
  0
LINE
  5
A484
330
1F
100
AcDbEntity
  8
0
 62
     0
100
AcDbLine
 10
17.69866019031773
 20
1060.233817932111
 30
0.0
 11
17.85873855681347
 21
1060.233817932111
 31
0.0
  0
LINE
  5
A485
330
1F
100
AcDbEntity
  8
0
 62
     0
100
AcDbLine
 10
17.85873855681347
 20
1060.805800410695
 30
0.0
 11
17.85873855681347
 21
1060.231937168319
 31
0.0
  0
LINE
  5
A486
330
1F
100
AcDbEntity
  8
0
 62
     0
100
AcDbLine
 10
17.85873855681347
 20
1061.926714497117
 30
0.0
 11
17.85873855681347
 21
1059.684886324272
 31
0.0
  0
ARC
  5
A487
330
1F
100
AcDbEntity
  8
0
 62
     0
100
AcDbCircle
 10
17.24714814812569
 20
1061.668476038048
 30
0.0
 40
0.4147334306870116
100
AcDbArc
 50
136.2235944163307
 51
223.7764055836692
  0
ARC
  5
A488
330
1F
100
AcDbEntity
  8
0
 62
     0
100
AcDbCircle
 10
17.25928191633479
 20
1059.946886310924
 30
0.0
 40
0.4235777532250373
100
AcDbArc
 50
137.359188147409
 51
222.6408118525909
  0
LINE
  5
A489
330
1F
100
AcDbEntity
  8
0
 62
     0
100
AcDbLine
 10
16.83241471743868
 20
1061.668476038048
 30
0.0
 11
16.83570416310972
 21
1059.946886310924
 31
0.0
  0
ARC
  5
A48A
330
1F
100
AcDbEntity
  8
0
 62
     0
100
AcDbCircle
 10
18.31339490372479
 20
1060.807681174486
 30
0.0
 40
1.481372269500913
100
AcDbArc
 50
157.2080385520316
 51
202.7919614479682
  0
LINE
  5
A48B
330
1F
100
AcDbEntity
  8
0
 62
     0
100
AcDbLine
 10
17.83004563925737
 20
1059.656311629409
 30
0.0
 11
16.94878034383464
 21
1059.656311629409
 31
0.0
  0
LINE
  5
A48C
330
1F
100
AcDbEntity
  8
0
 62
     0
100
AcDbLine
 10
16.94769186869221
 20
1061.955407659236
 30
0.0
 11
17.69866019031773
 21
1061.955407659236
 31
0.0
  0
LINE
  5
A48D
330
1F
100
AcDbEntity
  8
0
 62
     0
100
AcDbLine
 10
16.94769186869221
 20
1061.955407659236
 30
0.0
 11
17.83004539469475
 21
1061.955407659236
 31
0.0
  0
LINE
  5
A48E
330
1F
100
AcDbEntity
  8
0
 62
     0
100
AcDbLine
 10
16.94769186869221
 20
1061.381544416861
 30
0.0
 11
17.69866019031773
 21
1061.381544416861
 31
0.0
  0
LINE
  5
A48F
330
1F
100
AcDbEntity
  8
0
 62
     0
100
AcDbLine
 10
16.94769186869221
 20
1060.233817932111
 30
0.0
 11
17.69866019031773
 21
1060.233817932111
 31
0.0
  0
LINE
  5
A490
330
1F
100
AcDbEntity
  8
0
 62
     0
 48
0.5
100
AcDbLine
 10
25.85873855681347
 20
1060.805800410695
 30
0.0
 11
25.85873855681347
 21
1062.405800410694
 31
0.0
  0
LINE
  5
A4BD
330
1F
100
AcDbEntity
  8
0
 62
     0
 48
0.5
100
AcDbLine
 10
25.85873855681347
 20
1030.805800410695
 30
0.0
 11
25.85873855681347
 21
1032.405800410694
 31
0.0
  0
LINE
  5
A4DA
330
1F
100
AcDbEntity
  8
0
 62
     0
 48
0.5
100
AcDbLine
 10
38.85873855681348
 20
1059.205800410694
 30
0.0
 11
25.85873855681347
 21
1059.205800410694
 31
0.0
  0
LINE
  5
A4DB
330
1F
100
AcDbEntity
  8
0
 62
     0
 48
0.5
100
AcDbLine
 10
25.85873855681347
 20
1062.405800410694
 30
0.0
 11
38.85873855681348
 21
1062.405800410694
 31
0.0
  0
LINE
  5
A4DC
330
1F
100
AcDbEntity
  8
0
 62
     0
 48
0.5
100
AcDbLine
 10
25.85873855681347
 20
1060.805800410695
 30
0.0
 11
25.85873855681347
 21
1062.405800410694
 31
0.0
  0
LINE
  5
A4DD
330
1F
100
AcDbEntity
  8
0
 62
     0
 48
0.5
100
AcDbLine
 10
38.85873855681348
 20
1062.405800410694
 30
0.0
 11
38.85873855681348
 21
1059.205800410694
 31
0.0
  0
LINE
  5
A4E5
330
1F
100
AcDbEntity
  8
0
 62
     0
 48
0.5
100
AcDbLine
 10
172.8587385568135
 20
1062.405800410694
 30
0.0
 11
185.8587385568135
 21
1062.405800410694
 31
0.0
  0
LINE
  5
A4E6
330
1F
100
AcDbEntity
  8
0
 62
     0
 48
0.5
100
AcDbLine
 10
185.8587385568135
 20
1059.205800410694
 30
0.0
 11
172.8587385568135
 21
1059.205800410694
 31
0.0
  0
LINE
  5
A4E7
330
1F
100
AcDbEntity
  8
0
 62
     0
 48
0.5
100
AcDbLine
 10
172.8587385568135
 20
1060.805800410695
 30
0.0
 11
172.8587385568135
 21
1062.405800410694
 31
0.0
  0
LINE
  5
A4E8
330
1F
100
AcDbEntity
  8
0
 62
     0
 48
0.5
100
AcDbLine
 10
172.8587385568135
 20
1060.805800410695
 30
0.0
 11
172.8587385568135
 21
1062.405800410694
 31
0.0
  0
LINE
  5
A4ED
330
1F
100
AcDbEntity
  8
0
 62
     0
 48
0.5
100
AcDbLine
 10
185.8587385568135
 20
1062.405800410694
 30
0.0
 11
185.8587385568135
 21
1059.205800410694
 31
0.0
  0
LINE
  5
A4EE
330
1F
100
AcDbEntity
  8
0
 62
     0
 48
0.5
100
AcDbLine
 10
151.8587385568134
 20
1062.405800410694
 30
0.0
 11
164.8587385568134
 21
1062.405800410694
 31
0.0
  0
LINE
  5
A4EF
330
1F
100
AcDbEntity
  8
0
 62
     0
 48
0.5
100
AcDbLine
 10
164.8587385568134
 20
1059.205800410694
 30
0.0
 11
151.8587385568134
 21
1059.205800410694
 31
0.0
  0
LINE
  5
A4F0
330
1F
100
AcDbEntity
  8
0
 62
     0
 48
0.5
100
AcDbLine
 10
164.8587385568134
 20
1060.805800410694
 30
0.0
 11
164.8587385568134
 21
1059.205800410694
 31
0.0
  0
LINE
  5
A4F1
330
1F
100
AcDbEntity
  8
0
 62
     0
 48
0.5
100
AcDbLine
 10
164.8587385568134
 20
1060.805800410694
 30
0.0
 11
164.8587385568134
 21
1059.205800410694
 31
0.0
  0
LINE
  5
A4F4
330
1F
100
AcDbEntity
  8
0
 62
     0
 48
0.5
100
AcDbLine
 10
151.8587385568134
 20
1059.205800410694
 30
0.0
 11
151.8587385568134
 21
1062.405800410694
 31
0.0
  0
LINE
  5
A510
330
1F
100
AcDbEntity
  8
0
 62
     0
 48
0.3
100
AcDbLine
 10
470.3710645735305
 20
1030.231100410694
 30
0.0
 11
469.5736785568133
 21
1030.231100410694
 31
0.0
  0
LINE
  5
A511
330
1F
100
AcDbEntity
  8
0
 62
     0
 48
0.3
100
AcDbLine
 10
469.5736785568133
 20
1029.656400410694
 30
0.0
 11
470.3710645735305
 21
1029.656400410694
 31
0.0
  0
LINE
  5
A512
330
1F
100
AcDbEntity
  8
0
 62
     0
 48
0.3
100
AcDbLine
 10
470.3710645735305
 20
1031.380500410695
 30
0.0
 11
469.5736785568133
 21
1031.380500410695
 31
0.0
  0
LINE
  5
A513
330
1F
100
AcDbEntity
  8
0
 62
     0
 48
0.3
100
AcDbLine
 10
470.3710645735305
 20
1031.955200410694
 30
0.0
 11
469.5736785568133
 21
1031.955200410694
 31
0.0
  0
LINE
  5
A514
330
1F
100
AcDbEntity
  8
0
 62
     0
 48
0.3
100
AcDbLine
 10
469.4587385568134
 20
1031.955200410694
 30
0.0
 11
469.4587385568134
 21
1029.656400410694
 31
0.0
  0
LINE
  5
A515
330
1F
100
AcDbEntity
  8
0
100
AcDbLine
 10
469.5736785568133
 20
1031.380500410695
 30
0.0
 11
469.4587385568134
 21
1031.380500410695
 31
0.0
  0
LINE
  5
A516
330
1F
100
AcDbEntity
  8
0
100
AcDbLine
 10
469.5736785568133
 20
1031.955200410694
 30
0.0
 11
469.4587385568134
 21
1031.955200410694
 31
0.0
  0
LINE
  5
A517
330
1F
100
AcDbEntity
  8
0
100
AcDbLine
 10
469.5736785568133
 20
1029.656400410694
 30
0.0
 11
469.4587385568134
 21
1029.656400410694
 31
0.0
  0
LINE
  5
A518
330
1F
100
AcDbEntity
  8
0
100
AcDbLine
 10
469.5736785568133
 20
1030.231100410694
 30
0.0
 11
469.4587385568134
 21
1030.231100410694
 31
0.0
  0
ARC
  5
A519
330
1F
100
AcDbEntity
  8
0
 62
     0
 48
0.3
100
AcDbCircle
 10
467.8495785568133
 20
1030.805800410695
 30
0.0
 40
2.586149999999999
100
AcDbArc
 50
347.160411228867
 51
12.83958840690441
  0
ARC
  5
A51A
330
1F
100
AcDbEntity
  8
0
 62
     0
 48
0.3
100
AcDbCircle
 10
469.7781050829155
 20
1031.667850429481
 30
0.0
 40
0.6589165038592072
100
AcDbArc
 50
334.1450295252206
 51
25.85497047477932
  0
ARC
  5
A51B
330
1F
100
AcDbEntity
  8
0
 62
     0
 48
0.3
100
AcDbCircle
 10
469.8052769202576
 20
1029.943750410694
 30
0.0
 40
0.6345751975971277
100
AcDbArc
 50
333.075075309887
 51
26.924924690113
  0
LINE
  5
A51C
330
1F
100
AcDbEntity
  8
0
 62
     0
 48
0.3
100
AcDbLine
 10
470.4357285568133
 20
1031.380500410695
 30
0.0
 11
470.4357285568133
 21
1030.805800410695
 31
0.0
  0
LINE
  5
A51D
330
1F
100
AcDbEntity
  8
0
 62
     0
 48
0.3
100
AcDbLine
 10
470.4357285568133
 20
1029.931678254032
 30
0.0
 11
470.4357285568133
 21
1031.672211653367
 31
0.0
  0
LINE
  5
A51E
330
1F
100
AcDbEntity
  8
0
 62
     0
 48
0.3
100
AcDbLine
 10
470.4357285568133
 20
1031.656513436267
 30
0.0
 11
470.4357285568133
 21
1031.380500410695
 31
0.0
  0
LINE
  5
A51F
330
1F
100
AcDbEntity
  8
0
 62
     0
 48
0.3
100
AcDbLine
 10
470.4357285568133
 20
1030.805800410695
 30
0.0
 11
470.4357285568133
 21
1030.231100410694
 31
0.0
  0
LINE
  5
A520
330
1F
100
AcDbEntity
  8
0
 62
     0
 48
0.5
100
AcDbLine
 10
461.4587385568134
 20
1059.205800410694
 30
0.0
 11
448.4587385568134
 21
1059.205800410694
 31
0.0
  0
LINE
  5
A521
330
1F
100
AcDbEntity
  8
0
 62
     0
 48
0.5
100
AcDbLine
 10
448.4587385568134
 20
1062.405800410694
 30
0.0
 11
461.4587385568134
 21
1062.405800410694
 31
0.0
  0
LINE
  5
A526
330
1F
100
AcDbEntity
  8
0
 62
     0
 48
0.5
100
AcDbLine
 10
448.4587385568134
 20
1059.205800410694
 30
0.0
 11
448.4587385568134
 21
1062.405800410694
 31
0.0
  0
LINE
  5
A527
330
1F
100
AcDbEntity
  8
0
 62
     0
 48
0.5
100
AcDbLine
 10
461.4587385568134
 20
1060.805800410694
 30
0.0
 11
461.4587385568134
 21
1059.205800410694
 31
0.0
  0
LINE
  5
A528
330
1F
100
AcDbEntity
  8
0
 62
     0
 48
0.5
100
AcDbLine
 10
461.4587385568134
 20
1060.805800410694
 30
0.0
 11
461.4587385568134
 21
1059.205800410694
 31
0.0
  0
LINE
  5
A52B
330
1F
100
AcDbEntity
  8
0
 62
     0
 48
0.5
100
AcDbLine
 10
448.4587385568134
 20
1032.405800410695
 30
0.0
 11
461.4587385568134
 21
1032.405800410695
 31
0.0
  0
LINE
  5
A52C
330
1F
100
AcDbEntity
  8
0
 62
     0
 48
0.5
100
AcDbLine
 10
461.4587385568134
 20
1029.205800410694
 30
0.0
 11
448.4587385568134
 21
1029.205800410694
 31
0.0
  0
LINE
  5
A52F
330
1F
100
AcDbEntity
  8
0
 62
     0
 48
0.5
100
AcDbLine
 10
448.4587385568134
 20
1029.205800410694
 30
0.0
 11
448.4587385568134
 21
1032.405800410695
 31
0.0
  0
LINE
  5
A530
330
1F
100
AcDbEntity
  8
0
 62
     0
 48
0.5
100
AcDbLine
 10
461.4587385568134
 20
1030.805800410695
 30
0.0
 11
461.4587385568134
 21
1029.205800410694
 31
0.0
  0
LINE
  5
A531
330
1F
100
AcDbEntity
  8
0
 62
     0
 48
0.5
100
AcDbLine
 10
461.4587385568134
 20
1030.805800410695
 30
0.0
 11
461.4587385568134
 21
1029.205800410694
 31
0.0
  0
LINE
  5
A532
330
1F
100
AcDbEntity
  8
0
 62
     0
 48
0.5
100
AcDbLine
 10
164.8587385568134
 20
1029.205800410694
 30
0.0
 11
151.8587385568134
 21
1029.205800410694
 31
0.0
  0
LINE
  5
A533
330
1F
100
AcDbEntity
  8
0
 62
     0
 48
0.5
100
AcDbLine
 10
151.8587385568134
 20
1032.405800410694
 30
0.0
 11
164.8587385568134
 21
1032.405800410694
 31
0.0
  0
LINE
  5
A538
330
1F
100
AcDbEntity
  8
0
 62
     0
 48
0.5
100
AcDbLine
 10
151.8587385568134
 20
1029.205800410694
 30
0.0
 11
151.8587385568134
 21
1032.405800410694
 31
0.0
  0
LINE
  5
A53B
330
1F
100
AcDbEntity
  8
0
 62
     0
 48
0.5
100
AcDbLine
 10
172.8587385568135
 20
1032.405800410694
 30
0.0
 11
185.8587385568135
 21
1032.405800410694
 31
0.0
  0
LINE
  5
A53C
330
1F
100
AcDbEntity
  8
0
 62
     0
 48
0.5
100
AcDbLine
 10
185.8587385568135
 20
1029.205800410694
 30
0.0
 11
172.8587385568135
 21
1029.205800410694
 31
0.0
  0
LINE
  5
A53E
330
1F
100
AcDbEntity
  8
0
 62
     0
 48
0.5
100
AcDbLine
 10
164.8587385568134
 20
1030.805800410694
 30
0.0
 11
164.8587385568134
 21
1029.205800410694
 31
0.0
  0
LINE
  5
A53F
330
1F
100
AcDbEntity
  8
0
 62
     0
 48
0.5
100
AcDbLine
 10
164.8587385568134
 20
1030.805800410694
 30
0.0
 11
164.8587385568134
 21
1029.205800410694
 31
0.0
  0
LINE
  5
A540
330
1F
100
AcDbEntity
  8
0
 62
     0
 48
0.5
100
AcDbLine
 10
172.8587385568135
 20
1030.805800410695
 30
0.0
 11
172.8587385568135
 21
1032.405800410694
 31
0.0
  0
LINE
  5
A541
330
1F
100
AcDbEntity
  8
0
 62
     0
 48
0.5
100
AcDbLine
 10
172.8587385568135
 20
1030.805800410695
 30
0.0
 11
172.8587385568135
 21
1032.405800410694
 31
0.0
  0
LINE
  5
A542
330
1F
100
AcDbEntity
  8
0
 62
     0
 48
0.5
100
AcDbLine
 10
185.8587385568135
 20
1032.405800410694
 30
0.0
 11
185.8587385568135
 21
1029.205800410694
 31
0.0
  0
LINE
  5
A545
330
1F
100
AcDbEntity
  8
0
 62
     0
 48
0.5
100
AcDbLine
 10
185.8587385568135
 20
1061.405800410694
 30
0.0
 11
312.4587385568135
 21
1061.405800410694
 31
0.0
  0
LINE
  5
A546
330
1F
100
AcDbEntity
  8
0
 62
     0
 48
0.5
100
AcDbLine
 10
448.4587385568134
 20
1060.205800410694
 30
0.0
 11
321.2587385568133
 21
1060.205800410694
 31
0.0
  0
LINE
  5
A547
330
1F
100
AcDbEntity
  8
0
 62
     0
 48
0.5
100
AcDbLine
 10
38.85873855681348
 20
1061.405800410694
 30
0.0
 11
151.8587385568134
 21
1061.405800410694
 31
0.0
  0
LINE
  5
A548
330
1F
100
AcDbEntity
  8
0
 62
     0
 48
0.5
100
AcDbLine
 10
38.85873855681348
 20
1060.205800410695
 30
0.0
 11
151.8587385568134
 21
1060.205800410695
 31
0.0
  0
LINE
  5
A549
330
1F
100
AcDbEntity
  8
0
 62
     0
 48
0.5
100
AcDbLine
 10
151.8587385568134
 20
1060.205800410695
 30
0.0
 11
151.8587385568134
 21
1059.205800410694
 31
0.0
  0
LINE
  5
A54A
330
1F
100
AcDbEntity
  8
0
 62
     0
 48
0.5
100
AcDbLine
 10
312.4587385568134
 20
1060.205800410694
 30
0.0
 11
185.8587385568135
 21
1060.205800410694
 31
0.0
  0
LINE
  5
A54B
330
1F
100
AcDbEntity
  8
0
 62
     0
 48
0.5
100
AcDbLine
 10
321.2587385568135
 20
1061.405800410694
 30
0.0
 11
448.4587385568134
 21
1061.405800410694
 31
0.0
  0
LINE
  5
A54D
330
1F
100
AcDbEntity
  8
0
 62
     0
 48
0.5
100
AcDbLine
 10
312.8587385568134
 20
1060.805800410695
 30
0.0
 11
312.8587385568134
 21
1062.105800410695
 31
0.0
  0
LINE
  5
A553
330
1F
100
AcDbEntity
  8
0
 62
     0
 48
0.5
100
AcDbLine
 10
312.7587385568135
 20
1062.105800410695
 30
0.0
 11
312.8587385568134
 21
1062.105800410695
 31
0.0
  0
LINE
  5
A554
330
1F
100
AcDbEntity
  8
0
 62
     0
 48
0.5
100
AcDbLine
 10
312.4587385568135
 20
1061.805800410695
 30
0.0
 11
312.4587385568133
 21
1059.805800410695
 31
0.0
  0
LINE
  5
A555
330
1F
100
AcDbEntity
  8
0
 62
     0
 48
0.5
100
AcDbLine
 10
321.2587385568133
 20
1059.805800410695
 30
0.0
 11
321.2587385568136
 21
1061.805800410695
 31
0.0
  0
LINE
  5
A556
330
1F
100
AcDbEntity
  8
0
 62
     0
 48
0.5
100
AcDbLine
 10
320.9587385568133
 20
1059.505800410695
 30
0.0
 11
320.8587385568134
 21
1059.505800410695
 31
0.0
  0
ARC
  5
A557
330
1F
100
AcDbEntity
  8
0
 62
     0
 48
0.5
100
AcDbCircle
 10
320.9587385568133
 20
1059.805800410695
 30
0.0
 40
0.3
100
AcDbArc
 50
270.0
 51
0.0
  0
LINE
  5
A558
330
1F
100
AcDbEntity
  8
0
 62
     0
 48
0.5
100
AcDbLine
 10
320.9587385568136
 20
1062.105800410695
 30
0.0
 11
320.8587385568134
 21
1062.105800410695
 31
0.0
  0
ARC
  5
A559
330
1F
100
AcDbEntity
  8
0
 62
     0
 48
0.5
100
AcDbCircle
 10
320.9587385568136
 20
1061.805800410695
 30
0.0
 40
0.3
100
AcDbArc
 50
0.0
 51
90.0
  0
LINE
  5
A55A
330
1F
100
AcDbEntity
  8
0
 62
     0
 48
0.5
100
AcDbLine
 10
320.8587385568134
 20
1060.805800410695
 30
0.0
 11
320.8587385568134
 21
1059.505800410695
 31
0.0
  0
LINE
  5
A55C
330
1F
100
AcDbEntity
  8
0
 62
     0
 48
0.5
100
AcDbLine
 10
312.4587385568135
 20
1031.805800410695
 30
0.0
 11
312.4587385568133
 21
1029.805800410695
 31
0.0
  0
LINE
  5
A55D
330
1F
100
AcDbEntity
  8
0
 62
     0
 48
0.5
100
AcDbLine
 10
312.7587385568135
 20
1032.105800410695
 30
0.0
 11
312.8587385568134
 21
1032.105800410695
 31
0.0
  0
ARC
  5
A55E
330
1F
100
AcDbEntity
  8
0
 62
     0
 48
0.5
100
AcDbCircle
 10
312.7587385568135
 20
1031.805800410695
 30
0.0
 40
0.3
100
AcDbArc
 50
90.0
 51
180.0
  0
LINE
  5
A55F
330
1F
100
AcDbEntity
  8
0
 62
     0
 48
0.5
100
AcDbLine
 10
312.7587385568133
 20
1029.505800410695
 30
0.0
 11
312.8587385568134
 21
1029.505800410695
 31
0.0
  0
ARC
  5
A560
330
1F
100
AcDbEntity
  8
0
 62
     0
 48
0.5
100
AcDbCircle
 10
312.7587385568133
 20
1029.805800410695
 30
0.0
 40
0.3
100
AcDbArc
 50
180.0
 51
270.0
  0
LINE
  5
A561
330
1F
100
AcDbEntity
  8
0
 62
     0
 48
0.5
100
AcDbLine
 10
312.8587385568134
 20
1030.805800410695
 30
0.0
 11
312.8587385568134
 21
1032.105800410695
 31
0.0
  0
LINE
  5
A562
330
1F
100
AcDbEntity
  8
0
 62
     0
 48
0.5
100
AcDbLine
 10
312.8587385568134
 20
1030.805800410695
 30
0.0
 11
312.8587385568134
 21
1033.005800410695
 31
0.0
  0
LINE
  5
A563
330
1F
100
AcDbEntity
  8
0
 62
     0
 48
0.5
100
AcDbLine
 10
321.2587385568133
 20
1029.805800410695
 30
0.0
 11
321.2587385568136
 21
1031.805800410695
 31
0.0
  0
LINE
  5
A564
330
1F
100
AcDbEntity
  8
0
 62
     0
 48
0.5
100
AcDbLine
 10
320.9587385568133
 20
1029.505800410695
 30
0.0
 11
320.8587385568134
 21
1029.505800410695
 31
0.0
  0
ARC
  5
A565
330
1F
100
AcDbEntity
  8
0
 62
     0
 48
0.5
100
AcDbCircle
 10
320.9587385568133
 20
1029.805800410695
 30
0.0
 40
0.3
100
AcDbArc
 50
270.0
 51
0.0
  0
LINE
  5
A566
330
1F
100
AcDbEntity
  8
0
 62
     0
 48
0.5
100
AcDbLine
 10
320.9587385568136
 20
1032.105800410695
 30
0.0
 11
320.8587385568134
 21
1032.105800410695
 31
0.0
  0
ARC
  5
A567
330
1F
100
AcDbEntity
  8
0
 62
     0
 48
0.5
100
AcDbCircle
 10
320.9587385568136
 20
1031.805800410695
 30
0.0
 40
0.3
100
AcDbArc
 50
0.0
 51
90.0
  0
LINE
  5
A568
330
1F
100
AcDbEntity
  8
0
 62
     0
 48
0.5
100
AcDbLine
 10
320.8587385568134
 20
1030.805800410695
 30
0.0
 11
320.8587385568134
 21
1029.505800410695
 31
0.0
  0
LINE
  5
A569
330
1F
100
AcDbEntity
  8
0
 62
     0
 48
0.5
100
AcDbLine
 10
38.85873855681348
 20
1030.205800410695
 30
0.0
 11
151.8587385568134
 21
1030.205800410695
 31
0.0
  0
LINE
  5
A56A
330
1F
100
AcDbEntity
  8
0
 62
     0
 48
0.5
100
AcDbLine
 10
38.85873855681348
 20
1031.405800410694
 30
0.0
 11
151.8587385568134
 21
1031.405800410694
 31
0.0
  0
LINE
  5
A56B
330
1F
100
AcDbEntity
  8
0
 62
     0
 48
0.5
100
AcDbLine
 10
185.8587385568135
 20
1031.405800410694
 30
0.0
 11
312.4587385568135
 21
1031.405800410694
 31
0.0
  0
LINE
  5
A56C
330
1F
100
AcDbEntity
  8
0
 62
     0
 48
0.5
100
AcDbLine
 10
312.4587385568134
 20
1030.205800410694
 30
0.0
 11
185.8587385568135
 21
1030.205800410694
 31
0.0
  0
LINE
  5
A56D
330
1F
100
AcDbEntity
  8
0
 62
     0
 48
0.5
100
AcDbLine
 10
321.2587385568135
 20
1031.405800410694
 30
0.0
 11
448.4587385568134
 21
1031.405800410694
 31
0.0
  0
LINE
  5
A56E
330
1F
100
AcDbEntity
  8
0
 62
     0
 48
0.5
100
AcDbLine
 10
448.4587385568134
 20
1030.205800410694
 30
0.0
 11
321.2587385568133
 21
1030.205800410694
 31
0.0
  0
LINE
  5
A56F
330
1F
100
AcDbEntity
  8
0
 62
     0
 48
0.5
100
AcDbLine
 10
25.85873855681347
 20
1032.405800410694
 30
0.0
 11
38.85873855681348
 21
1032.405800410694
 31
0.0
  0
LINE
  5
A570
330
1F
100
AcDbEntity
  8
0
 62
     0
 48
0.5
100
AcDbLine
 10
38.85873855681348
 20
1029.205800410694
 30
0.0
 11
25.85873855681347
 21
1029.205800410694
 31
0.0
  0
LINE
  5
A571
330
1F
100
AcDbEntity
  8
0
 62
     0
 48
0.5
100
AcDbLine
 10
25.85873855681347
 20
1030.805800410695
 30
0.0
 11
25.85873855681347
 21
1032.405800410694
 31
0.0
  0
LINE
  5
A572
330
1F
100
AcDbEntity
  8
0
 62
     0
 48
0.5
100
AcDbLine
 10
25.85873855681347
 20
1030.805800410695
 30
0.0
 11
25.85873855681347
 21
1032.405800410694
 31
0.0
  0
LINE
  5
A573
330
1F
100
AcDbEntity
  8
0
 62
     0
 48
0.5
100
AcDbLine
 10
38.85873855681348
 20
1032.405800410694
 30
0.0
 11
38.85873855681348
 21
1029.205800410694
 31
0.0
  0
ARC
  5
A576
330
1F
100
AcDbEntity
  8
0
 62
     0
100
AcDbCircle
 10
18.31339490372479
 20
1209.847796842598
 30
0.0
 40
1.481372269500913
100
AcDbArc
 50
157.2080385520316
 51
202.7919614479682
  0
LINE
  5
A577
330
1F
100
AcDbEntity
  8
0
 62
     0
100
AcDbLine
 10
16.83241471743868
 20
1210.708591706161
 30
0.0
 11
16.83570416310972
 21
1208.987001979036
 31
0.0
  0
LINE
  5
A578
330
1F
100
AcDbEntity
  8
0
 62
     0
100
AcDbLine
 10
17.85873855681347
 20
1210.96683016523
 30
0.0
 11
17.85873855681347
 21
1208.725001992385
 31
0.0
  0
LINE
  5
A579
330
1F
100
AcDbEntity
  8
0
 62
     0
100
AcDbLine
 10
17.85873855681347
 20
1209.845916078807
 30
0.0
 11
17.85873855681347
 21
1209.272052836432
 31
0.0
  0
LINE
  5
A57A
330
1F
100
AcDbEntity
  8
0
 62
     0
100
AcDbLine
 10
17.69866019031773
 20
1209.273933600224
 30
0.0
 11
17.85873855681347
 21
1209.273933600224
 31
0.0
  0
LINE
  5
A57B
330
1F
100
AcDbEntity
  8
0
 62
     0
100
AcDbLine
 10
17.83004563925737
 20
1208.696427297522
 30
0.0
 11
17.85873855681347
 21
1208.725001992385
 31
0.0
  0
LINE
  5
A57C
330
1F
100
AcDbEntity
  8
0
 62
     0
100
AcDbLine
 10
17.85873855681347
 20
1209.845916078807
 30
0.0
 11
17.85873855681347
 21
1209.55898445762
 31
0.0
  0
ARC
  5
A57D
330
1F
100
AcDbEntity
  8
0
 62
     0
100
AcDbCircle
 10
17.25928191633479
 20
1208.987001979036
 30
0.0
 40
0.4235777532250373
100
AcDbArc
 50
137.359188147409
 51
222.6408118525909
  0
LINE
  5
A57E
330
1F
100
AcDbEntity
  8
0
 62
     0
100
AcDbLine
 10
16.94769186869221
 20
1209.273933600224
 30
0.0
 11
17.69866019031773
 21
1209.273933600224
 31
0.0
  0
LINE
  5
A57F
330
1F
100
AcDbEntity
  8
0
 62
     0
100
AcDbLine
 10
17.83004563925737
 20
1208.696427297522
 30
0.0
 11
16.94878034383464
 21
1208.696427297522
 31
0.0
  0
LINE
  5
A580
330
1F
100
AcDbEntity
  8
0
 62
     0
100
AcDbLine
 10
17.69866019031773
 20
1210.421660084973
 30
0.0
 11
17.85873855681347
 21
1210.421660084973
 31
0.0
  0
LINE
  5
A581
330
1F
100
AcDbEntity
  8
0
 62
     0
100
AcDbLine
 10
17.83004539469475
 20
1210.995523327348
 30
0.0
 11
17.85873855681347
 21
1210.96683016523
 31
0.0
  0
ARC
  5
A582
330
1F
100
AcDbEntity
  8
0
 62
     0
100
AcDbCircle
 10
17.24714814812569
 20
1210.708591706161
 30
0.0
 40
0.4147334306870116
100
AcDbArc
 50
136.2235944163307
 51
223.7764055836692
  0
LINE
  5
A583
330
1F
100
AcDbEntity
  8
0
 62
     0
100
AcDbLine
 10
16.94769186869221
 20
1210.421660084973
 30
0.0
 11
17.69866019031773
 21
1210.421660084973
 31
0.0
  0
LINE
  5
A584
330
1F
100
AcDbEntity
  8
0
 62
     0
100
AcDbLine
 10
16.94769186869221
 20
1210.995523327348
 30
0.0
 11
17.83004539469475
 21
1210.995523327348
 31
0.0
  0
LINE
  5
A585
330
1F
100
AcDbEntity
  8
0
 62
     0
100
AcDbLine
 10
16.94769186869221
 20
1210.995523327348
 30
0.0
 11
17.69866019031773
 21
1210.995523327348
 31
0.0
  0
LINE
  5
A586
330
1F
100
AcDbEntity
  8
0
 62
     0
100
AcDbLine
 10
16.94769186869221
 20
1244.221660084973
 30
0.0
 11
17.69866019031773
 21
1244.221660084973
 31
0.0
  0
LINE
  5
A587
330
1F
100
AcDbEntity
  8
0
 62
     0
100
AcDbLine
 10
16.94769186869221
 20
1244.795523327348
 30
0.0
 11
17.83004539469475
 21
1244.795523327348
 31
0.0
  0
LINE
  5
A588
330
1F
100
AcDbEntity
  8
0
 62
     0
100
AcDbLine
 10
16.94769186869221
 20
1244.795523327348
 30
0.0
 11
17.69866019031773
 21
1244.795523327348
 31
0.0
  0
ARC
  5
A589
330
1F
100
AcDbEntity
  8
0
 62
     0
100
AcDbCircle
 10
17.24714814812569
 20
1244.508591706161
 30
0.0
 40
0.4147334306870116
100
AcDbArc
 50
136.2235944163307
 51
223.7764055836692
  0
LINE
  5
A58A
330
1F
100
AcDbEntity
  8
0
 62
     0
100
AcDbLine
 10
17.69866019031773
 20
1244.221660084973
 30
0.0
 11
17.85873855681347
 21
1244.221660084973
 31
0.0
  0
LINE
  5
A58B
330
1F
100
AcDbEntity
  8
0
 62
     0
100
AcDbLine
 10
17.83004539469475
 20
1244.795523327348
 30
0.0
 11
17.85873855681347
 21
1244.76683016523
 31
0.0
  0
LINE
  5
A58C
330
1F
100
AcDbEntity
  8
0
 62
     0
100
AcDbLine
 10
16.94769186869221
 20
1243.073933600223
 30
0.0
 11
17.69866019031773
 21
1243.073933600223
 31
0.0
  0
LINE
  5
A58D
330
1F
100
AcDbEntity
  8
0
 62
     0
100
AcDbLine
 10
17.83004563925737
 20
1242.496427297521
 30
0.0
 11
16.94878034383464
 21
1242.496427297521
 31
0.0
  0
ARC
  5
A58E
330
1F
100
AcDbEntity
  8
0
 62
     0
100
AcDbCircle
 10
17.25928191633479
 20
1242.787001979036
 30
0.0
 40
0.4235777532250373
100
AcDbArc
 50
137.359188147409
 51
222.6408118525909
  0
LINE
  5
A58F
330
1F
100
AcDbEntity
  8
0
 62
     0
100
AcDbLine
 10
17.85873855681347
 20
1243.645916078807
 30
0.0
 11
17.85873855681347
 21
1243.072052836432
 31
0.0
  0
LINE
  5
A590
330
1F
100
AcDbEntity
  8
0
 62
     0
100
AcDbLine
 10
17.69866019031773
 20
1243.073933600223
 30
0.0
 11
17.85873855681347
 21
1243.073933600223
 31
0.0
  0
LINE
  5
A591
330
1F
100
AcDbEntity
  8
0
 62
     0
100
AcDbLine
 10
17.83004563925737
 20
1242.496427297521
 30
0.0
 11
17.85873855681347
 21
1242.525001992385
 31
0.0
  0
LINE
  5
A592
330
1F
100
AcDbEntity
  8
0
 62
     0
100
AcDbLine
 10
17.85873855681347
 20
1243.645916078807
 30
0.0
 11
17.85873855681347
 21
1243.35898445762
 31
0.0
  0
ARC
  5
A593
330
1F
100
AcDbEntity
  8
0
 62
     0
100
AcDbCircle
 10
18.31339490372479
 20
1243.647796842598
 30
0.0
 40
1.481372269500913
100
AcDbArc
 50
157.2080385520316
 51
202.7919614479682
  0
LINE
  5
A594
330
1F
100
AcDbEntity
  8
0
 62
     0
100
AcDbLine
 10
16.83241471743868
 20
1244.508591706161
 30
0.0
 11
16.83570416310972
 21
1242.787001979036
 31
0.0
  0
LINE
  5
A595
330
1F
100
AcDbEntity
  8
0
 62
     0
100
AcDbLine
 10
17.85873855681347
 20
1244.76683016523
 30
0.0
 11
17.85873855681347
 21
1242.525001992385
 31
0.0
  0
LINE
  5
A5B7
330
1F
100
AcDbEntity
  8
0
 62
     0
100
AcDbLine
 10
469.4874317189321
 20
1208.696308830266
 30
0.0
 11
469.4587385568134
 21
1208.725001992384
 31
0.0
  0
LINE
  5
A5B8
330
1F
100
AcDbEntity
  8
0
 62
     0
100
AcDbLine
 10
470.3697852449346
 20
1208.696308830266
 30
0.0
 11
469.6188169233091
 21
1208.696308830266
 31
0.0
  0
LINE
  5
A5B9
330
1F
100
AcDbEntity
  8
0
 62
     0
100
AcDbLine
 10
470.3697852449346
 20
1208.696308830266
 30
0.0
 11
469.4874317189321
 21
1208.696308830266
 31
0.0
  0
LINE
  5
A5BA
330
1F
100
AcDbEntity
  8
0
 62
     0
100
AcDbLine
 10
470.4850623961882
 20
1208.983240451453
 30
0.0
 11
470.4817729505172
 21
1210.704830178578
 31
0.0
  0
ARC
  5
A5BB
330
1F
100
AcDbEntity
  8
0
 62
     0
100
AcDbCircle
 10
469.0040822099021
 20
1209.844035315015
 30
0.0
 40
1.481372269500913
100
AcDbArc
 50
337.2080385520316
 51
22.79196144796827
  0
LINE
  5
A5BC
330
1F
100
AcDbEntity
  8
0
 62
     0
100
AcDbLine
 10
469.4587385568134
 20
1209.845916078807
 30
0.0
 11
469.4587385568134
 21
1210.132847699994
 31
0.0
  0
LINE
  5
A5BD
330
1F
100
AcDbEntity
  8
0
 62
     0
100
AcDbLine
 10
469.4874314743695
 20
1210.995404860092
 30
0.0
 11
469.4587385568134
 21
1210.966830165229
 31
0.0
  0
LINE
  5
A5BE
330
1F
100
AcDbEntity
  8
0
 62
     0
100
AcDbLine
 10
469.6188169233091
 20
1210.41789855739
 30
0.0
 11
469.4587385568134
 21
1210.41789855739
 31
0.0
  0
LINE
  5
A5BF
330
1F
100
AcDbEntity
  8
0
 62
     0
100
AcDbLine
 10
469.4587385568134
 20
1209.845916078807
 30
0.0
 11
469.4587385568134
 21
1210.419779321182
 31
0.0
  0
ARC
  5
A5C0
330
1F
100
AcDbEntity
  8
0
 62
     0
100
AcDbCircle
 10
470.0581951972921
 20
1210.704830178578
 30
0.0
 40
0.4235777532250373
100
AcDbArc
 50
317.359188147409
 51
42.64081185259096
  0
LINE
  5
A5C1
330
1F
100
AcDbEntity
  8
0
 62
     0
100
AcDbLine
 10
469.4874314743695
 20
1210.995404860092
 30
0.0
 11
470.3686967697922
 21
1210.995404860092
 31
0.0
  0
LINE
  5
A5C2
330
1F
100
AcDbEntity
  8
0
 62
     0
100
AcDbLine
 10
470.3697852449346
 20
1210.41789855739
 30
0.0
 11
469.6188169233091
 21
1210.41789855739
 31
0.0
  0
LINE
  5
A5C3
330
1F
100
AcDbEntity
  8
0
 62
     0
100
AcDbLine
 10
469.6188169233091
 20
1209.270172072641
 30
0.0
 11
469.4587385568134
 21
1209.270172072641
 31
0.0
  0
LINE
  5
A5C4
330
1F
100
AcDbEntity
  8
0
 62
     0
100
AcDbLine
 10
470.3697852449346
 20
1209.270172072641
 30
0.0
 11
469.6188169233091
 21
1209.270172072641
 31
0.0
  0
LINE
  5
A5C5
330
1F
100
AcDbEntity
  8
0
 62
     0
100
AcDbLine
 10
469.4587385568134
 20
1208.725001992384
 30
0.0
 11
469.4587385568134
 21
1210.966830165229
 31
0.0
  0
ARC
  5
A5C6
330
1F
100
AcDbEntity
  8
0
 62
     0
100
AcDbCircle
 10
470.0703289655012
 20
1208.983240451453
 30
0.0
 40
0.4147334306870116
100
AcDbArc
 50
316.2235944163307
 51
43.77640558366918
  0
LINE
  5
A5C7
330
1F
100
AcDbEntity
  8
0
 62
     0
100
AcDbLine
 10
470.3697852449346
 20
1242.496308830266
 30
0.0
 11
469.4874317189321
 21
1242.496308830266
 31
0.0
  0
LINE
  5
A5C8
330
1F
100
AcDbEntity
  8
0
 62
     0
100
AcDbLine
 10
469.4874317189321
 20
1242.496308830266
 30
0.0
 11
469.4587385568134
 21
1242.525001992384
 31
0.0
  0
LINE
  5
A5C9
330
1F
100
AcDbEntity
  8
0
 62
     0
100
AcDbLine
 10
469.6188169233091
 20
1243.07017207264
 30
0.0
 11
469.4587385568134
 21
1243.07017207264
 31
0.0
  0
LINE
  5
A5CA
330
1F
100
AcDbEntity
  8
0
 62
     0
100
AcDbLine
 10
469.4874314743695
 20
1244.795404860092
 30
0.0
 11
470.3686967697922
 21
1244.795404860092
 31
0.0
  0
LINE
  5
A5CB
330
1F
100
AcDbEntity
  8
0
 62
     0
100
AcDbLine
 10
469.4587385568134
 20
1243.645916078807
 30
0.0
 11
469.4587385568134
 21
1243.932847699994
 31
0.0
  0
LINE
  5
A5CC
330
1F
100
AcDbEntity
  8
0
 62
     0
100
AcDbLine
 10
469.4874314743695
 20
1244.795404860092
 30
0.0
 11
469.4587385568134
 21
1244.766830165229
 31
0.0
  0
LINE
  5
A5CD
330
1F
100
AcDbEntity
  8
0
 62
     0
100
AcDbLine
 10
469.6188169233091
 20
1244.21789855739
 30
0.0
 11
469.4587385568134
 21
1244.21789855739
 31
0.0
  0
LINE
  5
A5CE
330
1F
100
AcDbEntity
  8
0
 62
     0
100
AcDbLine
 10
469.4587385568134
 20
1243.645916078807
 30
0.0
 11
469.4587385568134
 21
1244.219779321182
 31
0.0
  0
LINE
  5
A5CF
330
1F
100
AcDbEntity
  8
0
 62
     0
100
AcDbLine
 10
469.4587385568134
 20
1242.525001992384
 30
0.0
 11
469.4587385568134
 21
1244.766830165229
 31
0.0
  0
LINE
  5
A5D0
330
1F
100
AcDbEntity
  8
0
 62
     0
100
AcDbLine
 10
470.3697852449346
 20
1242.496308830266
 30
0.0
 11
469.6188169233091
 21
1242.496308830266
 31
0.0
  0
LINE
  5
A5D1
330
1F
100
AcDbEntity
  8
0
 62
     0
100
AcDbLine
 10
470.3697852449346
 20
1243.07017207264
 30
0.0
 11
469.6188169233091
 21
1243.07017207264
 31
0.0
  0
ARC
  5
A5D2
330
1F
100
AcDbEntity
  8
0
 62
     0
100
AcDbCircle
 10
470.0703289655012
 20
1242.783240451453
 30
0.0
 40
0.4147334306870116
100
AcDbArc
 50
316.2235944163307
 51
43.77640558366918
  0
LINE
  5
A5D3
330
1F
100
AcDbEntity
  8
0
 62
     0
100
AcDbLine
 10
470.3697852449346
 20
1244.21789855739
 30
0.0
 11
469.6188169233091
 21
1244.21789855739
 31
0.0
  0
ARC
  5
A5D4
330
1F
100
AcDbEntity
  8
0
 62
     0
100
AcDbCircle
 10
470.0581951972921
 20
1244.504830178578
 30
0.0
 40
0.4235777532250373
100
AcDbArc
 50
317.359188147409
 51
42.64081185259096
  0
LINE
  5
A5D5
330
1F
100
AcDbEntity
  8
0
 62
     0
100
AcDbLine
 10
470.4850623961882
 20
1242.783240451453
 30
0.0
 11
470.4817729505172
 21
1244.504830178578
 31
0.0
  0
ARC
  5
A5D6
330
1F
100
AcDbEntity
  8
0
 62
     0
100
AcDbCircle
 10
469.0040822099021
 20
1243.644035315015
 30
0.0
 40
1.481372269500913
100
AcDbArc
 50
337.2080385520316
 51
22.79196144796827
  0
LINE
  5
A5D7
330
1F
100
AcDbEntity
  8
0
 62
     0
 48
0.5
100
AcDbLine
 10
32.4587385568135
 20
1208.245916078807
 30
0.0
 11
19.4587385568135
 21
1208.245916078807
 31
0.0
  0
LINE
  5
A5D8
330
1F
100
AcDbEntity
  8
0
 62
     0
 48
0.5
100
AcDbLine
 10
19.4587385568135
 20
1211.445916078807
 30
0.0
 11
32.4587385568135
 21
1211.445916078807
 31
0.0
  0
LINE
  5
A5D9
330
1F
100
AcDbEntity
  8
0
 62
     0
 48
0.5
100
AcDbLine
 10
19.4587385568135
 20
1245.245916078807
 30
0.0
 11
32.4587385568135
 21
1245.245916078807
 31
0.0
  0
LINE
  5
A5DA
330
1F
100
AcDbEntity
  8
0
 62
     0
 48
0.5
100
AcDbLine
 10
32.4587385568135
 20
1242.045916078807
 30
0.0
 11
19.4587385568135
 21
1242.045916078807
 31
0.0
  0
LINE
  5
A5DF
330
1F
100
AcDbEntity
  8
0
 62
     0
 48
0.5
100
AcDbLine
 10
32.4587385568135
 20
1211.445916078807
 30
0.0
 11
32.4587385568135
 21
1208.245916078807
 31
0.0
  0
LINE
  5
A5E0
330
1F
100
AcDbEntity
  8
0
 62
     0
 48
0.5
100
AcDbLine
 10
32.4587385568135
 20
1245.245916078807
 30
0.0
 11
32.4587385568135
 21
1242.045916078807
 31
0.0
  0
LINE
  5
A5E1
330
1F
100
AcDbEntity
  8
0
 62
     0
 48
0.5
100
AcDbLine
 10
19.4587385568135
 20
1211.445916078807
 30
0.0
 11
19.4587385568135
 21
1208.245916078807
 31
0.0
  0
LINE
  5
A5E2
330
1F
100
AcDbEntity
  8
0
 62
     0
 48
0.5
100
AcDbLine
 10
182.4587385568134
 20
1208.245916078807
 30
0.0
 11
169.4587385568134
 21
1208.245916078807
 31
0.0
  0
LINE
  5
A5E3
330
1F
100
AcDbEntity
  8
0
 62
     0
 48
0.5
100
AcDbLine
 10
169.4587385568134
 20
1211.445916078807
 30
0.0
 11
182.4587385568134
 21
1211.445916078807
 31
0.0
  0
LINE
  5
A5E4
330
1F
100
AcDbEntity
  8
0
 62
     0
 48
0.5
100
AcDbLine
 10
182.4587385568134
 20
1242.045916078807
 30
0.0
 11
169.4587385568134
 21
1242.045916078807
 31
0.0
  0
LINE
  5
A5E5
330
1F
100
AcDbEntity
  8
0
 62
     0
 48
0.5
100
AcDbLine
 10
169.4587385568134
 20
1245.245916078807
 30
0.0
 11
182.4587385568134
 21
1245.245916078807
 31
0.0
  0
LINE
  5
A5E6
330
1F
100
AcDbEntity
  8
0
 62
     0
 48
0.5
100
AcDbLine
 10
182.4587385568134
 20
1211.445916078807
 30
0.0
 11
182.4587385568134
 21
1208.245916078807
 31
0.0
  0
LINE
  5
A5E7
330
1F
100
AcDbEntity
  8
0
 62
     0
 48
0.5
100
AcDbLine
 10
182.4587385568134
 20
1245.245916078807
 30
0.0
 11
182.4587385568134
 21
1242.045916078807
 31
0.0
  0
LINE
  5
A5E8
330
1F
100
AcDbEntity
  8
0
 62
     0
 48
0.5
100
AcDbLine
 10
169.4587385568134
 20
1208.245916078807
 30
0.0
 11
169.4587385568134
 21
1211.445916078807
 31
0.0
  0
LINE
  5
A5E9
330
1F
100
AcDbEntity
  8
0
 62
     0
 48
0.5
100
AcDbLine
 10
169.4587385568134
 20
1242.045916078807
 30
0.0
 11
169.4587385568134
 21
1245.245916078807
 31
0.0
  0
LINE
  5
A5EA
330
1F
100
AcDbEntity
  8
0
 62
     0
 48
0.5
100
AcDbLine
 10
467.8587385568134
 20
1208.245916078807
 30
0.0
 11
454.8587385568134
 21
1208.245916078807
 31
0.0
  0
LINE
  5
A5EB
330
1F
100
AcDbEntity
  8
0
 62
     0
 48
0.5
100
AcDbLine
 10
454.8587385568134
 20
1211.445916078807
 30
0.0
 11
467.8587385568134
 21
1211.445916078807
 31
0.0
  0
LINE
  5
A5EC
330
1F
100
AcDbEntity
  8
0
 62
     0
 48
0.5
100
AcDbLine
 10
454.8587385568134
 20
1208.245916078807
 30
0.0
 11
454.8587385568134
 21
1211.445916078807
 31
0.0
  0
LINE
  5
A5ED
330
1F
100
AcDbEntity
  8
0
 62
     0
 48
0.5
100
AcDbLine
 10
467.8587385568134
 20
1211.445916078807
 30
0.0
 11
467.8587385568134
 21
1208.245916078807
 31
0.0
  0
LINE
  5
A5EE
330
1F
100
AcDbEntity
  8
0
 62
     0
 48
0.5
100
AcDbLine
 10
467.8587385568134
 20
1242.045916078807
 30
0.0
 11
454.8587385568134
 21
1242.045916078807
 31
0.0
  0
LINE
  5
A5EF
330
1F
100
AcDbEntity
  8
0
 62
     0
 48
0.5
100
AcDbLine
 10
454.8587385568134
 20
1245.245916078807
 30
0.0
 11
467.8587385568134
 21
1245.245916078807
 31
0.0
  0
LINE
  5
A5F0
330
1F
100
AcDbEntity
  8
0
 62
     0
 48
0.5
100
AcDbLine
 10
454.8587385568134
 20
1242.045916078807
 30
0.0
 11
454.8587385568134
 21
1245.245916078807
 31
0.0
  0
LINE
  5
A5F1
330
1F
100
AcDbEntity
  8
0
 62
     0
 48
0.5
100
AcDbLine
 10
467.8587385568134
 20
1245.245916078807
 30
0.0
 11
467.8587385568134
 21
1242.045916078807
 31
0.0
  0
LINE
  5
A5F8
330
1F
100
AcDbEntity
  8
0
 62
     0
 48
0.5
100
AcDbLine
 10
167.8587385568134
 20
1211.722590530028
 30
0.0
 11
167.8587385568134
 21
1208.522590530028
 31
0.0
  0
LINE
  5
A5F9
330
1F
100
AcDbEntity
  8
0
 62
     0
 48
0.5
100
AcDbLine
 10
167.8587385568134
 20
1245.522590530028
 30
0.0
 11
167.8587385568134
 21
1242.322590530027
 31
0.0
  0
LINE
  5
A5FA
330
1F
100
AcDbEntity
  8
0
 62
     0
 48
0.5
100
AcDbLine
 10
154.8587385568134
 20
1211.445916078807
 30
0.0
 11
167.8587385568134
 21
1211.445916078807
 31
0.0
  0
LINE
  5
A5FB
330
1F
100
AcDbEntity
  8
0
 62
     0
 48
0.5
100
AcDbLine
 10
167.8587385568134
 20
1208.245916078807
 30
0.0
 11
154.8587385568134
 21
1208.245916078807
 31
0.0
  0
LINE
  5
A5FC
330
1F
100
AcDbEntity
  8
0
 62
     0
 48
0.5
100
AcDbLine
 10
154.8587385568134
 20
1208.245916078807
 30
0.0
 11
154.8587385568134
 21
1211.445916078807
 31
0.0
  0
LINE
  5
A600
330
1F
100
AcDbEntity
  8
0
 62
     0
 48
0.5
100
AcDbLine
 10
167.8587385568134
 20
1211.445916078807
 30
0.0
 11
167.8587385568134
 21
1208.245916078807
 31
0.0
  0
LINE
  5
A601
330
1F
100
AcDbEntity
  8
0
 62
     0
 48
0.5
100
AcDbLine
 10
154.8587385568134
 20
1245.245916078807
 30
0.0
 11
167.8587385568134
 21
1245.245916078807
 31
0.0
  0
LINE
  5
A602
330
1F
100
AcDbEntity
  8
0
 62
     0
 48
0.5
100
AcDbLine
 10
167.8587385568134
 20
1242.045916078807
 30
0.0
 11
154.8587385568134
 21
1242.045916078807
 31
0.0
  0
LINE
  5
A603
330
1F
100
AcDbEntity
  8
0
 62
     0
 48
0.5
100
AcDbLine
 10
154.8587385568134
 20
1242.045916078807
 30
0.0
 11
154.8587385568134
 21
1245.245916078807
 31
0.0
  0
LINE
  5
A607
330
1F
100
AcDbEntity
  8
0
 62
     0
 48
0.5
100
AcDbLine
 10
167.8587385568134
 20
1245.245916078807
 30
0.0
 11
167.8587385568134
 21
1242.045916078807
 31
0.0
  0
LINE
  5
A610
330
1F
100
AcDbEntity
  8
0
 62
     0
 48
0.5
100
AcDbLine
 10
32.4587385568135
 20
1244.045916078807
 30
0.0
 11
154.8587385568134
 21
1244.045916078807
 31
0.0
  0
LINE
  5
A611
330
1F
100
AcDbEntity
  8
0
 62
     0
 48
0.5
100
AcDbLine
 10
32.4587385568135
 20
1243.245916078807
 30
0.0
 11
154.8587385568134
 21
1243.245916078807
 31
0.0
  0
LINE
  5
A612
330
1F
100
AcDbEntity
  8
0
 62
     0
 48
0.5
100
AcDbLine
 10
182.4587385568134
 20
1243.245916078807
 30
0.0
 11
317.8587385568134
 21
1243.245916078807
 31
0.0
  0
LINE
  5
A613
330
1F
100
AcDbEntity
  8
0
 62
     0
 48
0.5
100
AcDbLine
 10
182.4587385568134
 20
1244.045916078807
 30
0.0
 11
317.8587385568134
 21
1244.045916078807
 31
0.0
  0
LINE
  5
A614
330
1F
100
AcDbEntity
  8
0
 62
     0
 48
0.5
100
AcDbLine
 10
319.4587385568135
 20
1244.045916078807
 30
0.0
 11
454.8587385568134
 21
1244.045916078807
 31
0.0
  0
LINE
  5
A615
330
1F
100
AcDbEntity
  8
0
 62
     0
 48
0.5
100
AcDbLine
 10
319.4587385568135
 20
1243.245916078807
 30
0.0
 11
454.8587385568134
 21
1243.245916078807
 31
0.0
  0
LINE
  5
A616
330
1F
100
AcDbEntity
  8
0
 62
     0
 48
0.5
100
AcDbLine
 10
182.4587385568134
 20
1209.445916078807
 30
0.0
 11
317.8587385568134
 21
1209.445916078807
 31
0.0
  0
LINE
  5
A617
330
1F
100
AcDbEntity
  8
0
 62
     0
 48
0.5
100
AcDbLine
 10
182.4587385568134
 20
1210.245916078807
 30
0.0
 11
317.8587385568134
 21
1210.245916078807
 31
0.0
  0
LINE
  5
A618
330
1F
100
AcDbEntity
  8
0
 62
     0
 48
0.5
100
AcDbLine
 10
319.4587385568135
 20
1209.445916078807
 30
0.0
 11
454.8587385568134
 21
1209.445916078807
 31
0.0
  0
LINE
  5
A619
330
1F
100
AcDbEntity
  8
0
 62
     0
 48
0.5
100
AcDbLine
 10
319.4587385568135
 20
1210.245916078807
 30
0.0
 11
454.8587385568134
 21
1210.245916078807
 31
0.0
  0
LINE
  5
A61A
330
1F
100
AcDbEntity
  8
0
 62
     0
 48
0.5
100
AcDbLine
 10
32.4587385568135
 20
1210.245916078807
 30
0.0
 11
154.8587385568134
 21
1210.245916078807
 31
0.0
  0
LINE
  5
A61B
330
1F
100
AcDbEntity
  8
0
 62
     0
 48
0.5
100
AcDbLine
 10
32.4587385568135
 20
1209.445916078807
 30
0.0
 11
154.8587385568134
 21
1209.445916078807
 31
0.0
  0
VIEWPORT
  5
2F
330
1B
100
AcDbEntity
 67
     1
  8
0
100
AcDbViewport
 10
210.8645862540714
 20
149.7815185269692
 30
0.0
 40
479.1862016322689
 41
324.9607266531437
 68
     1
 69
     1
 12
210.8645862540714
 22
149.7815185269692
 13
0.0
 23
0.0
 14
10.0
 24
10.0
 15
10.0
 25
10.0
 16
0.0
 26
0.0
 36
1.0
 17
0.0
 27
0.0
 37
0.0
 42
50.0
 43
0.0
 44
0.0
 45
324.9607266531437
 50
0.0
 51
0.0
 72
   100
 90
    32800
  1

281
     0
 71
     1
 74
     0
110
0.0
120
0.0
130
0.0
111
1.0
121
0.0
131
0.0
112
0.0
122
1.0
132
0.0
 79
     0
146
0.0
  0
LWPOLYLINE
  5
AA
330
1B
100
AcDbEntity
 67
     1
  8
２
 62
     0
100
AcDbPolyline
 90
        4
 70
     1
 43
0.0
 10
1.042221639059562
 20
284.1844718556203
 10
407.757958684845
 20
284.1844718556203
 10
407.757958684845
 20
1.08829855961801
 10
1.042221639059562
 20
1.08829855961801
  0
MTEXT
  5
DC
330
1B
100
AcDbEntity
 67
     1
  8
２
 62
     0
100
AcDbMText
 10
275.257958684845
 20
4.588298559618024
 30
0.0
 40
3.0
 41
55.0
 71
     5
 72
     5
  1
{\fMS UI Gothic|b0|i0|c128|p50;株式会社 アルティマ}
 73
     1
 44
1.0
  0
LINE
  5
DD
330
1B
100
AcDbEntity
 67
     1
  8
２
 62
     0
100
AcDbLine
 10
262.757958684845
 20
8.088298559618039
 30
0.0
 11
302.757958684845
 21
8.088298559618039
 31
0.0
  0
LINE
  5
DE
330
1B
100
AcDbEntity
 67
     1
  8
２
 62
     0
100
AcDbLine
 10
342.7579586848451
 20
23.08829855961798
 30
0.0
 11
247.757958684845
 21
23.08829855961792
 31
0.0
  0
LINE
  5
DF
330
1B
100
AcDbEntity
 67
     1
  8
２
 62
     0
100
AcDbLine
 10
247.7579586848449
 20
18.08829855961798
 30
0.0
 11
342.7579586848451
 21
18.08829855961798
 31
0.0
  0
LINE
  5
E0
330
1B
100
AcDbEntity
 67
     1
  8
２
 62
     0
100
AcDbLine
 10
342.7579586848451
 20
13.08829855961801
 30
0.0
 11
247.7579586848451
 21
13.08829855961798
 31
0.0
  0
LINE
  5
E1
330
1B
100
AcDbEntity
 67
     1
  8
２
 62
     0
100
AcDbLine
 10
352.757958684845
 20
8.08829855961801
 30
0.0
 11
252.8023834435082
 21
8.088298559618039
 31
0.0
  0
LINE
  5
E2
330
1B
100
AcDbEntity
 67
     1
  8
２
 62
     0
100
AcDbLine
 10
407.7579586848449
 20
28.08829855961801
 30
0.0
 11
247.7579586848449
 21
28.08829855961803
 31
0.0
  0
MTEXT
  5
E3
330
1B
100
AcDbEntity
 67
     1
  8
２
 62
     0
100
AcDbMText
 10
255.2579586848449
 20
25.58829855961798
 30
0.0
 40
2.0
 41
15.0
 71
     5
 72
     5
  1
{\fMS UI Gothic|b0|i0|c128|p50;パーツ}
 73
     1
 44
1.0
  0
LINE
  5
E4
330
1B
100
AcDbEntity
 67
     1
  8
２
 62
     0
100
AcDbLine
 10
247.7579586848449
 20
8.088298559618039
 30
0.0
 11
262.757958684845
 21
8.088298559618039
 31
0.0
  0
LINE
  5
E5
330
1B
100
AcDbEntity
 67
     1
  8
２
 62
     0
100
AcDbLine
 10
247.7579586848451
 20
13.08829855961798
 30
0.0
 11
247.7579586848449
 21
18.08829855961798
 31
0.0
  0
LINE
  5
E6
330
1B
100
AcDbEntity
 67
     1
  8
２
 62
     0
100
AcDbLine
 10
247.7579586848449
 20
28.08829855961803
 30
0.0
 11
247.7579586848449
 21
9.237389132921862
 31
0.0
  0
LINE
  5
E7
330
1B
100
AcDbEntity
 67
     1
  8
２
 62
     0
100
AcDbLine
 10
247.7579586848449
 20
9.237389132921862
 30
0.0
 11
247.7579586848449
 21
1.088298559618039
 31
0.0
  0
LINE
  5
E8
330
1B
100
AcDbEntity
 67
     1
  8
２
 62
     0
100
AcDbLine
 10
262.757958684845
 20
8.088298559618039
 30
0.0
 11
262.757958684845
 21
28.08829855961803
 31
0.0
  0
LINE
  5
EC
330
1B
100
AcDbEntity
 67
     1
  8
２
 62
     0
100
AcDbLine
 10
407.757958684845
 20
8.08829855961801
 30
0.0
 11
352.757958684845
 21
8.08829855961801
 31
0.0
  0
MTEXT
  5
ED
330
1B
100
AcDbEntity
 67
     1
  8
２
 62
     0
 48
0.3
100
AcDbMText
 10
317.7579586848451
 20
4.370495529314986
 30
0.0
 40
2.0
 41
20.0
 71
     5
 72
     5
  1
E.Nomura
 73
     1
 44
1.0
  0
MTEXT
  5
EE
330
1B
100
AcDbEntity
 67
     1
  8
２
 62
     0
100
AcDbMText
 10
322.7579586848449
 20
25.588298559618
 30
0.0
 40
2.0
 41
40.0
 71
     5
 72
     5
  1
{\fMS UI Gothic|b0|i0|c128|p50;処　　　理}
 73
     1
 44
1.0
  0
LINE
  5
EF
330
1B
100
AcDbEntity
 67
     1
  8
２
 62
     0
100
AcDbLine
 10
327.757958684845
 20
1.08829855961801
 30
0.0
 11
307.7579586848451
 21
1.08829855961801
 31
0.0
  0
MTEXT
  5
F0
330
1B
100
AcDbEntity
 67
     1
  8
２
 62
     0
100
AcDbMText
 10
282.7579586848449
 20
25.58829855961799
 30
0.0
 40
2.0
 41
40.0
 71
     5
 72
     5
  1
{\fMS UI Gothic|b0|i0|c128|p50;材　　　質}
 73
     1
 44
1.0
  0
LINE
  5
F1
330
1B
100
AcDbEntity
 67
     1
  8
２
 62
     0
100
AcDbLine
 10
302.757958684845
 20
8.088298559618039
 30
0.0
 11
302.757958684845
 21
28.08829855961803
 31
0.0
  0
MTEXT
  5
F2
330
1B
100
AcDbEntity
 67
     1
  8
２
 62
     0
100
AcDbMText
 10
305.2690710641766
 20
4.588298559618021
 30
0.0
 40
2.0
 41
4.9778
 71
     5
 72
     5
  1
{\fMS UI Gothic|b0|i0|c128|p50;製\P図}
 73
     1
 44
1.0
  0
LINE
  5
F3
330
1B
100
AcDbEntity
 67
     1
  8
２
 62
     0
100
AcDbLine
 10
302.757958684845
 20
8.088298559618039
 30
0.0
 11
302.757958684845
 21
1.08829855961801
 31
0.0
  0
LINE
  5
F4
330
1B
100
AcDbEntity
 67
     1
  8
２
 62
     0
100
AcDbLine
 10
307.7579586848451
 20
1.08829855961801
 30
0.0
 11
307.7579586848451
 21
8.08829855961801
 31
0.0
  0
LINE
  5
F5
330
1B
100
AcDbEntity
 67
     1
  8
２
 62
     0
100
AcDbLine
 10
307.7579586848451
 20
8.08829855961801
 30
0.0
 11
302.757958684845
 21
8.088298559618039
 31
0.0
  0
MTEXT
  5
F6
330
1B
100
AcDbEntity
 67
     1
  8
２
 62
     0
100
AcDbMText
 10
347.7579586848451
 20
18.08829855961802
 30
0.0
 40
2.5
 41
10.0
 71
     5
 72
     5
  1
{\fMS UI Gothic|b0|i0|c128|p50;品\P\P名}
 73
     1
 44
1.0
  0
MTEXT
  5
F7
330
1B
100
AcDbEntity
 67
     1
  8
２
 62
     0
100
AcDbMText
 10
347.7579586848451
 20
4.588298559618021
 30
0.0
 40
2.0
 41
10.0
 71
     5
 72
     5
  1
{\fMS UI Gothic|b0|i0|c128|p50;品番}
 73
     1
 44
1.0
  0
LINE
  5
F8
330
1B
100
AcDbEntity
 67
     1
  8
２
 62
     0
100
AcDbLine
 10
342.7579586848451
 20
28.08829855961801
 30
0.0
 11
352.757958684845
 21
28.08829855961801
 31
0.0
  0
LINE
  5
F9
330
1B
100
AcDbEntity
 67
     1
  8
２
 62
     0
100
AcDbLine
 10
352.757958684845
 20
1.08829855961801
 30
0.0
 11
342.7579586848451
 21
1.08829855961801
 31
0.0
  0
LINE
  5
FA
330
1B
100
AcDbEntity
 67
     1
  8
２
 62
     0
100
AcDbLine
 10
342.7579586848451
 20
1.08829855961801
 30
0.0
 11
342.7579586848451
 21
28.08829855961801
 31
0.0
  0
LINE
  5
FB
330
1B
100
AcDbEntity
 67
     1
  8
２
 62
     0
100
AcDbLine
 10
342.7579586848451
 20
1.08829855961801
 30
0.0
 11
332.7579586848451
 21
1.08829855961801
 31
0.0
  0
MTEXT
  5
FC
330
1B
100
AcDbEntity
 67
     1
  8
２
 62
     0
100
AcDbMText
 10
330.2579586848451
 20
4.588298559618017
 30
0.0
 40
2.0
 41
5.0
 71
     5
 72
     5
  1
{\fMS UI Gothic|b0|i0|c128|p50;縮\P尺}
 73
     1
 44
1.0
  0
LINE
  5
FD
330
1B
100
AcDbEntity
 67
     1
  8
２
 62
     0
100
AcDbLine
 10
327.757958684845
 20
8.08829855961801
 30
0.0
 11
327.757958684845
 21
1.08829855961801
 31
0.0
  0
LINE
  5
FE
330
1B
100
AcDbEntity
 67
     1
  8
２
 62
     0
100
AcDbLine
 10
332.7579586848451
 20
1.08829855961801
 30
0.0
 11
332.7579586848451
 21
8.08829855961801
 31
0.0
  0
LINE
  5
FF
330
1B
100
AcDbEntity
 67
     1
  8
２
 62
     0
100
AcDbLine
 10
332.7579586848451
 20
8.08829855961801
 30
0.0
 11
327.757958684845
 21
8.08829855961801
 31
0.0
  0
LINE
  5
100
330
1B
100
AcDbEntity
 67
     1
  8
２
 62
     0
100
AcDbLine
 10
342.7579586848451
 20
8.08829855961801
 30
0.0
 11
342.7579586848451
 21
13.08829855961801
 31
0.0
  0
LINE
  5
101
330
1B
100
AcDbEntity
 67
     1
  8
２
 62
     0
100
AcDbLine
 10
342.7579586848451
 20
18.08829855961798
 30
0.0
 11
342.7579586848451
 21
23.08829855961798
 31
0.0
  0
LINE
  5
102
330
1B
100
AcDbEntity
 67
     1
  8
２
 62
     0
100
AcDbLine
 10
352.757958684845
 20
28.08829855961801
 30
0.0
 11
352.757958684845
 21
8.08829855961801
 31
0.0
  0
LINE
  5
103
330
1B
100
AcDbEntity
 67
     1
  8
２
 62
     0
100
AcDbLine
 10
352.757958684845
 20
8.08829855961801
 30
0.0
 11
352.757958684845
 21
1.08829855961801
 31
0.0
  0
LINE
  5
104
330
1B
100
AcDbEntity
 67
     1
  8
２
 62
     0
100
AcDbLine
 10
407.757958684845
 20
1.08829855961801
 30
0.0
 11
407.7579586848449
 21
28.08829855961801
 31
0.0
  0
LINE
  5
105
330
1B
100
AcDbEntity
 67
     1
  8
２
 62
     0
100
AcDbLine
 10
407.757958684845
 20
1.08829855961801
 30
0.0
 11
407.757958684845
 21
8.08829855961801
 31
0.0
  0
LINE
  5
10E
330
1B
100
AcDbEntity
 67
     1
  8
２
 62
     0
 48
0.3
100
AcDbLine
 10
348.1319795129643
 20
277.1869416790318
 30
0.0
 11
407.82803226079
 21
277.1869416790318
 31
0.0
  0
LINE
  5
10F
330
1B
100
AcDbEntity
 67
     1
  8
２
 62
     0
 48
0.3
100
AcDbLine
 10
348.1319795129643
 20
277.1869416790318
 30
0.0
 11
348.1319795129643
 21
284.1844718556203
 31
0.0
  0
LINE
  5
111
330
1B
100
AcDbEntity
 67
     1
  8
２
 62
     0
 48
0.3
100
AcDbLine
 10
358.9855818391189
 20
284.1844718556203
 30
0.0
 11
358.9855818391189
 21
277.1869416790318
 31
0.0
  0
MTEXT
  5
112
330
1B
100
AcDbEntity
 67
     1
  8
２
 62
     0
100
AcDbMText
 10
255.2579586848451
 20
10.58829855961801
 30
0.0
 40
2.5
 41
15.0
 71
     5
 72
     5
  1
{\fMS UI Gothic|b0|i0|c128|p17;１}
 73
     1
 44
1.0
  0
MTEXT
  5
113
330
1B
100
AcDbEntity
 67
     1
  8
２
 62
     0
100
AcDbMText
 10
255.2579586848449
 20
15.58829855961798
 30
0.0
 40
2.5
 41
15.0
 71
     5
 72
     5
  1
{\fMS UI Gothic|b0|i0|c128|p17;２}
 73
     1
 44
1.0
  0
MTEXT
  5
114
330
1B
100
AcDbEntity
 67
     1
  8
２
 62
     0
100
AcDbMText
 10
255.257958684845
 20
20.58829855961795
 30
0.0
 40
2.5
 41
15.0
 71
     5
 72
     5
  1
{\fMS UI Gothic|b0|i0|c128|p17;３}
 73
     1
 44
1.0
  0
MTEXT
  5
115
330
1B
100
AcDbEntity
 67
     1
  8
２
 62
     0
100
AcDbMText
 10
353.5587795129643
 20
280.6857067673261
 30
0.0
 40
2.5
 41
10.8536
 71
     5
 72
     5
  1
{\fMS UI Gothic|b0|i0|c128|p17;日付}
 73
     1
 44
1.0
  0
MTEXT
  5
1DD
330
1B
100
AcDbEntity
 67
     1
  8
１
100
AcDbMText
 10
187.6389970102438
 20
148.8327383458293
 30
0.0
 40
2.5
 41
0.0
 71
     9
 72
     1
  1

  7
ｽﾀｲﾙ1
 73
     1
 44
1.0
  0
MTEXT
  5
1DF
330
1B
100
AcDbEntity
 67
     1
  8
１
100
AcDbMText
 10
125.9251163363451
 20
100.1557259194321
 30
0.0
 40
2.5
 41
0.0
 71
     9
 72
     1
  1

  7
ｽﾀｲﾙ1
 73
     1
 44
1.0
  0
MTEXT
  5
1F5
330
1B
100
AcDbEntity
 67
     1
  8
１
100
AcDbMText
 10
95.93852678293661
 20
241.1781167614512
 30
0.0
 40
2.5
 41
0.0
 71
     1
 72
     1
  1

  7
ｽﾀｲﾙ1
 73
     1
 44
1.0
  0
MTEXT
  5
1F7
330
1B
100
AcDbEntity
 67
     1
  8
１
100
AcDbMText
 10
103.8845037960281
 20
221.796204377297
 30
0.0
 40
2.5
 41
0.0
 71
     1
 72
     1
  1

  7
ｽﾀｲﾙ1
 73
     1
 44
1.0
  0
ENDSEC
  0
SECTION
  2
OBJECTS
  0
DICTIONARY
  5
C
330
0
100
AcDbDictionary
281
     1
  3
ACAD_GROUP
350
D
  3
ACAD_IMAGE_VARS
350
2B
  3
ACAD_LAYOUT
350
1A
  3
ACAD_MLINESTYLE
350
17
  3
ACAD_PLOTSETTINGS
350
19
  3
ACAD_PLOTSTYLENAME
350
E
  3
AcadDim
350
9468
  3
AcDbVariableDictionary
350
65AD
  3
DWGPROPS
350
7E1
  0
DICTIONARY
  5
D
102
{ACAD_REACTORS
330
C
102
}
330
C
100
AcDbDictionary
281
     1
  0
RASTERVARIABLES
  5
2B
102
{ACAD_REACTORS
330
C
102
}
330
C
100
AcDbRasterVariables
 90
        0
 70
     1
 71
     1
 72
     1
  0
DICTIONARY
  5
1A
102
{ACAD_REACTORS
330
C
102
}
330
C
100
AcDbDictionary
281
     1
  3
Model
350
22
  3
ﾚｲｱｳﾄ1
350
1E
  3
ﾚｲｱｳﾄ2
350
26
  0
DICTIONARY
  5
17
102
{ACAD_REACTORS
330
C
102
}
330
C
100
AcDbDictionary
281
     1
  3
Standard
350
18
  0
DICTIONARY
  5
19
102
{ACAD_REACTORS
330
C
102
}
330
C
100
AcDbDictionary
281
     1
  0
ACDBDICTIONARYWDFLT
  5
E
102
{ACAD_REACTORS
330
C
102
}
330
C
100
AcDbDictionary
281
     1
  3
Normal
350
F
100
AcDbDictionaryWithDefault
340
F
  0
XRECORD
  5
9468
102
{ACAD_REACTORS
330
C
102
}
330
C
100
AcDbXrecord
280
     1
 90
   990106
  3

 60
     0
 61
     0
 62
     1
 63
     3
 64
     0
 65
     0
 66
     0
 67
     3
 68
     1
 69
     0
 70
     0
 71
     0
 72
     0
 40
20.43801309868158
170
     0
340
A321
  0
DICTIONARY
  5
65AD
102
{ACAD_REACTORS
330
C
102
}
330
C
100
AcDbDictionary
281
     1
  3
SORTENTS
350
65AE
  0
XRECORD
  5
7E1
102
{ACAD_REACTORS
330
C
102
}
330
C
100
AcDbXrecord
280
     1
  1
DWGPROPS COOKIE
  2

  3

  4

  6

  7

  8

  9

300
=
301
=
302
=
303
=
304
=
305
=
306
=
307
=
308
=
309
=
 40
0.1525764814814815
 41
2454873.622250069
 42
2455268.41966037
  1

 90
        0
  0
LAYOUT
  5
22
102
{ACAD_REACTORS
330
1A
102
}
330
1A
100
AcDbPlotSettings
  1

  2
RICOH IPSiO G515
  4
A3
  6

 40
5.873749732971191
 41
5.873747825622558
 42
5.873748779296875
 43
5.873748779296875
 44
296.9259948730469
 45
419.9466552734374
 46
0.0
 47
0.0
 48
0.0
 49
0.0
140
0.0
141
0.0
142
1.0
143
1.959971811730723
 70
 11952
 72
     1
 73
     1
 74
     1
  7

 75
     0
147
0.5102114193759578
148
117.6657051803588
149
-817.5266692991444
100
AcDbLayout
  1
Model
 70
     1
 71
     0
 10
0.0
 20
0.0
 11
12.0
 21
9.0
 12
0.0
 22
0.0
 32
0.0
 14
0.0
 24
0.0
 34
0.0
 15
0.0
 25
0.0
 35
0.0
146
0.0
 13
0.0
 23
0.0
 33
0.0
 16
1.0
 26
0.0
 36
0.0
 17
0.0
 27
1.0
 37
0.0
 76
     0
330
1F
  0
LAYOUT
  5
1E
102
{ACAD_REACTORS
330
1A
102
}
330
1A
100
AcDbPlotSettings
  1

  2
RICOH imagio MP C3500 RPCS
  4
A3
  6

 40
5.873749732971191
 41
5.873747825622558
 42
5.873748779296875
 43
5.873748779296875
 44
296.9259948730469
 45
419.9466552734374
 46
0.0
 47
0.0
 48
0.0
 49
0.0
140
0.0
141
0.0
142
1.0
143
1.0
 70
   688
 72
     1
 73
     1
 74
     5
  7

 75
    16
147
1.0
148
0.0
149
0.0
100
AcDbLayout
  1
ﾚｲｱｳﾄ1
 70
     1
 71
     1
 10
-5.873748779296875
 20
-5.873749732971191
 11
414.0729064941406
 21
291.0522451400757
 12
0.0
 22
0.0
 32
0.0
 14
1.042221639059562
 24
1.08829855961801
 34
0.0
 15
407.82803226079
 25
284.1844718556203
 35
0.0
146
0.0
 13
0.0
 23
0.0
 33
0.0
 16
1.0
 26
0.0
 36
0.0
 17
0.0
 27
1.0
 37
0.0
 76
     0
330
1B
331
2F
  0
LAYOUT
  5
26
102
{ACAD_REACTORS
330
1A
102
}
330
1A
100
AcDbPlotSettings
  1

  2
RICOH imagio Neo C380 RPCS
  4

  6

 40
0.0
 41
0.0
 42
0.0
 43
0.0
 44
0.0
 45
0.0
 46
0.0
 47
0.0
 48
0.0
 49
0.0
140
0.0
141
0.0
142
1.0
143
1.0
 70
   688
 72
     0
 73
     1
 74
     5
  7

 75
    16
147
1.0
148
0.0
149
0.0
100
AcDbLayout
  1
ﾚｲｱｳﾄ2
 70
     1
 71
     2
 10
0.0
 20
0.0
 11
0.0
 21
0.0
 12
0.0
 22
0.0
 32
0.0
 14
0.0
 24
0.0
 34
0.0
 15
0.0
 25
0.0
 35
0.0
146
0.0
 13
0.0
 23
0.0
 33
0.0
 16
1.0
 26
0.0
 36
0.0
 17
0.0
 27
1.0
 37
0.0
 76
     0
330
23
331
922
  0
MLINESTYLE
  5
18
102
{ACAD_REACTORS
330
17
102
}
330
17
100
AcDbMlineStyle
  2
STANDARD
 70
     0
  3

 62
   256
 51
90.0
 52
90.0
 71
     2
 49
0.5
 62
   256
  6
BYLAYER
 49
-0.5
 62
   256
  6
BYLAYER
  0
ACDBPLACEHOLDER
  5
F
102
{ACAD_REACTORS
330
E
102
}
330
E
  0
DICTIONARYVAR
  5
65AE
102
{ACAD_REACTORS
330
65AD
102
}
330
65AD
100
DictionaryVariables
280
     0
  1
96
  0
ENDSEC
  0
EOF
