  0
SECTION
  2
HEADER
  9
$ACADVER
  1
AC1015
  9
$ACADMAINTVER
 70
     6
  9
$DWGCODEPAGE
  3
ANSI_932
  9
$INSBASE
 10
0.0
 20
0.0
 30
0.0
  9
$EXTMIN
 10
-117.6069841392893
 20
817.5308658634675
 30
-0.00000001
  9
$EXTMAX
 10
682.3930158607106
 20
1367.530865863467
 30
0.00000001
  9
$LIMMIN
 10
0.0
 20
0.0
  9
$LIMMAX
 10
420.0
 20
297.0
  9
$ORTHOMODE
 70
     0
  9
$REGENMODE
 70
     1
  9
$FILLMODE
 70
     1
  9
$QTEXTMODE
 70
     0
  9
$MIRRTEXT
 70
     1
  9
$LTSCALE
 40
1.0
  9
$ATTMODE
 70
     1
  9
$TEXTSIZE
 40
2.5
  9
$TRACEWID
 40
1.0
  9
$TEXTSTYLE
  7
Standard
  9
$CLAYER
  8
0
  9
$CELTYPE
  6
ByLayer
  9
$CECOLOR
 62
     0
  9
$CELTSCALE
 40
0.5
  9
$DISPSILH
 70
     0
  9
$DIMSCALE
 40
1.0
  9
$DIMASZ
 40
5.0
  9
$DIMEXO
 40
2.0
  9
$DIMDLI
 40
3.75
  9
$DIMRND
 40
0.0
  9
$DIMDLE
 40
0.0
  9
$DIMEXE
 40
5.0
  9
$DIMTP
 40
0.0
  9
$DIMTM
 40
0.0
  9
$DIMTXT
 40
4.0
  9
$DIMCEN
 40
2.5
  9
$DIMTSZ
 40
0.0
  9
$DIMTOL
 70
     0
  9
$DIMLIM
 70
     0
  9
$DIMTIH
 70
     0
  9
$DIMTOH
 70
     0
  9
$DIMSE1
 70
     0
  9
$DIMSE2
 70
     0
  9
$DIMTAD
 70
     1
  9
$DIMZIN
 70
     8
  9
$DIMBLK
  1

  9
$DIMASO
 70
     1
  9
$DIMSHO
 70
     1
  9
$DIMPOST
  1

  9
$DIMAPOST
  1

  9
$DIMALT
 70
     0
  9
$DIMALTD
 70
     3
  9
$DIMALTF
 40
0.1
  9
$DIMLFAC
 40
1.0
  9
$DIMTOFL
 70
     1
  9
$DIMTVP
 40
0.0
  9
$DIMTIX
 70
     0
  9
$DIMSOXD
 70
     0
  9
$DIMSAH
 70
     0
  9
$DIMBLK1
  1

  9
$DIMBLK2
  1

  9
$DIMSTYLE
  2
ISO-25
  9
$DIMCLRD
 70
     7
  9
$DIMCLRE
 70
     7
  9
$DIMCLRT
 70
     0
  9
$DIMTFAC
 40
1.0
  9
$DIMGAP
 40
3.0
  9
$DIMJUST
 70
     0
  9
$DIMSD1
 70
     0
  9
$DIMSD2
 70
     0
  9
$DIMTOLJ
 70
     0
  9
$DIMTZIN
 70
     8
  9
$DIMALTZ
 70
     0
  9
$DIMALTTZ
 70
     0
  9
$DIMUPT
 70
     0
  9
$DIMDEC
 70
     2
  9
$DIMTDEC
 70
     2
  9
$DIMALTU
 70
     2
  9
$DIMALTTD
 70
     3
  9
$DIMTXSTY
  7
Standard
  9
$DIMAUNIT
 70
     0
  9
$DIMADEC
 70
     0
  9
$DIMALTRND
 40
0.0
  9
$DIMAZIN
 70
     0
  9
$DIMDSEP
 70
    46
  9
$DIMATFIT
 70
     3
  9
$DIMFRAC
 70
     0
  9
$DIMLDRBLK
  1

  9
$DIMLUNIT
 70
     2
  9
$DIMLWD
 70
     9
  9
$DIMLWE
 70
     9
  9
$DIMTMOVE
 70
     0
  9
$LUNITS
 70
     2
  9
$LUPREC
 70
     4
  9
$SKETCHINC
 40
1.0
  9
$FILLETRAD
 40
0.5
  9
$AUNITS
 70
     0
  9
$AUPREC
 70
     0
  9
$MENU
  1
.
  9
$ELEVATION
 40
0.0
  9
$PELEVATION
 40
0.0
  9
$THICKNESS
 40
0.0
  9
$LIMCHECK
 70
     0
  9
$CHAMFERA
 40
0.5
  9
$CHAMFERB
 40
0.5
  9
$CHAMFERC
 40
20.0
  9
$CHAMFERD
 40
0.0
  9
$SKPOLY
 70
     0
  9
$TDCREATE
 40
2454873.622250069
  9
$TDUCREATE
 40
2454873.247250069
  9
$TDUPDATE
 40
2459570.583680729
  9
$TDUUPDATE
 40
2459570.208680729
  9
$TDINDWG
 40
0.6247295602
  9
$TDUSRTIMER
 40
0.6247295602
  9
$USRTIMER
 70
     1
  9
$ANGBASE
 50
0.0
  9
$ANGDIR
 70
     0
  9
$PDMODE
 70
     0
  9
$PDSIZE
 40
0.0
  9
$PLINEWID
 40
0.0
  9
$SPLFRAME
 70
     0
  9
$SPLINETYPE
 70
     6
  9
$SPLINESEGS
 70
     8
  9
$HANDSEED
  5
9FCB
  9
$SURFTAB1
 70
     6
  9
$SURFTAB2
 70
     6
  9
$SURFTYPE
 70
     6
  9
$SURFU
 70
     6
  9
$SURFV
 70
     6
  9
$UCSBASE
  2

  9
$UCSNAME
  2

  9
$UCSORG
 10
0.0
 20
0.0
 30
0.0
  9
$UCSXDIR
 10
1.0
 20
0.0
 30
0.0
  9
$UCSYDIR
 10
0.0
 20
1.0
 30
0.0
  9
$UCSORTHOREF
  2

  9
$UCSORTHOVIEW
 70
     0
  9
$UCSORGTOP
 10
0.0
 20
0.0
 30
0.0
  9
$UCSORGBOTTOM
 10
0.0
 20
0.0
 30
0.0
  9
$UCSORGLEFT
 10
0.0
 20
0.0
 30
0.0
  9
$UCSORGRIGHT
 10
0.0
 20
0.0
 30
0.0
  9
$UCSORGFRONT
 10
0.0
 20
0.0
 30
0.0
  9
$UCSORGBACK
 10
0.0
 20
0.0
 30
0.0
  9
$PUCSBASE
  2

  9
$PUCSNAME
  2

  9
$PUCSORG
 10
0.0
 20
0.0
 30
0.0
  9
$PUCSXDIR
 10
1.0
 20
0.0
 30
0.0
  9
$PUCSYDIR
 10
0.0
 20
1.0
 30
0.0
  9
$PUCSORTHOREF
  2

  9
$PUCSORTHOVIEW
 70
     0
  9
$PUCSORGTOP
 10
0.0
 20
0.0
 30
0.0
  9
$PUCSORGBOTTOM
 10
0.0
 20
0.0
 30
0.0
  9
$PUCSORGLEFT
 10
0.0
 20
0.0
 30
0.0
  9
$PUCSORGRIGHT
 10
0.0
 20
0.0
 30
0.0
  9
$PUCSORGFRONT
 10
0.0
 20
0.0
 30
0.0
  9
$PUCSORGBACK
 10
0.0
 20
0.0
 30
0.0
  9
$USERI1
 70
     0
  9
$USERI2
 70
     0
  9
$USERI3
 70
     0
  9
$USERI4
 70
     0
  9
$USERI5
 70
     0
  9
$USERR1
 40
0.0
  9
$USERR2
 40
0.0
  9
$USERR3
 40
0.0
  9
$USERR4
 40
0.0
  9
$USERR5
 40
0.0
  9
$WORLDVIEW
 70
     1
  9
$SHADEDGE
 70
     3
  9
$SHADEDIF
 70
    70
  9
$TILEMODE
 70
     1
  9
$MAXACTVP
 70
    64
  9
$PINSBASE
 10
0.0
 20
0.0
 30
0.0
  9
$PLIMCHECK
 70
     0
  9
$PEXTMIN
 10
1.042221639059562
 20
1.08829855961801
 30
0.0
  9
$PEXTMAX
 10
407.82803226079
 20
284.1844718556203
 30
0.0
  9
$PLIMMIN
 10
-5.873748779296875
 20
-5.873749732971191
  9
$PLIMMAX
 10
414.0729064941406
 20
291.0522451400757
  9
$UNITMODE
 70
     0
  9
$VISRETAIN
 70
     1
  9
$PLINEGEN
 70
     0
  9
$PSLTSCALE
 70
     1
  9
$TREEDEPTH
 70
  3020
  9
$CMLSTYLE
  2
Standard
  9
$CMLJUST
 70
     0
  9
$CMLSCALE
 40
20.0
  9
$PROXYGRAPHICS
 70
     1
  9
$MEASUREMENT
 70
     1
  9
$CELWEIGHT
370
    -1
  9
$ENDCAPS
280
     0
  9
$JOINSTYLE
280
     0
  9
$LWDISPLAY
290
     0
  9
$INSUNITS
 70
     4
  9
$HYPERLINKBASE
  1

  9
$STYLESHEET
  1

  9
$XEDIT
290
     1
  9
$CEPSNTYPE
380
     0
  9
$PSTYLEMODE
290
     1
  9
$FINGERPRINTGUID
  2
{951E45A9-2098-449B-99F4-687C375CF490}
  9
$VERSIONGUID
  2
{DF14D1A8-D36D-4799-ACF4-1400273D2F49}
  9
$EXTNAMES
290
     1
  9
$PSVPSCALE
 40
0.0
  9
$OLESTARTUP
290
     0
  0
ENDSEC
  0
SECTION
  2
CLASSES
  0
CLASS
  1
ACDBDICTIONARYWDFLT
  2
AcDbDictionaryWithDefault
  3
AutoCAD 2000
 90
        0
280
     0
281
     0
  0
CLASS
  1
ACDBPLACEHOLDER
  2
AcDbPlaceHolder
  3
AutoCAD 2000
 90
        0
280
     0
281
     0
  0
CLASS
  1
LAYOUT
  2
AcDbLayout
  3
AutoCAD 2000
 90
        0
280
     0
281
     0
  0
CLASS
  1
RASTERVARIABLES
  2
AcDbRasterVariables
  3
ISM
 90
        0
280
     0
281
     0
  0
CLASS
  1
DICTIONARYVAR
  2
AcDbDictionaryVar
  3
AutoCAD 2000
 90
        0
280
     0
281
     0
  0
ENDSEC
  0
SECTION
  2
TABLES
  0
TABLE
  2
VPORT
  5
8
330
0
100
AcDbSymbolTable
 70
     2
  0
VPORT
  5
9FCA
330
8
100
AcDbSymbolTableRecord
100
AcDbViewportTableRecord
  2
*Active
 70
     0
 10
0.0
 20
0.0
 11
1.0
 21
1.0
 12
319.0469650520453
 22
1076.382574755003
 13
0.0
 23
0.0
 14
10.0
 24
10.0
 15
10.0
 25
10.0
 16
0.0
 26
0.0
 36
1.0
 17
0.0
 27
0.0
 37
0.0
 40
756.400737106484
 41
1.477300613496932
 42
50.0
 43
0.0
 44
0.0
 50
0.0
 51
0.0
 71
     0
 72
   100
 73
     1
 74
     3
 75
     0
 76
     0
 77
     0
 78
     0
281
     0
 65
     1
110
0.0
120
0.0
130
0.0
111
1.0
121
0.0
131
0.0
112
0.0
122
1.0
132
0.0
 79
     0
146
0.0
  0
ENDTAB
  0
TABLE
  2
LTYPE
  5
5
330
0
100
AcDbSymbolTable
 70
     5
  0
LTYPE
  5
14
330
5
100
AcDbSymbolTableRecord
100
AcDbLinetypeTableRecord
  2
ByBlock
 70
     0
  3

 72
    65
 73
     0
 40
0.0
  0
LTYPE
  5
15
330
5
100
AcDbSymbolTableRecord
100
AcDbLinetypeTableRecord
  2
ByLayer
 70
     0
  3

 72
    65
 73
     0
 40
0.0
  0
LTYPE
  5
16
330
5
100
AcDbSymbolTableRecord
100
AcDbLinetypeTableRecord
  2
Continuous
 70
     0
  3
Solid line
 72
    65
 73
     0
 40
0.0
  0
LTYPE
  5
35
330
5
100
AcDbSymbolTableRecord
100
AcDbLinetypeTableRecord
  2
HIDDEN
 70
     0
  3
Hidden __ __ __ __ __ __ __ __ __ __ __ __ __ _
 72
    65
 73
     2
 40
9.524999999999998
 49
6.349999999999999
 74
     0
 49
-3.174999999999999
 74
     0
  0
LTYPE
  5
36
330
5
100
AcDbSymbolTableRecord
100
AcDbLinetypeTableRecord
  2
HIDDEN2
 70
     0
  3
Hidden (.5x) _ _ _ _ _ _ _ _ _ _ _ _ _ _ _ _ _
 72
    65
 73
     2
 40
4.762499999999999
 49
3.174999999999999
 74
     0
 49
-1.587499999999999
 74
     0
  0
LTYPE
  5
37
330
5
100
AcDbSymbolTableRecord
100
AcDbLinetypeTableRecord
  2
CENTER
 70
     0
  3
Center ____ _ ____ _ ____ _ ____ _ ____ _ ____
 72
    65
 73
     4
 40
50.8
 49
31.75
 74
     0
 49
-6.349999999999999
 74
     0
 49
6.349999999999999
 74
     0
 49
-6.349999999999999
 74
     0
  0
LTYPE
  5
38
330
5
100
AcDbSymbolTableRecord
100
AcDbLinetypeTableRecord
  2
PHANTOM2
 70
     0
  3
Phantom (.5x) ___ _ _ ___ _ _ ___ _ _ ___ _ _
 72
    65
 73
     6
 40
31.75
 49
15.875
 74
     0
 49
-3.174999999999999
 74
     0
 49
3.174999999999999
 74
     0
 49
-3.174999999999999
 74
     0
 49
3.174999999999999
 74
     0
 49
-3.174999999999999
 74
     0
  0
ENDTAB
  0
TABLE
  2
LAYER
  5
2
330
0
100
AcDbSymbolTable
 70
    13
  0
LAYER
  5
10
330
2
100
AcDbSymbolTableRecord
100
AcDbLayerTableRecord
  2
0
 70
     0
 62
     7
  6
Continuous
370
     9
390
F
  0
LAYER
  5
39
330
2
100
AcDbSymbolTableRecord
100
AcDbLayerTableRecord
  2
１
 70
     0
 62
     2
  6
Continuous
370
     9
390
F
  0
LAYER
  5
3A
330
2
100
AcDbSymbolTableRecord
100
AcDbLayerTableRecord
  2
２
 70
     0
 62
     3
  6
Continuous
370
    20
390
F
  0
LAYER
  5
3B
330
2
100
AcDbSymbolTableRecord
100
AcDbLayerTableRecord
  2
３
 70
     0
 62
     4
  6
HIDDEN
370
    15
390
F
  0
LAYER
  5
3C
330
2
100
AcDbSymbolTableRecord
100
AcDbLayerTableRecord
  2
４
 70
     0
 62
     4
  6
HIDDEN2
370
    15
390
F
  0
LAYER
  5
3D
330
2
100
AcDbSymbolTableRecord
100
AcDbLayerTableRecord
  2
５
 70
     0
 62
     6
  6
CENTER
370
    15
390
F
  0
LAYER
  5
3E
330
2
100
AcDbSymbolTableRecord
100
AcDbLayerTableRecord
  2
６
 70
     0
 62
     5
  6
PHANTOM2
370
    15
390
F
  0
LAYER
  5
46
330
2
100
AcDbSymbolTableRecord
100
AcDbLayerTableRecord
  2
Defpoints
 70
     0
 62
     7
  6
Continuous
290
     0
370
    -3
390
F
  0
LAYER
  5
AB
330
2
100
AcDbSymbolTableRecord
100
AcDbLayerTableRecord
  2
Object
 70
     0
 62
     3
  6
Continuous
370
    20
390
F
  0
LAYER
  5
63B4
330
2
100
AcDbSymbolTableRecord
100
AcDbLayerTableRecord
  2
HIDDEN2
 70
     0
 62
     7
  6
HIDDEN2
370
    15
390
F
  0
LAYER
  5
64C8
330
2
100
AcDbSymbolTableRecord
100
AcDbLayerTableRecord
  2
1
 70
     0
 62
     7
  6
Continuous
370
     9
390
F
  0
LAYER
  5
64C9
330
2
100
AcDbSymbolTableRecord
100
AcDbLayerTableRecord
  2
2
 70
     0
 62
     3
  6
Continuous
370
    20
390
F
  0
LAYER
  5
88C5
330
2
100
AcDbSymbolTableRecord
100
AcDbLayerTableRecord
  2
Defined Points
 70
     0
 62
     2
  6
Continuous
370
    13
390
F
  0
ENDTAB
  0
TABLE
  2
STYLE
  5
3
330
0
100
AcDbSymbolTable
 70
     3
  0
STYLE
  5
11
330
3
100
AcDbSymbolTableRecord
100
AcDbTextStyleTableRecord
  2
Standard
 70
     0
 40
0.0
 41
1.0
 50
0.0
 71
     0
 42
2.5
  3
romans.shx
  4
bigfont.shx
  0
STYLE
  5
34
330
3
100
AcDbSymbolTableRecord
100
AcDbTextStyleTableRecord
  2

 70
     1
 40
0.0
 41
1.0
 50
0.0
 71
     0
 42
2.5
  3
ltypeshp.shx
  4

  0
STYLE
  5
12E
330
3
100
AcDbSymbolTableRecord
100
AcDbTextStyleTableRecord
  2
ｽﾀｲﾙ1
 70
     0
 40
2.5
 41
1.0
 50
0.0
 71
     0
 42
2.5
  3
txt.shx
  4

  0
ENDTAB
  0
TABLE
  2
VIEW
  5
6
330
0
100
AcDbSymbolTable
 70
     0
  0
ENDTAB
  0
TABLE
  2
UCS
  5
7
330
0
100
AcDbSymbolTable
 70
     0
  0
ENDTAB
  0
TABLE
  2
APPID
  5
9
330
0
100
AcDbSymbolTable
 70
     1
  0
APPID
  5
12
330
9
100
AcDbSymbolTableRecord
100
AcDbRegAppTableRecord
  2
ACAD
 70
     0
  0
ENDTAB
  0
TABLE
  2
DIMSTYLE
  5
A
330
0
100
AcDbSymbolTable
 70
     3
100
AcDbDimStyleTable
 71
     1
340
27
  0
DIMSTYLE
105
27
102
{ACAD_REACTORS
330
9BCB
330
9F62
330
9B22
330
9CC4
330
9E85
330
9EC8
330
9B18
330
9B0C
330
9972
330
9B0D
330
9B21
102
}
330
A
100
AcDbSymbolTableRecord
100
AcDbDimStyleTableRecord
  2
ISO-25
 70
     0
 41
5.0
 42
2.0
 43
3.75
 44
5.0
 73
     0
 74
     0
 77
     1
 78
     8
140
4.0
141
2.5
143
0.1
147
3.0
171
     3
172
     1
176
     7
177
     7
271
     2
272
     2
274
     3
283
     0
284
     8
340
11
371
     9
372
     9
  0
DIMSTYLE
105
AC
330
A
100
AcDbSymbolTableRecord
100
AcDbDimStyleTableRecord
  2
JIS
 70
     0
 41
2.5
 42
1.0
 43
7.0
 44
1.0
 73
     0
 74
     0
 77
     1
 78
     8
140
2.5
141
0.0
143
0.0394
147
0.0
172
     1
174
     1
175
     1
340
11
  0
DIMSTYLE
105
61DD
330
A
100
AcDbSymbolTableRecord
100
AcDbDimStyleTableRecord
  2
ｺﾋﾟｰ - ISO-25
 70
     0
 41
2.5
 42
0.625
 43
3.75
 44
1.25
 73
     0
 74
     0
 77
     1
 78
     8
140
2.5
141
2.5
143
0.03937007874016
147
0.625
171
     3
172
     1
271
     2
272
     2
274
     3
283
     0
284
     8
340
11
343
61D8
  0
ENDTAB
  0
TABLE
  2
BLOCK_RECORD
  5
1
330
0
100
AcDbSymbolTable
 70
     9
  0
BLOCK_RECORD
  5
1F
330
1
100
AcDbSymbolTableRecord
100
AcDbBlockTableRecord
  2
*Model_Space
340
22
  0
BLOCK_RECORD
  5
1B
330
1
100
AcDbSymbolTableRecord
100
AcDbBlockTableRecord
  2
*Paper_Space
340
1E
  0
BLOCK_RECORD
  5
23
330
1
100
AcDbSymbolTableRecord
100
AcDbBlockTableRecord
  2
*Paper_Space0
340
26
  0
BLOCK_RECORD
  5
61D8
330
1
100
AcDbSymbolTableRecord
100
AcDbBlockTableRecord
  2
_Dot
340
0
  0
BLOCK_RECORD
  5
9B2F
330
1
100
AcDbSymbolTableRecord
100
AcDbBlockTableRecord
  2
*D2
340
0
  0
BLOCK_RECORD
  5
9B3B
330
1
100
AcDbSymbolTableRecord
100
AcDbBlockTableRecord
  2
*D3
340
0
  0
BLOCK_RECORD
  5
9B47
330
1
100
AcDbSymbolTableRecord
100
AcDbBlockTableRecord
  2
*D4
340
0
  0
BLOCK_RECORD
  5
9B53
330
1
100
AcDbSymbolTableRecord
100
AcDbBlockTableRecord
  2
*D5
340
0
  0
BLOCK_RECORD
  5
9B5F
330
1
100
AcDbSymbolTableRecord
100
AcDbBlockTableRecord
  2
*D6
340
0
  0
BLOCK_RECORD
  5
9BCC
330
1
100
AcDbSymbolTableRecord
100
AcDbBlockTableRecord
  2
*D7
340
0
  0
BLOCK_RECORD
  5
9F63
330
1
100
AcDbSymbolTableRecord
100
AcDbBlockTableRecord
  2
*D8
340
0
  0
ENDTAB
  0
ENDSEC
  0
SECTION
  2
BLOCKS
  0
BLOCK
  5
20
330
1F
100
AcDbEntity
  8
0
100
AcDbBlockBegin
  2
*Model_Space
 70
     0
 10
0.0
 20
0.0
 30
0.0
  3
*Model_Space
  1

  0
ENDBLK
  5
21
330
1F
100
AcDbEntity
  8
0
100
AcDbBlockEnd
  0
BLOCK
  5
1C
330
1B
100
AcDbEntity
 67
     1
  8
0
100
AcDbBlockBegin
  2
*Paper_Space
 70
     0
 10
0.0
 20
0.0
 30
0.0
  3
*Paper_Space
  1

  0
ENDBLK
  5
1D
330
1B
100
AcDbEntity
 67
     1
  8
0
100
AcDbBlockEnd
  0
BLOCK
  5
24
330
23
100
AcDbEntity
  8
0
100
AcDbBlockBegin
  2
*Paper_Space0
 70
     0
 10
0.0
 20
0.0
 30
0.0
  3
*Paper_Space0
  1

  0
VIEWPORT
  5
922
330
23
100
AcDbEntity
  8
0
100
AcDbViewport
 10
0.0
 20
0.0
 30
0.0
 40
0.0
 41
0.0
 69
     0
 12
0.0
 22
0.0
 13
0.0
 23
0.0
 14
10.0
 24
10.0
 15
10.0
 25
10.0
 16
0.0
 26
0.0
 36
1.0
 17
0.0
 27
0.0
 37
0.0
 42
50.0
 43
0.0
 44
0.0
 45
0.0
 50
0.0
 51
0.0
 72
   100
 90
    32800
  1

281
     0
 71
     1
 74
     0
110
0.0
120
0.0
130
0.0
111
1.0
121
0.0
131
0.0
112
0.0
122
1.0
132
0.0
 79
     0
146
0.0
  0
VIEWPORT
  5
924
330
23
100
AcDbEntity
  8
0
100
AcDbViewport
 10
0.0
 20
0.0
 30
0.0
 40
0.0
 41
0.0
 69
     0
 12
8199.401833840978
 22
6162.095030619208
 13
0.0
 23
0.0
 14
10.0
 24
10.0
 15
10.0
 25
10.0
 16
0.0
 26
0.0
 36
1.0
 17
0.0
 27
0.0
 37
0.0
 42
50.0
 43
0.0
 44
0.0
 45
12844.48115925182
 50
0.0
 51
0.0
 72
   100
 90
    32864
  1

281
     0
 71
     1
 74
     0
110
0.0
120
0.0
130
0.0
111
1.0
121
0.0
131
0.0
112
0.0
122
1.0
132
0.0
 79
     0
146
0.0
  0
ENDBLK
  5
25
330
23
100
AcDbEntity
  8
0
100
AcDbBlockEnd
  0
BLOCK
  5
61DB
330
61D8
100
AcDbEntity
  8
0
100
AcDbBlockBegin
  2
_Dot
 70
     0
 10
0.0
 20
0.0
 30
0.0
  3
_Dot
  1

  0
LWPOLYLINE
  5
61D9
330
61D8
100
AcDbEntity
  8
0
 62
     0
100
AcDbPolyline
 90
        2
 70
     1
 43
0.5
 10
-0.25
 20
0.0
 42
1.0
 10
0.25
 20
0.0
 42
1.0
  0
LINE
  5
61DA
330
61D8
100
AcDbEntity
  8
0
 62
     0
370
    -2
100
AcDbLine
 10
-0.5
 20
0.0
 30
0.0
 11
-1.0
 21
0.0
 31
0.0
  0
ENDBLK
  5
61DC
330
61D8
100
AcDbEntity
  8
0
100
AcDbBlockEnd
  0
BLOCK
  5
9B39
330
9B2F
100
AcDbEntity
  8
0
 62
     0
 48
0.5
100
AcDbBlockBegin
  2
*D2
 70
     1
 10
0.0
 20
0.0
 30
0.0
  3
*D2
  1

  0
LINE
  5
9F78
330
9B2F
100
AcDbEntity
  8
0
 62
     7
 48
0.5
370
     9
100
AcDbLine
 10
404.6523458728231
 20
1084.117017498835
 30
0.0
 11
393.9223566732579
 21
1073.331942737754
 31
0.0
  0
LINE
  5
9F79
330
9B2F
100
AcDbEntity
  8
0
 62
     7
 48
0.5
370
     9
100
AcDbLine
 10
425.9197923020476
 20
1062.958196114361
 30
0.0
 11
415.1898031024824
 21
1052.17312135328
 31
0.0
  0
LINE
  5
9F7A
330
9B2F
100
AcDbEntity
  8
0
 62
     7
 48
0.5
370
     9
100
AcDbLine
 10
400.9934013088743
 20
1073.350046911879
 30
0.0
 11
415.1716989283573
 21
1059.244165988896
 31
0.0
  0
SOLID
  5
9F7B
330
9B2F
100
AcDbEntity
  8
0
 62
     7
 48
0.5
100
AcDbTrace
 10
401.5811463473319
 20
1073.940809312691
 30
0.0
 11
400.4056562704167
 21
1072.759284511067
 31
0.0
 12
397.4488269040036
 22
1076.876517142625
 32
0.0
 13
397.4488269040036
 23
1076.876517142625
 33
0.0
  0
SOLID
  5
9F7C
330
9B2F
100
AcDbEntity
  8
0
 62
     7
 48
0.5
100
AcDbTrace
 10
415.7594439668149
 20
1059.834928389708
 30
0.0
 11
414.5839538898997
 21
1058.653403588085
 31
0.0
 12
418.716273333228
 22
1055.717695758151
 32
0.0
 13
418.716273333228
 23
1055.717695758151
 33
0.0
  0
MTEXT
  5
9F7D
330
9B2F
100
AcDbEntity
  8
0
 62
     0
 48
0.5
100
AcDbMText
 10
411.6090203493614
 20
1069.841680855258
 30
0.0
 40
4.0
 41
0.0
 71
     5
 72
     1
  1
30
 11
0.7089148809741489
 21
-0.7052940461491281
 31
0.0
 73
     1
 44
1.0
  0
POINT
  5
9F7E
330
9B2F
100
AcDbEntity
  8
Defpoints
 62
     0
 48
0.5
100
AcDbPoint
 10
406.0629339651215
 20
1085.534847260783
 30
0.0
  0
POINT
  5
9F7F
330
9B2F
100
AcDbEntity
  8
Defpoints
 62
     0
 48
0.5
100
AcDbPoint
 10
427.3303803943459
 20
1064.376025876309
 30
0.0
  0
POINT
  5
9F80
330
9B2F
100
AcDbEntity
  8
Defpoints
 62
     0
 48
0.5
100
AcDbPoint
 10
418.716273333228
 20
1055.717695758151
 30
0.0
  0
ENDBLK
  5
9B3A
330
9B2F
100
AcDbEntity
  8
0
 62
     0
 48
0.5
100
AcDbBlockEnd
  0
BLOCK
  5
9B45
330
9B3B
100
AcDbEntity
  8
0
 62
     0
 48
0.5
100
AcDbBlockBegin
  2
*D3
 70
     1
 10
0.0
 20
0.0
 30
0.0
  3
*D3
  1

  0
LINE
  5
9F81
330
9B3B
100
AcDbEntity
  8
0
 62
     7
 48
0.5
370
     9
100
AcDbLine
 10
425.7199895602152
 20
1065.876766101463
 30
0.0
 11
437.4406211130485
 21
1054.145271809838
 31
0.0
  0
LINE
  5
9F82
330
9B3B
100
AcDbEntity
  8
0
 62
     7
 48
0.5
370
     9
100
AcDbLine
 10
469.036822664568
 20
1109.1534901258
 30
0.0
 11
480.7574542174014
 21
1097.421995834175
 31
0.0
  0
LINE
  5
9F83
330
9B3B
100
AcDbEntity
  8
0
 62
     7
 48
0.5
370
     9
100
AcDbLine
 10
437.4438963451056
 20
1061.21633886318
 30
0.0
 11
473.6863871640598
 21
1097.425271066233
 31
0.0
  0
SOLID
  5
9F84
330
9B3B
100
AcDbEntity
  8
0
 62
     7
 48
0.5
100
AcDbTrace
 10
436.8549136933319
 20
1061.805867386963
 30
0.0
 11
438.0328789968793
 21
1060.626810339397
 31
0.0
 12
433.9067252024062
 22
1057.682442952538
 32
0.0
 13
433.9067252024062
 23
1057.682442952538
 33
0.0
  0
SOLID
  5
9F85
330
9B3B
100
AcDbEntity
  8
0
 62
     7
 48
0.5
100
AcDbTrace
 10
473.097404512286
 20
1098.014799590016
 30
0.0
 11
474.2753698158335
 21
1096.835742542449
 31
0.0
 12
477.223558306759
 22
1100.959166976875
 32
0.0
 13
477.223558306759
 23
1100.959166976875
 33
0.0
  0
MTEXT
  5
9F86
330
9B3B
100
AcDbEntity
  8
0
 62
     0
 48
0.5
100
AcDbMText
 10
452.0312458439404
 20
1082.857976107406
 30
0.0
 40
4.0
 41
0.0
 71
     5
 72
     1
  1
60
 11
0.7074342285398759
 21
0.7067791821284714
 31
0.0
 73
     1
 44
1.0
  0
POINT
  5
9F87
330
9B3B
100
AcDbEntity
  8
Defpoints
 62
     0
 48
0.5
100
AcDbPoint
 10
424.3064311959582
 20
1067.291634558542
 30
0.0
  0
POINT
  5
9F88
330
9B3B
100
AcDbEntity
  8
Defpoints
 62
     0
 48
0.5
100
AcDbPoint
 10
467.623264300311
 20
1110.568358582879
 30
0.0
  0
POINT
  5
9F89
330
9B3B
100
AcDbEntity
  8
Defpoints
 62
     0
 48
0.5
100
AcDbPoint
 10
477.223558306759
 20
1100.959166976875
 30
0.0
  0
ENDBLK
  5
9B46
330
9B3B
100
AcDbEntity
  8
0
 62
     0
 48
0.5
100
AcDbBlockEnd
  0
BLOCK
  5
9B51
330
9B47
100
AcDbEntity
  8
0
 62
     0
 48
0.5
100
AcDbBlockBegin
  2
*D4
 70
     1
 10
0.0
 20
0.0
 30
0.0
  3
*D4
  1

  0
LINE
  5
9F8A
330
9B47
100
AcDbEntity
  8
0
 62
     7
 48
0.5
370
     9
100
AcDbLine
 10
499.6998899720467
 20
1111.94804959555
 30
0.0
 11
499.6998899720467
 21
1126.747669007089
 31
0.0
  0
LINE
  5
9F8B
330
9B47
100
AcDbEntity
  8
0
 62
     7
 48
0.5
370
     9
100
AcDbLine
 10
469.6998899720467
 20
1111.94804959555
 30
0.0
 11
469.6998899720467
 21
1126.747669007089
 31
0.0
  0
LINE
  5
9F8C
330
9B47
100
AcDbEntity
  8
0
 62
     7
 48
0.5
370
     9
100
AcDbLine
 10
494.6998899720467
 20
1121.747669007089
 30
0.0
 11
474.6998899720467
 21
1121.747669007089
 31
0.0
  0
SOLID
  5
9F8D
330
9B47
100
AcDbEntity
  8
0
 62
     7
 48
0.5
100
AcDbTrace
 10
494.6998899720467
 20
1122.581002340422
 30
0.0
 11
494.6998899720467
 21
1120.914335673756
 31
0.0
 12
499.6998899720467
 22
1121.747669007089
 32
0.0
 13
499.6998899720467
 23
1121.747669007089
 33
0.0
  0
SOLID
  5
9F8E
330
9B47
100
AcDbEntity
  8
0
 62
     7
 48
0.5
100
AcDbTrace
 10
474.6998899720467
 20
1122.581002340422
 30
0.0
 11
474.6998899720467
 21
1120.914335673756
 31
0.0
 12
469.6998899720467
 22
1121.747669007089
 32
0.0
 13
469.6998899720467
 23
1121.747669007089
 33
0.0
  0
MTEXT
  5
9F8F
330
9B47
100
AcDbEntity
  8
0
 62
     0
 48
0.5
100
AcDbMText
 10
484.6998899720468
 20
1126.747669007089
 30
0.0
 40
4.0
 41
0.0
 71
     5
 72
     1
  1
30
 73
     1
 44
1.0
  0
POINT
  5
9F90
330
9B47
100
AcDbEntity
  8
Defpoints
 62
     0
 48
0.5
100
AcDbPoint
 10
499.6998899720467
 20
1109.94804959555
 30
0.0
  0
POINT
  5
9F91
330
9B47
100
AcDbEntity
  8
Defpoints
 62
     0
 48
0.5
100
AcDbPoint
 10
469.6998899720467
 20
1109.94804959555
 30
0.0
  0
POINT
  5
9F92
330
9B47
100
AcDbEntity
  8
Defpoints
 62
     0
 48
0.5
100
AcDbPoint
 10
469.6998899720467
 20
1121.747669007089
 30
0.0
  0
ENDBLK
  5
9B52
330
9B47
100
AcDbEntity
  8
0
 62
     0
 48
0.5
100
AcDbBlockEnd
  0
BLOCK
  5
9B5D
330
9B53
100
AcDbEntity
  8
0
 62
     0
 48
0.5
100
AcDbBlockBegin
  2
*D5
 70
     1
 10
0.0
 20
0.0
 30
0.0
  3
*D5
  1

  0
LINE
  5
9F93
330
9B53
100
AcDbEntity
  8
0
 62
     7
 48
0.5
370
     9
100
AcDbLine
 10
454.3667451891365
 20
1168.808549916502
 30
0.0
 11
442.4154733824148
 21
1168.808549916502
 31
0.0
  0
LINE
  5
9F94
330
9B53
100
AcDbEntity
  8
0
 62
     7
 48
0.5
370
     9
100
AcDbLine
 10
454.3667451891365
 20
1138.808549916502
 30
0.0
 11
442.4154733824147
 21
1138.808549916502
 31
0.0
  0
LINE
  5
9F95
330
9B53
100
AcDbEntity
  8
0
 62
     7
 48
0.5
370
     9
100
AcDbLine
 10
447.4154733824148
 20
1163.808549916502
 30
0.0
 11
447.4154733824148
 21
1143.808549916502
 31
0.0
  0
SOLID
  5
9F96
330
9B53
100
AcDbEntity
  8
0
 62
     7
 48
0.5
100
AcDbTrace
 10
446.5821400490815
 20
1163.808549916502
 30
0.0
 11
448.2488067157482
 21
1163.808549916502
 31
0.0
 12
447.4154733824148
 22
1168.808549916502
 32
0.0
 13
447.4154733824148
 23
1168.808549916502
 33
0.0
  0
SOLID
  5
9F97
330
9B53
100
AcDbEntity
  8
0
 62
     7
 48
0.5
100
AcDbTrace
 10
446.5821400490814
 20
1143.808549916502
 30
0.0
 11
448.2488067157481
 21
1143.808549916502
 31
0.0
 12
447.4154733824148
 22
1138.808549916502
 32
0.0
 13
447.4154733824148
 23
1138.808549916502
 33
0.0
  0
MTEXT
  5
9F98
330
9B53
100
AcDbEntity
  8
0
 62
     0
 48
0.5
100
AcDbMText
 10
442.4154733824146
 20
1153.808549916502
 30
0.0
 40
4.0
 41
0.0
 71
     5
 72
     1
  1
30
 11
0.0000000000000001
 21
1.0
 31
0.0
 73
     1
 44
1.0
  0
POINT
  5
9F99
330
9B53
100
AcDbEntity
  8
Defpoints
 62
     0
 48
0.5
100
AcDbPoint
 10
456.3667451891364
 20
1168.808549916502
 30
0.0
  0
POINT
  5
9F9A
330
9B53
100
AcDbEntity
  8
Defpoints
 62
     0
 48
0.5
100
AcDbPoint
 10
456.3667451891364
 20
1138.808549916502
 30
0.0
  0
POINT
  5
9F9B
330
9B53
100
AcDbEntity
  8
Defpoints
 62
     0
 48
0.5
100
AcDbPoint
 10
447.4154733824148
 20
1138.808549916502
 30
0.0
  0
ENDBLK
  5
9B5E
330
9B53
100
AcDbEntity
  8
0
 62
     0
 48
0.5
100
AcDbBlockEnd
  0
BLOCK
  5
9B6B
330
9B5F
100
AcDbEntity
  8
0
 62
     0
 48
0.5
100
AcDbBlockBegin
  2
*D6
 70
     1
 10
0.0
 20
0.0
 30
0.0
  3
*D6
  1

  0
LINE
  5
9F9C
330
9B5F
100
AcDbEntity
  8
0
 62
     7
 48
0.5
370
     9
100
AcDbLine
 10
501.6998899720467
 20
1109.94804959555
 30
0.0
 11
514.2032508579454
 21
1109.94804959555
 31
0.0
  0
LINE
  5
9F9D
330
9B5F
100
AcDbEntity
  8
0
 62
     7
 48
0.5
370
     9
100
AcDbLine
 10
501.6998899720467
 20
1107.94805069638
 30
0.0
 11
514.2032508579454
 21
1107.948050696379
 31
0.0
  0
LINE
  5
9F9E
330
9B5F
100
AcDbEntity
  8
0
 62
     7
 48
0.5
370
     9
100
AcDbLine
 10
509.2032508579454
 20
1114.94804959555
 30
0.0
 11
509.2032508579454
 21
1119.94804959555
 31
0.0
  0
LINE
  5
9F9F
330
9B5F
100
AcDbEntity
  8
0
 62
     7
 48
0.5
370
     9
100
AcDbLine
 10
509.2032508579454
 20
1102.94805069638
 30
0.0
 11
509.2032508579454
 21
1089.281384029713
 31
0.0
  0
LINE
  5
9FA0
330
9B5F
100
AcDbEntity
  8
0
 62
     7
 48
0.5
370
     9
100
AcDbLine
 10
509.2032508579454
 20
1109.94804959555
 30
0.0
 11
509.2032508579454
 21
1107.94805069638
 31
0.0
  0
SOLID
  5
9FA1
330
9B5F
100
AcDbEntity
  8
0
 62
     7
 48
0.5
100
AcDbTrace
 10
508.3699175246121
 20
1114.94804959555
 30
0.0
 11
510.0365841912788
 21
1114.94804959555
 31
0.0
 12
509.2032508579454
 22
1109.94804959555
 32
0.0
 13
509.2032508579454
 23
1109.94804959555
 33
0.0
  0
SOLID
  5
9FA2
330
9B5F
100
AcDbEntity
  8
0
 62
     7
 48
0.5
100
AcDbTrace
 10
508.3699175246121
 20
1102.94805069638
 30
0.0
 11
510.0365841912788
 21
1102.94805069638
 31
0.0
 12
509.2032508579454
 22
1107.94805069638
 32
0.0
 13
509.2032508579454
 23
1107.94805069638
 33
0.0
  0
MTEXT
  5
9FA3
330
9B5F
100
AcDbEntity
  8
0
 62
     0
 48
0.5
100
AcDbMText
 10
504.2032508579453
 20
1093.614717363046
 30
0.0
 40
4.0
 41
0.0
 71
     5
 72
     1
  1
2
 11
0.0000000000000001
 21
1.0
 31
0.0
 73
     1
 44
1.0
  0
POINT
  5
9FA4
330
9B5F
100
AcDbEntity
  8
Defpoints
 62
     0
 48
0.5
100
AcDbPoint
 10
499.6998899720467
 20
1109.94804959555
 30
0.0
  0
POINT
  5
9FA5
330
9B5F
100
AcDbEntity
  8
Defpoints
 62
     0
 48
0.5
100
AcDbPoint
 10
499.6998899720467
 20
1107.94805069638
 30
0.0
  0
POINT
  5
9FA6
330
9B5F
100
AcDbEntity
  8
Defpoints
 62
     0
 48
0.5
100
AcDbPoint
 10
509.2032508579454
 20
1107.94805069638
 30
0.0
  0
ENDBLK
  5
9B6C
330
9B5F
100
AcDbEntity
  8
0
 62
     0
 48
0.5
100
AcDbBlockEnd
  0
BLOCK
  5
9BD6
330
9BCC
100
AcDbEntity
  8
0
 62
     0
 48
0.5
100
AcDbBlockBegin
  2
*D7
 70
     1
 10
0.0
 20
0.0
 30
0.0
  3
*D7
  1

  0
LINE
  5
9FA7
330
9BCC
100
AcDbEntity
  8
0
 62
     7
 48
0.5
370
     9
100
AcDbLine
 10
210.853549879695
 20
1148.272835236079
 30
0.0
 11
192.899364568972
 21
1148.272835236079
 31
0.0
  0
LINE
  5
9FA8
330
9BCC
100
AcDbEntity
  8
0
 62
     7
 48
0.5
370
     9
100
AcDbLine
 10
210.853549879695
 20
1111.518352860233
 30
0.0
 11
192.899364568972
 21
1111.518352860233
 31
0.0
  0
LINE
  5
9FA9
330
9BCC
100
AcDbEntity
  8
0
 62
     7
 48
0.5
370
     9
100
AcDbLine
 10
197.899364568972
 20
1143.272835236079
 30
0.0
 11
197.899364568972
 21
1116.518352860233
 31
0.0
  0
SOLID
  5
9FAA
330
9BCC
100
AcDbEntity
  8
0
 62
     7
 48
0.5
100
AcDbTrace
 10
197.0660312356386
 20
1143.272835236079
 30
0.0
 11
198.7326979023053
 21
1143.272835236079
 31
0.0
 12
197.899364568972
 22
1148.272835236079
 32
0.0
 13
197.899364568972
 23
1148.272835236079
 33
0.0
  0
SOLID
  5
9FAB
330
9BCC
100
AcDbEntity
  8
0
 62
     7
 48
0.5
100
AcDbTrace
 10
197.0660312356386
 20
1116.518352860233
 30
0.0
 11
198.7326979023053
 21
1116.518352860233
 31
0.0
 12
197.899364568972
 22
1111.518352860233
 32
0.0
 13
197.899364568972
 23
1111.518352860233
 33
0.0
  0
MTEXT
  5
9FAC
330
9BCC
100
AcDbEntity
  8
0
 62
     0
 48
0.5
100
AcDbMText
 10
192.8993645689718
 20
1129.895594048156
 30
0.0
 40
4.0
 41
0.0
 71
     5
 72
     1
  1
37
 11
0.0000000000000001
 21
1.0
 31
0.0
 73
     1
 44
1.0
  0
POINT
  5
9FAD
330
9BCC
100
AcDbEntity
  8
Defpoints
 62
     0
 48
0.5
100
AcDbPoint
 10
212.853549879695
 20
1148.272835236079
 30
0.0
  0
POINT
  5
9FAE
330
9BCC
100
AcDbEntity
  8
Defpoints
 62
     0
 48
0.5
100
AcDbPoint
 10
212.853549879695
 20
1111.518352860233
 30
0.0
  0
POINT
  5
9FAF
330
9BCC
100
AcDbEntity
  8
Defpoints
 62
     0
 48
0.5
100
AcDbPoint
 10
197.899364568972
 20
1111.518352860233
 30
0.0
  0
ENDBLK
  5
9BD7
330
9BCC
100
AcDbEntity
  8
0
 62
     0
 48
0.5
100
AcDbBlockEnd
  0
BLOCK
  5
9F6D
330
9F63
100
AcDbEntity
  8
0
 62
     0
 48
0.5
100
AcDbBlockBegin
  2
*D8
 70
     1
 10
0.0
 20
0.0
 30
0.0
  3
*D8
  1

  0
LINE
  5
9FB0
330
9F63
100
AcDbEntity
  8
0
 62
     7
 48
0.5
370
     9
100
AcDbLine
 10
15.23103957548792
 20
1148.277630862515
 30
0.0
 11
-3.491834088099946
 21
1148.277630862515
 31
0.0
  0
LINE
  5
9FB1
330
9F63
100
AcDbEntity
  8
0
 62
     7
 48
0.5
370
     9
100
AcDbLine
 10
15.23103957548791
 20
1123.278112040081
 30
0.0
 11
-3.491834088099952
 21
1123.278112040081
 31
0.0
  0
LINE
  5
9FB2
330
9F63
100
AcDbEntity
  8
0
 62
     7
 48
0.5
370
     9
100
AcDbLine
 10
1.508165911900052
 20
1143.277630862516
 30
0.0
 11
1.508165911900049
 21
1128.278112040081
 31
0.0
  0
SOLID
  5
9FB3
330
9F63
100
AcDbEntity
  8
0
 62
     7
 48
0.5
100
AcDbTrace
 10
0.6748325785667194
 20
1143.277630862516
 30
0.0
 11
2.341499245233386
 21
1143.277630862516
 31
0.0
 12
1.508165911900053
 22
1148.277630862515
 32
0.0
 13
1.508165911900053
 23
1148.277630862515
 33
0.0
  0
SOLID
  5
9FB4
330
9F63
100
AcDbEntity
  8
0
 62
     7
 48
0.5
100
AcDbTrace
 10
0.6748325785667161
 20
1128.278112040081
 30
0.0
 11
2.341499245233382
 21
1128.278112040081
 31
0.0
 12
1.508165911900048
 22
1123.278112040081
 32
0.0
 13
1.508165911900048
 23
1123.278112040081
 33
0.0
  0
MTEXT
  5
9FB5
330
9F63
100
AcDbEntity
  8
0
 62
     0
 48
0.5
100
AcDbMText
 10
-3.491834088100131
 20
1135.777871451298
 30
0.0
 40
4.0
 41
0.0
 71
     5
 72
     1
  1
25
 11
0.0000000000000001
 21
1.0
 31
0.0
 73
     1
 44
1.0
  0
POINT
  5
9FB6
330
9F63
100
AcDbEntity
  8
Defpoints
 62
     0
 48
0.5
100
AcDbPoint
 10
17.23103957548792
 20
1148.277630862515
 30
0.0
  0
POINT
  5
9FB7
330
9F63
100
AcDbEntity
  8
Defpoints
 62
     0
 48
0.5
100
AcDbPoint
 10
17.23103957548791
 20
1123.278112040081
 30
0.0
  0
POINT
  5
9FB8
330
9F63
100
AcDbEntity
  8
Defpoints
 62
     0
 48
0.5
100
AcDbPoint
 10
1.508165911900048
 20
1123.278112040081
 30
0.0
  0
ENDBLK
  5
9F6E
330
9F63
100
AcDbEntity
  8
0
 62
     0
 48
0.5
100
AcDbBlockEnd
  0
ENDSEC
  0
SECTION
  2
ENTITIES
  0
LINE
  5
60DA
330
1F
100
AcDbEntity
  8
２
 62
     0
370
    20
100
AcDbLine
 10
-113.6069841392893
 20
817.5308658634676
 30
0.0
 11
682.3930158607106
 21
817.5308658634676
 31
0.0
  0
LINE
  5
60DB
330
1F
100
AcDbEntity
  8
２
 62
     0
 48
25.0
100
AcDbLine
 10
-113.6069841392893
 20
837.5308658634676
 30
0.0
 11
682.3930158607106
 21
837.5308658634676
 31
0.0
  0
LINE
  5
60DC
330
1F
100
AcDbEntity
  8
２
 62
     0
 48
25.0
100
AcDbLine
 10
-113.6069841392893
 20
837.5308658634676
 30
0.0
 11
682.3930158607106
 21
837.5308658634676
 31
0.0
  0
LINE
  5
60DD
330
1F
100
AcDbEntity
  8
0
 62
     0
 48
25.0
100
AcDbLine
 10
279.1215549150597
 20
837.5308658634676
 30
0.0
 11
318.4215549150597
 21
837.5308658634676
 31
0.0
  0
LINE
  5
60DE
330
1F
100
AcDbEntity
  8
２
 62
     0
370
    20
100
AcDbLine
 10
682.3930158607106
 20
817.5308658634676
 30
0.0
 11
-67.60698413928935
 21
817.5308658634678
 31
0.0
  0
LINE
  5
60DF
330
1F
100
AcDbEntity
  8
１
 62
     0
 48
25.0
100
AcDbLine
 10
-103.8208647361605
 20
827.5308658634676
 30
0.0
 11
173.6637676806376
 21
827.5308658634671
 31
0.0
  0
LINE
  5
60E0
330
1F
100
AcDbEntity
  8
１
 62
     0
 48
25.0
100
AcDbLine
 10
173.6637676806376
 20
822.5308658634673
 30
0.0
 11
-103.8208647361605
 21
822.5308658634672
 31
0.0
  0
LINE
  5
60E1
330
1F
100
AcDbEntity
  8
１
 62
     0
 48
25.0
100
AcDbLine
 10
173.6637676806376
 20
832.5308658634677
 30
0.0
 11
-103.8208647361605
 21
832.5308658634677
 31
0.0
  0
LINE
  5
60E2
330
1F
100
AcDbEntity
  8
0
 62
     0
100
AcDbLine
 10
-67.60698413928935
 20
817.5308658634676
 30
0.0
 11
-113.6069841392893
 21
817.5308658634676
 31
0.0
  0
LINE
  5
60E3
330
1F
100
AcDbEntity
  8
２
 62
     0
 48
25.0
100
AcDbLine
 10
-107.8208647361605
 20
837.5308658634676
 30
0.0
 11
-107.8208647361605
 21
817.5308658634676
 31
0.0
  0
LINE
  5
60E4
330
1F
100
AcDbEntity
  8
２
 62
     0
 48
25.0
100
AcDbLine
 10
-113.6069841392893
 20
817.5308658634676
 30
0.0
 11
-117.6069841392893
 21
817.5308658634676
 31
0.0
  0
LINE
  5
60E5
330
1F
100
AcDbEntity
  8
２
 62
     0
 48
25.0
100
AcDbLine
 10
-117.6069841392893
 20
817.6093089910487
 30
0.0
 11
-117.6069841392893
 21
817.5308658634676
 31
0.0
  0
LINE
  5
60E6
330
1F
100
AcDbEntity
  8
0
 62
     0
 48
25.0
100
AcDbLine
 10
-113.6069841392893
 20
837.5308658634676
 30
0.0
 11
-107.8208647361605
 21
837.5308658634676
 31
0.0
  0
MTEXT
  5
60E7
330
1F
100
AcDbEntity
  8
２
 62
     0
 48
25.0
100
AcDbMText
 10
-112.2139241392893
 20
827.5308658634678
 30
0.0
 40
4.5
 41
9.78612
 71
     5
 72
     5
  1
記\P事
 73
     1
 44
1.0
  0
LINE
  5
60E8
330
1F
100
AcDbEntity
  8
２
 62
     0
 48
25.0
100
AcDbLine
 10
-113.6069841392893
 20
837.5308658634676
 30
0.0
 11
-117.6069841392893
 21
837.5308658634676
 31
0.0
  0
LINE
  5
60E9
330
1F
100
AcDbEntity
  8
１
 62
     0
 48
25.0
100
AcDbLine
 10
-103.8208647361605
 20
822.5308658634672
 30
0.0
 11
-107.8208647361605
 21
822.5308658634672
 31
0.0
  0
LINE
  5
60EA
330
1F
100
AcDbEntity
  8
１
 62
     0
 48
25.0
100
AcDbLine
 10
-103.8208647361605
 20
827.5308658634676
 30
0.0
 11
-107.8208647361605
 21
827.5308658634676
 31
0.0
  0
LINE
  5
60EB
330
1F
100
AcDbEntity
  8
１
 62
     0
 48
25.0
100
AcDbLine
 10
-103.8208647361605
 20
832.5308658634677
 30
0.0
 11
-107.8208647361605
 21
832.5308658634677
 31
0.0
  0
LINE
  5
60EC
330
1F
100
AcDbEntity
  8
２
 62
     0
 48
25.0
100
AcDbLine
 10
173.6637676806376
 20
837.5308658634676
 30
0.0
 11
279.1215549150597
 21
837.5308658634676
 31
0.0
  0
LINE
  5
60ED
330
1F
100
AcDbEntity
  8
１
 62
     0
 48
25.0
100
AcDbLine
 10
173.6637676806376
 20
827.5308658634676
 30
0.0
 11
279.1215549150597
 21
827.5308658634676
 31
0.0
  0
MTEXT
  5
60EE
330
1F
100
AcDbEntity
  8
２
 62
     0
 48
25.0
100
AcDbMText
 10
193.3117526806377
 20
822.5308658634677
 30
0.0
 40
6.0
 41
39.296
 71
     5
 72
     5
  1
作図者
 73
     1
 44
1.0
  0
MTEXT
  5
60EF
330
1F
100
AcDbEntity
  8
２
 62
     0
 48
25.0
100
AcDbMText
 10
194.0347626806376
 20
832.5308658634677
 30
0.0
 40
6.0
 41
40.742
 71
     5
 72
     5
  1
作図日
 73
     1
 44
1.0
  0
LINE
  5
60F0
330
1F
100
AcDbEntity
  8
２
 62
     0
 48
25.0
100
AcDbLine
 10
173.6637676806376
 20
827.5308658634671
 30
0.0
 11
173.6637676806376
 21
817.5308658634676
 31
0.0
  0
LINE
  5
60F1
330
1F
100
AcDbEntity
  8
２
 62
     0
 48
25.0
100
AcDbLine
 10
173.6637676806376
 20
837.5308658634676
 30
0.0
 11
173.6637676806376
 21
817.5308658634676
 31
0.0
  0
LINE
  5
60F2
330
1F
100
AcDbEntity
  8
0
 62
     0
 48
25.0
100
AcDbLine
 10
173.6637676806376
 20
837.5308658634676
 30
0.0
 11
173.6637676806376
 21
827.5308658634676
 31
0.0
  0
LINE
  5
60F3
330
1F
100
AcDbEntity
  8
２
 62
     0
 48
25.0
100
AcDbLine
 10
212.9597354275438
 20
837.5308658634676
 30
0.0
 11
212.9597354275438
 21
817.5308658634676
 31
0.0
  0
MTEXT
  5
60F4
330
1F
100
AcDbEntity
  8
２
 62
     0
 48
25.0
100
AcDbMText
 10
246.0406454275439
 20
832.5308658634677
 30
0.0
 40
3.5
 41
66.16179999999999
 71
     5
 72
     5
  1
2021-12-20
 73
     1
 44
1.0
  0
MTEXT
  5
60F5
330
1F
100
AcDbEntity
  8
２
 62
     0
 48
25.0
100
AcDbMText
 10
246.0406454275439
 20
822.5308658634677
 30
0.0
 40
3.5
 41
66.16182000000001
 71
     5
 72
     5
  1
E.Nomura
 73
     1
 44
1.0
  0
LINE
  5
60F6
330
1F
100
AcDbEntity
  8
２
 62
     0
 48
25.0
100
AcDbLine
 10
279.1215549150597
 20
837.5308658634677
 30
0.0
 11
279.1215549150597
 21
817.5308658634678
 31
0.0
  0
LINE
  5
60F7
330
1F
100
AcDbEntity
  8
１
 62
     0
 48
25.0
100
AcDbLine
 10
318.4215549150597
 20
827.5308658634676
 30
0.0
 11
528.649591227999
 21
827.5308658634676
 31
0.0
  0
LINE
  5
60F8
330
1F
100
AcDbEntity
  8
0
 62
     0
 48
25.0
100
AcDbLine
 10
341.3965544355929
 20
837.5308658634676
 30
0.0
 11
460.2880544355928
 21
837.5308658634676
 31
0.0
  0
MTEXT
  5
60F9
330
1F
100
AcDbEntity
  8
２
 62
     0
 48
25.0
100
AcDbMText
 10
338.0715549150596
 20
822.5308658634677
 30
0.0
 40
6.0
 41
39.29999999999999
 71
     5
 72
     5
  1
図　　名
 73
     1
 44
1.0
  0
MTEXT
  5
60FA
330
1F
100
AcDbEntity
  8
２
 62
     0
 48
25.0
100
AcDbMText
 10
338.0715549150596
 20
832.5308658634677
 30
0.0
 40
6.0
 41
39.29999999999999
 71
     5
 72
     5
  1
物件名称
 73
     1
 44
1.0
  0
LINE
  5
60FB
330
1F
100
AcDbEntity
  8
0
 62
     0
 48
25.0
100
AcDbLine
 10
318.4215549150597
 20
837.5308658634676
 30
0.0
 11
357.7215549150596
 21
837.5308658634676
 31
0.0
  0
MTEXT
  5
60FC
330
1F
100
AcDbEntity
  8
２
 62
     0
 48
25.0
100
AcDbMText
 10
298.2565124150596
 20
827.5308658634678
 30
0.0
 40
4.5
 41
32.06989999999999
 71
     5
 72
     5
  1
Ｓ＝1/2
 73
     1
 44
1.0
  0
LINE
  5
60FD
330
1F
100
AcDbEntity
  8
２
 62
     0
 48
25.0
100
AcDbLine
 10
318.4215549150597
 20
837.5308658634676
 30
0.0
 11
318.4215549150597
 21
817.5308658634676
 31
0.0
  0
LINE
  5
60FE
330
1F
100
AcDbEntity
  8
0
 62
     0
 48
25.0
100
AcDbLine
 10
318.4215549150597
 20
837.5308658634676
 30
0.0
 11
318.4215549150597
 21
817.5308658634676
 31
0.0
  0
LINE
  5
60FF
330
1F
100
AcDbEntity
  8
２
 62
     0
 48
25.0
100
AcDbLine
 10
357.7215549150596
 20
837.5308658634676
 30
0.0
 11
357.7215549150596
 21
817.5308658634676
 31
0.0
  0
LINE
  5
6100
330
1F
100
AcDbEntity
  8
２
 62
     0
 48
25.0
100
AcDbLine
 10
528.649591227999
 20
837.5308658634676
 30
0.0
 11
528.649591227999
 21
817.5308658634676
 31
0.0
  0
MTEXT
  5
6101
330
1F
100
AcDbEntity
  8
２
 62
     0
 48
25.0
100
AcDbMText
 10
626.0641145896142
 20
827.5308658634678
 30
0.0
 40
6.0
 41
103.21335
 71
     5
 72
     5
  1
株式会社{\H1.25x; アルティマ}
 73
     1
 44
1.0
  0
ARC
  5
6102
330
1F
100
AcDbEntity
  8
Object
 62
     0
 48
0.3
100
AcDbCircle
 10
568.3681132541858
 20
824.3086653690383
 30
0.0
 40
4.049999999999999
100
AcDbArc
 50
180.0
 51
257.3448222610501
  0
LINE
  5
6103
102
{ACAD_REACTORS
330
6105
102
}
330
1F
100
AcDbEntity
  8
Object
 62
     0
 48
0.3
100
AcDbLine
 10
546.6185729416677
 20
834.8220867758399
 30
0.0
 11
549.3185729416677
 21
834.8220867758399
 31
0.0
  0
ARC
  5
6104
102
{ACAD_REACTORS
330
6105
102
}
330
1F
100
AcDbEntity
  8
Object
 62
     0
 48
0.3
100
AcDbCircle
 10
545.2685729416677
 20
824.29208677584
 30
0.0
 40
4.049999999999999
100
AcDbArc
 50
180.0
 51
0.0
  0
HATCH
  5
6105
330
1F
100
AcDbEntity
  8
Object
 62
     0
 48
0.3
100
AcDbHatch
 10
0.0
 20
0.0
 30
0.0
210
0.0
220
0.0
230
1.0
  2
ANSI31
 70
     0
 71
     1
 91
        1
 92
        1
 93
        8
 72
     1
 10
543.9185729416676
 20
834.8220867758399
 11
541.2185729416676
 21
834.8220867758399
 72
     1
 10
541.2185729416676
 20
834.8220867758399
 11
541.2185729416676
 21
824.29208677584
 72
     2
 10
545.2685729416677
 20
824.29208677584
 40
4.049999999999999
 50
180.0
 51
360.0
 73
     1
 72
     1
 10
549.3185729416677
 20
824.29208677584
 11
549.3185729416677
 21
834.8220867758399
 72
     1
 10
549.3185729416677
 20
834.8220867758399
 11
546.6185729416677
 21
834.8220867758399
 72
     1
 10
546.6185729416677
 20
834.8220867758399
 11
546.6185729416677
 21
824.29208677584
 72
     2
 10
545.2685729416677
 20
824.29208677584
 40
1.35
 50
360.0
 51
540.0
 73
     0
 72
     1
 10
543.9185729416676
 20
824.29208677584
 11
543.9185729416676
 21
834.8220867758399
 97
        8
330
610B
330
6106
330
6104
330
610D
330
6103
330
6108
330
6109
330
6107
 75
     0
 76
     1
 52
0.0
 41
0.01125
 77
     0
 78
     1
 53
45.0
 43
388.6807673218097
 44
717.6334720785245
 45
-0.025256970340507
 46
0.025256970340507
 79
     0
 98
        1
 10
388.6807673218097
 20
717.6334720785245
  0
LINE
  5
6106
102
{ACAD_REACTORS
330
6105
102
}
330
1F
100
AcDbEntity
  8
Object
 62
     0
 48
0.3
100
AcDbLine
 10
541.2185729416676
 20
824.29208677584
 30
0.0
 11
541.2185729416676
 21
834.8220867758399
 31
0.0
  0
LINE
  5
6107
102
{ACAD_REACTORS
330
6105
102
}
330
1F
100
AcDbEntity
  8
Object
 62
     0
 48
0.3
100
AcDbLine
 10
543.9185729416676
 20
834.8220867758399
 30
0.0
 11
543.9185729416676
 21
824.29208677584
 31
0.0
  0
LINE
  5
6108
102
{ACAD_REACTORS
330
6105
102
}
330
1F
100
AcDbEntity
  8
Object
 62
     0
 48
0.3
100
AcDbLine
 10
546.6185729416677
 20
834.8220867758399
 30
0.0
 11
546.6185729416677
 21
824.29208677584
 31
0.0
  0
ARC
  5
6109
102
{ACAD_REACTORS
330
6105
102
}
330
1F
100
AcDbEntity
  8
Object
 62
     0
 48
0.3
100
AcDbCircle
 10
545.2685729416677
 20
824.29208677584
 30
0.0
 40
1.35
100
AcDbArc
 50
180.0
 51
0.0
  0
LINE
  5
610A
330
1F
100
AcDbEntity
  8
Object
 62
     0
 48
0.3
100
AcDbLine
 10
541.2185729416676
 20
834.8220867758399
 30
0.0
 11
543.9185729416676
 21
834.8220867758399
 31
0.0
  0
LINE
  5
610B
102
{ACAD_REACTORS
330
6105
102
}
330
1F
100
AcDbEntity
  8
Object
 62
     0
 48
0.3
100
AcDbLine
 10
543.9185729416676
 20
834.8220867758399
 30
0.0
 11
541.2185729416676
 21
834.8220867758399
 31
0.0
  0
LINE
  5
610C
102
{ACAD_REACTORS
330
610F
102
}
330
1F
100
AcDbEntity
  8
Object
 62
     0
 48
0.3
100
AcDbLine
 10
556.5185729416677
 20
834.8220867758399
 30
0.0
 11
556.5185729416677
 21
822.9420867758401
 31
0.0
  0
LINE
  5
610D
102
{ACAD_REACTORS
330
6105
102
}
330
1F
100
AcDbEntity
  8
Object
 62
     0
 48
0.3
100
AcDbLine
 10
549.3185729416677
 20
834.8220867758399
 30
0.0
 11
549.3185729416677
 21
824.29208677584
 31
0.0
  0
LINE
  5
610E
102
{ACAD_REACTORS
330
610F
102
}
330
1F
100
AcDbEntity
  8
Object
 62
     0
 48
0.3
100
AcDbLine
 10
553.8185729416677
 20
834.8220867758399
 30
0.0
 11
553.8185729416677
 21
820.24208677584
 31
0.0
  0
HATCH
  5
610F
330
1F
100
AcDbEntity
  8
Object
 62
     0
 48
0.3
100
AcDbHatch
 10
0.0
 20
0.0
 30
0.0
210
0.0
220
0.0
230
1.0
  2
ANSI31
 70
     0
 71
     1
 91
        1
 92
        1
 93
        6
 72
     1
 10
553.8185729416677
 20
834.8220867758399
 11
556.5185729416677
 21
834.8220867758399
 72
     1
 10
556.5185729416677
 20
834.8220867758399
 11
556.5185729416677
 21
822.9420867758401
 72
     1
 10
556.5185729416677
 20
822.9420867758401
 11
561.9185729416677
 21
822.9420867758401
 72
     1
 10
561.9185729416677
 20
822.9420867758401
 11
561.9185729416677
 21
820.24208677584
 72
     1
 10
561.9185729416677
 20
820.24208677584
 11
553.8185729416677
 21
820.24208677584
 72
     1
 10
553.8185729416677
 20
820.24208677584
 11
553.8185729416677
 21
834.8220867758399
 97
        6
330
6113
330
610C
330
6112
330
6111
330
6110
330
610E
 75
     0
 76
     1
 52
0.0
 41
0.01125
 77
     0
 78
     1
 53
45.0
 43
388.6807673218097
 44
717.6334720785245
 45
-0.025256970340507
 46
0.025256970340507
 79
     0
 98
        1
 10
388.6807673218097
 20
717.6334720785245
  0
LINE
  5
6110
102
{ACAD_REACTORS
330
610F
102
}
330
1F
100
AcDbEntity
  8
Object
 62
     0
 48
0.3
100
AcDbLine
 10
553.8185729416677
 20
820.24208677584
 30
0.0
 11
561.9185729416677
 21
820.24208677584
 31
0.0
  0
LINE
  5
6111
102
{ACAD_REACTORS
330
610F
102
}
330
1F
100
AcDbEntity
  8
Object
 62
     0
 48
0.3
100
AcDbLine
 10
561.9185729416677
 20
820.24208677584
 30
0.0
 11
561.9185729416677
 21
822.9420867758401
 31
0.0
  0
LINE
  5
6112
102
{ACAD_REACTORS
330
610F
102
}
330
1F
100
AcDbEntity
  8
Object
 62
     0
 48
0.3
100
AcDbLine
 10
561.9185729416677
 20
822.9420867758401
 30
0.0
 11
556.5185729416677
 21
822.9420867758401
 31
0.0
  0
LINE
  5
6113
102
{ACAD_REACTORS
330
610F
102
}
330
1F
100
AcDbEntity
  8
Object
 62
     0
 48
0.3
100
AcDbLine
 10
553.8185729416677
 20
834.8220867758399
 30
0.0
 11
556.5185729416677
 21
834.8220867758399
 31
0.0
  0
LINE
  5
6114
330
1F
100
AcDbEntity
  8
Object
 62
     0
 48
0.3
100
AcDbLine
 10
572.4181132541859
 20
830.7720867758398
 30
0.0
 11
572.4181132541859
 21
829.2123630550754
 31
0.0
  0
LINE
  5
6115
330
1F
100
AcDbEntity
  8
Object
 62
     0
 48
0.3
100
AcDbLine
 10
567.0181132541858
 20
824.3086653690383
 30
0.0
 11
567.0181132541858
 21
830.7720867758398
 31
0.0
  0
LINE
  5
6116
330
1F
100
AcDbEntity
  8
Object
 62
     0
 48
0.3
100
AcDbLine
 10
564.3181132541858
 20
824.1537331999293
 30
0.0
 11
564.3181132541858
 21
830.7720867758398
 31
0.0
  0
LINE
  5
6117
330
1F
100
AcDbEntity
  8
Object
 62
     0
 48
0.3
100
AcDbLine
 10
569.7181132541859
 20
829.2123630550754
 30
0.0
 11
569.7181132541859
 21
830.7720867758398
 31
0.0
  0
LINE
  5
6118
330
1F
100
AcDbEntity
  8
Object
 62
     0
 48
0.3
100
AcDbLine
 10
567.0181132541858
 20
824.3086653690383
 30
0.0
 11
567.0181132541858
 21
830.7720867758398
 31
0.0
  0
HATCH
  5
6119
330
1F
100
AcDbEntity
  8
Object
 62
     0
 48
0.3
100
AcDbHatch
 10
0.0
 20
0.0
 30
0.0
210
0.0
220
0.0
230
1.0
  2
ANSI31
 70
     0
 71
     0
 91
        1
 92
        7
 72
     1
 73
     1
 93
       17
 10
567.0181132541858
 20
824.3086653690385
 42
0.0
 10
567.0181132541858
 20
830.77208677584
 42
-1.0
 10
569.7181132541859
 20
830.77208677584
 42
0.0
 10
569.7181132541859
 20
829.2123630550756
 42
0.0
 10
572.4181132541859
 20
829.2123630550756
 42
0.0
 10
572.4181132541859
 20
830.77208677584
 42
1.0
 10
564.3181132541858
 20
830.77208677584
 42
0.0
 10
564.3181132541858
 20
824.3086653690385
 42
0.3509045778193816
 10
567.4808271837385
 20
820.3570551365903
 42
0.4071999015487891
 10
569.7181132541859
 20
821.6727720151556
 42
0.0
 10
569.7181132541859
 20
820.24208677584
 42
0.0
 10
572.4181132541859
 20
820.24208677584
 42
0.0
 10
572.4181132541859
 20
827.58962883278
 42
0.0
 10
568.371917058751
 20
827.58962883278
 42
0.0
 10
568.3719170587507
 20
824.8896288327799
 42
0.0
 10
569.7181132541859
 20
824.8896288327799
 42
0.0
 10
569.7181132541859
 20
824.3086653690385
 42
-1.0
 97
        0
 75
     0
 76
     1
 52
0.0
 41
0.01125
 77
     0
 78
     1
 53
45.0
 43
388.6807673218097
 44
717.6334720785245
 45
-0.025256970340507
 46
0.025256970340507
 79
     0
 47
0.0407053698821989
 98
        1
 10
568.0942869891232
 20
822.1037355012922
  0
LINE
  5
611A
330
1F
100
AcDbEntity
  8
Object
 62
     0
 48
0.3
100
AcDbLine
 10
569.7181132541859
 20
829.2123630550754
 30
0.0
 11
572.4181132541859
 21
829.2123630550754
 31
0.0
  0
LINE
  5
611B
330
1F
100
AcDbEntity
  8
Object
 62
     0
 48
0.3
100
AcDbLine
 10
572.4181132541859
 20
827.5896288327798
 30
0.0
 11
568.371917058751
 21
827.5896288327798
 31
0.0
  0
LINE
  5
611C
330
1F
100
AcDbEntity
  8
Object
 62
     0
 48
0.3
100
AcDbLine
 10
569.7181132541859
 20
820.24208677584
 30
0.0
 11
572.4181132541859
 21
820.24208677584
 31
0.0
  0
LINE
  5
611D
330
1F
100
AcDbEntity
  8
Object
 62
     0
 48
0.3
100
AcDbLine
 10
572.4181132541859
 20
820.24208677584
 30
0.0
 11
569.7181132541859
 21
820.24208677584
 31
0.0
  0
LINE
  5
611E
330
1F
100
AcDbEntity
  8
Object
 62
     0
 48
0.3
100
AcDbLine
 10
568.371917058751
 20
827.5896288327798
 30
0.0
 11
568.371917058751
 21
824.8896288327799
 31
0.0
  0
LINE
  5
611F
330
1F
100
AcDbEntity
  8
Object
 62
     0
 48
0.3
100
AcDbLine
 10
568.371917058751
 20
824.8896288327799
 30
0.0
 11
569.7181132541859
 21
824.8896288327799
 31
0.0
  0
LINE
  5
6120
330
1F
100
AcDbEntity
  8
Object
 62
     0
 48
0.3
100
AcDbLine
 10
569.7181132541859
 20
824.3086653690383
 30
0.0
 11
569.7181132541859
 21
824.8896288327799
 31
0.0
  0
LINE
  5
6121
330
1F
100
AcDbEntity
  8
Object
 62
     0
 48
0.3
100
AcDbLine
 10
569.7181132541859
 20
824.8896288327799
 30
0.0
 11
569.7181132541859
 21
824.2651066341716
 31
0.0
  0
LINE
  5
6122
330
1F
100
AcDbEntity
  8
Object
 62
     0
 48
0.3
100
AcDbLine
 10
568.371917058751
 20
824.8896288327799
 30
0.0
 11
569.7181132541859
 21
824.8896288327799
 31
0.0
  0
LINE
  5
6123
330
1F
100
AcDbEntity
  8
Object
 62
     0
 48
0.3
100
AcDbLine
 10
569.7181132541859
 20
824.8896288327799
 30
0.0
 11
569.7181132541859
 21
824.3086653690383
 31
0.0
  0
ARC
  5
6124
330
1F
100
AcDbEntity
  8
Object
 62
     0
 48
0.3
100
AcDbCircle
 10
568.3681132541858
 20
824.3086653690383
 30
0.0
 40
1.35
100
AcDbArc
 50
180.0
 51
0.0
  0
ARC
  5
6125
330
1F
100
AcDbEntity
  8
Object
 62
     0
 48
0.3
100
AcDbCircle
 10
567.9256270136168
 20
822.1607376065174
 30
0.0
 40
1.857718315833298
100
AcDbArc
 50
256.1468978562146
 51
344.7714912032799
  0
LINE
  5
6126
330
1F
100
AcDbEntity
  8
Object
 62
     0
 48
0.3
100
AcDbLine
 10
569.7181132541859
 20
821.672772015151
 30
0.0
 11
569.7181132541859
 21
820.24208677584
 31
0.0
  0
LINE
  5
6127
330
1F
100
AcDbEntity
  8
Object
 62
     0
 48
0.3
100
AcDbLine
 10
572.4181132541859
 20
827.5896288327794
 30
0.0
 11
572.4181132541859
 21
820.24208677584
 31
0.0
  0
ARC
  5
6128
330
1F
100
AcDbEntity
  8
Object
 62
     0
 48
0.3
100
AcDbCircle
 10
568.3681132541858
 20
830.7720867758398
 30
0.0
 40
4.049999999999999
100
AcDbArc
 50
0.0
 51
180.0
  0
ARC
  5
6129
330
1F
100
AcDbEntity
  8
Object
 62
     0
 48
0.3
100
AcDbCircle
 10
568.3681132541858
 20
830.7720867758398
 30
0.0
 40
1.35
100
AcDbArc
 50
0.0
 51
180.0
  0
LINE
  5
612A
330
1F
100
AcDbEntity
  8
２
 62
     0
 48
25.0
100
AcDbLine
 10
-117.6069841392893
 20
817.5308658634676
 30
0.0
 11
682.3930158607106
 21
817.5308658634675
 31
0.0
  0
LINE
  5
61A6
330
1F
100
AcDbEntity
  8
２
 62
     0
 48
25.0
100
AcDbLine
 10
-117.6069841392893
 20
817.5308658634675
 30
0.0
 11
-117.6069841392893
 21
1367.530865863467
 31
0.0
  0
LINE
  5
61A7
330
1F
100
AcDbEntity
  8
２
 62
     0
 48
25.0
100
AcDbLine
 10
-117.6069841392893
 20
1367.530865863467
 30
0.0
 11
682.3930158607105
 21
1367.530865863467
 31
0.0
  0
LINE
  5
61A8
330
1F
100
AcDbEntity
  8
２
 62
     0
 48
25.0
100
AcDbLine
 10
682.3930158607105
 20
1367.530865863467
 30
0.0
 11
682.3930158607106
 21
817.5308658634675
 31
0.0
  0
MTEXT
  5
6487
330
1F
100
AcDbEntity
  8
４
 62
     0
 48
0.5
100
AcDbMText
 10
171.1613615566535
 20
820.0308658634675
 30
0.0
 40
2.5
 41
7.0048
 71
     5
 72
     5
  1
6
 73
     1
 44
1.0
  0
MTEXT
  5
805E
330
1F
100
AcDbEntity
  8
0
 48
0.5
100
AcDbMText
 10
29.16955816236122
 20
1035.5359660895
 30
0.0
 40
6.0
 41
20.438
 71
     9
 72
     1
  1

 73
     1
 44
1.0
  0
MTEXT
  5
8061
330
1F
100
AcDbEntity
  8
0
 48
0.5
100
AcDbMText
 10
18.39555542707603
 20
1011.50872061242
 30
0.0
 40
6.0
 41
20.438
 71
     9
 72
     1
  1

 73
     1
 44
1.0
  0
LINE
  5
9971
330
1F
100
AcDbEntity
  8
0
 62
     0
 48
0.5
100
AcDbLine
 10
406.0629339651213
 20
1085.534847260783
 30
0.0
 11
407.4771475274943
 21
1086.949060823156
 31
0.0
  0
DIMENSION
  5
9972
330
1F
100
AcDbEntity
  8
0
 62
     0
 48
0.5
100
AcDbDimension
  2
*D2
 10
418.716273333228
 20
1055.717695758151
 30
0.0
 11
411.6090203493614
 21
1069.841680855258
 31
0.0
 70
    33
 71
     5
 42
30.0
  3
ISO-25
100
AcDbAlignedDimension
 13
406.0629339651213
 23
1085.534847260783
 33
0.0
 14
427.3303803943458
 24
1064.376025876309
 34
0.0
  0
LINE
  5
9973
330
1F
100
AcDbEntity
  8
0
 62
     0
 48
0.5
100
AcDbLine
 10
406.0629339651213
 20
1085.534847260783
 30
0.0
 11
425.1548170571582
 21
1066.442964168747
 31
0.0
  0
LINE
  5
9974
330
1F
100
AcDbEntity
  8
0
 62
     0
 48
0.5
100
AcDbLine
 10
469.70254427191
 20
1138.808549916502
 30
0.0
 11
406.0629339651208
 21
1138.808549916502
 31
0.0
  0
LINE
  5
9975
330
1F
100
AcDbEntity
  8
0
 62
     0
 48
0.5
100
AcDbLine
 10
427.2761374007179
 20
1168.808549916502
 30
0.0
 11
406.0629339651208
 21
1168.808549916502
 31
0.0
  0
MTEXT
  5
9976
330
1F
100
AcDbEntity
  8
0
 62
     0
 48
0.5
100
AcDbMText
 10
193.6267539271112
 20
1078.829158313958
 30
0.0
 40
6.0
 41
0.0
 71
     1
 72
     1
  1
ULG-3012
 73
     1
 44
1.0
  0
LINE
  5
9977
330
1F
100
AcDbEntity
  8
0
 62
     0
 48
0.3
100
AcDbLine
 10
209.102318461693
 20
1092.093239937381
 30
0.0
 11
225.2971620342589
 21
1092.093239937381
 31
0.0
  0
LINE
  5
9978
330
1F
100
AcDbEntity
  8
0
 62
     0
 48
0.5
100
AcDbLine
 10
220.0646910461002
 20
1102.093239937381
 30
0.0
 11
210.1624053585324
 21
1102.093239937381
 31
0.0
  0
LINE
  5
9979
330
1F
100
AcDbEntity
  8
0
 62
     0
 48
0.5
100
AcDbLine
 10
206.4492452826458
 20
1102.093239937381
 30
0.0
 11
227.4409916419341
 21
1102.093239937381
 31
0.0
  0
ARC
  5
997A
330
1F
100
AcDbEntity
  8
0
 62
     0
100
AcDbCircle
 10
216.9284870999264
 20
1105.611719285849
 30
0.0
 40
13.52557289544312
100
AcDbArc
 50
247.2080385520228
 51
265.9597371979204
  0
ARC
  5
997B
330
1F
100
AcDbEntity
  8
0
 62
     0
100
AcDbCircle
 10
209.102318461693
 20
1095.960688988566
 30
0.0
 40
3.867449051185122
100
AcDbArc
 50
227.359188147408
 51
270.0
  0
LINE
  5
997C
330
1F
100
AcDbEntity
  8
0
 62
     0
 48
0.3
100
AcDbLine
 10
206.4492452826458
 20
1102.093239937381
 30
0.0
 11
210.9617498246535
 21
1102.093239937381
 31
0.0
  0
LINE
  5
997D
330
1F
100
AcDbEntity
  8
0
 62
     0
 48
0.3
100
AcDbLine
 10
206.4492452826458
 20
1102.093239937381
 30
0.0
 11
210.9617498246535
 21
1102.093239937381
 31
0.0
  0
LINE
  5
997E
330
1F
100
AcDbEntity
  8
0
 62
     0
 48
0.3
100
AcDbLine
 10
206.4492452826458
 20
1102.093239937381
 30
0.0
 11
210.9617498246535
 21
1102.093239937381
 31
0.0
  0
LINE
  5
997F
330
1F
100
AcDbEntity
  8
0
 62
     0
 48
0.3
100
AcDbLine
 10
206.4492452826458
 20
1102.093239937381
 30
0.0
 11
210.9617498246535
 21
1102.093239937381
 31
0.0
  0
LINE
  5
9980
330
1F
100
AcDbEntity
  8
0
 62
     0
 48
0.3
100
AcDbLine
 10
209.1023184616951
 20
1102.093239937381
 30
0.0
 11
206.4492452826458
 21
1102.093239937381
 31
0.0
  0
LINE
  5
9981
330
1F
100
AcDbEntity
  8
0
 62
     0
 48
0.3
100
AcDbLine
 10
206.4492452826458
 20
1093.142256792073
 30
0.0
 11
206.4492452826458
 21
1102.093239937381
 31
0.0
  0
LINE
  5
9982
330
1F
100
AcDbEntity
  8
0
 62
     0
 48
0.3
100
AcDbLine
 10
206.4492452826458
 20
1093.142256792073
 30
0.0
 11
206.4492452826458
 21
1102.093239937381
 31
0.0
  0
LINE
  5
9983
330
1F
100
AcDbEntity
  8
0
 62
     0
100
AcDbLine
 10
206.4492452826457
 20
1101.172009936989
 30
0.0
 11
206.4492452826458
 21
1093.142256792073
 31
0.0
  0
LINE
  5
9984
330
1F
100
AcDbEntity
  8
0
 62
     0
 48
0.3
100
AcDbLine
 10
206.4825080073729
 20
1093.115736379655
 30
0.0
 11
206.4492452826458
 21
1093.142256792073
 31
0.0
  0
LINE
  5
9985
330
1F
100
AcDbEntity
  8
0
 62
     0
 48
0.3
100
AcDbLine
 10
206.4492452826457
 20
1101.172009936989
 30
0.0
 11
206.4492452826458
 21
1102.093239937381
 31
0.0
  0
LINE
  5
9986
330
1F
100
AcDbEntity
  8
0
 62
     0
100
AcDbLine
 10
211.688866191286
 20
1093.142256792073
 30
0.0
 11
211.688866191286
 21
1102.093239937381
 31
0.0
  0
ARC
  5
9987
330
1F
100
AcDbEntity
  8
0
 62
     0
100
AcDbCircle
 10
209.0690557369658
 20
1095.876422821683
 30
0.0
 40
3.786696541055324
100
AcDbArc
 50
277.2210763160197
 51
313.7764055836676
  0
ARC
  5
9988
330
1F
100
AcDbEntity
  8
0
 62
     0
100
AcDbCircle
 10
211.1575626501934
 20
1092.144098961577
 30
0.0
 40
0.1
100
AcDbArc
 50
210.5699720142877
 51
241.258664196
  0
LINE
  5
9989
330
1F
100
AcDbEntity
  8
0
 62
     0
 48
0.3
100
AcDbLine
 10
214.6867498246534
 20
1092.093239937381
 30
0.0
 11
209.102318461693
 21
1092.093239937381
 31
0.0
  0
LINE
  5
998A
330
1F
100
AcDbEntity
  8
0
 62
     0
 48
0.3
100
AcDbLine
 10
214.6867498246534
 20
1092.093239937381
 30
0.0
 11
209.102318461693
 21
1092.093239937381
 31
0.0
  0
LINE
  5
998B
330
1F
100
AcDbEntity
  8
0
 62
     0
 48
0.3
100
AcDbLine
 10
214.6867498246534
 20
1092.093239937381
 30
0.0
 11
209.102318461693
 21
1092.093239937381
 31
0.0
  0
ARC
  5
998C
330
1F
100
AcDbEntity
  8
0
 62
     0
100
AcDbCircle
 10
224.8211811876138
 20
1095.849902409265
 30
0.0
 40
3.786696541055324
100
AcDbArc
 50
226.2235944163324
 51
262.7789236839802
  0
LINE
  5
998D
330
1F
100
AcDbEntity
  8
0
 62
     0
 48
0.3
100
AcDbLine
 10
220.0646910461002
 20
1102.093239937381
 30
0.0
 11
227.4409916419341
 21
1102.093239937381
 31
0.0
  0
LINE
  5
998E
330
1F
100
AcDbEntity
  8
0
 62
     0
 48
0.3
100
AcDbLine
 10
220.0646910461002
 20
1102.093239937381
 30
0.0
 11
227.4409916419341
 21
1102.093239937381
 31
0.0
  0
LINE
  5
998F
330
1F
100
AcDbEntity
  8
0
 62
     0
100
AcDbLine
 10
222.2013707332938
 20
1093.115736379655
 30
0.0
 11
222.2013707332936
 21
1099.972403664062
 31
0.0
  0
LINE
  5
9990
330
1F
100
AcDbEntity
  8
0
 62
     0
 48
0.5
100
AcDbLine
 10
222.2013707332936
 20
1101.433988749458
 30
0.0
 11
222.2013707332938
 21
1102.093239937381
 31
0.0
  0
LINE
  5
9991
330
1F
100
AcDbEntity
  8
0
 62
     0
100
AcDbLine
 10
222.2013707332936
 20
1099.972403664062
 30
0.0
 11
222.2013707332936
 21
1101.433988749458
 31
0.0
  0
ARC
  5
9992
330
1F
100
AcDbEntity
  8
0
 62
     0
100
AcDbCircle
 10
216.9617498246536
 20
1105.585198873431
 30
0.0
 40
13.52557289544312
100
AcDbArc
 50
274.0402628020795
 51
292.7919614479741
  0
LINE
  5
9993
330
1F
100
AcDbEntity
  8
0
 62
     0
100
AcDbLine
 10
227.4409916419341
 20
1093.115736379655
 30
0.0
 11
227.4409916419341
 21
1099.972403664062
 31
0.0
  0
LINE
  5
9994
330
1F
100
AcDbEntity
  8
0
 62
     0
100
AcDbLine
 10
227.4409916419341
 20
1093.115736379655
 30
0.0
 11
227.4409916419341
 21
1101.172007704026
 31
0.0
  0
ARC
  5
9995
330
1F
100
AcDbEntity
  8
0
 62
     0
100
AcDbCircle
 10
224.8211811876138
 20
1095.849902409265
 30
0.0
 40
3.786696541055324
100
AcDbArc
 50
277.2210763160197
 51
313.776405583664
  0
LINE
  5
9996
330
1F
100
AcDbEntity
  8
0
 62
     0
 48
0.3
100
AcDbLine
 10
227.4409916419341
 20
1101.172007704026
 30
0.0
 11
227.4409916419341
 21
1102.093239937381
 31
0.0
  0
LINE
  5
9997
330
1F
100
AcDbEntity
  8
0
 62
     0
100
AcDbLine
 10
216.9850233322774
 20
1163.272835236079
 30
0.0
 11
214.7350233322774
 21
1163.272835236079
 31
0.0
  0
LINE
  5
9998
330
1F
100
AcDbEntity
  8
0
 62
     0
100
AcDbLine
 10
214.7350233322774
 20
1163.272835236079
 30
0.0
 11
219.2350233322774
 21
1163.272835236079
 31
0.0
  0
LINE
  5
9999
330
1F
100
AcDbEntity
  8
0
 62
     0
100
AcDbLine
 10
213.8737307814676
 20
1141.270338793805
 30
0.0
 11
222.9766720029145
 21
1141.270338793805
 31
0.0
  0
LINE
  5
999A
330
1F
100
AcDbEntity
  8
0
 62
     0
 48
0.3
100
AcDbLine
 10
224.8194546952379
 20
1148.272835236079
 30
0.0
 11
208.6246111226719
 21
1148.272835236079
 31
0.0
  0
LINE
  5
999B
330
1F
100
AcDbEntity
  8
0
 62
     0
 48
0.3
100
AcDbLine
 10
209.100591969317
 20
1141.270338793805
 30
0.0
 11
225.295435541883
 21
1141.270338793805
 31
0.0
  0
LINE
  5
999C
330
1F
100
AcDbEntity
  8
0
 62
     0
100
AcDbLine
 10
212.4450116042006
 20
1141.270338793805
 30
0.0
 11
224.4728077549333
 21
1141.270338793805
 31
0.0
  0
LINE
  5
999D
330
1F
100
AcDbEntity
  8
0
 62
     0
100
AcDbLine
 10
212.5365995276257
 20
1139.522737107984
 30
0.0
 11
221.4923091953048
 21
1139.992085963571
 31
0.0
  0
LINE
  5
999E
330
1F
100
AcDbEntity
  8
0
 62
     0
100
AcDbLine
 10
211.1894732252928
 20
1140.375582065752
 30
0.0
 11
222.7478475742125
 21
1140.886842691624
 31
0.0
  0
LINE
  5
999F
330
1F
100
AcDbEntity
  8
0
 62
     0
100
AcDbLine
 10
211.193470372737
 20
1138.623389941876
 30
0.0
 11
222.7518447216567
 21
1139.134650567748
 31
0.0
  0
LINE
  5
99A0
330
1F
100
AcDbEntity
  8
0
 62
     0
100
AcDbLine
 10
212.5445938225141
 20
1132.518352860233
 30
0.0
 11
221.5003034901931
 21
1132.98770171582
 31
0.0
  0
LINE
  5
99A1
330
1F
100
AcDbEntity
  8
0
 62
     0
100
AcDbLine
 10
212.5445938225141
 20
1127.268352860233
 30
0.0
 11
221.5003034901931
 21
1127.73770171582
 31
0.0
  0
LINE
  5
99A2
330
1F
100
AcDbEntity
  8
0
 62
     0
100
AcDbLine
 10
212.5445938225141
 20
1129.018352860233
 30
0.0
 11
221.5003034901931
 21
1129.48770171582
 31
0.0
  0
LINE
  5
99A3
330
1F
100
AcDbEntity
  8
0
 62
     0
100
AcDbLine
 10
212.5445938225141
 20
1130.768352860233
 30
0.0
 11
221.5003034901931
 21
1131.23770171582
 31
0.0
  0
LINE
  5
99A4
330
1F
100
AcDbEntity
  8
0
 62
     0
100
AcDbLine
 10
212.5445938225141
 20
1125.518352860233
 30
0.0
 11
221.5003034901931
 21
1125.98770171582
 31
0.0
  0
LINE
  5
99A5
330
1F
100
AcDbEntity
  8
0
 62
     0
100
AcDbLine
 10
211.1974675201812
 20
1124.621197818001
 30
0.0
 11
222.7558418691009
 21
1125.132458443873
 31
0.0
  0
LINE
  5
99A6
330
1F
100
AcDbEntity
  8
0
 62
     0
100
AcDbLine
 10
211.1974675201812
 20
1126.371197818001
 30
0.0
 11
222.7558418691009
 21
1126.882458443873
 31
0.0
  0
LINE
  5
99A7
330
1F
100
AcDbEntity
  8
0
 62
     0
100
AcDbLine
 10
211.1974675201812
 20
1128.121197818001
 30
0.0
 11
222.7558418691009
 21
1128.632458443873
 31
0.0
  0
LINE
  5
99A8
330
1F
100
AcDbEntity
  8
0
 62
     0
100
AcDbLine
 10
211.1974675201812
 20
1129.871197818001
 30
0.0
 11
222.7558418691009
 21
1130.382458443873
 31
0.0
  0
LINE
  5
99A9
330
1F
100
AcDbEntity
  8
0
 62
     0
100
AcDbLine
 10
211.1974675201812
 20
1131.621197818001
 30
0.0
 11
222.7558418691009
 21
1132.132458443873
 31
0.0
  0
LINE
  5
99AA
330
1F
100
AcDbEntity
  8
0
 62
     0
100
AcDbLine
 10
212.5405966750699
 20
1137.770544984109
 30
0.0
 11
221.4963063427489
 21
1138.239893839695
 31
0.0
  0
LINE
  5
99AB
330
1F
100
AcDbEntity
  8
0
 62
     0
100
AcDbLine
 10
212.5445938225141
 20
1136.018352860233
 30
0.0
 11
221.5003034901931
 21
1136.48770171582
 31
0.0
  0
LINE
  5
99AC
330
1F
100
AcDbEntity
  8
0
 62
     0
100
AcDbLine
 10
211.1974675201812
 20
1136.871197818001
 30
0.0
 11
222.7558418691009
 21
1137.382458443873
 31
0.0
  0
LINE
  5
99AD
330
1F
100
AcDbEntity
  8
0
 62
     0
100
AcDbLine
 10
212.5445938225141
 20
1134.268352860233
 30
0.0
 11
221.5003034901931
 21
1134.73770171582
 31
0.0
  0
LINE
  5
99AE
330
1F
100
AcDbEntity
  8
0
 62
     0
100
AcDbLine
 10
211.1974675201812
 20
1133.371197818001
 30
0.0
 11
222.7558418691009
 21
1133.882458443873
 31
0.0
  0
LINE
  5
99AF
330
1F
100
AcDbEntity
  8
0
 62
     0
100
AcDbLine
 10
211.1974675201812
 20
1135.121197818001
 30
0.0
 11
222.7558418691009
 21
1135.632458443873
 31
0.0
  0
ARC
  5
99B0
330
1F
100
AcDbEntity
  8
0
 62
     0
100
AcDbCircle
 10
216.9600233322774
 20
1134.780876300028
 30
0.0
 40
13.52557289544312
100
AcDbArc
 50
94.04026280208285
 51
112.7919614479771
  0
ARC
  5
99B1
330
1F
100
AcDbEntity
  8
0
 62
     0
100
AcDbCircle
 10
216.9267606075503
 20
1154.788818142273
 30
0.0
 40
13.52557289544312
100
AcDbArc
 50
247.2080385520228
 51
265.9597371979171
  0
LINE
  5
99B2
330
1F
100
AcDbEntity
  8
0
 62
     0
100
AcDbLine
 10
211.1974675201812
 20
1114.121197818001
 30
0.0
 11
222.7558418691009
 21
1114.632458443873
 31
0.0
  0
LINE
  5
99B3
330
1F
100
AcDbEntity
  8
0
 62
     0
100
AcDbLine
 10
212.5445938225141
 20
1111.518352860233
 30
0.0
 11
222.2601593123044
 21
1111.518352860233
 31
0.0
  0
LINE
  5
99B4
330
1F
100
AcDbEntity
  8
0
 62
     0
100
AcDbLine
 10
212.5445938225141
 20
1111.518352860233
 30
0.0
 11
221.5003034901931
 21
1111.98770171582
 31
0.0
  0
LINE
  5
99B5
330
1F
100
AcDbEntity
  8
0
 62
     0
100
AcDbLine
 10
212.5445938225141
 20
1113.268352860233
 30
0.0
 11
221.5003034901931
 21
1113.73770171582
 31
0.0
  0
LINE
  5
99B6
330
1F
100
AcDbEntity
  8
0
 62
     0
100
AcDbLine
 10
211.1974675201812
 20
1112.371197818001
 30
0.0
 11
222.7558418691009
 21
1112.882458443873
 31
0.0
  0
LINE
  5
99B7
330
1F
100
AcDbEntity
  8
0
 62
     0
100
AcDbLine
 10
212.5445938225141
 20
1118.518352860233
 30
0.0
 11
221.5003034901931
 21
1118.98770171582
 31
0.0
  0
LINE
  5
99B8
330
1F
100
AcDbEntity
  8
0
 62
     0
100
AcDbLine
 10
212.5445938225141
 20
1120.268352860233
 30
0.0
 11
221.5003034901931
 21
1120.73770171582
 31
0.0
  0
LINE
  5
99B9
330
1F
100
AcDbEntity
  8
0
 62
     0
100
AcDbLine
 10
212.5445938225141
 20
1122.018352860233
 30
0.0
 11
221.5003034901931
 21
1122.48770171582
 31
0.0
  0
LINE
  5
99BA
330
1F
100
AcDbEntity
  8
0
 62
     0
100
AcDbLine
 10
212.5445938225141
 20
1115.018352860233
 30
0.0
 11
221.5003034901931
 21
1115.48770171582
 31
0.0
  0
LINE
  5
99BB
330
1F
100
AcDbEntity
  8
0
 62
     0
100
AcDbLine
 10
212.5445938225141
 20
1116.768352860233
 30
0.0
 11
221.5003034901931
 21
1117.23770171582
 31
0.0
  0
LINE
  5
99BC
330
1F
100
AcDbEntity
  8
0
 62
     0
100
AcDbLine
 10
211.1974675201812
 20
1115.871197818001
 30
0.0
 11
222.7558418691009
 21
1116.382458443873
 31
0.0
  0
LINE
  5
99BD
330
1F
100
AcDbEntity
  8
0
 62
     0
100
AcDbLine
 10
211.1974675201812
 20
1117.621197818001
 30
0.0
 11
222.7558418691009
 21
1118.132458443873
 31
0.0
  0
LINE
  5
99BE
330
1F
100
AcDbEntity
  8
0
 62
     0
100
AcDbLine
 10
211.1974675201812
 20
1119.371197818001
 30
0.0
 11
222.7558418691009
 21
1119.882458443873
 31
0.0
  0
LINE
  5
99BF
330
1F
100
AcDbEntity
  8
0
 62
     0
100
AcDbLine
 10
211.1974675201812
 20
1121.121197818001
 30
0.0
 11
222.7558418691009
 21
1121.632458443873
 31
0.0
  0
LINE
  5
99C0
330
1F
100
AcDbEntity
  8
0
 62
     0
100
AcDbLine
 10
211.1974675201812
 20
1122.871197818001
 30
0.0
 11
222.7558418691009
 21
1123.382458443873
 31
0.0
  0
LINE
  5
99C1
330
1F
100
AcDbEntity
  8
0
 62
     0
100
AcDbLine
 10
212.5445938225141
 20
1123.768352860233
 30
0.0
 11
221.5003034901931
 21
1124.23770171582
 31
0.0
  0
ARC
  5
99C2
330
1F
100
AcDbEntity
  8
0
 62
     0
100
AcDbCircle
 10
209.100591969317
 20
1144.516172764195
 30
0.0
 40
3.786696541055324
100
AcDbArc
 50
97.22107631601982
 51
133.776405583664
  0
ARC
  5
99C3
330
1F
100
AcDbEntity
  8
0
 62
     0
100
AcDbCircle
 10
209.100591969317
 20
1144.516172764195
 30
0.0
 40
3.786696541055324
100
AcDbArc
 50
46.22359441633241
 51
82.77892368398019
  0
ARC
  5
99C4
330
1F
100
AcDbEntity
  8
0
 62
     0
100
AcDbCircle
 10
209.100591969317
 20
1145.137787844989
 30
0.0
 40
3.867449051185122
100
AcDbArc
 50
227.359188147408
 51
270.0
  0
LINE
  5
99C5
330
1F
100
AcDbEntity
  8
0
 62
     0
100
AcDbLine
 10
206.4807815149968
 20
1147.250338793804
 30
0.0
 11
206.4807815149968
 21
1142.292835236079
 31
0.0
  0
LINE
  5
99C6
330
1F
100
AcDbEntity
  8
0
 62
     0
 48
0.3
100
AcDbLine
 10
206.4807815149968
 20
1142.292835236079
 30
0.0
 11
206.4475187902696
 21
1142.319355648497
 31
0.0
  0
LINE
  5
99C7
330
1F
100
AcDbEntity
  8
0
 62
     0
100
AcDbLine
 10
211.7204024236371
 20
1147.250338793804
 30
0.0
 11
211.7204024236371
 21
1142.305430917215
 31
0.0
  0
ARC
  5
99C8
330
1F
100
AcDbEntity
  8
0
 62
     0
100
AcDbCircle
 10
209.0673292445898
 20
1145.053521678107
 30
0.0
 40
3.786696541055324
100
AcDbArc
 50
277.2210763160197
 51
313.7764055836676
  0
LINE
  5
99C9
330
1F
100
AcDbEntity
  8
0
 62
     0
100
AcDbLine
 10
211.141387606703
 20
1140.287902117732
 30
0.0
 11
212.5365995276257
 21
1139.522737107984
 31
0.0
  0
ARC
  5
99CA
330
1F
100
AcDbEntity
  8
0
 62
     0
100
AcDbCircle
 10
211.1894732252928
 20
1140.375582065752
 30
0.0
 40
0.1
100
AcDbArc
 50
121.7565767855589
 51
241.258664196
  0
LINE
  5
99CB
330
1F
100
AcDbEntity
  8
0
 62
     0
100
AcDbLine
 10
211.1368420723735
 20
1140.460611247462
 30
0.0
 11
212.4450116042006
 21
1141.270338793805
 31
0.0
  0
LINE
  5
99CC
330
1F
100
AcDbEntity
  8
0
 62
     0
100
AcDbLine
 10
211.1408392198176
 20
1138.708419123587
 30
0.0
 11
212.4490087516448
 21
1139.518146669929
 31
0.0
  0
LINE
  5
99CD
330
1F
100
AcDbEntity
  8
0
 62
     0
100
AcDbLine
 10
211.1493819015913
 20
1133.283517869981
 30
0.0
 11
212.5445938225141
 21
1132.518352860233
 31
0.0
  0
ARC
  5
99CE
330
1F
100
AcDbEntity
  8
0
 62
     0
100
AcDbCircle
 10
211.1974675201812
 20
1126.371197818001
 30
0.0
 40
0.1
100
AcDbArc
 50
121.7565767855589
 51
241.258664196
  0
ARC
  5
99CF
330
1F
100
AcDbEntity
  8
0
 62
     0
100
AcDbCircle
 10
211.1974675201812
 20
1128.121197818001
 30
0.0
 40
0.1
100
AcDbArc
 50
121.7565767855589
 51
241.258664196
  0
ARC
  5
99D0
330
1F
100
AcDbEntity
  8
0
 62
     0
100
AcDbCircle
 10
211.1974675201812
 20
1129.871197818001
 30
0.0
 40
0.1
100
AcDbArc
 50
121.7565767855589
 51
241.258664196
  0
ARC
  5
99D1
330
1F
100
AcDbEntity
  8
0
 62
     0
100
AcDbCircle
 10
211.1974675201812
 20
1131.621197818001
 30
0.0
 40
0.1
100
AcDbArc
 50
121.7565767855589
 51
241.258664196
  0
ARC
  5
99D2
330
1F
100
AcDbEntity
  8
0
 62
     0
100
AcDbCircle
 10
211.1974675201812
 20
1124.621197818001
 30
0.0
 40
0.1
100
AcDbArc
 50
121.7565767855589
 51
241.258664196
  0
LINE
  5
99D3
330
1F
100
AcDbEntity
  8
0
 62
     0
100
AcDbLine
 10
211.1448363672618
 20
1124.706226999712
 30
0.0
 11
212.4530058990889
 21
1125.515954546054
 31
0.0
  0
LINE
  5
99D4
330
1F
100
AcDbEntity
  8
0
 62
     0
100
AcDbLine
 10
211.1493819015913
 20
1126.283517869981
 30
0.0
 11
212.5445938225141
 21
1125.518352860233
 31
0.0
  0
LINE
  5
99D5
330
1F
100
AcDbEntity
  8
0
 62
     0
100
AcDbLine
 10
211.1448363672618
 20
1126.456226999712
 30
0.0
 11
212.4530058990889
 21
1127.265954546054
 31
0.0
  0
LINE
  5
99D6
330
1F
100
AcDbEntity
  8
0
 62
     0
100
AcDbLine
 10
211.1493819015913
 20
1128.033517869981
 30
0.0
 11
212.5445938225141
 21
1127.268352860233
 31
0.0
  0
LINE
  5
99D7
330
1F
100
AcDbEntity
  8
0
 62
     0
100
AcDbLine
 10
211.1448363672618
 20
1128.206226999712
 30
0.0
 11
212.4530058990889
 21
1129.015954546054
 31
0.0
  0
LINE
  5
99D8
330
1F
100
AcDbEntity
  8
0
 62
     0
100
AcDbLine
 10
211.1493819015913
 20
1129.783517869981
 30
0.0
 11
212.5445938225141
 21
1129.018352860233
 31
0.0
  0
LINE
  5
99D9
330
1F
100
AcDbEntity
  8
0
 62
     0
100
AcDbLine
 10
211.1448363672618
 20
1129.956226999712
 30
0.0
 11
212.4530058990889
 21
1130.765954546054
 31
0.0
  0
LINE
  5
99DA
330
1F
100
AcDbEntity
  8
0
 62
     0
100
AcDbLine
 10
211.1493819015913
 20
1131.533517869981
 30
0.0
 11
212.5445938225141
 21
1130.768352860233
 31
0.0
  0
LINE
  5
99DB
330
1F
100
AcDbEntity
  8
0
 62
     0
100
AcDbLine
 10
211.1448363672618
 20
1131.706226999712
 30
0.0
 11
212.4530058990889
 21
1132.515954546054
 31
0.0
  0
LINE
  5
99DC
330
1F
100
AcDbEntity
  8
0
 62
     0
100
AcDbLine
 10
211.1453847541471
 20
1138.535709993856
 30
0.0
 11
212.5405966750699
 21
1137.770544984109
 31
0.0
  0
ARC
  5
99DD
330
1F
100
AcDbEntity
  8
0
 62
     0
100
AcDbCircle
 10
211.1974675201812
 20
1136.871197818001
 30
0.0
 40
0.1
100
AcDbArc
 50
121.7565767855589
 51
241.258664196
  0
LINE
  5
99DE
330
1F
100
AcDbEntity
  8
0
 62
     0
100
AcDbLine
 10
211.1493819015913
 20
1136.783517869981
 30
0.0
 11
212.5445938225141
 21
1136.018352860233
 31
0.0
  0
LINE
  5
99DF
330
1F
100
AcDbEntity
  8
0
 62
     0
100
AcDbLine
 10
211.1448363672618
 20
1136.956226999711
 30
0.0
 11
212.4530058990889
 21
1137.765954546054
 31
0.0
  0
ARC
  5
99E0
330
1F
100
AcDbEntity
  8
0
 62
     0
100
AcDbCircle
 10
211.1974675201812
 20
1135.121197818001
 30
0.0
 40
0.1
100
AcDbArc
 50
121.7565767855589
 51
241.258664196
  0
ARC
  5
99E1
330
1F
100
AcDbEntity
  8
0
 62
     0
100
AcDbCircle
 10
211.1974675201812
 20
1133.371197818001
 30
0.0
 40
0.1
100
AcDbArc
 50
121.7565767855589
 51
241.258664196
  0
LINE
  5
99E2
330
1F
100
AcDbEntity
  8
0
 62
     0
100
AcDbLine
 10
211.1448363672618
 20
1133.456226999711
 30
0.0
 11
212.4530058990889
 21
1134.265954546054
 31
0.0
  0
LINE
  5
99E3
330
1F
100
AcDbEntity
  8
0
 62
     0
100
AcDbLine
 10
211.1493819015913
 20
1135.033517869981
 30
0.0
 11
212.5445938225141
 21
1134.268352860233
 31
0.0
  0
LINE
  5
99E4
330
1F
100
AcDbEntity
  8
0
 62
     0
100
AcDbLine
 10
211.1448363672618
 20
1135.206226999712
 30
0.0
 11
212.4530058990889
 21
1136.015954546054
 31
0.0
  0
ARC
  5
99E5
330
1F
100
AcDbEntity
  8
0
 62
     0
100
AcDbCircle
 10
211.193470372737
 20
1138.623389941876
 30
0.0
 40
0.1
100
AcDbArc
 50
121.7565767855589
 51
241.258664196
  0
LINE
  5
99E6
330
1F
100
AcDbEntity
  8
0
 62
     0
 48
0.3
100
AcDbLine
 10
214.6850233322774
 20
1141.270338793805
 30
0.0
 11
209.100591969317
 21
1141.270338793805
 31
0.0
  0
LINE
  5
99E7
330
1F
100
AcDbEntity
  8
0
 62
     0
 48
0.3
100
AcDbLine
 10
214.6850233322774
 20
1141.270338793805
 30
0.0
 11
209.100591969317
 21
1141.270338793805
 31
0.0
  0
LINE
  5
99E8
330
1F
100
AcDbEntity
  8
0
 62
     0
 48
0.3
100
AcDbLine
 10
214.6850233322774
 20
1141.270338793805
 30
0.0
 11
209.100591969317
 21
1141.270338793805
 31
0.0
  0
LINE
  5
99E9
330
1F
100
AcDbEntity
  8
0
 62
     0
100
AcDbLine
 10
211.1448363672618
 20
1114.206226999712
 30
0.0
 11
212.4530058990889
 21
1115.015954546054
 31
0.0
  0
ARC
  5
99EA
330
1F
100
AcDbEntity
  8
0
 62
     0
100
AcDbCircle
 10
211.1974675201812
 20
1112.371197818001
 30
0.0
 40
0.1
100
AcDbArc
 50
121.7565767855589
 51
241.258664196
  0
ARC
  5
99EB
330
1F
100
AcDbEntity
  8
0
 62
     0
100
AcDbCircle
 10
211.1974675201812
 20
1114.121197818001
 30
0.0
 40
0.1
100
AcDbArc
 50
121.7565767855589
 51
241.258664196
  0
LINE
  5
99EC
330
1F
100
AcDbEntity
  8
0
 62
     0
100
AcDbLine
 10
211.1493819015913
 20
1112.283517869981
 30
0.0
 11
212.5445938225141
 21
1111.518352860233
 31
0.0
  0
LINE
  5
99ED
330
1F
100
AcDbEntity
  8
0
 62
     0
100
AcDbLine
 10
211.1448363672618
 20
1112.456226999712
 30
0.0
 11
212.4530058990889
 21
1113.265954546054
 31
0.0
  0
LINE
  5
99EE
330
1F
100
AcDbEntity
  8
0
 62
     0
100
AcDbLine
 10
211.1493819015913
 20
1114.033517869981
 30
0.0
 11
212.5445938225141
 21
1113.268352860233
 31
0.0
  0
ARC
  5
99EF
330
1F
100
AcDbEntity
  8
0
 62
     0
100
AcDbCircle
 10
211.1974675201812
 20
1119.371197818001
 30
0.0
 40
0.1
100
AcDbArc
 50
121.7565767855589
 51
241.258664196
  0
ARC
  5
99F0
330
1F
100
AcDbEntity
  8
0
 62
     0
100
AcDbCircle
 10
211.1974675201812
 20
1121.121197818001
 30
0.0
 40
0.1
100
AcDbArc
 50
121.7565767855589
 51
241.258664196
  0
ARC
  5
99F1
330
1F
100
AcDbEntity
  8
0
 62
     0
100
AcDbCircle
 10
211.1974675201812
 20
1122.871197818001
 30
0.0
 40
0.1
100
AcDbArc
 50
121.7565767855589
 51
241.258664196
  0
ARC
  5
99F2
330
1F
100
AcDbEntity
  8
0
 62
     0
100
AcDbCircle
 10
211.1974675201812
 20
1115.871197818001
 30
0.0
 40
0.1
100
AcDbArc
 50
121.7565767855589
 51
241.258664196
  0
ARC
  5
99F3
330
1F
100
AcDbEntity
  8
0
 62
     0
100
AcDbCircle
 10
211.1974675201812
 20
1117.621197818001
 30
0.0
 40
0.1
100
AcDbArc
 50
121.7565767855589
 51
241.258664196
  0
LINE
  5
99F4
330
1F
100
AcDbEntity
  8
0
 62
     0
100
AcDbLine
 10
211.1493819015913
 20
1115.783517869981
 30
0.0
 11
212.5445938225141
 21
1115.018352860233
 31
0.0
  0
LINE
  5
99F5
330
1F
100
AcDbEntity
  8
0
 62
     0
100
AcDbLine
 10
211.1448363672618
 20
1115.956226999712
 30
0.0
 11
212.4530058990889
 21
1116.765954546054
 31
0.0
  0
LINE
  5
99F6
330
1F
100
AcDbEntity
  8
0
 62
     0
100
AcDbLine
 10
211.1493819015913
 20
1117.533517869981
 30
0.0
 11
212.5445938225141
 21
1116.768352860233
 31
0.0
  0
LINE
  5
99F7
330
1F
100
AcDbEntity
  8
0
 62
     0
100
AcDbLine
 10
211.1448363672618
 20
1117.706226999712
 30
0.0
 11
212.4530058990889
 21
1118.515954546054
 31
0.0
  0
LINE
  5
99F8
330
1F
100
AcDbEntity
  8
0
 62
     0
100
AcDbLine
 10
211.1493819015913
 20
1119.283517869981
 30
0.0
 11
212.5445938225141
 21
1118.518352860233
 31
0.0
  0
LINE
  5
99F9
330
1F
100
AcDbEntity
  8
0
 62
     0
100
AcDbLine
 10
211.1448363672618
 20
1119.456226999712
 30
0.0
 11
212.4530058990889
 21
1120.265954546054
 31
0.0
  0
LINE
  5
99FA
330
1F
100
AcDbEntity
  8
0
 62
     0
100
AcDbLine
 10
211.1493819015913
 20
1121.033517869981
 30
0.0
 11
212.5445938225141
 21
1120.268352860233
 31
0.0
  0
LINE
  5
99FB
330
1F
100
AcDbEntity
  8
0
 62
     0
100
AcDbLine
 10
211.1448363672618
 20
1121.206226999712
 30
0.0
 11
212.4530058990889
 21
1122.015954546054
 31
0.0
  0
LINE
  5
99FC
330
1F
100
AcDbEntity
  8
0
 62
     0
100
AcDbLine
 10
211.1493819015913
 20
1122.783517869981
 30
0.0
 11
212.5445938225141
 21
1122.018352860233
 31
0.0
  0
LINE
  5
99FD
330
1F
100
AcDbEntity
  8
0
 62
     0
100
AcDbLine
 10
211.1448363672618
 20
1122.956226999712
 30
0.0
 11
212.4530058990889
 21
1123.765954546054
 31
0.0
  0
LINE
  5
99FE
330
1F
100
AcDbEntity
  8
0
 62
     0
100
AcDbLine
 10
211.1493819015913
 20
1124.533517869981
 30
0.0
 11
212.5445938225141
 21
1123.768352860233
 31
0.0
  0
LINE
  5
99FF
330
1F
100
AcDbEntity
  8
0
 62
     0
100
AcDbLine
 10
214.7350233322774
 20
1163.272835236079
 30
0.0
 11
214.7350233322774
 21
1148.272835236079
 31
0.0
  0
ARC
  5
9A00
330
1F
100
AcDbEntity
  8
0
 62
     0
100
AcDbCircle
 10
224.852717419965
 20
1144.489652351776
 30
0.0
 40
3.786696541055324
100
AcDbArc
 50
97.22107631601982
 51
133.7764055836675
  0
ARC
  5
9A01
330
1F
100
AcDbEntity
  8
0
 62
     0
100
AcDbCircle
 10
224.8194546952379
 20
1144.405386184894
 30
0.0
 40
3.867449051185122
100
AcDbArc
 50
47.35918814740801
 51
90.0
  0
ARC
  5
9A02
330
1F
100
AcDbEntity
  8
0
 62
     0
100
AcDbCircle
 10
216.9932860570046
 20
1134.754355887611
 30
0.0
 40
13.52557289544312
100
AcDbArc
 50
67.20803855202285
 51
85.95973719791716
  0
ARC
  5
9A03
330
1F
100
AcDbEntity
  8
0
 62
     0
100
AcDbCircle
 10
224.8194546952378
 20
1145.027001265689
 30
0.0
 40
3.786696541055324
100
AcDbArc
 50
226.2235944163324
 51
262.7789236839802
  0
LINE
  5
9A04
330
1F
100
AcDbEntity
  8
0
 62
     0
100
AcDbLine
 10
222.8004787271319
 20
1140.801813509913
 30
0.0
 11
221.4923091953048
 21
1139.992085963571
 31
0.0
  0
LINE
  5
9A05
330
1F
100
AcDbEntity
  8
0
 62
     0
100
AcDbLine
 10
222.7959331928025
 20
1140.974522639644
 30
0.0
 11
222.2565381349667
 21
1141.270338793805
 31
0.0
  0
LINE
  5
9A06
330
1F
100
AcDbEntity
  8
0
 62
     0
100
AcDbLine
 10
222.8084730220202
 20
1128.547429262162
 30
0.0
 11
221.5003034901931
 21
1127.73770171582
 31
0.0
  0
LINE
  5
9A07
330
1F
100
AcDbEntity
  8
0
 62
     0
100
AcDbLine
 10
222.8084730220202
 20
1130.297429262162
 30
0.0
 11
221.5003034901931
 21
1129.48770171582
 31
0.0
  0
LINE
  5
9A08
330
1F
100
AcDbEntity
  8
0
 62
     0
100
AcDbLine
 10
222.8084730220202
 20
1132.047429262162
 30
0.0
 11
221.5003034901931
 21
1131.23770171582
 31
0.0
  0
LINE
  5
9A09
330
1F
100
AcDbEntity
  8
0
 62
     0
100
AcDbLine
 10
222.8084730220202
 20
1125.047429262162
 30
0.0
 11
221.5003034901931
 21
1124.23770171582
 31
0.0
  0
LINE
  5
9A0A
330
1F
100
AcDbEntity
  8
0
 62
     0
100
AcDbLine
 10
222.8084730220202
 20
1126.797429262162
 30
0.0
 11
221.5003034901931
 21
1125.98770171582
 31
0.0
  0
LINE
  5
9A0B
330
1F
100
AcDbEntity
  8
0
 62
     0
100
AcDbLine
 10
222.8084730220202
 20
1137.297429262162
 30
0.0
 11
221.5003034901931
 21
1136.48770171582
 31
0.0
  0
LINE
  5
9A0C
330
1F
100
AcDbEntity
  8
0
 62
     0
100
AcDbLine
 10
222.8084730220202
 20
1135.547429262162
 30
0.0
 11
221.5003034901931
 21
1134.73770171582
 31
0.0
  0
LINE
  5
9A0D
330
1F
100
AcDbEntity
  8
0
 62
     0
100
AcDbLine
 10
222.8084730220202
 20
1133.797429262162
 30
0.0
 11
221.5003034901931
 21
1132.98770171582
 31
0.0
  0
LINE
  5
9A0E
330
1F
100
AcDbEntity
  8
0
 62
     0
100
AcDbLine
 10
222.8044758745761
 20
1139.049621386038
 30
0.0
 11
221.4963063427489
 21
1138.239893839695
 31
0.0
  0
LINE
  5
9A0F
330
1F
100
AcDbEntity
  8
0
 62
     0
100
AcDbLine
 10
222.7999303402466
 20
1139.222330515768
 30
0.0
 11
221.4047184193238
 21
1139.987495525516
 31
0.0
  0
LINE
  5
9A10
330
1F
100
AcDbEntity
  8
0
 62
     0
100
AcDbLine
 10
222.8039274876908
 20
1132.220138391893
 30
0.0
 11
221.408715566768
 21
1132.985303401641
 31
0.0
  0
LINE
  5
9A11
330
1F
100
AcDbEntity
  8
0
 62
     0
100
AcDbLine
 10
222.8039274876908
 20
1126.970138391893
 30
0.0
 11
221.408715566768
 21
1127.735303401641
 31
0.0
  0
LINE
  5
9A12
330
1F
100
AcDbEntity
  8
0
 62
     0
100
AcDbLine
 10
222.8039274876908
 20
1128.720138391893
 30
0.0
 11
221.408715566768
 21
1129.485303401641
 31
0.0
  0
LINE
  5
9A13
330
1F
100
AcDbEntity
  8
0
 62
     0
100
AcDbLine
 10
222.8039274876908
 20
1130.470138391893
 30
0.0
 11
221.408715566768
 21
1131.23530340164
 31
0.0
  0
LINE
  5
9A14
330
1F
100
AcDbEntity
  8
0
 62
     0
100
AcDbLine
 10
222.8039274876908
 20
1125.220138391893
 30
0.0
 11
221.408715566768
 21
1125.985303401641
 31
0.0
  0
LINE
  5
9A15
330
1F
100
AcDbEntity
  8
0
 62
     0
100
AcDbLine
 10
222.8039274876908
 20
1137.470138391893
 30
0.0
 11
221.408715566768
 21
1138.235303401641
 31
0.0
  0
LINE
  5
9A16
330
1F
100
AcDbEntity
  8
0
 62
     0
100
AcDbLine
 10
222.8039274876908
 20
1135.720138391893
 30
0.0
 11
221.408715566768
 21
1136.48530340164
 31
0.0
  0
LINE
  5
9A17
330
1F
100
AcDbEntity
  8
0
 62
     0
100
AcDbLine
 10
222.8039274876908
 20
1133.970138391893
 30
0.0
 11
221.408715566768
 21
1134.73530340164
 31
0.0
  0
LINE
  5
9A18
330
1F
100
AcDbEntity
  8
0
 62
     0
100
AcDbLine
 10
222.8084730220202
 20
1114.547429262162
 30
0.0
 11
221.5003034901931
 21
1113.73770171582
 31
0.0
  0
LINE
  5
9A19
330
1F
100
AcDbEntity
  8
0
 62
     0
100
AcDbLine
 10
222.8084730220202
 20
1112.797429262162
 30
0.0
 11
221.5003034901931
 21
1111.98770171582
 31
0.0
  0
LINE
  5
9A1A
330
1F
100
AcDbEntity
  8
0
 62
     0
100
AcDbLine
 10
222.8084730220202
 20
1119.797429262162
 30
0.0
 11
221.5003034901931
 21
1118.98770171582
 31
0.0
  0
LINE
  5
9A1B
330
1F
100
AcDbEntity
  8
0
 62
     0
100
AcDbLine
 10
222.8084730220202
 20
1121.547429262162
 30
0.0
 11
221.5003034901931
 21
1120.73770171582
 31
0.0
  0
LINE
  5
9A1C
330
1F
100
AcDbEntity
  8
0
 62
     0
100
AcDbLine
 10
222.8084730220202
 20
1123.297429262162
 30
0.0
 11
221.5003034901931
 21
1122.48770171582
 31
0.0
  0
LINE
  5
9A1D
330
1F
100
AcDbEntity
  8
0
 62
     0
100
AcDbLine
 10
222.8084730220202
 20
1116.297429262162
 30
0.0
 11
221.5003034901931
 21
1115.48770171582
 31
0.0
  0
LINE
  5
9A1E
330
1F
100
AcDbEntity
  8
0
 62
     0
100
AcDbLine
 10
222.8084730220202
 20
1118.047429262162
 30
0.0
 11
221.5003034901931
 21
1117.23770171582
 31
0.0
  0
LINE
  5
9A1F
330
1F
100
AcDbEntity
  8
0
 62
     0
100
AcDbLine
 10
222.8039274876908
 20
1112.970138391893
 30
0.0
 11
221.408715566768
 21
1113.735303401641
 31
0.0
  0
LINE
  5
9A20
330
1F
100
AcDbEntity
  8
0
 62
     0
100
AcDbLine
 10
222.8039274876908
 20
1118.220138391893
 30
0.0
 11
221.408715566768
 21
1118.985303401641
 31
0.0
  0
LINE
  5
9A21
330
1F
100
AcDbEntity
  8
0
 62
     0
100
AcDbLine
 10
222.8039274876908
 20
1119.970138391893
 30
0.0
 11
221.408715566768
 21
1120.735303401641
 31
0.0
  0
LINE
  5
9A22
330
1F
100
AcDbEntity
  8
0
 62
     0
100
AcDbLine
 10
222.8039274876908
 20
1121.720138391893
 30
0.0
 11
221.408715566768
 21
1122.485303401641
 31
0.0
  0
LINE
  5
9A23
330
1F
100
AcDbEntity
  8
0
 62
     0
100
AcDbLine
 10
222.8039274876908
 20
1114.720138391893
 30
0.0
 11
221.408715566768
 21
1115.48530340164
 31
0.0
  0
LINE
  5
9A24
330
1F
100
AcDbEntity
  8
0
 62
     0
100
AcDbLine
 10
222.8039274876908
 20
1116.470138391893
 30
0.0
 11
221.408715566768
 21
1117.235303401641
 31
0.0
  0
LINE
  5
9A25
330
1F
100
AcDbEntity
  8
0
 62
     0
100
AcDbLine
 10
222.8039274876908
 20
1123.470138391893
 30
0.0
 11
221.408715566768
 21
1124.235303401641
 31
0.0
  0
LINE
  5
9A26
330
1F
100
AcDbEntity
  8
0
 62
     0
100
AcDbLine
 10
222.2329069656448
 20
1147.223818381387
 30
0.0
 11
222.2329069656448
 21
1142.261347358098
 31
0.0
  0
ARC
  5
9A27
330
1F
100
AcDbEntity
  8
0
 62
     0
100
AcDbCircle
 10
216.9600233322774
 20
1154.762297729855
 30
0.0
 40
13.52557289544312
100
AcDbArc
 50
274.0402628020828
 51
292.7919614479771
  0
LINE
  5
9A28
330
1F
100
AcDbEntity
  8
0
 62
     0
100
AcDbLine
 10
222.2601593123043
 20
1111.518352860233
 30
0.0
 11
221.408715566768
 21
1111.985303401641
 31
0.0
  0
ARC
  5
9A29
330
1F
100
AcDbEntity
  8
0
 62
     0
100
AcDbCircle
 10
222.7478475742125
 20
1140.886842691624
 30
0.0
 40
0.1
100
AcDbArc
 50
301.7565767855589
 51
61.2586641960001
  0
ARC
  5
9A2A
330
1F
100
AcDbEntity
  8
0
 62
     0
100
AcDbCircle
 10
222.7518447216567
 20
1139.134650567748
 30
0.0
 40
0.1
100
AcDbArc
 50
301.7565767855589
 51
61.2586641960001
  0
ARC
  5
9A2B
330
1F
100
AcDbEntity
  8
0
 62
     0
100
AcDbCircle
 10
222.7558418691009
 20
1126.882458443873
 30
0.0
 40
0.1
100
AcDbArc
 50
301.7565767855589
 51
61.2586641960001
  0
ARC
  5
9A2C
330
1F
100
AcDbEntity
  8
0
 62
     0
100
AcDbCircle
 10
222.7558418691009
 20
1128.632458443873
 30
0.0
 40
0.1
100
AcDbArc
 50
301.7565767855589
 51
61.2586641960001
  0
ARC
  5
9A2D
330
1F
100
AcDbEntity
  8
0
 62
     0
100
AcDbCircle
 10
222.7558418691009
 20
1130.382458443873
 30
0.0
 40
0.1
100
AcDbArc
 50
301.7565767855589
 51
61.2586641960001
  0
ARC
  5
9A2E
330
1F
100
AcDbEntity
  8
0
 62
     0
100
AcDbCircle
 10
222.7558418691009
 20
1132.132458443873
 30
0.0
 40
0.1
100
AcDbArc
 50
301.7565767855589
 51
61.2586641960001
  0
ARC
  5
9A2F
330
1F
100
AcDbEntity
  8
0
 62
     0
100
AcDbCircle
 10
222.7558418691009
 20
1125.132458443873
 30
0.0
 40
0.1
100
AcDbArc
 50
301.7565767855589
 51
61.2586641960001
  0
ARC
  5
9A30
330
1F
100
AcDbEntity
  8
0
 62
     0
100
AcDbCircle
 10
222.7558418691009
 20
1137.382458443873
 30
0.0
 40
0.1
100
AcDbArc
 50
301.7565767855589
 51
61.2586641960001
  0
ARC
  5
9A31
330
1F
100
AcDbEntity
  8
0
 62
     0
100
AcDbCircle
 10
222.7558418691009
 20
1135.632458443873
 30
0.0
 40
0.1
100
AcDbArc
 50
301.7565767855589
 51
61.2586641960001
  0
ARC
  5
9A32
330
1F
100
AcDbEntity
  8
0
 62
     0
100
AcDbCircle
 10
222.7558418691009
 20
1133.882458443873
 30
0.0
 40
0.1
100
AcDbArc
 50
301.7565767855589
 51
61.2586641960001
  0
LINE
  5
9A33
330
1F
100
AcDbEntity
  8
0
 62
     0
 48
0.3
100
AcDbLine
 10
227.439265149558
 20
1147.250338793804
 30
0.0
 11
227.4725278742852
 21
1147.223818381387
 31
0.0
  0
LINE
  5
9A34
330
1F
100
AcDbEntity
  8
0
 62
     0
 48
0.3
100
AcDbLine
 10
227.4725278742852
 20
1147.223818381387
 30
0.0
 11
227.4725278742852
 21
1142.292835236079
 31
0.0
  0
ARC
  5
9A35
330
1F
100
AcDbEntity
  8
0
 62
     0
100
AcDbCircle
 10
224.8194546952378
 20
1145.027001265689
 30
0.0
 40
3.786696541055324
100
AcDbArc
 50
277.2210763160197
 51
313.776405583664
  0
LINE
  5
9A36
330
1F
100
AcDbEntity
  8
0
 62
     0
100
AcDbLine
 10
227.4725278742852
 20
1142.292835236079
 30
0.0
 11
227.4725278742852
 21
1147.223818381387
 31
0.0
  0
ARC
  5
9A37
330
1F
100
AcDbEntity
  8
0
 62
     0
100
AcDbCircle
 10
222.7558418691009
 20
1112.882458443873
 30
0.0
 40
0.1
100
AcDbArc
 50
301.7565767855589
 51
61.2586641960001
  0
ARC
  5
9A38
330
1F
100
AcDbEntity
  8
0
 62
     0
100
AcDbCircle
 10
222.7558418691009
 20
1118.132458443873
 30
0.0
 40
0.1
100
AcDbArc
 50
301.7565767855589
 51
61.2586641960001
  0
ARC
  5
9A39
330
1F
100
AcDbEntity
  8
0
 62
     0
100
AcDbCircle
 10
222.7558418691009
 20
1119.882458443873
 30
0.0
 40
0.1
100
AcDbArc
 50
301.7565767855589
 51
61.2586641960001
  0
ARC
  5
9A3A
330
1F
100
AcDbEntity
  8
0
 62
     0
100
AcDbCircle
 10
222.7558418691009
 20
1121.632458443873
 30
0.0
 40
0.1
100
AcDbArc
 50
301.7565767855589
 51
61.2586641960001
  0
ARC
  5
9A3B
330
1F
100
AcDbEntity
  8
0
 62
     0
100
AcDbCircle
 10
222.7558418691009
 20
1114.632458443873
 30
0.0
 40
0.1
100
AcDbArc
 50
301.7565767855589
 51
61.2586641960001
  0
ARC
  5
9A3C
330
1F
100
AcDbEntity
  8
0
 62
     0
100
AcDbCircle
 10
222.7558418691009
 20
1116.382458443873
 30
0.0
 40
0.1
100
AcDbArc
 50
301.7565767855589
 51
61.2586641960001
  0
ARC
  5
9A3D
330
1F
100
AcDbEntity
  8
0
 62
     0
100
AcDbCircle
 10
222.7558418691009
 20
1123.382458443873
 30
0.0
 40
0.1
100
AcDbArc
 50
301.7565767855589
 51
61.2586641960001
  0
LINE
  5
9A3E
330
1F
100
AcDbEntity
  8
0
 62
     0
 48
0.3
100
AcDbLine
 10
219.2350233322774
 20
1148.272835236079
 30
0.0
 11
224.8194546952379
 21
1148.272835236079
 31
0.0
  0
LINE
  5
9A3F
330
1F
100
AcDbEntity
  8
0
 62
     0
 48
0.3
100
AcDbLine
 10
219.2350233322774
 20
1148.272835236079
 30
0.0
 11
224.8194546952379
 21
1148.272835236079
 31
0.0
  0
LINE
  5
9A40
330
1F
100
AcDbEntity
  8
0
 62
     0
 48
0.3
100
AcDbLine
 10
219.2350233322774
 20
1148.272835236079
 30
0.0
 11
224.8194546952379
 21
1148.272835236079
 31
0.0
  0
LINE
  5
9A41
330
1F
100
AcDbEntity
  8
0
 62
     0
100
AcDbLine
 10
219.2350233322774
 20
1163.272835236079
 30
0.0
 11
219.2350233322774
 21
1148.272835236079
 31
0.0
  0
MTEXT
  5
9A42
330
1F
100
AcDbEntity
  8
0
 62
     0
 48
0.5
100
AcDbMText
 10
256.0202309555271
 20
1078.829158313958
 30
0.0
 40
6.0
 41
0.0
 71
     1
 72
     1
  1
ULG-3012A
 73
     1
 44
1.0
  0
LINE
  5
9A43
330
1F
100
AcDbEntity
  8
0
 62
     0
 48
0.3
100
AcDbLine
 10
270.2286500137231
 20
1092.093239937381
 30
0.0
 11
286.4234935862889
 21
1092.093239937381
 31
0.0
  0
LINE
  5
9A44
330
1F
100
AcDbEntity
  8
0
 62
     0
 48
0.5
100
AcDbLine
 10
281.1910225981303
 20
1102.093239937381
 30
0.0
 11
271.2887369105625
 21
1102.093239937381
 31
0.0
  0
LINE
  5
9A45
330
1F
100
AcDbEntity
  8
0
 62
     0
 48
0.5
100
AcDbLine
 10
267.5755768346758
 20
1102.093239937381
 30
0.0
 11
288.5673231939641
 21
1102.093239937381
 31
0.0
  0
ARC
  5
9A46
330
1F
100
AcDbEntity
  8
0
 62
     0
100
AcDbCircle
 10
270.228650013723
 20
1095.960688988566
 30
0.0
 40
3.867449051185122
100
AcDbArc
 50
227.359188147408
 51
270.0
  0
LINE
  5
9A47
330
1F
100
AcDbEntity
  8
0
 62
     0
 48
0.3
100
AcDbLine
 10
267.5755768346758
 20
1102.093239937381
 30
0.0
 11
272.0880813766835
 21
1102.093239937381
 31
0.0
  0
LINE
  5
9A48
330
1F
100
AcDbEntity
  8
0
 62
     0
 48
0.3
100
AcDbLine
 10
267.5755768346758
 20
1102.093239937381
 30
0.0
 11
272.0880813766835
 21
1102.093239937381
 31
0.0
  0
LINE
  5
9A49
330
1F
100
AcDbEntity
  8
0
 62
     0
 48
0.3
100
AcDbLine
 10
267.5755768346758
 20
1102.093239937381
 30
0.0
 11
272.0880813766835
 21
1102.093239937381
 31
0.0
  0
LINE
  5
9A4A
330
1F
100
AcDbEntity
  8
0
 62
     0
 48
0.3
100
AcDbLine
 10
267.5755768346758
 20
1102.093239937381
 30
0.0
 11
272.0880813766835
 21
1102.093239937381
 31
0.0
  0
LINE
  5
9A4B
330
1F
100
AcDbEntity
  8
0
 62
     0
 48
0.3
100
AcDbLine
 10
270.2286500137252
 20
1102.093239937381
 30
0.0
 11
267.5755768346758
 21
1102.093239937381
 31
0.0
  0
LINE
  5
9A4C
330
1F
100
AcDbEntity
  8
0
 62
     0
 48
0.3
100
AcDbLine
 10
267.5755768346758
 20
1093.142256792073
 30
0.0
 11
267.5755768346758
 21
1102.093239937381
 31
0.0
  0
LINE
  5
9A4D
330
1F
100
AcDbEntity
  8
0
 62
     0
 48
0.3
100
AcDbLine
 10
267.5755768346758
 20
1093.142256792073
 30
0.0
 11
267.5755768346758
 21
1102.093239937381
 31
0.0
  0
LINE
  5
9A4E
330
1F
100
AcDbEntity
  8
0
 62
     0
100
AcDbLine
 10
267.5755768346757
 20
1101.172009936989
 30
0.0
 11
267.5755768346758
 21
1093.142256792073
 31
0.0
  0
LINE
  5
9A4F
330
1F
100
AcDbEntity
  8
0
 62
     0
 48
0.3
100
AcDbLine
 10
267.6088395594029
 20
1093.115736379655
 30
0.0
 11
267.5755768346758
 21
1093.142256792073
 31
0.0
  0
LINE
  5
9A50
330
1F
100
AcDbEntity
  8
0
 62
     0
 48
0.3
100
AcDbLine
 10
267.5755768346757
 20
1101.172009936989
 30
0.0
 11
267.5755768346758
 21
1102.093239937381
 31
0.0
  0
LINE
  5
9A51
330
1F
100
AcDbEntity
  8
0
 62
     0
100
AcDbLine
 10
272.8151977433161
 20
1093.142256792073
 30
0.0
 11
272.8151977433161
 21
1102.093239937381
 31
0.0
  0
ARC
  5
9A52
330
1F
100
AcDbEntity
  8
0
 62
     0
100
AcDbCircle
 10
272.2838942022235
 20
1092.144098961577
 30
0.0
 40
0.1
100
AcDbArc
 50
210.5699720142877
 51
241.258664196
  0
ARC
  5
9A53
330
1F
100
AcDbEntity
  8
0
 62
     0
100
AcDbCircle
 10
270.1953872889958
 20
1095.876422821683
 30
0.0
 40
3.786696541055324
100
AcDbArc
 50
277.2210763160197
 51
313.7764055836676
  0
LINE
  5
9A54
330
1F
100
AcDbEntity
  8
0
 62
     0
 48
0.3
100
AcDbLine
 10
275.8130813766835
 20
1092.093239937381
 30
0.0
 11
270.2286500137231
 21
1092.093239937381
 31
0.0
  0
LINE
  5
9A55
330
1F
100
AcDbEntity
  8
0
 62
     0
 48
0.3
100
AcDbLine
 10
275.8130813766835
 20
1092.093239937381
 30
0.0
 11
270.2286500137231
 21
1092.093239937381
 31
0.0
  0
LINE
  5
9A56
330
1F
100
AcDbEntity
  8
0
 62
     0
 48
0.3
100
AcDbLine
 10
275.8130813766835
 20
1092.093239937381
 30
0.0
 11
270.2286500137231
 21
1092.093239937381
 31
0.0
  0
ARC
  5
9A57
330
1F
100
AcDbEntity
  8
0
 62
     0
100
AcDbCircle
 10
278.0548186519564
 20
1105.611719285849
 30
0.0
 40
13.52557289544312
100
AcDbArc
 50
247.2080385520228
 51
265.9597371979204
  0
LINE
  5
9A58
330
1F
100
AcDbEntity
  8
0
 62
     0
 48
0.3
100
AcDbLine
 10
281.1910225981303
 20
1102.093239937381
 30
0.0
 11
288.5673231939641
 21
1102.093239937381
 31
0.0
  0
LINE
  5
9A59
330
1F
100
AcDbEntity
  8
0
 62
     0
 48
0.3
100
AcDbLine
 10
281.1910225981303
 20
1102.093239937381
 30
0.0
 11
288.5673231939641
 21
1102.093239937381
 31
0.0
  0
ARC
  5
9A5A
330
1F
100
AcDbEntity
  8
0
 62
     0
100
AcDbCircle
 10
285.9475127396439
 20
1095.849902409265
 30
0.0
 40
3.786696541055324
100
AcDbArc
 50
226.2235944163324
 51
262.7789236839802
  0
LINE
  5
9A5B
330
1F
100
AcDbEntity
  8
0
 62
     0
100
AcDbLine
 10
283.3277022853238
 20
1093.115736379655
 30
0.0
 11
283.3277022853236
 21
1099.972403664062
 31
0.0
  0
LINE
  5
9A5C
330
1F
100
AcDbEntity
  8
0
 62
     0
 48
0.5
100
AcDbLine
 10
283.3277022853236
 20
1101.433988749458
 30
0.0
 11
283.3277022853238
 21
1102.093239937381
 31
0.0
  0
LINE
  5
9A5D
330
1F
100
AcDbEntity
  8
0
 62
     0
100
AcDbLine
 10
283.3277022853236
 20
1099.972403664062
 30
0.0
 11
283.3277022853236
 21
1101.433988749458
 31
0.0
  0
ARC
  5
9A5E
330
1F
100
AcDbEntity
  8
0
 62
     0
100
AcDbCircle
 10
278.0880813766837
 20
1105.585198873431
 30
0.0
 40
13.52557289544312
100
AcDbArc
 50
274.0402628020795
 51
292.7919614479741
  0
LINE
  5
9A5F
330
1F
100
AcDbEntity
  8
0
 62
     0
100
AcDbLine
 10
288.5673231939641
 20
1093.115736379655
 30
0.0
 11
288.5673231939641
 21
1099.972403664062
 31
0.0
  0
LINE
  5
9A60
330
1F
100
AcDbEntity
  8
0
 62
     0
100
AcDbLine
 10
288.5673231939641
 20
1093.115736379655
 30
0.0
 11
288.5673231939641
 21
1101.172007704026
 31
0.0
  0
LINE
  5
9A61
330
1F
100
AcDbEntity
  8
0
 62
     0
 48
0.3
100
AcDbLine
 10
288.5673231939641
 20
1101.172007704026
 30
0.0
 11
288.5673231939641
 21
1102.093239937381
 31
0.0
  0
ARC
  5
9A62
330
1F
100
AcDbEntity
  8
0
 62
     0
100
AcDbCircle
 10
285.9475127396439
 20
1095.849902409265
 30
0.0
 40
3.786696541055324
100
AcDbArc
 50
277.2210763160197
 51
313.776405583664
  0
LINE
  5
9A63
330
1F
100
AcDbEntity
  8
0
 62
     0
 48
0.3
100
AcDbLine
 10
285.9457862472679
 20
1148.272835236079
 30
0.0
 11
269.7509426747019
 21
1148.272835236079
 31
0.0
  0
LINE
  5
9A64
330
1F
100
AcDbEntity
  8
0
 62
     0
 48
0.3
100
AcDbLine
 10
270.226923521347
 20
1141.270338793805
 30
0.0
 11
286.421767093913
 21
1141.270338793805
 31
0.0
  0
LINE
  5
9A65
330
1F
100
AcDbEntity
  8
0
 62
     0
100
AcDbLine
 10
273.5713431562306
 20
1141.270338793805
 30
0.0
 11
285.5991393069635
 21
1141.270338793805
 31
0.0
  0
LINE
  5
9A66
330
1F
100
AcDbEntity
  8
0
 62
     0
100
AcDbLine
 10
273.6629310796558
 20
1139.522737107984
 30
0.0
 11
282.6186407473349
 21
1139.992085963571
 31
0.0
  0
LINE
  5
9A67
330
1F
100
AcDbEntity
  8
0
 62
     0
100
AcDbLine
 10
272.3158047773229
 20
1140.375582065752
 30
0.0
 11
283.8741791262425
 21
1140.886842691624
 31
0.0
  0
LINE
  5
9A68
330
1F
100
AcDbEntity
  8
0
 62
     0
100
AcDbLine
 10
272.3198019247671
 20
1138.623389941876
 30
0.0
 11
283.8781762736867
 21
1139.134650567748
 31
0.0
  0
LINE
  5
9A69
330
1F
100
AcDbEntity
  8
0
 62
     0
100
AcDbLine
 10
275.0000623334976
 20
1141.270338793805
 30
0.0
 11
284.1030035549445
 21
1141.270338793805
 31
0.0
  0
LINE
  5
9A6A
330
1F
100
AcDbEntity
  8
0
 62
     0
100
AcDbLine
 10
273.6709253745441
 20
1132.518352860233
 30
0.0
 11
282.6266350422231
 21
1132.98770171582
 31
0.0
  0
LINE
  5
9A6B
330
1F
100
AcDbEntity
  8
0
 62
     0
100
AcDbLine
 10
273.6709253745441
 20
1127.268352860233
 30
0.0
 11
282.6266350422231
 21
1127.73770171582
 31
0.0
  0
LINE
  5
9A6C
330
1F
100
AcDbEntity
  8
0
 62
     0
100
AcDbLine
 10
273.6709253745441
 20
1129.018352860233
 30
0.0
 11
282.6266350422231
 21
1129.48770171582
 31
0.0
  0
LINE
  5
9A6D
330
1F
100
AcDbEntity
  8
0
 62
     0
100
AcDbLine
 10
273.6709253745441
 20
1130.768352860233
 30
0.0
 11
282.6266350422231
 21
1131.23770171582
 31
0.0
  0
LINE
  5
9A6E
330
1F
100
AcDbEntity
  8
0
 62
     0
100
AcDbLine
 10
273.6709253745441
 20
1125.518352860233
 30
0.0
 11
282.6266350422231
 21
1125.98770171582
 31
0.0
  0
LINE
  5
9A6F
330
1F
100
AcDbEntity
  8
0
 62
     0
100
AcDbLine
 10
272.3237990722112
 20
1124.621197818001
 30
0.0
 11
283.8821734211309
 21
1125.132458443873
 31
0.0
  0
LINE
  5
9A70
330
1F
100
AcDbEntity
  8
0
 62
     0
100
AcDbLine
 10
272.3237990722112
 20
1126.371197818001
 30
0.0
 11
283.8821734211309
 21
1126.882458443873
 31
0.0
  0
LINE
  5
9A71
330
1F
100
AcDbEntity
  8
0
 62
     0
100
AcDbLine
 10
272.3237990722112
 20
1128.121197818001
 30
0.0
 11
283.8821734211309
 21
1128.632458443873
 31
0.0
  0
LINE
  5
9A72
330
1F
100
AcDbEntity
  8
0
 62
     0
100
AcDbLine
 10
272.3237990722112
 20
1129.871197818001
 30
0.0
 11
283.8821734211309
 21
1130.382458443873
 31
0.0
  0
LINE
  5
9A73
330
1F
100
AcDbEntity
  8
0
 62
     0
100
AcDbLine
 10
272.3237990722112
 20
1131.621197818001
 30
0.0
 11
283.8821734211309
 21
1132.132458443873
 31
0.0
  0
LINE
  5
9A74
330
1F
100
AcDbEntity
  8
0
 62
     0
100
AcDbLine
 10
273.6669282270999
 20
1137.770544984109
 30
0.0
 11
282.622637894779
 21
1138.239893839695
 31
0.0
  0
LINE
  5
9A75
330
1F
100
AcDbEntity
  8
0
 62
     0
100
AcDbLine
 10
273.6709253745441
 20
1136.018352860233
 30
0.0
 11
282.6266350422231
 21
1136.48770171582
 31
0.0
  0
LINE
  5
9A76
330
1F
100
AcDbEntity
  8
0
 62
     0
100
AcDbLine
 10
272.3237990722112
 20
1136.871197818001
 30
0.0
 11
283.8821734211309
 21
1137.382458443873
 31
0.0
  0
LINE
  5
9A77
330
1F
100
AcDbEntity
  8
0
 62
     0
100
AcDbLine
 10
273.6709253745441
 20
1134.268352860233
 30
0.0
 11
282.6266350422231
 21
1134.73770171582
 31
0.0
  0
LINE
  5
9A78
330
1F
100
AcDbEntity
  8
0
 62
     0
100
AcDbLine
 10
272.3237990722112
 20
1133.371197818001
 30
0.0
 11
283.8821734211309
 21
1133.882458443873
 31
0.0
  0
LINE
  5
9A79
330
1F
100
AcDbEntity
  8
0
 62
     0
100
AcDbLine
 10
272.3237990722112
 20
1135.121197818001
 30
0.0
 11
283.8821734211309
 21
1135.632458443873
 31
0.0
  0
LINE
  5
9A7A
330
1F
100
AcDbEntity
  8
0
 62
     0
100
AcDbLine
 10
272.3237990722112
 20
1114.121197818001
 30
0.0
 11
283.8821734211309
 21
1114.632458443873
 31
0.0
  0
LINE
  5
9A7B
330
1F
100
AcDbEntity
  8
0
 62
     0
100
AcDbLine
 10
273.6709253745441
 20
1111.518352860233
 30
0.0
 11
283.3864908643344
 21
1111.518352860233
 31
0.0
  0
LINE
  5
9A7C
330
1F
100
AcDbEntity
  8
0
 62
     0
100
AcDbLine
 10
273.6709253745441
 20
1111.518352860233
 30
0.0
 11
282.6266350422231
 21
1111.98770171582
 31
0.0
  0
LINE
  5
9A7D
330
1F
100
AcDbEntity
  8
0
 62
     0
100
AcDbLine
 10
273.6709253745441
 20
1113.268352860233
 30
0.0
 11
282.6266350422231
 21
1113.73770171582
 31
0.0
  0
LINE
  5
9A7E
330
1F
100
AcDbEntity
  8
0
 62
     0
100
AcDbLine
 10
272.3237990722112
 20
1112.371197818001
 30
0.0
 11
283.8821734211309
 21
1112.882458443873
 31
0.0
  0
LINE
  5
9A7F
330
1F
100
AcDbEntity
  8
0
 62
     0
100
AcDbLine
 10
273.6709253745441
 20
1118.518352860233
 30
0.0
 11
282.6266350422231
 21
1118.98770171582
 31
0.0
  0
LINE
  5
9A80
330
1F
100
AcDbEntity
  8
0
 62
     0
100
AcDbLine
 10
273.6709253745441
 20
1120.268352860233
 30
0.0
 11
282.6266350422231
 21
1120.73770171582
 31
0.0
  0
LINE
  5
9A81
330
1F
100
AcDbEntity
  8
0
 62
     0
100
AcDbLine
 10
273.6709253745441
 20
1122.018352860233
 30
0.0
 11
282.6266350422231
 21
1122.48770171582
 31
0.0
  0
LINE
  5
9A82
330
1F
100
AcDbEntity
  8
0
 62
     0
100
AcDbLine
 10
273.6709253745441
 20
1115.018352860233
 30
0.0
 11
282.6266350422231
 21
1115.48770171582
 31
0.0
  0
LINE
  5
9A83
330
1F
100
AcDbEntity
  8
0
 62
     0
100
AcDbLine
 10
273.6709253745441
 20
1116.768352860233
 30
0.0
 11
282.6266350422231
 21
1117.23770171582
 31
0.0
  0
LINE
  5
9A84
330
1F
100
AcDbEntity
  8
0
 62
     0
100
AcDbLine
 10
272.3237990722112
 20
1115.871197818001
 30
0.0
 11
283.8821734211309
 21
1116.382458443873
 31
0.0
  0
LINE
  5
9A85
330
1F
100
AcDbEntity
  8
0
 62
     0
100
AcDbLine
 10
272.3237990722112
 20
1117.621197818001
 30
0.0
 11
283.8821734211309
 21
1118.132458443873
 31
0.0
  0
LINE
  5
9A86
330
1F
100
AcDbEntity
  8
0
 62
     0
100
AcDbLine
 10
272.3237990722112
 20
1119.371197818001
 30
0.0
 11
283.8821734211309
 21
1119.882458443873
 31
0.0
  0
LINE
  5
9A87
330
1F
100
AcDbEntity
  8
0
 62
     0
100
AcDbLine
 10
272.3237990722112
 20
1121.121197818001
 30
0.0
 11
283.8821734211309
 21
1121.632458443873
 31
0.0
  0
LINE
  5
9A88
330
1F
100
AcDbEntity
  8
0
 62
     0
100
AcDbLine
 10
272.3237990722112
 20
1122.871197818001
 30
0.0
 11
283.8821734211309
 21
1123.382458443873
 31
0.0
  0
LINE
  5
9A89
330
1F
100
AcDbEntity
  8
0
 62
     0
100
AcDbLine
 10
273.6709253745441
 20
1123.768352860233
 30
0.0
 11
282.6266350422231
 21
1124.23770171582
 31
0.0
  0
ARC
  5
9A8A
330
1F
100
AcDbEntity
  8
0
 62
     0
100
AcDbCircle
 10
270.226923521347
 20
1144.516172764195
 30
0.0
 40
3.786696541055324
100
AcDbArc
 50
46.22359441633241
 51
82.77892368398019
  0
ARC
  5
9A8B
330
1F
100
AcDbEntity
  8
0
 62
     0
100
AcDbCircle
 10
270.226923521347
 20
1144.516172764195
 30
0.0
 40
3.786696541055324
100
AcDbArc
 50
97.22107631601982
 51
133.776405583664
  0
ARC
  5
9A8C
330
1F
100
AcDbEntity
  8
0
 62
     0
100
AcDbCircle
 10
278.0863548843075
 20
1134.780876300028
 30
0.0
 40
13.52557289544312
100
AcDbArc
 50
94.04026280208285
 51
112.7919614479771
  0
ARC
  5
9A8D
330
1F
100
AcDbEntity
  8
0
 62
     0
100
AcDbCircle
 10
270.226923521347
 20
1145.137787844989
 30
0.0
 40
3.867449051185122
100
AcDbArc
 50
227.359188147408
 51
270.0
  0
LINE
  5
9A8E
330
1F
100
AcDbEntity
  8
0
 62
     0
100
AcDbLine
 10
267.6071130670269
 20
1147.250338793804
 30
0.0
 11
267.6071130670269
 21
1142.292835236079
 31
0.0
  0
LINE
  5
9A8F
330
1F
100
AcDbEntity
  8
0
 62
     0
 48
0.3
100
AcDbLine
 10
267.6071130670269
 20
1142.292835236079
 30
0.0
 11
267.5738503422997
 21
1142.319355648497
 31
0.0
  0
LINE
  5
9A90
330
1F
100
AcDbEntity
  8
0
 62
     0
100
AcDbLine
 10
272.8467339756671
 20
1147.250338793804
 30
0.0
 11
272.8467339756671
 21
1142.305430917215
 31
0.0
  0
ARC
  5
9A91
330
1F
100
AcDbEntity
  8
0
 62
     0
100
AcDbCircle
 10
272.3158047773229
 20
1140.375582065752
 30
0.0
 40
0.1
100
AcDbArc
 50
121.7565767855589
 51
241.258664196
  0
ARC
  5
9A92
330
1F
100
AcDbEntity
  8
0
 62
     0
100
AcDbCircle
 10
272.3237990722112
 20
1126.371197818001
 30
0.0
 40
0.1
100
AcDbArc
 50
121.7565767855589
 51
241.258664196
  0
ARC
  5
9A93
330
1F
100
AcDbEntity
  8
0
 62
     0
100
AcDbCircle
 10
272.3237990722112
 20
1128.121197818001
 30
0.0
 40
0.1
100
AcDbArc
 50
121.7565767855589
 51
241.258664196
  0
ARC
  5
9A94
330
1F
100
AcDbEntity
  8
0
 62
     0
100
AcDbCircle
 10
272.3237990722112
 20
1129.871197818001
 30
0.0
 40
0.1
100
AcDbArc
 50
121.7565767855589
 51
241.258664196
  0
ARC
  5
9A95
330
1F
100
AcDbEntity
  8
0
 62
     0
100
AcDbCircle
 10
272.3237990722112
 20
1131.621197818001
 30
0.0
 40
0.1
100
AcDbArc
 50
121.7565767855589
 51
241.258664196
  0
ARC
  5
9A96
330
1F
100
AcDbEntity
  8
0
 62
     0
100
AcDbCircle
 10
272.3237990722112
 20
1124.621197818001
 30
0.0
 40
0.1
100
AcDbArc
 50
121.7565767855589
 51
241.258664196
  0
ARC
  5
9A97
330
1F
100
AcDbEntity
  8
0
 62
     0
100
AcDbCircle
 10
272.3237990722112
 20
1136.871197818001
 30
0.0
 40
0.1
100
AcDbArc
 50
121.7565767855589
 51
241.258664196
  0
ARC
  5
9A98
330
1F
100
AcDbEntity
  8
0
 62
     0
100
AcDbCircle
 10
272.3237990722112
 20
1135.121197818001
 30
0.0
 40
0.1
100
AcDbArc
 50
121.7565767855589
 51
241.258664196
  0
ARC
  5
9A99
330
1F
100
AcDbEntity
  8
0
 62
     0
100
AcDbCircle
 10
272.3237990722112
 20
1133.371197818001
 30
0.0
 40
0.1
100
AcDbArc
 50
121.7565767855589
 51
241.258664196
  0
ARC
  5
9A9A
330
1F
100
AcDbEntity
  8
0
 62
     0
100
AcDbCircle
 10
272.3198019247671
 20
1138.623389941876
 30
0.0
 40
0.1
100
AcDbArc
 50
121.7565767855589
 51
241.258664196
  0
LINE
  5
9A9B
330
1F
100
AcDbEntity
  8
0
 62
     0
 48
0.3
100
AcDbLine
 10
275.8113548843074
 20
1141.270338793805
 30
0.0
 11
270.226923521347
 21
1141.270338793805
 31
0.0
  0
LINE
  5
9A9C
330
1F
100
AcDbEntity
  8
0
 62
     0
 48
0.3
100
AcDbLine
 10
275.8113548843074
 20
1141.270338793805
 30
0.0
 11
270.226923521347
 21
1141.270338793805
 31
0.0
  0
LINE
  5
9A9D
330
1F
100
AcDbEntity
  8
0
 62
     0
 48
0.3
100
AcDbLine
 10
275.8113548843074
 20
1141.270338793805
 30
0.0
 11
270.226923521347
 21
1141.270338793805
 31
0.0
  0
ARC
  5
9A9E
330
1F
100
AcDbEntity
  8
0
 62
     0
100
AcDbCircle
 10
270.1936607966199
 20
1145.053521678107
 30
0.0
 40
3.786696541055324
100
AcDbArc
 50
277.2210763160197
 51
313.7764055836676
  0
LINE
  5
9A9F
330
1F
100
AcDbEntity
  8
0
 62
     0
100
AcDbLine
 10
272.267719158733
 20
1140.287902117732
 30
0.0
 11
273.6629310796558
 21
1139.522737107984
 31
0.0
  0
LINE
  5
9AA0
330
1F
100
AcDbEntity
  8
0
 62
     0
100
AcDbLine
 10
272.2631736244035
 20
1140.460611247462
 30
0.0
 11
273.5713431562306
 21
1141.270338793805
 31
0.0
  0
LINE
  5
9AA1
330
1F
100
AcDbEntity
  8
0
 62
     0
100
AcDbLine
 10
272.2671707718477
 20
1138.708419123587
 30
0.0
 11
273.5753403036748
 21
1139.518146669929
 31
0.0
  0
LINE
  5
9AA2
330
1F
100
AcDbEntity
  8
0
 62
     0
100
AcDbLine
 10
272.2757134536213
 20
1133.283517869981
 30
0.0
 11
273.6709253745441
 21
1132.518352860233
 31
0.0
  0
LINE
  5
9AA3
330
1F
100
AcDbEntity
  8
0
 62
     0
100
AcDbLine
 10
272.2711679192918
 20
1124.706226999712
 30
0.0
 11
273.5793374511189
 21
1125.515954546054
 31
0.0
  0
LINE
  5
9AA4
330
1F
100
AcDbEntity
  8
0
 62
     0
100
AcDbLine
 10
272.2757134536213
 20
1126.283517869981
 30
0.0
 11
273.6709253745441
 21
1125.518352860233
 31
0.0
  0
LINE
  5
9AA5
330
1F
100
AcDbEntity
  8
0
 62
     0
100
AcDbLine
 10
272.2711679192918
 20
1126.456226999712
 30
0.0
 11
273.5793374511189
 21
1127.265954546054
 31
0.0
  0
LINE
  5
9AA6
330
1F
100
AcDbEntity
  8
0
 62
     0
100
AcDbLine
 10
272.2757134536213
 20
1128.033517869981
 30
0.0
 11
273.6709253745441
 21
1127.268352860233
 31
0.0
  0
LINE
  5
9AA7
330
1F
100
AcDbEntity
  8
0
 62
     0
100
AcDbLine
 10
272.2711679192918
 20
1128.206226999712
 30
0.0
 11
273.5793374511189
 21
1129.015954546054
 31
0.0
  0
LINE
  5
9AA8
330
1F
100
AcDbEntity
  8
0
 62
     0
100
AcDbLine
 10
272.2757134536213
 20
1129.783517869981
 30
0.0
 11
273.6709253745441
 21
1129.018352860233
 31
0.0
  0
LINE
  5
9AA9
330
1F
100
AcDbEntity
  8
0
 62
     0
100
AcDbLine
 10
272.2711679192918
 20
1129.956226999712
 30
0.0
 11
273.5793374511189
 21
1130.765954546054
 31
0.0
  0
LINE
  5
9AAA
330
1F
100
AcDbEntity
  8
0
 62
     0
100
AcDbLine
 10
272.2757134536213
 20
1131.533517869981
 30
0.0
 11
273.6709253745441
 21
1130.768352860233
 31
0.0
  0
LINE
  5
9AAB
330
1F
100
AcDbEntity
  8
0
 62
     0
100
AcDbLine
 10
272.2711679192918
 20
1131.706226999712
 30
0.0
 11
273.5793374511189
 21
1132.515954546054
 31
0.0
  0
LINE
  5
9AAC
330
1F
100
AcDbEntity
  8
0
 62
     0
100
AcDbLine
 10
272.2717163061772
 20
1138.535709993856
 30
0.0
 11
273.6669282270999
 21
1137.770544984109
 31
0.0
  0
LINE
  5
9AAD
330
1F
100
AcDbEntity
  8
0
 62
     0
100
AcDbLine
 10
272.2757134536213
 20
1136.783517869981
 30
0.0
 11
273.6709253745441
 21
1136.018352860233
 31
0.0
  0
LINE
  5
9AAE
330
1F
100
AcDbEntity
  8
0
 62
     0
100
AcDbLine
 10
272.2711679192918
 20
1136.956226999711
 30
0.0
 11
273.5793374511189
 21
1137.765954546054
 31
0.0
  0
LINE
  5
9AAF
330
1F
100
AcDbEntity
  8
0
 62
     0
100
AcDbLine
 10
272.2711679192918
 20
1133.456226999711
 30
0.0
 11
273.5793374511189
 21
1134.265954546054
 31
0.0
  0
LINE
  5
9AB0
330
1F
100
AcDbEntity
  8
0
 62
     0
100
AcDbLine
 10
272.2757134536213
 20
1135.033517869981
 30
0.0
 11
273.6709253745441
 21
1134.268352860233
 31
0.0
  0
LINE
  5
9AB1
330
1F
100
AcDbEntity
  8
0
 62
     0
100
AcDbLine
 10
272.2711679192918
 20
1135.206226999712
 30
0.0
 11
273.5793374511189
 21
1136.015954546054
 31
0.0
  0
ARC
  5
9AB2
330
1F
100
AcDbEntity
  8
0
 62
     0
100
AcDbCircle
 10
278.0530921595803
 20
1154.788818142273
 30
0.0
 40
13.52557289544312
100
AcDbArc
 50
247.2080385520228
 51
265.9597371979171
  0
ARC
  5
9AB3
330
1F
100
AcDbEntity
  8
0
 62
     0
100
AcDbCircle
 10
272.3237990722112
 20
1112.371197818001
 30
0.0
 40
0.1
100
AcDbArc
 50
121.7565767855589
 51
241.258664196
  0
ARC
  5
9AB4
330
1F
100
AcDbEntity
  8
0
 62
     0
100
AcDbCircle
 10
272.3237990722112
 20
1114.121197818001
 30
0.0
 40
0.1
100
AcDbArc
 50
121.7565767855589
 51
241.258664196
  0
ARC
  5
9AB5
330
1F
100
AcDbEntity
  8
0
 62
     0
100
AcDbCircle
 10
272.3237990722112
 20
1119.371197818001
 30
0.0
 40
0.1
100
AcDbArc
 50
121.7565767855589
 51
241.258664196
  0
ARC
  5
9AB6
330
1F
100
AcDbEntity
  8
0
 62
     0
100
AcDbCircle
 10
272.3237990722112
 20
1121.121197818001
 30
0.0
 40
0.1
100
AcDbArc
 50
121.7565767855589
 51
241.258664196
  0
ARC
  5
9AB7
330
1F
100
AcDbEntity
  8
0
 62
     0
100
AcDbCircle
 10
272.3237990722112
 20
1122.871197818001
 30
0.0
 40
0.1
100
AcDbArc
 50
121.7565767855589
 51
241.258664196
  0
ARC
  5
9AB8
330
1F
100
AcDbEntity
  8
0
 62
     0
100
AcDbCircle
 10
272.3237990722112
 20
1115.871197818001
 30
0.0
 40
0.1
100
AcDbArc
 50
121.7565767855589
 51
241.258664196
  0
ARC
  5
9AB9
330
1F
100
AcDbEntity
  8
0
 62
     0
100
AcDbCircle
 10
272.3237990722112
 20
1117.621197818001
 30
0.0
 40
0.1
100
AcDbArc
 50
121.7565767855589
 51
241.258664196
  0
LINE
  5
9ABA
330
1F
100
AcDbEntity
  8
0
 62
     0
100
AcDbLine
 10
272.2711679192918
 20
1114.206226999712
 30
0.0
 11
273.5793374511189
 21
1115.015954546054
 31
0.0
  0
LINE
  5
9ABB
330
1F
100
AcDbEntity
  8
0
 62
     0
100
AcDbLine
 10
272.2757134536213
 20
1112.283517869981
 30
0.0
 11
273.6709253745441
 21
1111.518352860233
 31
0.0
  0
LINE
  5
9ABC
330
1F
100
AcDbEntity
  8
0
 62
     0
100
AcDbLine
 10
272.2711679192918
 20
1112.456226999712
 30
0.0
 11
273.5793374511189
 21
1113.265954546054
 31
0.0
  0
LINE
  5
9ABD
330
1F
100
AcDbEntity
  8
0
 62
     0
100
AcDbLine
 10
272.2757134536213
 20
1114.033517869981
 30
0.0
 11
273.6709253745441
 21
1113.268352860233
 31
0.0
  0
LINE
  5
9ABE
330
1F
100
AcDbEntity
  8
0
 62
     0
100
AcDbLine
 10
272.2757134536213
 20
1115.783517869981
 30
0.0
 11
273.6709253745441
 21
1115.018352860233
 31
0.0
  0
LINE
  5
9ABF
330
1F
100
AcDbEntity
  8
0
 62
     0
100
AcDbLine
 10
272.2711679192918
 20
1115.956226999712
 30
0.0
 11
273.5793374511189
 21
1116.765954546054
 31
0.0
  0
LINE
  5
9AC0
330
1F
100
AcDbEntity
  8
0
 62
     0
100
AcDbLine
 10
272.2757134536213
 20
1117.533517869981
 30
0.0
 11
273.6709253745441
 21
1116.768352860233
 31
0.0
  0
LINE
  5
9AC1
330
1F
100
AcDbEntity
  8
0
 62
     0
100
AcDbLine
 10
272.2711679192918
 20
1117.706226999712
 30
0.0
 11
273.5793374511189
 21
1118.515954546054
 31
0.0
  0
LINE
  5
9AC2
330
1F
100
AcDbEntity
  8
0
 62
     0
100
AcDbLine
 10
272.2757134536213
 20
1119.283517869981
 30
0.0
 11
273.6709253745441
 21
1118.518352860233
 31
0.0
  0
LINE
  5
9AC3
330
1F
100
AcDbEntity
  8
0
 62
     0
100
AcDbLine
 10
272.2711679192918
 20
1119.456226999712
 30
0.0
 11
273.5793374511189
 21
1120.265954546054
 31
0.0
  0
LINE
  5
9AC4
330
1F
100
AcDbEntity
  8
0
 62
     0
100
AcDbLine
 10
272.2757134536213
 20
1121.033517869981
 30
0.0
 11
273.6709253745441
 21
1120.268352860233
 31
0.0
  0
LINE
  5
9AC5
330
1F
100
AcDbEntity
  8
0
 62
     0
100
AcDbLine
 10
272.2711679192918
 20
1121.206226999712
 30
0.0
 11
273.5793374511189
 21
1122.015954546054
 31
0.0
  0
LINE
  5
9AC6
330
1F
100
AcDbEntity
  8
0
 62
     0
100
AcDbLine
 10
272.2757134536213
 20
1122.783517869981
 30
0.0
 11
273.6709253745441
 21
1122.018352860233
 31
0.0
  0
LINE
  5
9AC7
330
1F
100
AcDbEntity
  8
0
 62
     0
100
AcDbLine
 10
272.2711679192918
 20
1122.956226999712
 30
0.0
 11
273.5793374511189
 21
1123.765954546054
 31
0.0
  0
LINE
  5
9AC8
330
1F
100
AcDbEntity
  8
0
 62
     0
100
AcDbLine
 10
272.2757134536213
 20
1124.533517869981
 30
0.0
 11
273.6709253745441
 21
1123.768352860233
 31
0.0
  0
ARC
  5
9AC9
330
1F
100
AcDbEntity
  8
0
 62
     0
100
AcDbCircle
 10
285.9457862472679
 20
1144.405386184894
 30
0.0
 40
3.867449051185122
100
AcDbArc
 50
47.35918814740801
 51
90.0
  0
ARC
  5
9ACA
330
1F
100
AcDbEntity
  8
0
 62
     0
100
AcDbCircle
 10
278.1196176090345
 20
1134.754355887611
 30
0.0
 40
13.52557289544312
100
AcDbArc
 50
67.20803855202285
 51
85.95973719791716
  0
ARC
  5
9ACB
330
1F
100
AcDbEntity
  8
0
 62
     0
100
AcDbCircle
 10
285.9790489719951
 20
1144.489652351776
 30
0.0
 40
3.786696541055324
100
AcDbArc
 50
97.22107631601982
 51
133.7764055836675
  0
ARC
  5
9ACC
330
1F
100
AcDbEntity
  8
0
 62
     0
100
AcDbCircle
 10
285.9457862472679
 20
1145.027001265689
 30
0.0
 40
3.786696541055324
100
AcDbArc
 50
226.2235944163324
 51
262.7789236839802
  0
ARC
  5
9ACD
330
1F
100
AcDbEntity
  8
0
 62
     0
100
AcDbCircle
 10
283.8821734211309
 20
1126.882458443873
 30
0.0
 40
0.1
100
AcDbArc
 50
301.7565767855589
 51
61.2586641960001
  0
ARC
  5
9ACE
330
1F
100
AcDbEntity
  8
0
 62
     0
100
AcDbCircle
 10
283.8821734211309
 20
1128.632458443873
 30
0.0
 40
0.1
100
AcDbArc
 50
301.7565767855589
 51
61.2586641960001
  0
ARC
  5
9ACF
330
1F
100
AcDbEntity
  8
0
 62
     0
100
AcDbCircle
 10
283.8821734211309
 20
1130.382458443873
 30
0.0
 40
0.1
100
AcDbArc
 50
301.7565767855589
 51
61.2586641960001
  0
ARC
  5
9AD0
330
1F
100
AcDbEntity
  8
0
 62
     0
100
AcDbCircle
 10
283.8821734211309
 20
1132.132458443873
 30
0.0
 40
0.1
100
AcDbArc
 50
301.7565767855589
 51
61.2586641960001
  0
ARC
  5
9AD1
330
1F
100
AcDbEntity
  8
0
 62
     0
100
AcDbCircle
 10
283.8821734211309
 20
1125.132458443873
 30
0.0
 40
0.1
100
AcDbArc
 50
301.7565767855589
 51
61.2586641960001
  0
ARC
  5
9AD2
330
1F
100
AcDbEntity
  8
0
 62
     0
100
AcDbCircle
 10
283.8821734211309
 20
1137.382458443873
 30
0.0
 40
0.1
100
AcDbArc
 50
301.7565767855589
 51
61.2586641960001
  0
ARC
  5
9AD3
330
1F
100
AcDbEntity
  8
0
 62
     0
100
AcDbCircle
 10
283.8821734211309
 20
1135.632458443873
 30
0.0
 40
0.1
100
AcDbArc
 50
301.7565767855589
 51
61.2586641960001
  0
ARC
  5
9AD4
330
1F
100
AcDbEntity
  8
0
 62
     0
100
AcDbCircle
 10
283.8821734211309
 20
1133.882458443873
 30
0.0
 40
0.1
100
AcDbArc
 50
301.7565767855589
 51
61.2586641960001
  0
LINE
  5
9AD5
330
1F
100
AcDbEntity
  8
0
 62
     0
100
AcDbLine
 10
283.3592385176748
 20
1147.223818381387
 30
0.0
 11
283.3592385176748
 21
1142.261347358098
 31
0.0
  0
LINE
  5
9AD6
330
1F
100
AcDbEntity
  8
0
 62
     0
100
AcDbLine
 10
283.9268102791619
 20
1140.801813509913
 30
0.0
 11
282.6186407473349
 21
1139.992085963571
 31
0.0
  0
LINE
  5
9AD7
330
1F
100
AcDbEntity
  8
0
 62
     0
100
AcDbLine
 10
283.9222647448325
 20
1140.974522639644
 30
0.0
 11
283.3828696869967
 21
1141.270338793805
 31
0.0
  0
LINE
  5
9AD8
330
1F
100
AcDbEntity
  8
0
 62
     0
100
AcDbLine
 10
283.9262618922766
 20
1139.222330515768
 30
0.0
 11
282.5310499713539
 21
1139.987495525516
 31
0.0
  0
ARC
  5
9AD9
330
1F
100
AcDbEntity
  8
0
 62
     0
100
AcDbCircle
 10
278.0863548843074
 20
1154.762297729855
 30
0.0
 40
13.52557289544312
100
AcDbArc
 50
274.0402628020828
 51
292.7919614479771
  0
ARC
  5
9ADA
330
1F
100
AcDbEntity
  8
0
 62
     0
100
AcDbCircle
 10
283.8741791262425
 20
1140.886842691624
 30
0.0
 40
0.1
100
AcDbArc
 50
301.7565767855589
 51
61.2586641960001
  0
ARC
  5
9ADB
330
1F
100
AcDbEntity
  8
0
 62
     0
100
AcDbCircle
 10
283.8781762736866
 20
1139.134650567748
 30
0.0
 40
0.1
100
AcDbArc
 50
301.7565767855589
 51
61.2586641960001
  0
LINE
  5
9ADC
330
1F
100
AcDbEntity
  8
0
 62
     0
100
AcDbLine
 10
283.9302590397208
 20
1132.220138391893
 30
0.0
 11
282.535047118798
 21
1132.985303401641
 31
0.0
  0
LINE
  5
9ADD
330
1F
100
AcDbEntity
  8
0
 62
     0
100
AcDbLine
 10
283.9302590397208
 20
1126.970138391893
 30
0.0
 11
282.535047118798
 21
1127.735303401641
 31
0.0
  0
LINE
  5
9ADE
330
1F
100
AcDbEntity
  8
0
 62
     0
100
AcDbLine
 10
283.9348045740503
 20
1128.547429262162
 30
0.0
 11
282.6266350422231
 21
1127.73770171582
 31
0.0
  0
LINE
  5
9ADF
330
1F
100
AcDbEntity
  8
0
 62
     0
100
AcDbLine
 10
283.9302590397208
 20
1128.720138391893
 30
0.0
 11
282.535047118798
 21
1129.485303401641
 31
0.0
  0
LINE
  5
9AE0
330
1F
100
AcDbEntity
  8
0
 62
     0
100
AcDbLine
 10
283.9348045740503
 20
1130.297429262162
 30
0.0
 11
282.6266350422231
 21
1129.48770171582
 31
0.0
  0
LINE
  5
9AE1
330
1F
100
AcDbEntity
  8
0
 62
     0
100
AcDbLine
 10
283.9302590397208
 20
1130.470138391893
 30
0.0
 11
282.535047118798
 21
1131.23530340164
 31
0.0
  0
LINE
  5
9AE2
330
1F
100
AcDbEntity
  8
0
 62
     0
100
AcDbLine
 10
283.9348045740503
 20
1132.047429262162
 30
0.0
 11
282.6266350422231
 21
1131.23770171582
 31
0.0
  0
LINE
  5
9AE3
330
1F
100
AcDbEntity
  8
0
 62
     0
100
AcDbLine
 10
283.9348045740503
 20
1125.047429262162
 30
0.0
 11
282.6266350422231
 21
1124.23770171582
 31
0.0
  0
LINE
  5
9AE4
330
1F
100
AcDbEntity
  8
0
 62
     0
100
AcDbLine
 10
283.9302590397208
 20
1125.220138391893
 30
0.0
 11
282.535047118798
 21
1125.985303401641
 31
0.0
  0
LINE
  5
9AE5
330
1F
100
AcDbEntity
  8
0
 62
     0
100
AcDbLine
 10
283.9348045740503
 20
1126.797429262162
 30
0.0
 11
282.6266350422231
 21
1125.98770171582
 31
0.0
  0
LINE
  5
9AE6
330
1F
100
AcDbEntity
  8
0
 62
     0
100
AcDbLine
 10
283.9348045740503
 20
1137.297429262162
 30
0.0
 11
282.6266350422231
 21
1136.48770171582
 31
0.0
  0
LINE
  5
9AE7
330
1F
100
AcDbEntity
  8
0
 62
     0
100
AcDbLine
 10
283.9302590397208
 20
1137.470138391893
 30
0.0
 11
282.535047118798
 21
1138.235303401641
 31
0.0
  0
LINE
  5
9AE8
330
1F
100
AcDbEntity
  8
0
 62
     0
100
AcDbLine
 10
283.9348045740503
 20
1135.547429262162
 30
0.0
 11
282.6266350422231
 21
1134.73770171582
 31
0.0
  0
LINE
  5
9AE9
330
1F
100
AcDbEntity
  8
0
 62
     0
100
AcDbLine
 10
283.9302590397208
 20
1135.720138391893
 30
0.0
 11
282.535047118798
 21
1136.48530340164
 31
0.0
  0
LINE
  5
9AEA
330
1F
100
AcDbEntity
  8
0
 62
     0
100
AcDbLine
 10
283.9348045740503
 20
1133.797429262162
 30
0.0
 11
282.6266350422231
 21
1132.98770171582
 31
0.0
  0
LINE
  5
9AEB
330
1F
100
AcDbEntity
  8
0
 62
     0
100
AcDbLine
 10
283.9302590397208
 20
1133.970138391893
 30
0.0
 11
282.535047118798
 21
1134.73530340164
 31
0.0
  0
LINE
  5
9AEC
330
1F
100
AcDbEntity
  8
0
 62
     0
100
AcDbLine
 10
283.9308074266061
 20
1139.049621386038
 30
0.0
 11
282.622637894779
 21
1138.239893839695
 31
0.0
  0
ARC
  5
9AED
330
1F
100
AcDbEntity
  8
0
 62
     0
100
AcDbCircle
 10
283.8821734211309
 20
1112.882458443873
 30
0.0
 40
0.1
100
AcDbArc
 50
301.7565767855589
 51
61.2586641960001
  0
ARC
  5
9AEE
330
1F
100
AcDbEntity
  8
0
 62
     0
100
AcDbCircle
 10
283.8821734211309
 20
1118.132458443873
 30
0.0
 40
0.1
100
AcDbArc
 50
301.7565767855589
 51
61.2586641960001
  0
ARC
  5
9AEF
330
1F
100
AcDbEntity
  8
0
 62
     0
100
AcDbCircle
 10
283.8821734211309
 20
1119.882458443873
 30
0.0
 40
0.1
100
AcDbArc
 50
301.7565767855589
 51
61.2586641960001
  0
ARC
  5
9AF0
330
1F
100
AcDbEntity
  8
0
 62
     0
100
AcDbCircle
 10
283.8821734211309
 20
1121.632458443873
 30
0.0
 40
0.1
100
AcDbArc
 50
301.7565767855589
 51
61.2586641960001
  0
ARC
  5
9AF1
330
1F
100
AcDbEntity
  8
0
 62
     0
100
AcDbCircle
 10
283.8821734211309
 20
1114.632458443873
 30
0.0
 40
0.1
100
AcDbArc
 50
301.7565767855589
 51
61.2586641960001
  0
ARC
  5
9AF2
330
1F
100
AcDbEntity
  8
0
 62
     0
100
AcDbCircle
 10
283.8821734211309
 20
1116.382458443873
 30
0.0
 40
0.1
100
AcDbArc
 50
301.7565767855589
 51
61.2586641960001
  0
ARC
  5
9AF3
330
1F
100
AcDbEntity
  8
0
 62
     0
100
AcDbCircle
 10
283.8821734211309
 20
1123.382458443873
 30
0.0
 40
0.1
100
AcDbArc
 50
301.7565767855589
 51
61.2586641960001
  0
LINE
  5
9AF4
330
1F
100
AcDbEntity
  8
0
 62
     0
100
AcDbLine
 10
283.3864908643342
 20
1111.518352860233
 30
0.0
 11
282.535047118798
 21
1111.985303401641
 31
0.0
  0
LINE
  5
9AF5
330
1F
100
AcDbEntity
  8
0
 62
     0
100
AcDbLine
 10
283.9348045740503
 20
1114.547429262162
 30
0.0
 11
282.6266350422231
 21
1113.73770171582
 31
0.0
  0
LINE
  5
9AF6
330
1F
100
AcDbEntity
  8
0
 62
     0
100
AcDbLine
 10
283.9348045740503
 20
1112.797429262162
 30
0.0
 11
282.6266350422231
 21
1111.98770171582
 31
0.0
  0
LINE
  5
9AF7
330
1F
100
AcDbEntity
  8
0
 62
     0
100
AcDbLine
 10
283.9302590397208
 20
1112.970138391893
 30
0.0
 11
282.535047118798
 21
1113.735303401641
 31
0.0
  0
LINE
  5
9AF8
330
1F
100
AcDbEntity
  8
0
 62
     0
100
AcDbLine
 10
283.9302590397208
 20
1118.220138391893
 30
0.0
 11
282.535047118798
 21
1118.985303401641
 31
0.0
  0
LINE
  5
9AF9
330
1F
100
AcDbEntity
  8
0
 62
     0
100
AcDbLine
 10
283.9348045740503
 20
1119.797429262162
 30
0.0
 11
282.6266350422231
 21
1118.98770171582
 31
0.0
  0
LINE
  5
9AFA
330
1F
100
AcDbEntity
  8
0
 62
     0
100
AcDbLine
 10
283.9302590397208
 20
1119.970138391893
 30
0.0
 11
282.535047118798
 21
1120.735303401641
 31
0.0
  0
LINE
  5
9AFB
330
1F
100
AcDbEntity
  8
0
 62
     0
100
AcDbLine
 10
283.9348045740503
 20
1121.547429262162
 30
0.0
 11
282.6266350422231
 21
1120.73770171582
 31
0.0
  0
LINE
  5
9AFC
330
1F
100
AcDbEntity
  8
0
 62
     0
100
AcDbLine
 10
283.9302590397208
 20
1121.720138391893
 30
0.0
 11
282.535047118798
 21
1122.485303401641
 31
0.0
  0
LINE
  5
9AFD
330
1F
100
AcDbEntity
  8
0
 62
     0
100
AcDbLine
 10
283.9348045740503
 20
1123.297429262162
 30
0.0
 11
282.6266350422231
 21
1122.48770171582
 31
0.0
  0
LINE
  5
9AFE
330
1F
100
AcDbEntity
  8
0
 62
     0
100
AcDbLine
 10
283.9302590397208
 20
1114.720138391893
 30
0.0
 11
282.535047118798
 21
1115.48530340164
 31
0.0
  0
LINE
  5
9AFF
330
1F
100
AcDbEntity
  8
0
 62
     0
100
AcDbLine
 10
283.9348045740503
 20
1116.297429262162
 30
0.0
 11
282.6266350422231
 21
1115.48770171582
 31
0.0
  0
LINE
  5
9B00
330
1F
100
AcDbEntity
  8
0
 62
     0
100
AcDbLine
 10
283.9302590397208
 20
1116.470138391893
 30
0.0
 11
282.535047118798
 21
1117.235303401641
 31
0.0
  0
LINE
  5
9B01
330
1F
100
AcDbEntity
  8
0
 62
     0
100
AcDbLine
 10
283.9348045740503
 20
1118.047429262162
 30
0.0
 11
282.6266350422231
 21
1117.23770171582
 31
0.0
  0
LINE
  5
9B02
330
1F
100
AcDbEntity
  8
0
 62
     0
100
AcDbLine
 10
283.9302590397208
 20
1123.470138391893
 30
0.0
 11
282.535047118798
 21
1124.235303401641
 31
0.0
  0
LINE
  5
9B03
330
1F
100
AcDbEntity
  8
0
 62
     0
 48
0.3
100
AcDbLine
 10
288.565596701588
 20
1147.250338793804
 30
0.0
 11
288.5988594263153
 21
1147.223818381387
 31
0.0
  0
LINE
  5
9B04
330
1F
100
AcDbEntity
  8
0
 62
     0
 48
0.3
100
AcDbLine
 10
288.5988594263153
 20
1147.223818381387
 30
0.0
 11
288.5988594263153
 21
1142.292835236079
 31
0.0
  0
LINE
  5
9B05
330
1F
100
AcDbEntity
  8
0
 62
     0
100
AcDbLine
 10
288.5988594263153
 20
1142.292835236079
 30
0.0
 11
288.5988594263153
 21
1147.223818381387
 31
0.0
  0
ARC
  5
9B06
330
1F
100
AcDbEntity
  8
0
 62
     0
100
AcDbCircle
 10
285.9457862472679
 20
1145.027001265689
 30
0.0
 40
3.786696541055324
100
AcDbArc
 50
277.2210763160197
 51
313.776405583664
  0
LINE
  5
9B07
330
1F
100
AcDbEntity
  8
0
 62
     0
 48
0.3
100
AcDbLine
 10
280.3613548843074
 20
1148.272835236079
 30
0.0
 11
285.9457862472679
 21
1148.272835236079
 31
0.0
  0
LINE
  5
9B08
330
1F
100
AcDbEntity
  8
0
 62
     0
 48
0.3
100
AcDbLine
 10
280.3613548843074
 20
1148.272835236079
 30
0.0
 11
285.9457862472679
 21
1148.272835236079
 31
0.0
  0
LINE
  5
9B09
330
1F
100
AcDbEntity
  8
0
 62
     0
 48
0.3
100
AcDbLine
 10
280.3613548843074
 20
1148.272835236079
 30
0.0
 11
285.9457862472679
 21
1148.272835236079
 31
0.0
  0
LINE
  5
9B0A
330
1F
100
AcDbEntity
  8
0
 62
     0
 48
0.5
100
AcDbLine
 10
406.0629339651208
 20
1138.808549916502
 30
0.0
 11
406.0629339651208
 21
1168.808549916502
 31
0.0
  0
ARC
  5
9B0B
330
1F
100
AcDbEntity
  8
0
 62
     0
 48
0.5
100
AcDbCircle
 10
470.7094807347636
 20
1104.317129618687
 30
0.0
 40
3.638563501407005
100
AcDbArc
 50
86.2858088386395
 51
138.711446925249
  0
DIMENSION
  5
9B0C
330
1F
100
AcDbEntity
  8
0
 62
     0
 48
0.5
100
AcDbDimension
  2
*D3
 10
477.223558306759
 20
1100.959166976875
 30
0.0
 11
452.0312458439404
 21
1082.857976107406
 31
0.0
 70
    33
  1
60
 71
     5
 42
61.23089802108893
  3
ISO-25
100
AcDbAlignedDimension
 13
424.3064311959582
 23
1067.291634558542
 33
0.0
 14
467.623264300311
 24
1110.568358582879
 34
0.0
  0
DIMENSION
  5
9B0D
330
1F
100
AcDbEntity
  8
0
 62
     0
 48
0.5
100
AcDbDimension
  2
*D4
 10
469.6998899720467
 20
1121.747669007089
 30
0.0
 11
484.6998899720468
 21
1126.747669007089
 31
0.0
 70
    33
 71
     5
 42
30.0
  3
ISO-25
100
AcDbAlignedDimension
 13
499.6998899720467
 23
1109.94804959555
 33
0.0
 14
469.6998899720467
 24
1109.94804959555
 34
0.0
  0
LINE
  5
9B0E
330
1F
100
AcDbEntity
  8
0
 62
     0
 48
0.5
100
AcDbLine
 10
470.9451849590295
 20
1138.808549916502
 30
0.0
 11
469.70254427191
 21
1138.808549916502
 31
0.0
  0
LINE
  5
9B0F
330
1F
100
AcDbEntity
  8
0
 62
     0
 48
0.5
100
AcDbLine
 10
499.6998899720467
 20
1109.94804959555
 30
0.0
 11
469.6197004586062
 21
1109.94804959555
 31
0.0
  0
LINE
  5
9B10
330
1F
100
AcDbEntity
  8
0
 62
     0
 48
0.5
100
AcDbLine
 10
499.70254427191
 20
1168.808549916502
 30
0.0
 11
469.70254427191
 21
1168.808549916502
 31
0.0
  0
LINE
  5
9B11
330
1F
100
AcDbEntity
  8
0
 62
     0
 48
0.5
100
AcDbLine
 10
428.5490718830776
 20
1067.291634558542
 30
0.0
 11
467.9754787542704
 21
1106.718041429735
 31
0.0
  0
LINE
  5
9B12
330
1F
100
AcDbEntity
  8
0
 62
     0
 48
0.5
100
AcDbLine
 10
427.1347160444804
 20
1068.705705868543
 30
0.0
 11
467.4983801150466
 21
1109.06936993911
 31
0.0
  0
LINE
  5
9B13
330
1F
100
AcDbEntity
  8
0
 62
     0
 48
0.5
100
AcDbLine
 10
407.4771475274944
 20
1086.949060823156
 30
0.0
 11
425.7205024821073
 21
1068.705705868544
 31
0.0
  0
LINE
  5
9B14
330
1F
100
AcDbEntity
  8
0
 62
     0
 48
0.5
100
AcDbLine
 10
412.3561843176815
 20
1082.070024032969
 30
0.0
 11
410.9419707553085
 21
1080.655810470597
 31
0.0
  0
LINE
  5
9B15
330
1F
100
AcDbEntity
  8
0
 62
     0
 48
0.5
100
AcDbLine
 10
420.8414656919202
 20
1073.584742658731
 30
0.0
 11
419.4272521295471
 21
1072.170529096358
 31
0.0
  0
ARC
  5
9B16
330
1F
100
AcDbEntity
  8
0
 62
     0
 48
0.5
100
AcDbCircle
 10
426.2607789191652
 20
1069.231664314238
 30
0.0
 40
3.0000000236126
100
AcDbArc
 50
248.3673731087391
 51
319.7085036151134
  0
ARC
  5
9B17
330
1F
100
AcDbEntity
  8
0
 62
     0
 48
0.5
100
AcDbCircle
 10
426.4276092632939
 20
1069.41281264973
 30
0.0
 40
1.0
100
AcDbArc
 50
224.9999999999953
 51
315.0000000000046
  0
DIMENSION
  5
9B18
330
1F
100
AcDbEntity
  8
0
 62
     0
 48
0.5
100
AcDbDimension
  2
*D5
 10
447.4154733824148
 20
1138.808549916502
 30
0.0
 11
442.4154733824146
 21
1153.808549916502
 31
0.0
 70
    33
 71
     5
 42
30.0
  3
ISO-25
100
AcDbAlignedDimension
 13
456.3667451891364
 23
1168.808549916502
 33
0.0
 14
456.3667451891364
 24
1138.808549916502
 34
0.0
  0
LINE
  5
9B19
330
1F
100
AcDbEntity
  8
0
 62
     0
 48
0.5
100
AcDbLine
 10
469.70254427191
 20
1168.808549916502
 30
0.0
 11
427.2761374007179
 21
1168.808549916502
 31
0.0
  0
ELLIPSE
  5
9B1B
330
1F
100
AcDbEntity
  8
0
 62
     0
 48
0.5
100
AcDbEllipse
 10
416.5988250048007
 20
1153.808549916502
 30
0.0
 11
0.0
 21
-5.911606855010943
 31
0.0
210
0.0
220
0.0
230
1.0
 40
0.7176797766115091
 41
0.0
 42
6.283185307179586
  0
ARC
  5
9B1C
330
1F
100
AcDbEntity
  8
0
 62
     0
 48
0.5
100
AcDbCircle
 10
411.102027006104
 20
1153.808549916502
 30
0.0
 40
8.072291115085555
100
AcDbArc
 50
312.9176465258966
 51
47.08235347410454
  0
LINE
  5
9B1D
330
1F
100
AcDbEntity
  8
0
 62
     0
 48
0.5
100
AcDbLine
 10
427.2761374007179
 20
1138.808549916502
 30
0.0
 11
427.2761374007179
 21
1168.808549916502
 31
0.0
  0
LINE
  5
9B1E
330
1F
100
AcDbEntity
  8
0
 62
     0
 48
0.5
100
AcDbLine
 10
469.70254427191
 20
1168.808549916502
 30
0.0
 11
469.70254427191
 21
1138.808549916502
 31
0.0
  0
ARC
  5
9B1F
330
1F
100
AcDbEntity
  8
0
 62
     0
 48
0.5
100
AcDbCircle
 10
470.09679909783
 20
1104.596721086175
 30
0.0
 40
3.0
100
AcDbArc
 50
134.9999999954758
 51
135.0000000000046
  0
ARC
  5
9B20
330
1F
100
AcDbEntity
  8
0
 62
     0
 48
0.5
100
AcDbCircle
 10
469.6197004586062
 20
1106.94804959555
 30
0.0
 40
3.0
100
AcDbArc
 50
90.0
 51
135.0000000000046
  0
DIMENSION
  5
9B21
330
1F
100
AcDbEntity
  8
0
 62
     0
 48
0.5
100
AcDbDimension
  2
*D6
 10
509.2032508579454
 20
1107.94805069638
 30
0.0
 11
504.2032508579453
 21
1093.614717363046
 31
0.0
 70
    33
 71
     5
 42
1.99999889917035
  3
ISO-25
100
AcDbAlignedDimension
 13
499.6998899720467
 23
1109.94804959555
 33
0.0
 14
499.6998899720467
 24
1107.94805069638
 34
0.0
  0
LEADER
  5
9B22
330
1F
100
AcDbEntity
  8
0
 62
     0
 48
0.5
100
AcDbLeader
  3
ISO-25
 73
     0
 40
6.000000000000001
 41
15.14285714285714
 76
     2
 10
484.7025442719099
 20
1153.808549916502
 30
0.0
 10
505.9143105909747
 20
1153.808549916502
 30
0.0
340
9B23
213
0.0
223
-3.0
233
0.0
1001
ACAD
1000
DSTYLE
1002
{
1070
   147
1040
3.0
1070
    77
1070
     0
1002
}
  0
MTEXT
  5
9B23
102
{ACAD_REACTORS
330
9B22
102
}
330
1F
100
AcDbEntity
  8
0
 62
     0
 48
0.5
100
AcDbMText
 10
508.9143105909747
 20
1156.808549916502
 30
0.0
 40
6.0
 41
20.438
 71
     1
 72
     1
  1
%%c12
 73
     1
 44
1.0
  0
LINE
  5
9B24
330
1F
100
AcDbEntity
  8
0
 62
     0
 48
0.5
100
AcDbLine
 10
499.7025442719104
 20
1107.94805069638
 30
0.0
 11
470.94518495903
 21
1107.94805069638
 31
0.0
  0
CIRCLE
  5
9B25
330
1F
100
AcDbEntity
  8
0
 62
     0
 48
0.5
100
AcDbCircle
 10
484.7025442719099
 20
1153.808549916502
 30
0.0
 40
6.0
  0
LINE
  5
9B26
330
1F
100
AcDbEntity
  8
0
 62
     0
 48
0.5
100
AcDbLine
 10
499.70254427191
 20
1138.808549916502
 30
0.0
 11
470.9451849590295
 21
1138.808549916502
 31
0.0
  0
ARC
  5
9B27
330
1F
100
AcDbEntity
  8
0
 62
     0
 48
0.5
100
AcDbCircle
 10
470.94518495903
 20
1104.94805069638
 30
0.0
 40
3.0
100
AcDbArc
 50
90.0
 51
91.82263756489218
  0
LINE
  5
9B28
330
1F
100
AcDbEntity
  8
0
 62
     0
 48
0.5
100
AcDbLine
 10
478.6998899720467
 20
1109.94804959555
 30
0.0
 11
478.6998899720467
 21
1107.94805069638
 31
0.0
  0
LINE
  5
9B29
330
1F
100
AcDbEntity
  8
0
 62
     0
 48
0.5
100
AcDbLine
 10
499.70254427191
 20
1138.808549916502
 30
0.0
 11
499.70254427191
 21
1168.808549916502
 31
0.0
  0
LINE
  5
9B2A
330
1F
100
AcDbEntity
  8
0
 62
     0
 48
0.5
100
AcDbLine
 10
499.6998899720467
 20
1109.94804959555
 30
0.0
 11
490.6998899720467
 21
1109.94804959555
 31
0.0
  0
LINE
  5
9B2B
330
1F
100
AcDbEntity
  8
0
 62
     0
 48
0.5
100
AcDbLine
 10
490.6998899720467
 20
1109.94804959555
 30
0.0
 11
490.6998899720467
 21
1107.94805069638
 31
0.0
  0
LINE
  5
9B2C
330
1F
100
AcDbEntity
  8
0
 62
     0
 48
0.5
100
AcDbLine
 10
499.6998899720467
 20
1109.94804959555
 30
0.0
 11
499.7015488800463
 21
1107.948085746355
 31
0.0
  0
LINE
  5
9B2D
330
1F
100
AcDbEntity
  8
0
 62
     0
 48
0.5
100
AcDbLine
 10
499.6998899720467
 20
1109.94804959555
 30
0.0
 11
499.6998899720467
 21
1107.94805069638
 31
0.0
  0
LINE
  5
9B2E
330
1F
100
AcDbEntity
  8
0
 62
     0
 48
0.5
100
AcDbLine
 10
499.6998899720463
 20
1142.008548815672
 30
0.0
 11
499.70254427191
 21
1138.808549916502
 31
0.0
  0
DIMENSION
  5
9BCB
330
1F
100
AcDbEntity
  8
0
 62
     0
 48
0.5
100
AcDbDimension
  2
*D7
 10
197.899364568972
 20
1111.518352860233
 30
0.0
 11
192.8993645689718
 21
1129.895594048156
 31
0.0
 70
    33
  1
37
 71
     5
 42
36.75448237584578
  3
ISO-25
100
AcDbAlignedDimension
 13
212.853549879695
 23
1148.272835236079
 33
0.0
 14
212.853549879695
 24
1111.518352860233
 34
0.0
  0
LEADER
  5
9CC4
330
1F
100
AcDbEntity
  8
0
 62
     0
 48
0.5
100
AcDbLeader
  3
ISO-25
 73
     0
 40
6.0
 41
16.28571428571427
 76
     3
 10
222.8558418691009
 20
1126.882458443873
 30
0.0
 10
232.2961082140604
 20
1135.360885034476
 30
0.0
 10
233.9052918914326
 20
1135.360885034476
 30
0.0
340
9CC5
213
0.0
223
-3.0
233
0.0
1001
ACAD
1000
DSTYLE
1002
{
1070
   147
1040
3.0
1070
    77
1070
     0
1002
}
  0
MTEXT
  5
9CC5
102
{ACAD_REACTORS
330
9CC4
102
}
330
1F
100
AcDbEntity
  8
0
 62
     0
 48
0.5
100
AcDbMText
 10
236.9052918914326
 20
1138.360885034476
 30
0.0
 40
6.0
 41
20.438
 71
     1
 72
     1
  1
M12
 73
     1
 44
1.0
  0
MTEXT
  5
9CC6
330
1F
100
AcDbEntity
  8
0
 62
     0
 48
0.5
100
AcDbMText
 10
357.7215549150596
 20
822.5308658634675
 30
0.0
 40
6.0
 41
170.9279999999999
 71
     4
 72
     5
  1
 ラインロック・プレート
 73
     1
 44
1.0
  0
MTEXT
  5
9DA8
330
1F
100
AcDbEntity
  8
0
 62
     0
 48
0.5
100
AcDbMText
 10
-1.664766434302222
 20
1094.254880823263
 30
0.0
 40
6.0
 41
0.0
 71
     1
 72
     1
  1
ULG-1509
 73
     1
 44
1.0
  0
MTEXT
  5
9DA9
330
1F
100
AcDbEntity
  8
0
 62
     0
 48
0.5
100
AcDbMText
 10
60.44443119628592
 20
1093.959586902722
 30
0.0
 40
6.0
 41
20.438
 71
     1
 72
     1
  1
ULG-1509A
 73
     1
 44
1.0
  0
LINE
  5
9DAF
330
1F
100
AcDbEntity
  8
0
100
AcDbLine
 10
10.56992894679844
 20
1112.490970485238
 30
0.0
 11
10.56992894679844
 21
1109.540732574355
 31
0.0
  0
LINE
  5
9DBE
330
1F
100
AcDbEntity
  8
0
100
AcDbLine
 10
29.56246136710696
 20
1109.531740823179
 30
0.0
 11
29.56246136710696
 21
1112.490970485238
 31
0.0
  0
LINE
  5
9DBF
330
1F
100
AcDbEntity
  8
0
100
AcDbLine
 10
29.56246136710696
 20
1109.531740823179
 30
0.0
 11
29.56246136710696
 21
1112.490970485238
 31
0.0
  0
LINE
  5
9DCB
330
1F
100
AcDbEntity
  8
0
100
AcDbLine
 10
75.15704631481686
 20
1112.490970485238
 30
0.0
 11
75.15704631481686
 21
1109.540732574355
 31
0.0
  0
LINE
  5
9DD3
330
1F
100
AcDbEntity
  8
0
100
AcDbLine
 10
94.14957873512539
 20
1109.531740823179
 30
0.0
 11
94.14957873512539
 21
1112.490970485238
 31
0.0
  0
LINE
  5
9DD4
330
1F
100
AcDbEntity
  8
0
100
AcDbLine
 10
94.14957873512539
 20
1109.531740823179
 30
0.0
 11
94.14957873512539
 21
1112.490970485238
 31
0.0
  0
LINE
  5
9DD9
330
1F
100
AcDbEntity
  8
0
100
AcDbLine
 10
16.47800827351797
 20
1123.278112040081
 30
0.0
 11
23.65340339784155
 21
1123.278112040081
 31
0.0
  0
LINE
  5
9DDA
330
1F
100
AcDbEntity
  8
0
100
AcDbLine
 10
16.47800827351797
 20
1131.278112040081
 30
0.0
 11
23.58927061640055
 21
1131.426038390978
 31
0.0
  0
LINE
  5
9DDB
330
1F
100
AcDbEntity
  8
0
100
AcDbLine
 10
16.47800827351797
 20
1129.678112040081
 30
0.0
 11
23.58927061640055
 21
1129.826038390978
 31
0.0
  0
LINE
  5
9DDC
330
1F
100
AcDbEntity
  8
0
100
AcDbLine
 10
15.4088584574945
 20
1130.418779190911
 30
0.0
 11
24.65842043242402
 21
1130.65365337278
 31
0.0
  0
LINE
  5
9DDD
330
1F
100
AcDbEntity
  8
0
100
AcDbLine
 10
16.47800827351797
 20
1128.078112040081
 30
0.0
 11
23.58927061640055
 21
1128.226038390978
 31
0.0
  0
LINE
  5
9DDE
330
1F
100
AcDbEntity
  8
0
100
AcDbLine
 10
15.4088584574945
 20
1128.81877919091
 30
0.0
 11
24.65842043242402
 21
1129.05365337278
 31
0.0
  0
LINE
  5
9DDF
330
1F
100
AcDbEntity
  8
0
100
AcDbLine
 10
16.47800827351797
 20
1126.478112040081
 30
0.0
 11
23.58927061640055
 21
1126.626038390978
 31
0.0
  0
LINE
  5
9DE0
330
1F
100
AcDbEntity
  8
0
100
AcDbLine
 10
15.4088584574945
 20
1127.21877919091
 30
0.0
 11
24.65842043242402
 21
1127.45365337278
 31
0.0
  0
LINE
  5
9DE1
330
1F
100
AcDbEntity
  8
0
100
AcDbLine
 10
16.47800827351797
 20
1124.878112040081
 30
0.0
 11
23.58927061640055
 21
1125.026038390978
 31
0.0
  0
LINE
  5
9DE2
330
1F
100
AcDbEntity
  8
0
100
AcDbLine
 10
15.4088584574945
 20
1125.61877919091
 30
0.0
 11
24.65842043242402
 21
1125.85365337278
 31
0.0
  0
LINE
  5
9DE3
330
1F
100
AcDbEntity
  8
0
100
AcDbLine
 10
15.4088584574945
 20
1124.018779190911
 30
0.0
 11
24.65842043242402
 21
1124.25365337278
 31
0.0
  0
LINE
  5
9DE4
330
1F
100
AcDbEntity
  8
0
100
AcDbLine
 10
16.47800827351797
 20
1123.278112040081
 30
0.0
 11
23.58927061640055
 21
1123.426038390978
 31
0.0
  0
LINE
  5
9DE5
330
1F
100
AcDbEntity
  8
0
 62
     0
100
AcDbLine
 10
12.57967056264921
 20
1142.276571821639
 30
0.0
 11
27.55238886203393
 21
1142.283285696529
 31
0.0
  0
LINE
  5
9DE6
330
1F
100
AcDbEntity
  8
0
 62
     0
100
AcDbLine
 10
12.57419240747619
 20
1148.280381326052
 30
0.0
 11
27.56037725346142
 21
1148.27153006822
 31
0.0
  0
LINE
  5
9DE7
330
1F
100
AcDbEntity
  8
0
100
AcDbLine
 10
16.47800827351797
 20
1137.678112040081
 30
0.0
 11
23.58927061640055
 21
1137.826038390978
 31
0.0
  0
LINE
  5
9DE8
330
1F
100
AcDbEntity
  8
0
100
AcDbLine
 10
16.47800827351797
 20
1136.078112040081
 30
0.0
 11
23.58927061640055
 21
1136.226038390978
 31
0.0
  0
LINE
  5
9DE9
330
1F
100
AcDbEntity
  8
0
100
AcDbLine
 10
15.4088584574945
 20
1136.81877919091
 30
0.0
 11
24.65842043242402
 21
1137.05365337278
 31
0.0
  0
LINE
  5
9DEA
330
1F
100
AcDbEntity
  8
0
100
AcDbLine
 10
16.47800827351797
 20
1134.478112040081
 30
0.0
 11
23.58927061640055
 21
1134.626038390978
 31
0.0
  0
LINE
  5
9DEB
330
1F
100
AcDbEntity
  8
0
100
AcDbLine
 10
15.4088584574945
 20
1135.21877919091
 30
0.0
 11
24.65842043242402
 21
1135.45365337278
 31
0.0
  0
LINE
  5
9DEC
330
1F
100
AcDbEntity
  8
0
100
AcDbLine
 10
16.47800827351797
 20
1132.878112040081
 30
0.0
 11
23.58927061640055
 21
1133.026038390978
 31
0.0
  0
LINE
  5
9DED
330
1F
100
AcDbEntity
  8
0
100
AcDbLine
 10
15.4088584574945
 20
1133.61877919091
 30
0.0
 11
24.65842043242402
 21
1133.85365337278
 31
0.0
  0
LINE
  5
9DEE
330
1F
100
AcDbEntity
  8
0
100
AcDbLine
 10
15.4088584574945
 20
1132.018779190911
 30
0.0
 11
24.65842043242402
 21
1132.25365337278
 31
0.0
  0
ARC
  5
9DEF
330
1F
100
AcDbEntity
  8
0
 62
     0
100
AcDbCircle
 10
20.06570583567976
 20
1154.164397474156
 30
0.0
 40
11.87483341272717
100
AcDbArc
 50
245.1511354438702
 51
294.8488630071935
  0
ARC
  5
9DF0
330
1F
100
AcDbEntity
  8
0
 62
     0
100
AcDbCircle
 10
20.0752045268323
 20
1136.32480995648
 30
0.0
 40
11.94515791273411
100
AcDbArc
 50
65.30724886347826
 51
114.6927511365217
  0
LINE
  5
9DF1
330
1F
100
AcDbEntity
  8
0
 62
     0
100
AcDbLine
 10
21.56570583567976
 20
1148.269964092573
 30
0.0
 11
21.56570583567976
 21
1155.269964092573
 31
0.0
  0
LINE
  5
9DF2
330
1F
100
AcDbEntity
  8
0
 62
     0
100
AcDbLine
 10
18.56570583567976
 20
1155.269964092573
 30
0.0
 11
18.56157144159261
 21
1148.269965313517
 31
0.0
  0
ARC
  5
9DF3
330
1F
100
AcDbEntity
  8
0
 62
     0
100
AcDbCircle
 10
12.57419240747619
 20
1144.870248754203
 30
0.0
 40
3.410132571848632
100
AcDbArc
 50
42.58241503646885
 51
137.4175849635322
  0
ARC
  5
9DF4
330
1F
100
AcDbEntity
  8
0
 62
     0
100
AcDbCircle
 10
12.56469350948829
 20
1145.666514650141
 30
0.0
 40
3.389975913282654
100
AcDbArc
 50
222.2103848840874
 51
317.7896151159126
  0
LINE
  5
9DF5
330
1F
100
AcDbEntity
  8
0
 62
     0
100
AcDbLine
 10
10.06329543920595
 20
1147.17771502098
 30
0.0
 11
10.06329543920595
 21
1146.094289637359
 31
0.0
  0
LINE
  5
9DF6
330
1F
100
AcDbEntity
  8
0
 62
     0
100
AcDbLine
 10
10.05379654121817
 20
1146.247617683436
 30
0.0
 11
10.05379654121817
 21
1143.388942893342
 31
0.0
  0
LINE
  5
9DF7
330
1F
100
AcDbEntity
  8
0
100
AcDbLine
 10
15.4088584574945
 20
1132.018779190911
 30
0.0
 11
16.47800827351797
 21
1131.278112040081
 31
0.0
  0
LINE
  5
9DF8
330
1F
100
AcDbEntity
  8
0
100
AcDbLine
 10
15.4088584574945
 20
1130.418779190911
 30
0.0
 11
16.47800827351797
 21
1131.278112040081
 31
0.0
  0
LINE
  5
9DF9
330
1F
100
AcDbEntity
  8
0
100
AcDbLine
 10
15.4088584574945
 20
1130.418779190911
 30
0.0
 11
16.47800827351797
 21
1129.678112040081
 31
0.0
  0
LINE
  5
9DFA
330
1F
100
AcDbEntity
  8
0
100
AcDbLine
 10
15.4088584574945
 20
1128.81877919091
 30
0.0
 11
16.47800827351797
 21
1129.678112040081
 31
0.0
  0
LINE
  5
9DFB
330
1F
100
AcDbEntity
  8
0
100
AcDbLine
 10
15.4088584574945
 20
1128.81877919091
 30
0.0
 11
16.47800827351797
 21
1128.078112040081
 31
0.0
  0
LINE
  5
9DFC
330
1F
100
AcDbEntity
  8
0
100
AcDbLine
 10
15.4088584574945
 20
1127.21877919091
 30
0.0
 11
16.47800827351797
 21
1128.078112040081
 31
0.0
  0
LINE
  5
9DFD
330
1F
100
AcDbEntity
  8
0
100
AcDbLine
 10
15.4088584574945
 20
1127.21877919091
 30
0.0
 11
16.47800827351797
 21
1126.478112040081
 31
0.0
  0
LINE
  5
9DFE
330
1F
100
AcDbEntity
  8
0
100
AcDbLine
 10
15.4088584574945
 20
1125.61877919091
 30
0.0
 11
16.47800827351797
 21
1126.478112040081
 31
0.0
  0
LINE
  5
9DFF
330
1F
100
AcDbEntity
  8
0
100
AcDbLine
 10
15.4088584574945
 20
1125.61877919091
 30
0.0
 11
16.47800827351797
 21
1124.878112040081
 31
0.0
  0
LINE
  5
9E00
330
1F
100
AcDbEntity
  8
0
100
AcDbLine
 10
15.4088584574945
 20
1124.018779190911
 30
0.0
 11
16.47800827351797
 21
1123.278112040081
 31
0.0
  0
LINE
  5
9E01
330
1F
100
AcDbEntity
  8
0
100
AcDbLine
 10
15.4088584574945
 20
1124.018779190911
 30
0.0
 11
16.47800827351797
 21
1124.878112040081
 31
0.0
  0
LINE
  5
9E03
330
1F
100
AcDbEntity
  8
0
100
AcDbLine
 10
15.4088584574945
 20
1136.81877919091
 30
0.0
 11
16.47800827351797
 21
1137.678112040081
 31
0.0
  0
LINE
  5
9E04
330
1F
100
AcDbEntity
  8
0
100
AcDbLine
 10
15.4088584574945
 20
1136.81877919091
 30
0.0
 11
16.47800827351797
 21
1136.078112040081
 31
0.0
  0
LINE
  5
9E05
330
1F
100
AcDbEntity
  8
0
100
AcDbLine
 10
15.4088584574945
 20
1135.21877919091
 30
0.0
 11
16.47800827351797
 21
1136.078112040081
 31
0.0
  0
LINE
  5
9E06
330
1F
100
AcDbEntity
  8
0
100
AcDbLine
 10
15.4088584574945
 20
1135.21877919091
 30
0.0
 11
16.47800827351797
 21
1134.478112040081
 31
0.0
  0
LINE
  5
9E07
330
1F
100
AcDbEntity
  8
0
100
AcDbLine
 10
15.4088584574945
 20
1133.61877919091
 30
0.0
 11
16.47800827351797
 21
1134.478112040081
 31
0.0
  0
LINE
  5
9E08
330
1F
100
AcDbEntity
  8
0
100
AcDbLine
 10
15.4088584574945
 20
1133.61877919091
 30
0.0
 11
16.47800827351797
 21
1132.878112040081
 31
0.0
  0
LINE
  5
9E09
330
1F
100
AcDbEntity
  8
0
100
AcDbLine
 10
15.4088584574945
 20
1132.018779190911
 30
0.0
 11
16.47800827351797
 21
1132.878112040081
 31
0.0
  0
LINE
  5
9E0A
330
1F
100
AcDbEntity
  8
0
 62
     0
100
AcDbLine
 10
15.07559047775863
 20
1143.388942893342
 30
0.0
 11
15.07559047775875
 21
1146.102867089908
 31
0.0
  0
LINE
  5
9E0B
330
1F
100
AcDbEntity
  8
0
 62
     0
100
AcDbLine
 10
15.07559047775852
 20
1143.388942893342
 30
0.0
 11
15.07559047775852
 21
1146.102867089908
 31
0.0
  0
LINE
  5
9E0C
330
1F
100
AcDbEntity
  8
0
 62
     0
100
AcDbLine
 10
15.0850893757463
 20
1146.094289637359
 30
0.0
 11
15.0850893757463
 21
1146.870930389419
 31
0.0
  0
LINE
  5
9E0D
330
1F
100
AcDbEntity
  8
0
 62
     0
100
AcDbLine
 10
15.08508937574664
 20
1146.094289637359
 30
0.0
 11
15.08508937574664
 21
1147.177715020981
 31
0.0
  0
LINE
  5
9E0E
330
1F
100
AcDbEntity
  8
0
 62
     0
100
AcDbLine
 10
21.56570583567976
 20
1155.269964092573
 30
0.0
 11
18.56570583567976
 21
1155.269964092573
 31
0.0
  0
ARC
  5
9E0F
330
1F
100
AcDbEntity
  8
0
 62
     0
100
AcDbCircle
 10
27.55087861037522
 20
1145.651321743668
 30
0.0
 40
3.368036385742759
100
AcDbArc
 50
222.1999838832071
 51
317.8000122986052
  0
ARC
  5
9E10
330
1F
100
AcDbEntity
  8
0
 62
     0
100
AcDbCircle
 10
27.56037725346142
 20
1144.878934728829
 30
0.0
 40
3.392595339391068
100
AcDbArc
 50
42.65541045585602
 51
137.344589544147
  0
LINE
  5
9E11
330
1F
100
AcDbEntity
  8
0
100
AcDbLine
 10
24.65842043242402
 20
1132.25365337278
 30
0.0
 11
23.58927061640055
 21
1131.426038390978
 31
0.0
  0
LINE
  5
9E12
330
1F
100
AcDbEntity
  8
0
100
AcDbLine
 10
23.65340339784155
 20
1123.278112040081
 30
0.0
 11
23.65029987014942
 21
1123.427307903249
 31
0.0
  0
LINE
  5
9E13
330
1F
100
AcDbEntity
  8
0
100
AcDbLine
 10
23.58927061640055
 20
1131.426038390978
 30
0.0
 11
24.65842043242402
 21
1130.65365337278
 31
0.0
  0
LINE
  5
9E14
330
1F
100
AcDbEntity
  8
0
100
AcDbLine
 10
24.65842043242402
 20
1130.65365337278
 30
0.0
 11
23.58927061640055
 21
1129.826038390978
 31
0.0
  0
LINE
  5
9E15
330
1F
100
AcDbEntity
  8
0
100
AcDbLine
 10
23.58927061640055
 20
1129.826038390978
 30
0.0
 11
24.65842043242402
 21
1129.05365337278
 31
0.0
  0
LINE
  5
9E16
330
1F
100
AcDbEntity
  8
0
100
AcDbLine
 10
24.65842043242402
 20
1129.05365337278
 30
0.0
 11
23.58927061640055
 21
1128.226038390978
 31
0.0
  0
LINE
  5
9E17
330
1F
100
AcDbEntity
  8
0
100
AcDbLine
 10
23.58927061640055
 20
1128.226038390978
 30
0.0
 11
24.65842043242402
 21
1127.45365337278
 31
0.0
  0
LINE
  5
9E18
330
1F
100
AcDbEntity
  8
0
100
AcDbLine
 10
24.65842043242402
 20
1127.45365337278
 30
0.0
 11
23.58927061640055
 21
1126.626038390978
 31
0.0
  0
LINE
  5
9E19
330
1F
100
AcDbEntity
  8
0
100
AcDbLine
 10
23.58927061640055
 20
1126.626038390978
 30
0.0
 11
24.65842043242402
 21
1125.85365337278
 31
0.0
  0
LINE
  5
9E1A
330
1F
100
AcDbEntity
  8
0
100
AcDbLine
 10
24.65842043242402
 20
1125.85365337278
 30
0.0
 11
23.58927061640055
 21
1125.026038390978
 31
0.0
  0
LINE
  5
9E1B
330
1F
100
AcDbEntity
  8
0
100
AcDbLine
 10
24.65842043242402
 20
1124.25365337278
 30
0.0
 11
23.58927061640055
 21
1123.426038390978
 31
0.0
  0
LINE
  5
9E1C
330
1F
100
AcDbEntity
  8
0
100
AcDbLine
 10
23.58927061640055
 20
1125.026038390978
 30
0.0
 11
24.65842043242402
 21
1124.25365337278
 31
0.0
  0
LINE
  5
9E1D
330
1F
100
AcDbEntity
  8
0
100
AcDbLine
 10
24.03474911410195
 20
1138.170877508231
 30
0.0
 11
23.58927061640055
 21
1137.826038390978
 31
0.0
  0
LINE
  5
9E1E
330
1F
100
AcDbEntity
  8
0
100
AcDbLine
 10
23.58927061640055
 20
1137.826038390978
 30
0.0
 11
24.65842043242402
 21
1137.05365337278
 31
0.0
  0
LINE
  5
9E1F
330
1F
100
AcDbEntity
  8
0
100
AcDbLine
 10
24.65842043242402
 20
1137.05365337278
 30
0.0
 11
23.58927061640055
 21
1136.226038390978
 31
0.0
  0
LINE
  5
9E20
330
1F
100
AcDbEntity
  8
0
100
AcDbLine
 10
23.58927061640055
 20
1136.226038390978
 30
0.0
 11
24.65842043242402
 21
1135.45365337278
 31
0.0
  0
LINE
  5
9E21
330
1F
100
AcDbEntity
  8
0
100
AcDbLine
 10
24.65842043242402
 20
1135.45365337278
 30
0.0
 11
23.58927061640055
 21
1134.626038390978
 31
0.0
  0
LINE
  5
9E22
330
1F
100
AcDbEntity
  8
0
100
AcDbLine
 10
23.58927061640055
 20
1134.626038390978
 30
0.0
 11
24.65842043242402
 21
1133.85365337278
 31
0.0
  0
LINE
  5
9E23
330
1F
100
AcDbEntity
  8
0
100
AcDbLine
 10
24.65842043242402
 20
1133.85365337278
 30
0.0
 11
23.58927061640055
 21
1133.026038390978
 31
0.0
  0
LINE
  5
9E24
330
1F
100
AcDbEntity
  8
0
100
AcDbLine
 10
23.58927061640055
 20
1133.026038390978
 30
0.0
 11
24.65842043242402
 21
1132.25365337278
 31
0.0
  0
LINE
  5
9E25
330
1F
100
AcDbEntity
  8
0
 62
     0
100
AcDbLine
 10
25.05582077993064
 20
1143.388942893342
 30
0.0
 11
25.05582077993064
 21
1146.102867089908
 31
0.0
  0
LINE
  5
9E26
330
1F
100
AcDbEntity
  8
0
 62
     0
100
AcDbLine
 10
25.05582077993064
 20
1143.388942893342
 30
0.0
 11
25.05582077993041
 21
1146.247617683436
 31
0.0
  0
LINE
  5
9E27
330
1F
100
AcDbEntity
  8
0
 62
     0
100
AcDbLine
 10
25.06531967791842
 20
1146.094289637359
 30
0.0
 11
25.06531967791842
 21
1146.870930389419
 31
0.0
  0
LINE
  5
9E28
330
1F
100
AcDbEntity
  8
0
 62
     0
100
AcDbLine
 10
25.06531967791819
 20
1146.094289637359
 30
0.0
 11
25.06531967791819
 21
1147.177715020981
 31
0.0
  0
LINE
  5
9E29
330
1F
100
AcDbEntity
  8
0
 62
     0
100
AcDbLine
 10
30.04593593101664
 20
1143.388942893342
 30
0.0
 11
30.04593593101664
 21
1146.247617683436
 31
0.0
  0
LINE
  5
9E2A
330
1F
100
AcDbEntity
  8
0
 62
     0
100
AcDbLine
 10
30.04593593101664
 20
1143.388942893342
 30
0.0
 11
30.04593593101664
 21
1146.247617683436
 31
0.0
  0
LINE
  5
9E2B
330
1F
100
AcDbEntity
  8
0
 62
     0
100
AcDbLine
 10
30.05543482900442
 20
1146.094289637359
 30
0.0
 11
30.05543482900442
 21
1146.870930389419
 31
0.0
  0
LINE
  5
9E2C
330
1F
100
AcDbEntity
  8
0
 62
     0
100
AcDbLine
 10
30.05543482900442
 20
1146.094289637359
 30
0.0
 11
30.05543482900442
 21
1147.17771502098
 31
0.0
  0
ARC
  5
9E40
330
1F
100
AcDbEntity
  8
0
 62
     0
100
AcDbCircle
 10
84.65124420890914
 20
1154.164397474156
 30
0.0
 40
11.87483341272717
100
AcDbArc
 50
245.1511354438702
 51
294.8488630071935
  0
LINE
  5
9E41
330
1F
100
AcDbEntity
  8
0
 62
     0
100
AcDbLine
 10
77.16520893587859
 20
1142.276571821639
 30
0.0
 11
92.13792723526331
 21
1142.283285696529
 31
0.0
  0
LINE
  5
9E4B
330
1F
100
AcDbEntity
  8
0
 62
     0
100
AcDbLine
 10
77.15973078070557
 20
1148.280381326052
 30
0.0
 11
92.14591562669081
 21
1148.27153006822
 31
0.0
  0
ARC
  5
9E4C
330
1F
100
AcDbEntity
  8
0
 62
     0
100
AcDbCircle
 10
84.66074290006169
 20
1136.32480995648
 30
0.0
 40
11.94515791273411
100
AcDbArc
 50
65.30724886347826
 51
114.6927511365217
  0
LINE
  5
9E60
330
1F
100
AcDbEntity
  8
0
 62
     0
100
AcDbLine
 10
79.66112885098802
 20
1143.388942893342
 30
0.0
 11
79.66112885098813
 21
1146.102867089908
 31
0.0
  0
LINE
  5
9E61
330
1F
100
AcDbEntity
  8
0
 62
     0
100
AcDbLine
 10
79.66112885098791
 20
1143.388942893342
 30
0.0
 11
79.66112885098791
 21
1146.102867089908
 31
0.0
  0
LINE
  5
9E62
330
1F
100
AcDbEntity
  8
0
 62
     0
100
AcDbLine
 10
79.67062774897569
 20
1146.094289637359
 30
0.0
 11
79.67062774897569
 21
1146.870930389419
 31
0.0
  0
LINE
  5
9E63
330
1F
100
AcDbEntity
  8
0
 62
     0
100
AcDbLine
 10
79.67062774897603
 20
1146.094289637359
 30
0.0
 11
79.67062774897603
 21
1147.177715020981
 31
0.0
  0
LINE
  5
9E64
330
1F
100
AcDbEntity
  8
0
 62
     0
100
AcDbLine
 10
74.64883381243534
 20
1147.17771502098
 30
0.0
 11
74.64883381243534
 21
1146.094289637359
 31
0.0
  0
LINE
  5
9E65
330
1F
100
AcDbEntity
  8
0
 62
     0
100
AcDbLine
 10
74.63933491444755
 20
1146.247617683436
 30
0.0
 11
74.63933491444755
 21
1143.388942893342
 31
0.0
  0
ARC
  5
9E66
330
1F
100
AcDbEntity
  8
0
 62
     0
100
AcDbCircle
 10
77.15023188271768
 20
1145.666514650141
 30
0.0
 40
3.389975913282654
100
AcDbArc
 50
222.2103848840874
 51
317.7896151159126
  0
ARC
  5
9E67
330
1F
100
AcDbEntity
  8
0
 62
     0
100
AcDbCircle
 10
77.15973078070557
 20
1144.870248754203
 30
0.0
 40
3.410132571848632
100
AcDbArc
 50
42.58241503646885
 51
137.4175849635322
  0
LINE
  5
9E74
330
1F
100
AcDbEntity
  8
0
 62
     0
100
AcDbLine
 10
94.63147430424603
 20
1143.388942893342
 30
0.0
 11
94.63147430424603
 21
1146.247617683436
 31
0.0
  0
LINE
  5
9E75
330
1F
100
AcDbEntity
  8
0
 62
     0
100
AcDbLine
 10
94.63147430424603
 20
1143.388942893342
 30
0.0
 11
94.63147430424603
 21
1146.247617683436
 31
0.0
  0
LINE
  5
9E76
330
1F
100
AcDbEntity
  8
0
 62
     0
100
AcDbLine
 10
94.6409732022338
 20
1146.094289637359
 30
0.0
 11
94.6409732022338
 21
1146.870930389419
 31
0.0
  0
LINE
  5
9E77
330
1F
100
AcDbEntity
  8
0
 62
     0
100
AcDbLine
 10
94.6409732022338
 20
1146.094289637359
 30
0.0
 11
94.6409732022338
 21
1147.17771502098
 31
0.0
  0
LINE
  5
9E78
330
1F
100
AcDbEntity
  8
0
 62
     0
100
AcDbLine
 10
89.64135915316003
 20
1143.388942893342
 30
0.0
 11
89.64135915316003
 21
1146.102867089908
 31
0.0
  0
LINE
  5
9E79
330
1F
100
AcDbEntity
  8
0
 62
     0
100
AcDbLine
 10
89.64135915316003
 20
1143.388942893342
 30
0.0
 11
89.6413591531598
 21
1146.247617683436
 31
0.0
  0
LINE
  5
9E7A
330
1F
100
AcDbEntity
  8
0
 62
     0
100
AcDbLine
 10
89.6508580511478
 20
1146.094289637359
 30
0.0
 11
89.6508580511478
 21
1146.870930389419
 31
0.0
  0
LINE
  5
9E7B
330
1F
100
AcDbEntity
  8
0
 62
     0
100
AcDbLine
 10
89.65085805114759
 20
1146.094289637359
 30
0.0
 11
89.65085805114759
 21
1147.177715020981
 31
0.0
  0
ARC
  5
9E7C
330
1F
100
AcDbEntity
  8
0
 62
     0
100
AcDbCircle
 10
92.1364169836046
 20
1145.651321743668
 30
0.0
 40
3.368036385742759
100
AcDbArc
 50
222.1999838832071
 51
317.8000122986052
  0
ARC
  5
9E7D
330
1F
100
AcDbEntity
  8
0
 62
     0
100
AcDbCircle
 10
92.14591562669081
 20
1144.878934728829
 30
0.0
 40
3.392595339391068
100
AcDbArc
 50
42.65541045585602
 51
137.344589544147
  0
LEADER
  5
9E85
330
1F
100
AcDbEntity
  8
0
 62
     0
 48
0.5
100
AcDbLeader
  3
ISO-25
 73
     0
 40
6.000000000000001
 41
15.14285714285714
 76
     2
 10
412.3561843176815
 20
1153.808549916502
 30
0.0
 10
398.3044877200259
 20
1153.808549916502
 30
0.0
340
9E86
213
0.0
223
3.0
233
0.0
1001
ACAD
1000
DSTYLE
1002
{
1070
   147
1040
3.0
1070
    77
1070
     0
1002
}
  0
MTEXT
  5
9E86
102
{ACAD_REACTORS
330
9E85
102
}
330
1F
100
AcDbEntity
  8
0
 62
     0
 48
0.5
100
AcDbMText
 10
395.3044877200259
 20
1150.808549916502
 30
0.0
 40
6.0
 41
20.438
 71
     9
 72
     1
  1
%%c12
 73
     1
 44
1.0
  0
LEADER
  5
9EC8
330
1F
100
AcDbEntity
  8
0
 62
     0
 48
0.5
100
AcDbLeader
  3
ISO-25
 73
     0
 40
9.142857142857142
 41
23.14285714285714
 76
     3
 10
24.65842043242402
 20
1129.964484226041
 30
0.0
 10
34.94554908854752
 20
1139.685707987653
 30
0.0
 10
36.93847048161979
 20
1139.685707987653
 30
0.0
340
9EC9
213
0.0
223
-3.0
233
0.0
1001
ACAD
1000
DSTYLE
1002
{
1070
   147
1040
3.0
1070
    77
1070
     0
1002
}
  0
MTEXT
  5
9EC9
102
{ACAD_REACTORS
330
9EC8
102
}
330
1F
100
AcDbEntity
  8
0
 62
     0
 48
0.5
100
AcDbMText
 10
39.93847048161978
 20
1142.685707987652
 30
0.0
 40
6.0
 41
20.438
 71
     1
 72
     1
  1
W3/8
 73
     1
 44
1.0
  0
LINE
  5
9ECE
330
1F
100
AcDbEntity
  8
0
100
AcDbLine
 10
16.47800827351797
 20
1140.878112040081
 30
0.0
 11
23.58927061640055
 21
1141.026038390978
 31
0.0
  0
LINE
  5
9ECF
330
1F
100
AcDbEntity
  8
0
100
AcDbLine
 10
15.4088584574945
 20
1141.61877919091
 30
0.0
 11
24.65842043242402
 21
1141.85365337278
 31
0.0
  0
LINE
  5
9ED0
330
1F
100
AcDbEntity
  8
0
100
AcDbLine
 10
16.47800827351797
 20
1139.278112040081
 30
0.0
 11
23.58927061640055
 21
1139.426038390978
 31
0.0
  0
LINE
  5
9ED1
330
1F
100
AcDbEntity
  8
0
100
AcDbLine
 10
15.4088584574945
 20
1140.018779190911
 30
0.0
 11
24.65842043242402
 21
1140.25365337278
 31
0.0
  0
LINE
  5
9ED3
330
1F
100
AcDbEntity
  8
0
100
AcDbLine
 10
15.4088584574945
 20
1138.418779190911
 30
0.0
 11
24.65842043242402
 21
1138.65365337278
 31
0.0
  0
LINE
  5
9ED5
330
1F
100
AcDbEntity
  8
0
100
AcDbLine
 10
15.4088584574945
 20
1141.61877919091
 30
0.0
 11
16.22929556042985
 21
1142.278208339814
 31
0.0
  0
LINE
  5
9ED6
330
1F
100
AcDbEntity
  8
0
100
AcDbLine
 10
15.4088584574945
 20
1141.61877919091
 30
0.0
 11
16.47800827351797
 21
1140.878112040081
 31
0.0
  0
LINE
  5
9ED7
330
1F
100
AcDbEntity
  8
0
100
AcDbLine
 10
15.4088584574945
 20
1140.018779190911
 30
0.0
 11
16.47800827351797
 21
1140.878112040081
 31
0.0
  0
LINE
  5
9ED8
330
1F
100
AcDbEntity
  8
0
100
AcDbLine
 10
15.4088584574945
 20
1140.018779190911
 30
0.0
 11
16.47800827351797
 21
1139.278112040081
 31
0.0
  0
LINE
  5
9EDA
330
1F
100
AcDbEntity
  8
0
100
AcDbLine
 10
15.4088584574945
 20
1138.418779190911
 30
0.0
 11
16.47800827351797
 21
1139.278112040081
 31
0.0
  0
LINE
  5
9EDC
330
1F
100
AcDbEntity
  8
0
100
AcDbLine
 10
24.06587937331068
 20
1142.281722320525
 30
0.0
 11
24.65842043242402
 21
1141.85365337278
 31
0.0
  0
LINE
  5
9EDD
330
1F
100
AcDbEntity
  8
0
100
AcDbLine
 10
24.65842043242402
 20
1141.85365337278
 30
0.0
 11
23.58927061640055
 21
1141.026038390978
 31
0.0
  0
LINE
  5
9EDE
330
1F
100
AcDbEntity
  8
0
100
AcDbLine
 10
23.58927061640055
 20
1141.026038390978
 30
0.0
 11
24.65842043242402
 21
1140.25365337278
 31
0.0
  0
LINE
  5
9EDF
330
1F
100
AcDbEntity
  8
0
100
AcDbLine
 10
24.65842043242402
 20
1140.25365337278
 30
0.0
 11
23.58927061640055
 21
1139.426038390978
 31
0.0
  0
LINE
  5
9EE0
330
1F
100
AcDbEntity
  8
0
100
AcDbLine
 10
23.58927061640055
 20
1139.426038390978
 30
0.0
 11
24.65842043242402
 21
1138.65365337278
 31
0.0
  0
LINE
  5
9EE2
330
1F
100
AcDbEntity
  8
0
 62
     0
 48
0.5
100
AcDbLine
 10
15.4088584574945
 20
1138.418779190911
 30
0.0
 11
16.47800827351797
 21
1137.678112040081
 31
0.0
  0
LINE
  5
9EE3
330
1F
100
AcDbEntity
  8
0
 62
     0
 48
0.5
100
AcDbLine
 10
24.03474911410195
 20
1138.170877508231
 30
0.0
 11
24.65842043242402
 21
1138.65365337278
 31
0.0
  0
ARC
  5
9EE5
330
1F
100
AcDbEntity
  8
0
100
AcDbCircle
 10
20.08124258004353
 20
1117.35638468514
 30
0.0
 40
12.2374230958771
100
AcDbArc
 50
247.2080385520235
 51
292.7919614479764
  0
LINE
  5
9EE6
330
1F
100
AcDbEntity
  8
0
100
AcDbLine
 10
27.1921566703411
 20
1105.122200537559
 30
0.0
 11
12.97032848974596
 21
1105.14937421919
 31
0.0
  0
LINE
  5
9EE7
330
1F
100
AcDbEntity
  8
0
100
AcDbLine
 10
29.32543089743036
 20
1112.600527906308
 30
0.0
 11
10.80598077392916
 21
1112.600527906308
 31
0.0
  0
LINE
  5
9EEA
330
1F
100
AcDbEntity
  8
0
100
AcDbLine
 10
10.56992894679844
 20
1112.363499456931
 30
0.0
 11
10.80598077392916
 21
1112.600527906308
 31
0.0
  0
LINE
  5
9EEB
330
1F
100
AcDbEntity
  8
0
100
AcDbLine
 10
10.56992894679844
 20
1112.363499456931
 30
0.0
 11
10.56992894679844
 21
1109.033719709974
 31
0.0
  0
ARC
  5
9EEC
330
1F
100
AcDbEntity
  8
0
100
AcDbCircle
 10
12.97032848974596
 20
1108.64849478931
 30
0.0
 40
3.499120570119873
100
AcDbArc
 50
227.3591881474076
 51
312.6408118525922
  0
LINE
  5
9EED
330
1F
100
AcDbEntity
  8
0
100
AcDbLine
 10
15.3406331865117
 20
1106.074490047914
 30
0.0
 11
15.3406331865117
 21
1109.033719709974
 31
0.0
  0
LINE
  5
9EEE
330
1F
100
AcDbEntity
  8
0
100
AcDbLine
 10
10.56992894679844
 20
1109.033719709974
 30
0.0
 11
10.56992894679844
 21
1106.083481799091
 31
0.0
  0
LINE
  5
9EF0
330
1F
100
AcDbEntity
  8
0
 48
0.3
100
AcDbLine
 10
21.58124258004353
 20
1105.118961589263
 30
0.0
 11
21.57009954772492
 21
1105.209869589966
 31
0.0
  0
LINE
  5
9EF1
330
1F
100
AcDbEntity
  8
0
 48
0.3
100
AcDbLine
 10
20.08124258004353
 20
1105.118961589263
 30
0.0
 11
18.58124258004353
 21
1105.118961589263
 31
0.0
  0
LINE
  5
9EF2
330
1F
100
AcDbEntity
  8
0
100
AcDbLine
 10
29.56246136710696
 20
1109.033719709974
 30
0.0
 11
29.56246136710696
 21
1112.363497436631
 31
0.0
  0
LINE
  5
9EF4
330
1F
100
AcDbEntity
  8
0
100
AcDbLine
 10
29.56246136710696
 20
1112.363497436631
 30
0.0
 11
29.32543089743036
 21
1112.600527906308
 31
0.0
  0
LINE
  5
9EF5
330
1F
100
AcDbEntity
  8
0
100
AcDbLine
 10
29.56246136710696
 20
1106.074490047914
 30
0.0
 11
29.56246136710696
 21
1109.033719709974
 31
0.0
  0
LINE
  5
9EF6
330
1F
100
AcDbEntity
  8
0
100
AcDbLine
 10
29.56246136710696
 20
1106.074490047914
 30
0.0
 11
29.56246136710696
 21
1109.033719709974
 31
0.0
  0
LINE
  5
9EF9
330
1F
100
AcDbEntity
  8
0
100
AcDbLine
 10
24.82185197357525
 20
1106.074490047914
 30
0.0
 11
24.82185197357525
 21
1109.033719709974
 31
0.0
  0
ARC
  5
9EFA
330
1F
100
AcDbEntity
  8
0
100
AcDbCircle
 10
27.1921566703411
 20
1108.5482593128
 30
0.0
 40
3.42605877524053
100
AcDbArc
 50
226.2235944163326
 51
313.7764055836672
  0
LINE
  5
9EFB
330
1F
100
AcDbEntity
  8
0
100
AcDbLine
 10
84.65282320369819
 20
1112.600527906308
 30
0.0
 11
82.28251850693233
 21
1112.600527906308
 31
0.0
  0
LINE
  5
9EFC
330
1F
100
AcDbEntity
  8
0
100
AcDbLine
 10
93.91254826544878
 20
1112.600527906308
 30
0.0
 11
75.39309814194758
 21
1112.600527906308
 31
0.0
  0
LINE
  5
9EFD
330
1F
100
AcDbEntity
  8
0
100
AcDbLine
 10
84.65282320369819
 20
1112.600527906308
 30
0.0
 11
79.91221381016647
 21
1112.600527906308
 31
0.0
  0
LINE
  5
9EFE
330
1F
100
AcDbEntity
  8
0
 48
0.3
100
AcDbLine
 10
84.66835994806196
 20
1105.118961589263
 30
0.0
 11
83.16835994806195
 21
1105.118961589263
 31
0.0
  0
LINE
  5
9EFF
330
1F
100
AcDbEntity
  8
0
100
AcDbLine
 10
91.77927403835953
 20
1105.122200537559
 30
0.0
 11
77.55744585776439
 21
1105.14937421919
 31
0.0
  0
ARC
  5
9F00
330
1F
100
AcDbEntity
  8
0
100
AcDbCircle
 10
84.66835994806196
 20
1117.35638468514
 30
0.0
 40
12.2374230958771
100
AcDbArc
 50
247.2080385520235
 51
292.7919614479764
  0
ARC
  5
9F01
330
1F
100
AcDbEntity
  8
0
100
AcDbCircle
 10
77.55744585776439
 20
1108.64849478931
 30
0.0
 40
3.499120570119873
100
AcDbArc
 50
227.3591881474076
 51
312.6408118525922
  0
LINE
  5
9F02
330
1F
100
AcDbEntity
  8
0
100
AcDbLine
 10
75.15704631481686
 20
1112.363499456931
 30
0.0
 11
75.39309814194758
 21
1112.600527906308
 31
0.0
  0
LINE
  5
9F03
330
1F
100
AcDbEntity
  8
0
100
AcDbLine
 10
75.15704631481686
 20
1112.363499456931
 30
0.0
 11
75.15704631481686
 21
1109.033719709974
 31
0.0
  0
LINE
  5
9F04
330
1F
100
AcDbEntity
  8
0
100
AcDbLine
 10
75.15704631481686
 20
1109.033719709974
 30
0.0
 11
75.15704631481686
 21
1106.083481799091
 31
0.0
  0
LINE
  5
9F07
330
1F
100
AcDbEntity
  8
0
100
AcDbLine
 10
79.92775055453013
 20
1106.074490047914
 30
0.0
 11
79.92775055453013
 21
1109.033719709974
 31
0.0
  0
ARC
  5
9F08
330
1F
100
AcDbEntity
  8
0
100
AcDbCircle
 10
91.77927403835953
 20
1108.5482593128
 30
0.0
 40
3.42605877524053
100
AcDbArc
 50
226.2235944163326
 51
313.7764055836672
  0
LINE
  5
9F0B
330
1F
100
AcDbEntity
  8
0
 48
0.3
100
AcDbLine
 10
86.16835994806196
 20
1105.118961589263
 30
0.0
 11
86.15721691574334
 21
1105.209869589966
 31
0.0
  0
LINE
  5
9F0C
330
1F
100
AcDbEntity
  8
0
100
AcDbLine
 10
89.40896934159367
 20
1106.074490047914
 30
0.0
 11
89.40896934159367
 21
1109.033719709974
 31
0.0
  0
LINE
  5
9F0D
330
1F
100
AcDbEntity
  8
0
100
AcDbLine
 10
94.14957873512539
 20
1112.363497436631
 30
0.0
 11
93.91254826544878
 21
1112.600527906308
 31
0.0
  0
LINE
  5
9F0F
330
1F
100
AcDbEntity
  8
0
100
AcDbLine
 10
94.14957873512539
 20
1109.033719709974
 30
0.0
 11
94.14957873512539
 21
1112.363497436631
 31
0.0
  0
LINE
  5
9F10
330
1F
100
AcDbEntity
  8
0
100
AcDbLine
 10
94.14957873512539
 20
1106.074490047914
 30
0.0
 11
94.14957873512539
 21
1109.033719709974
 31
0.0
  0
LINE
  5
9F11
330
1F
100
AcDbEntity
  8
0
100
AcDbLine
 10
94.14957873512539
 20
1106.074490047914
 30
0.0
 11
94.14957873512539
 21
1109.033719709974
 31
0.0
  0
LINE
  5
9F13
330
1F
100
AcDbEntity
  8
0
100
AcDbLine
 10
81.06354664674736
 20
1137.678112040081
 30
0.0
 11
88.17480898962994
 21
1137.826038390978
 31
0.0
  0
LINE
  5
9F14
330
1F
100
AcDbEntity
  8
0
100
AcDbLine
 10
79.99439683072388
 20
1138.418779190911
 30
0.0
 11
89.2439588056534
 21
1138.65365337278
 31
0.0
  0
LINE
  5
9F15
330
1F
100
AcDbEntity
  8
0
100
AcDbLine
 10
79.99439683072388
 20
1140.018779190911
 30
0.0
 11
89.2439588056534
 21
1140.25365337278
 31
0.0
  0
LINE
  5
9F16
330
1F
100
AcDbEntity
  8
0
100
AcDbLine
 10
81.06354664674736
 20
1139.278112040081
 30
0.0
 11
88.17480898962994
 21
1139.426038390978
 31
0.0
  0
LINE
  5
9F17
330
1F
100
AcDbEntity
  8
0
100
AcDbLine
 10
79.99439683072388
 20
1141.61877919091
 30
0.0
 11
89.2439588056534
 21
1141.85365337278
 31
0.0
  0
LINE
  5
9F18
330
1F
100
AcDbEntity
  8
0
100
AcDbLine
 10
81.06354664674736
 20
1140.878112040081
 30
0.0
 11
88.17480898962994
 21
1141.026038390978
 31
0.0
  0
LINE
  5
9F19
330
1F
100
AcDbEntity
  8
0
100
AcDbLine
 10
81.06354664674736
 20
1123.278112040081
 30
0.0
 11
88.23894177107094
 21
1123.278112040081
 31
0.0
  0
LINE
  5
9F1A
330
1F
100
AcDbEntity
  8
0
100
AcDbLine
 10
81.06354664674736
 20
1131.278112040081
 30
0.0
 11
88.17480898962994
 21
1131.426038390978
 31
0.0
  0
LINE
  5
9F1B
330
1F
100
AcDbEntity
  8
0
100
AcDbLine
 10
81.06354664674736
 20
1129.678112040081
 30
0.0
 11
88.17480898962994
 21
1129.826038390978
 31
0.0
  0
LINE
  5
9F1C
330
1F
100
AcDbEntity
  8
0
100
AcDbLine
 10
79.99439683072388
 20
1130.418779190911
 30
0.0
 11
89.2439588056534
 21
1130.65365337278
 31
0.0
  0
LINE
  5
9F1D
330
1F
100
AcDbEntity
  8
0
100
AcDbLine
 10
81.06354664674736
 20
1128.078112040081
 30
0.0
 11
88.17480898962994
 21
1128.226038390978
 31
0.0
  0
LINE
  5
9F1E
330
1F
100
AcDbEntity
  8
0
100
AcDbLine
 10
79.99439683072388
 20
1128.81877919091
 30
0.0
 11
89.2439588056534
 21
1129.05365337278
 31
0.0
  0
LINE
  5
9F1F
330
1F
100
AcDbEntity
  8
0
100
AcDbLine
 10
81.06354664674736
 20
1126.478112040081
 30
0.0
 11
88.17480898962994
 21
1126.626038390978
 31
0.0
  0
LINE
  5
9F20
330
1F
100
AcDbEntity
  8
0
100
AcDbLine
 10
79.99439683072388
 20
1127.21877919091
 30
0.0
 11
89.2439588056534
 21
1127.45365337278
 31
0.0
  0
LINE
  5
9F21
330
1F
100
AcDbEntity
  8
0
100
AcDbLine
 10
81.06354664674736
 20
1124.878112040081
 30
0.0
 11
88.17480898962994
 21
1125.026038390978
 31
0.0
  0
LINE
  5
9F22
330
1F
100
AcDbEntity
  8
0
100
AcDbLine
 10
79.99439683072388
 20
1125.61877919091
 30
0.0
 11
89.2439588056534
 21
1125.85365337278
 31
0.0
  0
LINE
  5
9F23
330
1F
100
AcDbEntity
  8
0
100
AcDbLine
 10
79.99439683072388
 20
1124.018779190911
 30
0.0
 11
89.2439588056534
 21
1124.25365337278
 31
0.0
  0
LINE
  5
9F24
330
1F
100
AcDbEntity
  8
0
100
AcDbLine
 10
81.06354664674736
 20
1123.278112040081
 30
0.0
 11
88.17480898962994
 21
1123.426038390978
 31
0.0
  0
LINE
  5
9F25
330
1F
100
AcDbEntity
  8
0
100
AcDbLine
 10
81.06354664674736
 20
1136.078112040081
 30
0.0
 11
88.17480898962994
 21
1136.226038390978
 31
0.0
  0
LINE
  5
9F26
330
1F
100
AcDbEntity
  8
0
100
AcDbLine
 10
79.99439683072388
 20
1136.81877919091
 30
0.0
 11
89.2439588056534
 21
1137.05365337278
 31
0.0
  0
LINE
  5
9F27
330
1F
100
AcDbEntity
  8
0
100
AcDbLine
 10
81.06354664674736
 20
1134.478112040081
 30
0.0
 11
88.17480898962994
 21
1134.626038390978
 31
0.0
  0
LINE
  5
9F28
330
1F
100
AcDbEntity
  8
0
100
AcDbLine
 10
79.99439683072388
 20
1135.21877919091
 30
0.0
 11
89.2439588056534
 21
1135.45365337278
 31
0.0
  0
LINE
  5
9F29
330
1F
100
AcDbEntity
  8
0
100
AcDbLine
 10
81.06354664674736
 20
1132.878112040081
 30
0.0
 11
88.17480898962994
 21
1133.026038390978
 31
0.0
  0
LINE
  5
9F2A
330
1F
100
AcDbEntity
  8
0
100
AcDbLine
 10
79.99439683072388
 20
1133.61877919091
 30
0.0
 11
89.2439588056534
 21
1133.85365337278
 31
0.0
  0
LINE
  5
9F2B
330
1F
100
AcDbEntity
  8
0
100
AcDbLine
 10
79.99439683072388
 20
1132.018779190911
 30
0.0
 11
89.2439588056534
 21
1132.25365337278
 31
0.0
  0
LINE
  5
9F2C
330
1F
100
AcDbEntity
  8
0
 62
     0
 48
0.5
100
AcDbLine
 10
79.99439683072388
 20
1138.418779190911
 30
0.0
 11
81.06354664674736
 21
1137.678112040081
 31
0.0
  0
LINE
  5
9F2D
330
1F
100
AcDbEntity
  8
0
100
AcDbLine
 10
79.99439683072388
 20
1136.81877919091
 30
0.0
 11
81.06354664674736
 21
1136.078112040081
 31
0.0
  0
LINE
  5
9F2E
330
1F
100
AcDbEntity
  8
0
100
AcDbLine
 10
79.99439683072388
 20
1136.81877919091
 30
0.0
 11
81.06354664674736
 21
1137.678112040081
 31
0.0
  0
LINE
  5
9F2F
330
1F
100
AcDbEntity
  8
0
100
AcDbLine
 10
79.99439683072388
 20
1135.21877919091
 30
0.0
 11
81.06354664674736
 21
1136.078112040081
 31
0.0
  0
LINE
  5
9F30
330
1F
100
AcDbEntity
  8
0
100
AcDbLine
 10
79.99439683072388
 20
1135.21877919091
 30
0.0
 11
81.06354664674736
 21
1134.478112040081
 31
0.0
  0
LINE
  5
9F31
330
1F
100
AcDbEntity
  8
0
100
AcDbLine
 10
79.99439683072388
 20
1132.018779190911
 30
0.0
 11
81.06354664674736
 21
1131.278112040081
 31
0.0
  0
LINE
  5
9F32
330
1F
100
AcDbEntity
  8
0
100
AcDbLine
 10
79.99439683072388
 20
1130.418779190911
 30
0.0
 11
81.06354664674736
 21
1131.278112040081
 31
0.0
  0
LINE
  5
9F33
330
1F
100
AcDbEntity
  8
0
100
AcDbLine
 10
79.99439683072388
 20
1130.418779190911
 30
0.0
 11
81.06354664674736
 21
1129.678112040081
 31
0.0
  0
LINE
  5
9F34
330
1F
100
AcDbEntity
  8
0
100
AcDbLine
 10
79.99439683072388
 20
1128.81877919091
 30
0.0
 11
81.06354664674736
 21
1129.678112040081
 31
0.0
  0
LINE
  5
9F35
330
1F
100
AcDbEntity
  8
0
100
AcDbLine
 10
79.99439683072388
 20
1128.81877919091
 30
0.0
 11
81.06354664674736
 21
1128.078112040081
 31
0.0
  0
LINE
  5
9F36
330
1F
100
AcDbEntity
  8
0
100
AcDbLine
 10
79.99439683072388
 20
1127.21877919091
 30
0.0
 11
81.06354664674736
 21
1128.078112040081
 31
0.0
  0
LINE
  5
9F37
330
1F
100
AcDbEntity
  8
0
100
AcDbLine
 10
79.99439683072388
 20
1127.21877919091
 30
0.0
 11
81.06354664674736
 21
1126.478112040081
 31
0.0
  0
LINE
  5
9F38
330
1F
100
AcDbEntity
  8
0
100
AcDbLine
 10
79.99439683072388
 20
1125.61877919091
 30
0.0
 11
81.06354664674736
 21
1126.478112040081
 31
0.0
  0
LINE
  5
9F39
330
1F
100
AcDbEntity
  8
0
100
AcDbLine
 10
79.99439683072388
 20
1125.61877919091
 30
0.0
 11
81.06354664674736
 21
1124.878112040081
 31
0.0
  0
LINE
  5
9F3A
330
1F
100
AcDbEntity
  8
0
100
AcDbLine
 10
79.99439683072388
 20
1124.018779190911
 30
0.0
 11
81.06354664674736
 21
1123.278112040081
 31
0.0
  0
LINE
  5
9F3B
330
1F
100
AcDbEntity
  8
0
100
AcDbLine
 10
79.99439683072388
 20
1124.018779190911
 30
0.0
 11
81.06354664674736
 21
1124.878112040081
 31
0.0
  0
LINE
  5
9F3C
330
1F
100
AcDbEntity
  8
0
100
AcDbLine
 10
79.99439683072388
 20
1133.61877919091
 30
0.0
 11
81.06354664674736
 21
1132.878112040081
 31
0.0
  0
LINE
  5
9F3D
330
1F
100
AcDbEntity
  8
0
100
AcDbLine
 10
79.99439683072388
 20
1132.018779190911
 30
0.0
 11
81.06354664674736
 21
1132.878112040081
 31
0.0
  0
LINE
  5
9F3E
330
1F
100
AcDbEntity
  8
0
100
AcDbLine
 10
79.99439683072388
 20
1133.61877919091
 30
0.0
 11
81.06354664674736
 21
1134.478112040081
 31
0.0
  0
LINE
  5
9F3F
330
1F
100
AcDbEntity
  8
0
100
AcDbLine
 10
79.99439683072388
 20
1141.61877919091
 30
0.0
 11
80.81483393365925
 21
1142.278208339814
 31
0.0
  0
LINE
  5
9F40
330
1F
100
AcDbEntity
  8
0
100
AcDbLine
 10
79.99439683072388
 20
1138.418779190911
 30
0.0
 11
81.06354664674736
 21
1139.278112040081
 31
0.0
  0
LINE
  5
9F41
330
1F
100
AcDbEntity
  8
0
100
AcDbLine
 10
79.99439683072388
 20
1140.018779190911
 30
0.0
 11
81.06354664674736
 21
1139.278112040081
 31
0.0
  0
LINE
  5
9F42
330
1F
100
AcDbEntity
  8
0
100
AcDbLine
 10
79.99439683072388
 20
1140.018779190911
 30
0.0
 11
81.06354664674736
 21
1140.878112040081
 31
0.0
  0
LINE
  5
9F43
330
1F
100
AcDbEntity
  8
0
100
AcDbLine
 10
79.99439683072388
 20
1141.61877919091
 30
0.0
 11
81.06354664674736
 21
1140.878112040081
 31
0.0
  0
LINE
  5
9F44
330
1F
100
AcDbEntity
  8
0
100
AcDbLine
 10
88.62028748733134
 20
1138.170877508231
 30
0.0
 11
88.17480898962994
 21
1137.826038390978
 31
0.0
  0
LINE
  5
9F45
330
1F
100
AcDbEntity
  8
0
100
AcDbLine
 10
88.17480898962994
 20
1137.826038390978
 30
0.0
 11
89.2439588056534
 21
1137.05365337278
 31
0.0
  0
LINE
  5
9F46
330
1F
100
AcDbEntity
  8
0
100
AcDbLine
 10
89.2439588056534
 20
1137.05365337278
 30
0.0
 11
88.17480898962994
 21
1136.226038390978
 31
0.0
  0
LINE
  5
9F47
330
1F
100
AcDbEntity
  8
0
100
AcDbLine
 10
88.17480898962994
 20
1136.226038390978
 30
0.0
 11
89.2439588056534
 21
1135.45365337278
 31
0.0
  0
LINE
  5
9F48
330
1F
100
AcDbEntity
  8
0
100
AcDbLine
 10
89.2439588056534
 20
1135.45365337278
 30
0.0
 11
88.17480898962994
 21
1134.626038390978
 31
0.0
  0
LINE
  5
9F49
330
1F
100
AcDbEntity
  8
0
100
AcDbLine
 10
88.17480898962994
 20
1134.626038390978
 30
0.0
 11
89.2439588056534
 21
1133.85365337278
 31
0.0
  0
LINE
  5
9F4A
330
1F
100
AcDbEntity
  8
0
100
AcDbLine
 10
89.2439588056534
 20
1132.25365337278
 30
0.0
 11
88.17480898962994
 21
1131.426038390978
 31
0.0
  0
LINE
  5
9F4B
330
1F
100
AcDbEntity
  8
0
100
AcDbLine
 10
88.17480898962994
 20
1131.426038390978
 30
0.0
 11
89.2439588056534
 21
1130.65365337278
 31
0.0
  0
LINE
  5
9F4C
330
1F
100
AcDbEntity
  8
0
100
AcDbLine
 10
89.2439588056534
 20
1130.65365337278
 30
0.0
 11
88.17480898962994
 21
1129.826038390978
 31
0.0
  0
LINE
  5
9F4D
330
1F
100
AcDbEntity
  8
0
100
AcDbLine
 10
88.17480898962994
 20
1129.826038390978
 30
0.0
 11
89.2439588056534
 21
1129.05365337278
 31
0.0
  0
LINE
  5
9F4E
330
1F
100
AcDbEntity
  8
0
100
AcDbLine
 10
89.2439588056534
 20
1129.05365337278
 30
0.0
 11
88.17480898962994
 21
1128.226038390978
 31
0.0
  0
LINE
  5
9F4F
330
1F
100
AcDbEntity
  8
0
100
AcDbLine
 10
88.17480898962994
 20
1128.226038390978
 30
0.0
 11
89.2439588056534
 21
1127.45365337278
 31
0.0
  0
LINE
  5
9F50
330
1F
100
AcDbEntity
  8
0
100
AcDbLine
 10
89.2439588056534
 20
1127.45365337278
 30
0.0
 11
88.17480898962994
 21
1126.626038390978
 31
0.0
  0
LINE
  5
9F51
330
1F
100
AcDbEntity
  8
0
100
AcDbLine
 10
88.17480898962994
 20
1126.626038390978
 30
0.0
 11
89.2439588056534
 21
1125.85365337278
 31
0.0
  0
LINE
  5
9F52
330
1F
100
AcDbEntity
  8
0
100
AcDbLine
 10
89.2439588056534
 20
1125.85365337278
 30
0.0
 11
88.17480898962994
 21
1125.026038390978
 31
0.0
  0
LINE
  5
9F53
330
1F
100
AcDbEntity
  8
0
100
AcDbLine
 10
89.2439588056534
 20
1124.25365337278
 30
0.0
 11
88.17480898962994
 21
1123.426038390978
 31
0.0
  0
LINE
  5
9F54
330
1F
100
AcDbEntity
  8
0
100
AcDbLine
 10
88.17480898962994
 20
1125.026038390978
 30
0.0
 11
89.2439588056534
 21
1124.25365337278
 31
0.0
  0
LINE
  5
9F55
330
1F
100
AcDbEntity
  8
0
100
AcDbLine
 10
88.17480898962994
 20
1133.026038390978
 30
0.0
 11
89.2439588056534
 21
1132.25365337278
 31
0.0
  0
LINE
  5
9F56
330
1F
100
AcDbEntity
  8
0
100
AcDbLine
 10
89.2439588056534
 20
1133.85365337278
 30
0.0
 11
88.17480898962994
 21
1133.026038390978
 31
0.0
  0
LINE
  5
9F57
330
1F
100
AcDbEntity
  8
0
100
AcDbLine
 10
88.23894177107094
 20
1123.278112040081
 30
0.0
 11
88.2358382433788
 21
1123.427307903249
 31
0.0
  0
LINE
  5
9F58
330
1F
100
AcDbEntity
  8
0
100
AcDbLine
 10
88.65141774654006
 20
1142.281722320525
 30
0.0
 11
89.2439588056534
 21
1141.85365337278
 31
0.0
  0
LINE
  5
9F59
330
1F
100
AcDbEntity
  8
0
 62
     0
 48
0.5
100
AcDbLine
 10
88.62028748733134
 20
1138.170877508231
 30
0.0
 11
89.2439588056534
 21
1138.65365337278
 31
0.0
  0
LINE
  5
9F5A
330
1F
100
AcDbEntity
  8
0
100
AcDbLine
 10
88.17480898962994
 20
1139.426038390978
 30
0.0
 11
89.2439588056534
 21
1138.65365337278
 31
0.0
  0
LINE
  5
9F5B
330
1F
100
AcDbEntity
  8
0
100
AcDbLine
 10
89.2439588056534
 20
1140.25365337278
 30
0.0
 11
88.17480898962994
 21
1139.426038390978
 31
0.0
  0
LINE
  5
9F5C
330
1F
100
AcDbEntity
  8
0
100
AcDbLine
 10
88.17480898962994
 20
1141.026038390978
 30
0.0
 11
89.2439588056534
 21
1140.25365337278
 31
0.0
  0
LINE
  5
9F5D
330
1F
100
AcDbEntity
  8
0
100
AcDbLine
 10
89.2439588056534
 20
1141.85365337278
 30
0.0
 11
88.17480898962994
 21
1141.026038390978
 31
0.0
  0
LINE
  5
9F5E
330
1F
100
AcDbEntity
  8
0
 62
     0
 48
0.5
100
AcDbLine
 10
15.3406331865117
 20
1109.033719709974
 30
0.0
 11
15.3406331865117
 21
1112.600527906308
 31
0.0
  0
LINE
  5
9F5F
330
1F
100
AcDbEntity
  8
0
 62
     0
 48
0.5
100
AcDbLine
 10
24.82185197357525
 20
1109.033719709974
 30
0.0
 11
24.82185197357525
 21
1112.600527906308
 31
0.0
  0
LINE
  5
9F60
330
1F
100
AcDbEntity
  8
0
 62
     0
 48
0.5
100
AcDbLine
 10
79.92775055453013
 20
1109.033719709974
 30
0.0
 11
79.92775055453013
 21
1112.600527906308
 31
0.0
  0
LINE
  5
9F61
330
1F
100
AcDbEntity
  8
0
 62
     0
 48
0.5
100
AcDbLine
 10
89.40896934159367
 20
1109.033719709974
 30
0.0
 11
89.40896934159367
 21
1112.600527906308
 31
0.0
  0
DIMENSION
  5
9F62
330
1F
100
AcDbEntity
  8
0
 62
     0
 48
0.5
100
AcDbDimension
  2
*D8
 10
1.508165911900048
 20
1123.278112040081
 30
0.0
 11
-3.491834088100131
 21
1135.777871451298
 31
0.0
 70
    33
 71
     5
 42
24.99951882243431
  3
ISO-25
100
AcDbAlignedDimension
 13
17.23103957548792
 23
1148.277630862515
 33
0.0
 14
17.23103957548791
 24
1123.278112040081
 34
0.0
  0
MTEXT
  5
9F6F
330
1F
100
AcDbEntity
  8
0
 62
     0
 48
0.5
100
AcDbMText
 10
30.2368176985392
 20
1187.629292692186
 30
0.0
 40
6.0
 41
74.8862
 71
     1
 72
     5
  1
\P %%c1.5用
 73
     1
 44
1.0
  0
MTEXT
  5
9F70
330
1F
100
AcDbEntity
  8
0
 62
     0
 48
0.5
100
AcDbMText
 10
226.1884681904273
 20
1187.629292692186
 30
0.0
 40
6.0
 41
74.8862
 71
     1
 72
     5
  1
\P %%c3.0用
 73
     1
 44
1.0
  0
LINE
  5
9FBB
330
1F
100
AcDbEntity
  8
0
 62
     0
 48
0.5
100
AcDbLine
 10
407.4771475274943
 20
1138.808549916502
 30
0.0
 11
407.4771475274943
 21
1168.808549916502
 31
0.0
  0
VIEWPORT
  5
2F
330
1B
100
AcDbEntity
 67
     1
  8
0
100
AcDbViewport
 10
210.8645862540714
 20
149.7815185269692
 30
0.0
 40
479.1862016322689
 41
324.9607266531437
 68
     1
 69
     1
 12
210.8645862540714
 22
149.7815185269692
 13
0.0
 23
0.0
 14
10.0
 24
10.0
 15
10.0
 25
10.0
 16
0.0
 26
0.0
 36
1.0
 17
0.0
 27
0.0
 37
0.0
 42
50.0
 43
0.0
 44
0.0
 45
324.9607266531437
 50
0.0
 51
0.0
 72
   100
 90
    32800
  1

281
     0
 71
     1
 74
     0
110
0.0
120
0.0
130
0.0
111
1.0
121
0.0
131
0.0
112
0.0
122
1.0
132
0.0
 79
     0
146
0.0
  0
LWPOLYLINE
  5
AA
330
1B
100
AcDbEntity
 67
     1
  8
２
 62
     0
100
AcDbPolyline
 90
        4
 70
     1
 43
0.0
 10
1.042221639059562
 20
284.1844718556203
 10
407.757958684845
 20
284.1844718556203
 10
407.757958684845
 20
1.08829855961801
 10
1.042221639059562
 20
1.08829855961801
  0
MTEXT
  5
DC
330
1B
100
AcDbEntity
 67
     1
  8
２
 62
     0
100
AcDbMText
 10
275.257958684845
 20
4.588298559618024
 30
0.0
 40
3.0
 41
55.0
 71
     5
 72
     5
  1
{\fMS UI Gothic|b0|i0|c128|p50;株式会社 アルティマ}
 73
     1
 44
1.0
  0
LINE
  5
DD
330
1B
100
AcDbEntity
 67
     1
  8
２
 62
     0
100
AcDbLine
 10
262.757958684845
 20
8.088298559618039
 30
0.0
 11
302.757958684845
 21
8.088298559618039
 31
0.0
  0
LINE
  5
DE
330
1B
100
AcDbEntity
 67
     1
  8
２
 62
     0
100
AcDbLine
 10
342.7579586848451
 20
23.08829855961798
 30
0.0
 11
247.757958684845
 21
23.08829855961792
 31
0.0
  0
LINE
  5
DF
330
1B
100
AcDbEntity
 67
     1
  8
２
 62
     0
100
AcDbLine
 10
247.7579586848449
 20
18.08829855961798
 30
0.0
 11
342.7579586848451
 21
18.08829855961798
 31
0.0
  0
LINE
  5
E0
330
1B
100
AcDbEntity
 67
     1
  8
２
 62
     0
100
AcDbLine
 10
342.7579586848451
 20
13.08829855961801
 30
0.0
 11
247.7579586848451
 21
13.08829855961798
 31
0.0
  0
LINE
  5
E1
330
1B
100
AcDbEntity
 67
     1
  8
２
 62
     0
100
AcDbLine
 10
352.757958684845
 20
8.08829855961801
 30
0.0
 11
252.8023834435082
 21
8.088298559618039
 31
0.0
  0
LINE
  5
E2
330
1B
100
AcDbEntity
 67
     1
  8
２
 62
     0
100
AcDbLine
 10
407.7579586848449
 20
28.08829855961801
 30
0.0
 11
247.7579586848449
 21
28.08829855961803
 31
0.0
  0
MTEXT
  5
E3
330
1B
100
AcDbEntity
 67
     1
  8
２
 62
     0
100
AcDbMText
 10
255.2579586848449
 20
25.58829855961798
 30
0.0
 40
2.0
 41
15.0
 71
     5
 72
     5
  1
{\fMS UI Gothic|b0|i0|c128|p50;パーツ}
 73
     1
 44
1.0
  0
LINE
  5
E4
330
1B
100
AcDbEntity
 67
     1
  8
２
 62
     0
100
AcDbLine
 10
247.7579586848449
 20
8.088298559618039
 30
0.0
 11
262.757958684845
 21
8.088298559618039
 31
0.0
  0
LINE
  5
E5
330
1B
100
AcDbEntity
 67
     1
  8
２
 62
     0
100
AcDbLine
 10
247.7579586848451
 20
13.08829855961798
 30
0.0
 11
247.7579586848449
 21
18.08829855961798
 31
0.0
  0
LINE
  5
E6
330
1B
100
AcDbEntity
 67
     1
  8
２
 62
     0
100
AcDbLine
 10
247.7579586848449
 20
28.08829855961803
 30
0.0
 11
247.7579586848449
 21
9.237389132921862
 31
0.0
  0
LINE
  5
E7
330
1B
100
AcDbEntity
 67
     1
  8
２
 62
     0
100
AcDbLine
 10
247.7579586848449
 20
9.237389132921862
 30
0.0
 11
247.7579586848449
 21
1.088298559618039
 31
0.0
  0
LINE
  5
E8
330
1B
100
AcDbEntity
 67
     1
  8
２
 62
     0
100
AcDbLine
 10
262.757958684845
 20
8.088298559618039
 30
0.0
 11
262.757958684845
 21
28.08829855961803
 31
0.0
  0
LINE
  5
EC
330
1B
100
AcDbEntity
 67
     1
  8
２
 62
     0
100
AcDbLine
 10
407.757958684845
 20
8.08829855961801
 30
0.0
 11
352.757958684845
 21
8.08829855961801
 31
0.0
  0
MTEXT
  5
ED
330
1B
100
AcDbEntity
 67
     1
  8
２
 62
     0
 48
0.3
100
AcDbMText
 10
317.7579586848451
 20
4.370495529314986
 30
0.0
 40
2.0
 41
20.0
 71
     5
 72
     5
  1
E.Nomura
 73
     1
 44
1.0
  0
MTEXT
  5
EE
330
1B
100
AcDbEntity
 67
     1
  8
２
 62
     0
100
AcDbMText
 10
322.7579586848449
 20
25.588298559618
 30
0.0
 40
2.0
 41
40.0
 71
     5
 72
     5
  1
{\fMS UI Gothic|b0|i0|c128|p50;処　　　理}
 73
     1
 44
1.0
  0
LINE
  5
EF
330
1B
100
AcDbEntity
 67
     1
  8
２
 62
     0
100
AcDbLine
 10
327.757958684845
 20
1.08829855961801
 30
0.0
 11
307.7579586848451
 21
1.08829855961801
 31
0.0
  0
MTEXT
  5
F0
330
1B
100
AcDbEntity
 67
     1
  8
２
 62
     0
100
AcDbMText
 10
282.7579586848449
 20
25.58829855961799
 30
0.0
 40
2.0
 41
40.0
 71
     5
 72
     5
  1
{\fMS UI Gothic|b0|i0|c128|p50;材　　　質}
 73
     1
 44
1.0
  0
LINE
  5
F1
330
1B
100
AcDbEntity
 67
     1
  8
２
 62
     0
100
AcDbLine
 10
302.757958684845
 20
8.088298559618039
 30
0.0
 11
302.757958684845
 21
28.08829855961803
 31
0.0
  0
MTEXT
  5
F2
330
1B
100
AcDbEntity
 67
     1
  8
２
 62
     0
100
AcDbMText
 10
305.2690710641766
 20
4.588298559618021
 30
0.0
 40
2.0
 41
4.9778
 71
     5
 72
     5
  1
{\fMS UI Gothic|b0|i0|c128|p50;製\P図}
 73
     1
 44
1.0
  0
LINE
  5
F3
330
1B
100
AcDbEntity
 67
     1
  8
２
 62
     0
100
AcDbLine
 10
302.757958684845
 20
8.088298559618039
 30
0.0
 11
302.757958684845
 21
1.08829855961801
 31
0.0
  0
LINE
  5
F4
330
1B
100
AcDbEntity
 67
     1
  8
２
 62
     0
100
AcDbLine
 10
307.7579586848451
 20
1.08829855961801
 30
0.0
 11
307.7579586848451
 21
8.08829855961801
 31
0.0
  0
LINE
  5
F5
330
1B
100
AcDbEntity
 67
     1
  8
２
 62
     0
100
AcDbLine
 10
307.7579586848451
 20
8.08829855961801
 30
0.0
 11
302.757958684845
 21
8.088298559618039
 31
0.0
  0
MTEXT
  5
F6
330
1B
100
AcDbEntity
 67
     1
  8
２
 62
     0
100
AcDbMText
 10
347.7579586848451
 20
18.08829855961802
 30
0.0
 40
2.5
 41
10.0
 71
     5
 72
     5
  1
{\fMS UI Gothic|b0|i0|c128|p50;品\P\P名}
 73
     1
 44
1.0
  0
MTEXT
  5
F7
330
1B
100
AcDbEntity
 67
     1
  8
２
 62
     0
100
AcDbMText
 10
347.7579586848451
 20
4.588298559618021
 30
0.0
 40
2.0
 41
10.0
 71
     5
 72
     5
  1
{\fMS UI Gothic|b0|i0|c128|p50;品番}
 73
     1
 44
1.0
  0
LINE
  5
F8
330
1B
100
AcDbEntity
 67
     1
  8
２
 62
     0
100
AcDbLine
 10
342.7579586848451
 20
28.08829855961801
 30
0.0
 11
352.757958684845
 21
28.08829855961801
 31
0.0
  0
LINE
  5
F9
330
1B
100
AcDbEntity
 67
     1
  8
２
 62
     0
100
AcDbLine
 10
352.757958684845
 20
1.08829855961801
 30
0.0
 11
342.7579586848451
 21
1.08829855961801
 31
0.0
  0
LINE
  5
FA
330
1B
100
AcDbEntity
 67
     1
  8
２
 62
     0
100
AcDbLine
 10
342.7579586848451
 20
1.08829855961801
 30
0.0
 11
342.7579586848451
 21
28.08829855961801
 31
0.0
  0
LINE
  5
FB
330
1B
100
AcDbEntity
 67
     1
  8
２
 62
     0
100
AcDbLine
 10
342.7579586848451
 20
1.08829855961801
 30
0.0
 11
332.7579586848451
 21
1.08829855961801
 31
0.0
  0
MTEXT
  5
FC
330
1B
100
AcDbEntity
 67
     1
  8
２
 62
     0
100
AcDbMText
 10
330.2579586848451
 20
4.588298559618017
 30
0.0
 40
2.0
 41
5.0
 71
     5
 72
     5
  1
{\fMS UI Gothic|b0|i0|c128|p50;縮\P尺}
 73
     1
 44
1.0
  0
LINE
  5
FD
330
1B
100
AcDbEntity
 67
     1
  8
２
 62
     0
100
AcDbLine
 10
327.757958684845
 20
8.08829855961801
 30
0.0
 11
327.757958684845
 21
1.08829855961801
 31
0.0
  0
LINE
  5
FE
330
1B
100
AcDbEntity
 67
     1
  8
２
 62
     0
100
AcDbLine
 10
332.7579586848451
 20
1.08829855961801
 30
0.0
 11
332.7579586848451
 21
8.08829855961801
 31
0.0
  0
LINE
  5
FF
330
1B
100
AcDbEntity
 67
     1
  8
２
 62
     0
100
AcDbLine
 10
332.7579586848451
 20
8.08829855961801
 30
0.0
 11
327.757958684845
 21
8.08829855961801
 31
0.0
  0
LINE
  5
100
330
1B
100
AcDbEntity
 67
     1
  8
２
 62
     0
100
AcDbLine
 10
342.7579586848451
 20
8.08829855961801
 30
0.0
 11
342.7579586848451
 21
13.08829855961801
 31
0.0
  0
LINE
  5
101
330
1B
100
AcDbEntity
 67
     1
  8
２
 62
     0
100
AcDbLine
 10
342.7579586848451
 20
18.08829855961798
 30
0.0
 11
342.7579586848451
 21
23.08829855961798
 31
0.0
  0
LINE
  5
102
330
1B
100
AcDbEntity
 67
     1
  8
２
 62
     0
100
AcDbLine
 10
352.757958684845
 20
28.08829855961801
 30
0.0
 11
352.757958684845
 21
8.08829855961801
 31
0.0
  0
LINE
  5
103
330
1B
100
AcDbEntity
 67
     1
  8
２
 62
     0
100
AcDbLine
 10
352.757958684845
 20
8.08829855961801
 30
0.0
 11
352.757958684845
 21
1.08829855961801
 31
0.0
  0
LINE
  5
104
330
1B
100
AcDbEntity
 67
     1
  8
２
 62
     0
100
AcDbLine
 10
407.757958684845
 20
1.08829855961801
 30
0.0
 11
407.7579586848449
 21
28.08829855961801
 31
0.0
  0
LINE
  5
105
330
1B
100
AcDbEntity
 67
     1
  8
２
 62
     0
100
AcDbLine
 10
407.757958684845
 20
1.08829855961801
 30
0.0
 11
407.757958684845
 21
8.08829855961801
 31
0.0
  0
LINE
  5
10E
330
1B
100
AcDbEntity
 67
     1
  8
２
 62
     0
 48
0.3
100
AcDbLine
 10
348.1319795129643
 20
277.1869416790318
 30
0.0
 11
407.82803226079
 21
277.1869416790318
 31
0.0
  0
LINE
  5
10F
330
1B
100
AcDbEntity
 67
     1
  8
２
 62
     0
 48
0.3
100
AcDbLine
 10
348.1319795129643
 20
277.1869416790318
 30
0.0
 11
348.1319795129643
 21
284.1844718556203
 31
0.0
  0
LINE
  5
111
330
1B
100
AcDbEntity
 67
     1
  8
２
 62
     0
 48
0.3
100
AcDbLine
 10
358.9855818391189
 20
284.1844718556203
 30
0.0
 11
358.9855818391189
 21
277.1869416790318
 31
0.0
  0
MTEXT
  5
112
330
1B
100
AcDbEntity
 67
     1
  8
２
 62
     0
100
AcDbMText
 10
255.2579586848451
 20
10.58829855961801
 30
0.0
 40
2.5
 41
15.0
 71
     5
 72
     5
  1
{\fMS UI Gothic|b0|i0|c128|p17;１}
 73
     1
 44
1.0
  0
MTEXT
  5
113
330
1B
100
AcDbEntity
 67
     1
  8
２
 62
     0
100
AcDbMText
 10
255.2579586848449
 20
15.58829855961798
 30
0.0
 40
2.5
 41
15.0
 71
     5
 72
     5
  1
{\fMS UI Gothic|b0|i0|c128|p17;２}
 73
     1
 44
1.0
  0
MTEXT
  5
114
330
1B
100
AcDbEntity
 67
     1
  8
２
 62
     0
100
AcDbMText
 10
255.257958684845
 20
20.58829855961795
 30
0.0
 40
2.5
 41
15.0
 71
     5
 72
     5
  1
{\fMS UI Gothic|b0|i0|c128|p17;３}
 73
     1
 44
1.0
  0
MTEXT
  5
115
330
1B
100
AcDbEntity
 67
     1
  8
２
 62
     0
100
AcDbMText
 10
353.5587795129643
 20
280.6857067673261
 30
0.0
 40
2.5
 41
10.8536
 71
     5
 72
     5
  1
{\fMS UI Gothic|b0|i0|c128|p17;日付}
 73
     1
 44
1.0
  0
MTEXT
  5
1DD
330
1B
100
AcDbEntity
 67
     1
  8
１
100
AcDbMText
 10
187.6389970102438
 20
148.8327383458293
 30
0.0
 40
2.5
 41
0.0
 71
     9
 72
     1
  1

  7
ｽﾀｲﾙ1
 73
     1
 44
1.0
  0
MTEXT
  5
1DF
330
1B
100
AcDbEntity
 67
     1
  8
１
100
AcDbMText
 10
125.9251163363451
 20
100.1557259194321
 30
0.0
 40
2.5
 41
0.0
 71
     9
 72
     1
  1

  7
ｽﾀｲﾙ1
 73
     1
 44
1.0
  0
MTEXT
  5
1F5
330
1B
100
AcDbEntity
 67
     1
  8
１
100
AcDbMText
 10
95.93852678293661
 20
241.1781167614512
 30
0.0
 40
2.5
 41
0.0
 71
     1
 72
     1
  1

  7
ｽﾀｲﾙ1
 73
     1
 44
1.0
  0
MTEXT
  5
1F7
330
1B
100
AcDbEntity
 67
     1
  8
１
100
AcDbMText
 10
103.8845037960281
 20
221.796204377297
 30
0.0
 40
2.5
 41
0.0
 71
     1
 72
     1
  1

  7
ｽﾀｲﾙ1
 73
     1
 44
1.0
  0
ENDSEC
  0
SECTION
  2
OBJECTS
  0
DICTIONARY
  5
C
330
0
100
AcDbDictionary
281
     1
  3
ACAD_GROUP
350
D
  3
ACAD_IMAGE_VARS
350
2B
  3
ACAD_LAYOUT
350
1A
  3
ACAD_MLINESTYLE
350
17
  3
ACAD_PLOTSETTINGS
350
19
  3
ACAD_PLOTSTYLENAME
350
E
  3
AcadDim
350
9BE1
  3
AcDbVariableDictionary
350
65AD
  3
DWGPROPS
350
7E1
  0
DICTIONARY
  5
D
102
{ACAD_REACTORS
330
C
102
}
330
C
100
AcDbDictionary
281
     1
  0
RASTERVARIABLES
  5
2B
102
{ACAD_REACTORS
330
C
102
}
330
C
100
AcDbRasterVariables
 90
        0
 70
     1
 71
     1
 72
     1
  0
DICTIONARY
  5
1A
102
{ACAD_REACTORS
330
C
102
}
330
C
100
AcDbDictionary
281
     1
  3
Model
350
22
  3
ﾚｲｱｳﾄ1
350
1E
  3
ﾚｲｱｳﾄ2
350
26
  0
DICTIONARY
  5
17
102
{ACAD_REACTORS
330
C
102
}
330
C
100
AcDbDictionary
281
     1
  3
Standard
350
18
  0
DICTIONARY
  5
19
102
{ACAD_REACTORS
330
C
102
}
330
C
100
AcDbDictionary
281
     1
  0
ACDBDICTIONARYWDFLT
  5
E
102
{ACAD_REACTORS
330
C
102
}
330
C
100
AcDbDictionary
281
     1
  3
Normal
350
F
100
AcDbDictionaryWithDefault
340
F
  0
XRECORD
  5
9BE1
102
{ACAD_REACTORS
330
C
102
}
330
C
100
AcDbXrecord
280
     1
 90
   990106
  3

 60
     0
 61
     0
 62
     1
 63
     3
 64
     0
 65
     0
 66
     0
 67
     3
 68
     1
 69
     0
 70
     0
 71
     0
 72
     0
 40
20.43801309868158
170
     0
340
9EC9
  0
DICTIONARY
  5
65AD
102
{ACAD_REACTORS
330
C
102
}
330
C
100
AcDbDictionary
281
     1
  3
SORTENTS
350
65AE
  0
XRECORD
  5
7E1
102
{ACAD_REACTORS
330
C
102
}
330
C
100
AcDbXrecord
280
     1
  1
DWGPROPS COOKIE
  2

  3

  4

  6

  7

  8

  9

300
=
301
=
302
=
303
=
304
=
305
=
306
=
307
=
308
=
309
=
 40
0.1525764814814815
 41
2454873.622250069
 42
2455268.41966037
  1

 90
        0
  0
LAYOUT
  5
22
102
{ACAD_REACTORS
330
1A
102
}
330
1A
100
AcDbPlotSettings
  1

  2
RICOH IPSiO G515
  4
A3
  6

 40
5.873749732971191
 41
5.873747825622558
 42
5.873748779296875
 43
5.873748779296875
 44
296.9259948730469
 45
419.9466552734374
 46
0.0
 47
0.0
 48
0.0
 49
0.0
140
0.0
141
0.0
142
1.0
143
1.959971811730723
 70
 11952
 72
     1
 73
     1
 74
     1
  7

 75
     0
147
0.5102114193759578
148
117.6657051803588
149
-817.5266692991444
100
AcDbLayout
  1
Model
 70
     1
 71
     0
 10
0.0
 20
0.0
 11
12.0
 21
9.0
 12
0.0
 22
0.0
 32
0.0
 14
0.0
 24
0.0
 34
0.0
 15
0.0
 25
0.0
 35
0.0
146
0.0
 13
0.0
 23
0.0
 33
0.0
 16
1.0
 26
0.0
 36
0.0
 17
0.0
 27
1.0
 37
0.0
 76
     0
330
1F
  0
LAYOUT
  5
1E
102
{ACAD_REACTORS
330
1A
102
}
330
1A
100
AcDbPlotSettings
  1

  2
RICOH imagio MP C3500 RPCS
  4
A3
  6

 40
5.873749732971191
 41
5.873747825622558
 42
5.873748779296875
 43
5.873748779296875
 44
296.9259948730469
 45
419.9466552734374
 46
0.0
 47
0.0
 48
0.0
 49
0.0
140
0.0
141
0.0
142
1.0
143
1.0
 70
   688
 72
     1
 73
     1
 74
     5
  7

 75
    16
147
1.0
148
0.0
149
0.0
100
AcDbLayout
  1
ﾚｲｱｳﾄ1
 70
     1
 71
     1
 10
-5.873748779296875
 20
-5.873749732971191
 11
414.0729064941406
 21
291.0522451400757
 12
0.0
 22
0.0
 32
0.0
 14
1.042221639059562
 24
1.08829855961801
 34
0.0
 15
407.82803226079
 25
284.1844718556203
 35
0.0
146
0.0
 13
0.0
 23
0.0
 33
0.0
 16
1.0
 26
0.0
 36
0.0
 17
0.0
 27
1.0
 37
0.0
 76
     0
330
1B
331
2F
  0
LAYOUT
  5
26
102
{ACAD_REACTORS
330
1A
102
}
330
1A
100
AcDbPlotSettings
  1

  2
RICOH imagio Neo C380 RPCS
  4

  6

 40
0.0
 41
0.0
 42
0.0
 43
0.0
 44
0.0
 45
0.0
 46
0.0
 47
0.0
 48
0.0
 49
0.0
140
0.0
141
0.0
142
1.0
143
1.0
 70
   688
 72
     0
 73
     1
 74
     5
  7

 75
    16
147
1.0
148
0.0
149
0.0
100
AcDbLayout
  1
ﾚｲｱｳﾄ2
 70
     1
 71
     2
 10
0.0
 20
0.0
 11
0.0
 21
0.0
 12
0.0
 22
0.0
 32
0.0
 14
0.0
 24
0.0
 34
0.0
 15
0.0
 25
0.0
 35
0.0
146
0.0
 13
0.0
 23
0.0
 33
0.0
 16
1.0
 26
0.0
 36
0.0
 17
0.0
 27
1.0
 37
0.0
 76
     0
330
23
331
922
  0
MLINESTYLE
  5
18
102
{ACAD_REACTORS
330
17
102
}
330
17
100
AcDbMlineStyle
  2
STANDARD
 70
     0
  3

 62
   256
 51
90.0
 52
90.0
 71
     2
 49
0.5
 62
   256
  6
BYLAYER
 49
-0.5
 62
   256
  6
BYLAYER
  0
ACDBPLACEHOLDER
  5
F
102
{ACAD_REACTORS
330
E
102
}
330
E
  0
DICTIONARYVAR
  5
65AE
102
{ACAD_REACTORS
330
65AD
102
}
330
65AD
100
DictionaryVariables
280
     0
  1
96
  0
ENDSEC
  0
EOF
