  0
SECTION
  2
HEADER
  9
$ACADVER
  1
AC1015
  9
$ACADMAINTVER
 70
     6
  9
$DWGCODEPAGE
  3
ANSI_932
  9
$INSBASE
 10
0.0
 20
0.0
 30
0.0
  9
$EXTMIN
 10
1.000000000000000E+20
 20
1.000000000000000E+20
 30
1.000000000000000E+20
  9
$EXTMAX
 10
-1.000000000000000E+20
 20
-1.000000000000000E+20
 30
-1.000000000000000E+20
  9
$LIMMIN
 10
0.0
 20
0.0
  9
$LIMMAX
 10
420.0
 20
297.0
  9
$ORTHOMODE
 70
     0
  9
$REGENMODE
 70
     1
  9
$FILLMODE
 70
     1
  9
$QTEXTMODE
 70
     0
  9
$MIRRTEXT
 70
     1
  9
$LTSCALE
 40
1.0
  9
$ATTMODE
 70
     1
  9
$TEXTSIZE
 40
2.5
  9
$TRACEWID
 40
1.0
  9
$TEXTSTYLE
  7
Standard
  9
$CLAYER
  8
0
  9
$CELTYPE
  6
ByLayer
  9
$CECOLOR
 62
   256
  9
$CELTSCALE
 40
1.0
  9
$DISPSILH
 70
     0
  9
$DIMSCALE
 40
1.0
  9
$DIMASZ
 40
2.0
  9
$DIMEXO
 40
0.625
  9
$DIMDLI
 40
3.75
  9
$DIMRND
 40
0.0
  9
$DIMDLE
 40
0.0
  9
$DIMEXE
 40
1.25
  9
$DIMTP
 40
0.0
  9
$DIMTM
 40
0.0
  9
$DIMTXT
 40
3.0
  9
$DIMCEN
 40
2.5
  9
$DIMTSZ
 40
0.0
  9
$DIMTOL
 70
     0
  9
$DIMLIM
 70
     0
  9
$DIMTIH
 70
     0
  9
$DIMTOH
 70
     0
  9
$DIMSE1
 70
     0
  9
$DIMSE2
 70
     0
  9
$DIMTAD
 70
     1
  9
$DIMZIN
 70
     8
  9
$DIMBLK
  1

  9
$DIMASO
 70
     1
  9
$DIMSHO
 70
     1
  9
$DIMPOST
  1

  9
$DIMAPOST
  1

  9
$DIMALT
 70
     0
  9
$DIMALTD
 70
     3
  9
$DIMALTF
 40
0.03937007874016
  9
$DIMLFAC
 40
1.0
  9
$DIMTOFL
 70
     1
  9
$DIMTVP
 40
0.0
  9
$DIMTIX
 70
     0
  9
$DIMSOXD
 70
     0
  9
$DIMSAH
 70
     0
  9
$DIMBLK1
  1

  9
$DIMBLK2
  1

  9
$DIMSTYLE
  2
ISO-25
  9
$DIMCLRD
 70
     0
  9
$DIMCLRE
 70
     7
  9
$DIMCLRT
 70
     0
  9
$DIMTFAC
 40
1.0
  9
$DIMGAP
 40
0.625
  9
$DIMJUST
 70
     0
  9
$DIMSD1
 70
     0
  9
$DIMSD2
 70
     0
  9
$DIMTOLJ
 70
     0
  9
$DIMTZIN
 70
     8
  9
$DIMALTZ
 70
     0
  9
$DIMALTTZ
 70
     0
  9
$DIMUPT
 70
     0
  9
$DIMDEC
 70
     2
  9
$DIMTDEC
 70
     2
  9
$DIMALTU
 70
     2
  9
$DIMALTTD
 70
     3
  9
$DIMTXSTY
  7
Standard
  9
$DIMAUNIT
 70
     0
  9
$DIMADEC
 70
     0
  9
$DIMALTRND
 40
0.0
  9
$DIMAZIN
 70
     0
  9
$DIMDSEP
 70
    46
  9
$DIMATFIT
 70
     3
  9
$DIMFRAC
 70
     0
  9
$DIMLDRBLK
  1

  9
$DIMLUNIT
 70
     2
  9
$DIMLWD
 70
    -2
  9
$DIMLWE
 70
     9
  9
$DIMTMOVE
 70
     0
  9
$LUNITS
 70
     2
  9
$LUPREC
 70
     4
  9
$SKETCHINC
 40
1.0
  9
$FILLETRAD
 40
10.0
  9
$AUNITS
 70
     0
  9
$AUPREC
 70
     0
  9
$MENU
  1
.
  9
$ELEVATION
 40
0.0
  9
$PELEVATION
 40
0.0
  9
$THICKNESS
 40
0.0
  9
$LIMCHECK
 70
     0
  9
$CHAMFERA
 40
10.0
  9
$CHAMFERB
 40
10.0
  9
$CHAMFERC
 40
20.0
  9
$CHAMFERD
 40
0.0
  9
$SKPOLY
 70
     0
  9
$TDCREATE
 40
2454873.622250069
  9
$TDUCREATE
 40
2454873.247250069
  9
$TDUPDATE
 40
2459116.703075093
  9
$TDUUPDATE
 40
2459116.328075092
  9
$TDINDWG
 40
0.1747753588
  9
$TDUSRTIMER
 40
0.1747753588
  9
$USRTIMER
 70
     1
  9
$ANGBASE
 50
0.0
  9
$ANGDIR
 70
     0
  9
$PDMODE
 70
     0
  9
$PDSIZE
 40
0.0
  9
$PLINEWID
 40
0.0
  9
$SPLFRAME
 70
     0
  9
$SPLINETYPE
 70
     6
  9
$SPLINESEGS
 70
     8
  9
$HANDSEED
  5
11C8
  9
$SURFTAB1
 70
     6
  9
$SURFTAB2
 70
     6
  9
$SURFTYPE
 70
     6
  9
$SURFU
 70
     6
  9
$SURFV
 70
     6
  9
$UCSBASE
  2

  9
$UCSNAME
  2

  9
$UCSORG
 10
0.0
 20
0.0
 30
0.0
  9
$UCSXDIR
 10
1.0
 20
0.0
 30
0.0
  9
$UCSYDIR
 10
0.0
 20
1.0
 30
0.0
  9
$UCSORTHOREF
  2

  9
$UCSORTHOVIEW
 70
     0
  9
$UCSORGTOP
 10
0.0
 20
0.0
 30
0.0
  9
$UCSORGBOTTOM
 10
0.0
 20
0.0
 30
0.0
  9
$UCSORGLEFT
 10
0.0
 20
0.0
 30
0.0
  9
$UCSORGRIGHT
 10
0.0
 20
0.0
 30
0.0
  9
$UCSORGFRONT
 10
0.0
 20
0.0
 30
0.0
  9
$UCSORGBACK
 10
0.0
 20
0.0
 30
0.0
  9
$PUCSBASE
  2

  9
$PUCSNAME
  2

  9
$PUCSORG
 10
0.0
 20
0.0
 30
0.0
  9
$PUCSXDIR
 10
1.0
 20
0.0
 30
0.0
  9
$PUCSYDIR
 10
0.0
 20
1.0
 30
0.0
  9
$PUCSORTHOREF
  2

  9
$PUCSORTHOVIEW
 70
     0
  9
$PUCSORGTOP
 10
0.0
 20
0.0
 30
0.0
  9
$PUCSORGBOTTOM
 10
0.0
 20
0.0
 30
0.0
  9
$PUCSORGLEFT
 10
0.0
 20
0.0
 30
0.0
  9
$PUCSORGRIGHT
 10
0.0
 20
0.0
 30
0.0
  9
$PUCSORGFRONT
 10
0.0
 20
0.0
 30
0.0
  9
$PUCSORGBACK
 10
0.0
 20
0.0
 30
0.0
  9
$USERI1
 70
     0
  9
$USERI2
 70
     0
  9
$USERI3
 70
     0
  9
$USERI4
 70
     0
  9
$USERI5
 70
     0
  9
$USERR1
 40
0.0
  9
$USERR2
 40
0.0
  9
$USERR3
 40
0.0
  9
$USERR4
 40
0.0
  9
$USERR5
 40
0.0
  9
$WORLDVIEW
 70
     1
  9
$SHADEDGE
 70
     3
  9
$SHADEDIF
 70
    70
  9
$TILEMODE
 70
     0
  9
$MAXACTVP
 70
    64
  9
$PINSBASE
 10
0.0
 20
0.0
 30
0.0
  9
$PLIMCHECK
 70
     0
  9
$PEXTMIN
 10
1.042221639059562
 20
1.08829855961801
 30
0.0
  9
$PEXTMAX
 10
407.757958684845
 20
284.1844718556203
 30
0.0
  9
$PLIMMIN
 10
-5.873748779296875
 20
-5.873749732971191
  9
$PLIMMAX
 10
414.0729064941406
 20
291.0522451400757
  9
$UNITMODE
 70
     0
  9
$VISRETAIN
 70
     1
  9
$PLINEGEN
 70
     0
  9
$PSLTSCALE
 70
     1
  9
$TREEDEPTH
 70
  3020
  9
$CMLSTYLE
  2
Standard
  9
$CMLJUST
 70
     0
  9
$CMLSCALE
 40
20.0
  9
$PROXYGRAPHICS
 70
     1
  9
$MEASUREMENT
 70
     1
  9
$CELWEIGHT
370
    -1
  9
$ENDCAPS
280
     0
  9
$JOINSTYLE
280
     0
  9
$LWDISPLAY
290
     0
  9
$INSUNITS
 70
     4
  9
$HYPERLINKBASE
  1

  9
$STYLESHEET
  1

  9
$XEDIT
290
     1
  9
$CEPSNTYPE
380
     0
  9
$PSTYLEMODE
290
     1
  9
$FINGERPRINTGUID
  2
{951E45A9-2098-449B-99F4-687C375CF490}
  9
$VERSIONGUID
  2
{9CA00429-2746-47E3-8122-F4477423FA49}
  9
$EXTNAMES
290
     1
  9
$PSVPSCALE
 40
0.0
  9
$OLESTARTUP
290
     0
  0
ENDSEC
  0
SECTION
  2
CLASSES
  0
CLASS
  1
ACDBDICTIONARYWDFLT
  2
AcDbDictionaryWithDefault
  3
AutoCAD 2000
 90
        0
280
     0
281
     0
  0
CLASS
  1
ACDBPLACEHOLDER
  2
AcDbPlaceHolder
  3
AutoCAD 2000
 90
        0
280
     0
281
     0
  0
CLASS
  1
LAYOUT
  2
AcDbLayout
  3
AutoCAD 2000
 90
        0
280
     0
281
     0
  0
CLASS
  1
RASTERVARIABLES
  2
AcDbRasterVariables
  3
ISM
 90
        0
280
     0
281
     0
  0
ENDSEC
  0
SECTION
  2
TABLES
  0
TABLE
  2
VPORT
  5
8
330
0
100
AcDbSymbolTable
 70
     1
  0
VPORT
  5
499
330
8
100
AcDbSymbolTableRecord
100
AcDbViewportTableRecord
  2
*Active
 70
     0
 10
0.0
 20
0.0
 11
1.0
 21
1.0
 12
220.9969276907449
 22
172.7619420735345
 13
0.0
 23
0.0
 14
10.0
 24
10.0
 15
10.0
 25
10.0
 16
0.0
 26
0.0
 36
1.0
 17
0.0
 27
0.0
 37
0.0
 40
274.9023805563505
 41
1.478908188585607
 42
50.0
 43
0.0
 44
0.0
 50
0.0
 51
0.0
 71
     0
 72
   100
 73
     1
 74
     3
 75
     0
 76
     0
 77
     0
 78
     0
281
     0
 65
     1
110
0.0
120
0.0
130
0.0
111
1.0
121
0.0
131
0.0
112
0.0
122
1.0
132
0.0
 79
     0
146
0.0
  0
ENDTAB
  0
TABLE
  2
LTYPE
  5
5
330
0
100
AcDbSymbolTable
 70
     5
  0
LTYPE
  5
14
330
5
100
AcDbSymbolTableRecord
100
AcDbLinetypeTableRecord
  2
ByBlock
 70
     0
  3

 72
    65
 73
     0
 40
0.0
  0
LTYPE
  5
15
330
5
100
AcDbSymbolTableRecord
100
AcDbLinetypeTableRecord
  2
ByLayer
 70
     0
  3

 72
    65
 73
     0
 40
0.0
  0
LTYPE
  5
16
330
5
100
AcDbSymbolTableRecord
100
AcDbLinetypeTableRecord
  2
Continuous
 70
     0
  3
Solid line
 72
    65
 73
     0
 40
0.0
  0
LTYPE
  5
35
330
5
100
AcDbSymbolTableRecord
100
AcDbLinetypeTableRecord
  2
HIDDEN
 70
     0
  3
Hidden __ __ __ __ __ __ __ __ __ __ __ __ __ _
 72
    65
 73
     2
 40
9.524999999999998
 49
6.349999999999999
 74
     0
 49
-3.174999999999999
 74
     0
  0
LTYPE
  5
36
330
5
100
AcDbSymbolTableRecord
100
AcDbLinetypeTableRecord
  2
HIDDEN2
 70
     0
  3
Hidden (.5x) _ _ _ _ _ _ _ _ _ _ _ _ _ _ _ _ _
 72
    65
 73
     2
 40
4.762499999999999
 49
3.174999999999999
 74
     0
 49
-1.587499999999999
 74
     0
  0
LTYPE
  5
37
330
5
100
AcDbSymbolTableRecord
100
AcDbLinetypeTableRecord
  2
CENTER
 70
     0
  3
Center ____ _ ____ _ ____ _ ____ _ ____ _ ____
 72
    65
 73
     4
 40
50.8
 49
31.75
 74
     0
 49
-6.349999999999999
 74
     0
 49
6.349999999999999
 74
     0
 49
-6.349999999999999
 74
     0
  0
LTYPE
  5
38
330
5
100
AcDbSymbolTableRecord
100
AcDbLinetypeTableRecord
  2
PHANTOM2
 70
     0
  3
Phantom (.5x) ___ _ _ ___ _ _ ___ _ _ ___ _ _
 72
    65
 73
     6
 40
31.75
 49
15.875
 74
     0
 49
-3.174999999999999
 74
     0
 49
3.174999999999999
 74
     0
 49
-3.174999999999999
 74
     0
 49
3.174999999999999
 74
     0
 49
-3.174999999999999
 74
     0
  0
ENDTAB
  0
TABLE
  2
LAYER
  5
2
330
0
100
AcDbSymbolTable
 70
    13
  0
LAYER
  5
10
330
2
100
AcDbSymbolTableRecord
100
AcDbLayerTableRecord
  2
0
 70
     0
 62
     7
  6
Continuous
370
     9
390
F
  0
LAYER
  5
39
330
2
100
AcDbSymbolTableRecord
100
AcDbLayerTableRecord
  2
１
 70
     0
 62
     2
  6
Continuous
370
     9
390
F
  0
LAYER
  5
3A
330
2
100
AcDbSymbolTableRecord
100
AcDbLayerTableRecord
  2
２
 70
     0
 62
     3
  6
Continuous
370
    20
390
F
  0
LAYER
  5
3B
330
2
100
AcDbSymbolTableRecord
100
AcDbLayerTableRecord
  2
３
 70
     0
 62
     4
  6
HIDDEN
370
    15
390
F
  0
LAYER
  5
3C
330
2
100
AcDbSymbolTableRecord
100
AcDbLayerTableRecord
  2
４
 70
     0
 62
     4
  6
HIDDEN2
370
    15
390
F
  0
LAYER
  5
3D
330
2
100
AcDbSymbolTableRecord
100
AcDbLayerTableRecord
  2
５
 70
     0
 62
     6
  6
CENTER
370
    15
390
F
  0
LAYER
  5
3E
330
2
100
AcDbSymbolTableRecord
100
AcDbLayerTableRecord
  2
６
 70
     0
 62
     5
  6
PHANTOM2
370
    15
390
F
  0
LAYER
  5
46
330
2
100
AcDbSymbolTableRecord
100
AcDbLayerTableRecord
  2
Defpoints
 70
     0
 62
     7
  6
Continuous
290
     0
370
    -3
390
F
  0
LAYER
  5
AB
330
2
100
AcDbSymbolTableRecord
100
AcDbLayerTableRecord
  2
Object
 70
     0
 62
     3
  6
Continuous
370
    20
390
F
  0
LAYER
  5
3B8
330
2
100
AcDbSymbolTableRecord
100
AcDbLayerTableRecord
  2
1
 70
     0
 62
     7
  6
Continuous
370
     9
390
F
  0
LAYER
  5
3B9
330
2
100
AcDbSymbolTableRecord
100
AcDbLayerTableRecord
  2
2
 70
     0
 62
     3
  6
Continuous
370
    20
390
F
  0
LAYER
  5
78C
330
2
100
AcDbSymbolTableRecord
100
AcDbLayerTableRecord
  2
Center
 70
     0
 62
     7
  6
CENTER
370
     9
390
F
  0
LAYER
  5
EE9
330
2
100
AcDbSymbolTableRecord
100
AcDbLayerTableRecord
  2
Hidden
 70
     0
 62
     4
  6
HIDDEN
370
    13
390
F
  0
ENDTAB
  0
TABLE
  2
STYLE
  5
3
330
0
100
AcDbSymbolTable
 70
     3
  0
STYLE
  5
11
330
3
100
AcDbSymbolTableRecord
100
AcDbTextStyleTableRecord
  2
Standard
 70
     0
 40
0.0
 41
1.0
 50
0.0
 71
     0
 42
2.5
  3
txt.shx
  4
bigfont.shx
  0
STYLE
  5
34
330
3
100
AcDbSymbolTableRecord
100
AcDbTextStyleTableRecord
  2

 70
     1
 40
0.0
 41
1.0
 50
0.0
 71
     0
 42
2.5
  3
ltypeshp.shx
  4

  0
STYLE
  5
12E
330
3
100
AcDbSymbolTableRecord
100
AcDbTextStyleTableRecord
  2
ｽﾀｲﾙ1
 70
     0
 40
2.5
 41
1.0
 50
0.0
 71
     0
 42
2.5
  3
txt.shx
  4

  0
ENDTAB
  0
TABLE
  2
VIEW
  5
6
330
0
100
AcDbSymbolTable
 70
     0
  0
ENDTAB
  0
TABLE
  2
UCS
  5
7
330
0
100
AcDbSymbolTable
 70
     0
  0
ENDTAB
  0
TABLE
  2
APPID
  5
9
330
0
100
AcDbSymbolTable
 70
     1
  0
APPID
  5
12
330
9
100
AcDbSymbolTableRecord
100
AcDbRegAppTableRecord
  2
ACAD
 70
     0
  0
ENDTAB
  0
TABLE
  2
DIMSTYLE
  5
A
330
0
100
AcDbSymbolTable
 70
     3
100
AcDbDimStyleTable
 71
     1
340
27
  0
DIMSTYLE
105
27
102
{ACAD_REACTORS
330
CFA
330
CFB
330
D5F
330
D70
330
C5D
330
F50
330
1103
330
1110
330
111D
330
1149
102
}
330
A
100
AcDbSymbolTableRecord
100
AcDbDimStyleTableRecord
  2
ISO-25
 70
     0
 41
2.0
 42
0.625
 43
3.75
 44
1.25
 73
     0
 74
     0
 77
     1
 78
     8
140
3.0
141
2.5
143
0.03937007874016
147
0.625
171
     3
172
     1
177
     7
271
     2
272
     2
274
     3
283
     0
284
     8
340
11
372
     9
  0
DIMSTYLE
105
AC
330
A
100
AcDbSymbolTableRecord
100
AcDbDimStyleTableRecord
  2
JIS
 70
     0
 41
2.5
 42
1.0
 43
7.0
 44
1.0
 73
     0
 74
     0
 77
     1
 78
     8
140
2.5
141
0.0
143
0.0394
147
0.0
172
     1
174
     1
175
     1
340
11
  0
DIMSTYLE
105
9D3
330
A
100
AcDbSymbolTableRecord
100
AcDbDimStyleTableRecord
  2
ｺﾋﾟｰ - ISO-25
 70
     0
 41
2.5
 42
0.625
 43
3.75
 44
1.25
 73
     0
 74
     0
 77
     1
 78
     8
140
2.5
141
2.5
143
0.03937007874016
147
0.625
171
     3
172
     1
271
     2
272
     2
274
     3
283
     0
284
     8
340
11
343
9CE
  0
ENDTAB
  0
TABLE
  2
BLOCK_RECORD
  5
1
330
0
100
AcDbSymbolTable
 70
    12
  0
BLOCK_RECORD
  5
1F
330
1
100
AcDbSymbolTableRecord
100
AcDbBlockTableRecord
  2
*Model_Space
340
22
  0
BLOCK_RECORD
  5
1B
330
1
100
AcDbSymbolTableRecord
100
AcDbBlockTableRecord
  2
*Paper_Space
340
1E
  0
BLOCK_RECORD
  5
23
330
1
100
AcDbSymbolTableRecord
100
AcDbBlockTableRecord
  2
*Paper_Space0
340
26
  0
BLOCK_RECORD
  5
9CE
330
1
100
AcDbSymbolTableRecord
100
AcDbBlockTableRecord
  2
_Dot
340
0
  0
BLOCK_RECORD
  5
D77
330
1
100
AcDbSymbolTableRecord
100
AcDbBlockTableRecord
  2
*D2
340
0
  0
BLOCK_RECORD
  5
D83
330
1
100
AcDbSymbolTableRecord
100
AcDbBlockTableRecord
  2
*D3
340
0
  0
BLOCK_RECORD
  5
D8F
330
1
100
AcDbSymbolTableRecord
100
AcDbBlockTableRecord
  2
*D4
340
0
  0
BLOCK_RECORD
  5
D9D
330
1
100
AcDbSymbolTableRecord
100
AcDbBlockTableRecord
  2
*D5
340
0
  0
BLOCK_RECORD
  5
DAA
330
1
100
AcDbSymbolTableRecord
100
AcDbBlockTableRecord
  2
*D6
340
0
  0
BLOCK_RECORD
  5
F51
330
1
100
AcDbSymbolTableRecord
100
AcDbBlockTableRecord
  2
*D7
340
0
  0
BLOCK_RECORD
  5
1104
330
1
100
AcDbSymbolTableRecord
100
AcDbBlockTableRecord
  2
*D8
340
0
  0
BLOCK_RECORD
  5
1111
330
1
100
AcDbSymbolTableRecord
100
AcDbBlockTableRecord
  2
*D9
340
0
  0
BLOCK_RECORD
  5
111E
330
1
100
AcDbSymbolTableRecord
100
AcDbBlockTableRecord
  2
*D10
340
0
  0
BLOCK_RECORD
  5
114A
330
1
100
AcDbSymbolTableRecord
100
AcDbBlockTableRecord
  2
*D11
340
0
  0
ENDTAB
  0
ENDSEC
  0
SECTION
  2
BLOCKS
  0
BLOCK
  5
20
330
1F
100
AcDbEntity
  8
0
100
AcDbBlockBegin
  2
*Model_Space
 70
     0
 10
0.0
 20
0.0
 30
0.0
  3
*Model_Space
  1

  0
ENDBLK
  5
21
330
1F
100
AcDbEntity
  8
0
100
AcDbBlockEnd
  0
BLOCK
  5
1C
330
1B
100
AcDbEntity
 67
     1
  8
0
100
AcDbBlockBegin
  2
*Paper_Space
 70
     0
 10
0.0
 20
0.0
 30
0.0
  3
*Paper_Space
  1

  0
ENDBLK
  5
1D
330
1B
100
AcDbEntity
 67
     1
  8
0
100
AcDbBlockEnd
  0
BLOCK
  5
24
330
23
100
AcDbEntity
  8
0
100
AcDbBlockBegin
  2
*Paper_Space0
 70
     0
 10
0.0
 20
0.0
 30
0.0
  3
*Paper_Space0
  1

  0
VIEWPORT
  5
49D
330
23
100
AcDbEntity
  8
0
100
AcDbViewport
 10
0.0
 20
0.0
 30
0.0
 40
0.0
 41
0.0
 69
     0
 12
0.0
 22
0.0
 13
0.0
 23
0.0
 14
10.0
 24
10.0
 15
10.0
 25
10.0
 16
0.0
 26
0.0
 36
1.0
 17
0.0
 27
0.0
 37
0.0
 42
50.0
 43
0.0
 44
0.0
 45
0.0
 50
0.0
 51
0.0
 72
   100
 90
    32800
  1

281
     0
 71
     1
 74
     0
110
0.0
120
0.0
130
0.0
111
1.0
121
0.0
131
0.0
112
0.0
122
1.0
132
0.0
 79
     0
146
0.0
  0
VIEWPORT
  5
49F
330
23
100
AcDbEntity
  8
1
100
AcDbViewport
 10
0.0
 20
0.0
 30
0.0
 40
0.0
 41
0.0
 69
     0
 12
220.9969276907449
 22
172.7619420735345
 13
0.0
 23
0.0
 14
10.0
 24
10.0
 15
10.0
 25
10.0
 16
0.0
 26
0.0
 36
1.0
 17
0.0
 27
0.0
 37
0.0
 42
50.0
 43
0.0
 44
0.0
 45
274.9023805563505
 50
0.0
 51
0.0
 72
   100
 90
    32864
  1

281
     0
 71
     1
 74
     0
110
0.0
120
0.0
130
0.0
111
1.0
121
0.0
131
0.0
112
0.0
122
1.0
132
0.0
 79
     0
146
0.0
  0
ENDBLK
  5
25
330
23
100
AcDbEntity
  8
0
100
AcDbBlockEnd
  0
BLOCK
  5
9D1
330
9CE
100
AcDbEntity
  8
0
100
AcDbBlockBegin
  2
_Dot
 70
     0
 10
0.0
 20
0.0
 30
0.0
  3
_Dot
  1

  0
LWPOLYLINE
  5
9CF
330
9CE
100
AcDbEntity
  8
0
 62
     0
100
AcDbPolyline
 90
        2
 70
     1
 43
0.5
 10
-0.25
 20
0.0
 42
1.0
 10
0.25
 20
0.0
 42
1.0
  0
LINE
  5
9D0
330
9CE
100
AcDbEntity
  8
0
 62
     0
370
    -2
100
AcDbLine
 10
-0.5
 20
0.0
 30
0.0
 11
-1.0
 21
0.0
 31
0.0
  0
ENDBLK
  5
9D2
330
9CE
100
AcDbEntity
  8
0
100
AcDbBlockEnd
  0
BLOCK
  5
D81
330
D77
100
AcDbEntity
  8
0
100
AcDbBlockBegin
  2
*D2
 70
     1
 10
0.0
 20
0.0
 30
0.0
  3
*D2
  1

  0
LINE
  5
1182
330
D77
100
AcDbEntity
  8
0
 62
     7
370
     9
100
AcDbLine
 10
111.1766914282665
 20
239.4233448953906
 30
0.0
 11
111.1766914282665
 21
248.420134173846
 31
0.0
  0
LINE
  5
1183
330
D77
100
AcDbEntity
  8
0
 62
     7
370
     9
100
AcDbLine
 10
181.1766914282665
 20
239.4233448953906
 30
0.0
 11
181.1766914282665
 21
248.420134173846
 31
0.0
  0
LINE
  5
1184
330
D77
100
AcDbEntity
  8
0
 62
     0
370
    -2
100
AcDbLine
 10
113.1766914282665
 20
247.170134173846
 30
0.0
 11
179.1766914282665
 21
247.170134173846
 31
0.0
  0
SOLID
  5
1185
330
D77
100
AcDbEntity
  8
0
 62
     0
100
AcDbTrace
 10
113.1766914282665
 20
247.5034675071793
 30
0.0
 11
113.1766914282665
 21
246.8368008405126
 31
0.0
 12
111.1766914282665
 22
247.170134173846
 32
0.0
 13
111.1766914282665
 23
247.170134173846
 33
0.0
  0
SOLID
  5
1186
330
D77
100
AcDbEntity
  8
0
 62
     0
100
AcDbTrace
 10
179.1766914282665
 20
247.5034675071793
 30
0.0
 11
179.1766914282665
 21
246.8368008405126
 31
0.0
 12
181.1766914282665
 22
247.170134173846
 32
0.0
 13
181.1766914282665
 23
247.170134173846
 33
0.0
  0
MTEXT
  5
1187
330
D77
100
AcDbEntity
  8
0
 62
     0
100
AcDbMText
 10
143.7303497341272
 20
249.295134173846
 30
0.0
 40
3.0
 41
0.0
 71
     5
 72
     1
  1
70
 73
     1
 44
1.0
  0
POINT
  5
1188
330
D77
100
AcDbEntity
  8
Defpoints
 62
     0
100
AcDbPoint
 10
111.1766914282665
 20
238.7983448953906
 30
0.0
  0
POINT
  5
1189
330
D77
100
AcDbEntity
  8
Defpoints
 62
     0
100
AcDbPoint
 10
181.1766914282665
 20
238.7983448953906
 30
0.0
  0
POINT
  5
118A
330
D77
100
AcDbEntity
  8
Defpoints
 62
     0
100
AcDbPoint
 10
181.1766914282665
 20
247.170134173846
 30
0.0
  0
ENDBLK
  5
D82
330
D77
100
AcDbEntity
  8
0
100
AcDbBlockEnd
  0
BLOCK
  5
D8D
330
D83
100
AcDbEntity
  8
0
100
AcDbBlockBegin
  2
*D3
 70
     1
 10
0.0
 20
0.0
 30
0.0
  3
*D3
  1

  0
LINE
  5
118B
330
D83
100
AcDbEntity
  8
0
 62
     7
370
     9
100
AcDbLine
 10
129.023745151456
 20
230.6733448953906
 30
0.0
 11
129.023745151456
 21
212.2646114248548
 31
0.0
  0
LINE
  5
118C
330
D83
100
AcDbEntity
  8
0
 62
     7
370
     9
100
AcDbLine
 10
154.1737451514561
 20
230.6733448953906
 30
0.0
 11
154.1737451514561
 21
212.2646114248548
 31
0.0
  0
LINE
  5
118D
330
D83
100
AcDbEntity
  8
0
 62
     0
370
    -2
100
AcDbLine
 10
131.023745151456
 20
213.5146114248548
 30
0.0
 11
152.1737451514561
 21
213.5146114248548
 31
0.0
  0
SOLID
  5
118E
330
D83
100
AcDbEntity
  8
0
 62
     0
100
AcDbTrace
 10
131.023745151456
 20
213.8479447581881
 30
0.0
 11
131.023745151456
 21
213.1812780915214
 31
0.0
 12
129.023745151456
 22
213.5146114248548
 32
0.0
 13
129.023745151456
 23
213.5146114248548
 33
0.0
  0
SOLID
  5
118F
330
D83
100
AcDbEntity
  8
0
 62
     0
100
AcDbTrace
 10
152.1737451514561
 20
213.8479447581881
 30
0.0
 11
152.1737451514561
 21
213.1812780915214
 31
0.0
 12
154.1737451514561
 22
213.5146114248548
 32
0.0
 13
154.1737451514561
 23
213.5146114248548
 33
0.0
  0
MTEXT
  5
1190
330
D83
100
AcDbEntity
  8
0
 62
     0
100
AcDbMText
 10
141.5987451514561
 20
215.6396114248548
 30
0.0
 40
3.0
 41
0.0
 71
     5
 72
     1
  1
25
 73
     1
 44
1.0
  0
POINT
  5
1191
330
D83
100
AcDbEntity
  8
Defpoints
 62
     0
100
AcDbPoint
 10
129.023745151456
 20
231.2983448953906
 30
0.0
  0
POINT
  5
1192
330
D83
100
AcDbEntity
  8
Defpoints
 62
     0
100
AcDbPoint
 10
154.1737451514561
 20
231.2983448953906
 30
0.0
  0
POINT
  5
1193
330
D83
100
AcDbEntity
  8
Defpoints
 62
     0
100
AcDbPoint
 10
154.1737451514561
 20
213.5146114248548
 30
0.0
  0
ENDBLK
  5
D8E
330
D83
100
AcDbEntity
  8
0
100
AcDbBlockEnd
  0
BLOCK
  5
D9B
330
D8F
100
AcDbEntity
  8
0
100
AcDbBlockBegin
  2
*D4
 70
     1
 10
0.0
 20
0.0
 30
0.0
  3
*D4
  1

  0
LINE
  5
1178
330
D8F
100
AcDbEntity
  8
0
 62
     7
370
     9
100
AcDbLine
 10
150.2072975221558
 20
233.9483448953906
 30
0.0
 11
161.8958820685802
 21
233.9483448953906
 31
0.0
  0
LINE
  5
1179
330
D8F
100
AcDbEntity
  8
0
 62
     7
370
     9
100
AcDbLine
 10
150.2072975221558
 20
228.6483448953906
 30
0.0
 11
161.8958820685802
 21
228.6483448953906
 31
0.0
  0
LINE
  5
117A
330
D8F
100
AcDbEntity
  8
0
 62
     0
370
    -2
100
AcDbLine
 10
160.6458820685802
 20
231.9483448953906
 30
0.0
 11
160.6458820685802
 21
230.6483448953906
 31
0.0
  0
LINE
  5
117B
330
D8F
100
AcDbEntity
  8
0
 62
     0
370
    -2
100
AcDbLine
 10
160.6458820685802
 20
228.6483448953906
 30
0.0
 11
160.6458820685802
 21
219.3983448953906
 31
0.0
  0
SOLID
  5
117C
330
D8F
100
AcDbEntity
  8
0
 62
     0
100
AcDbTrace
 10
160.3125487352469
 20
231.9483448953906
 30
0.0
 11
160.9792154019135
 21
231.9483448953906
 31
0.0
 12
160.6458820685802
 22
233.9483448953906
 32
0.0
 13
160.6458820685802
 23
233.9483448953906
 33
0.0
  0
SOLID
  5
117D
330
D8F
100
AcDbEntity
  8
0
 62
     0
100
AcDbTrace
 10
160.3125487352469
 20
230.6483448953906
 30
0.0
 11
160.9792154019135
 21
230.6483448953906
 31
0.0
 12
160.6458820685802
 22
228.6483448953906
 32
0.0
 13
160.6458820685802
 23
228.6483448953906
 33
0.0
  0
MTEXT
  5
117E
330
D8F
100
AcDbEntity
  8
0
 62
     0
100
AcDbMText
 10
158.5208820685801
 20
223.0233448953907
 30
0.0
 40
3.0
 41
0.0
 71
     5
 72
     1
  1
5.3
 11
0.0000000000000001
 21
1.0
 31
0.0
 73
     1
 44
1.0
  0
POINT
  5
117F
330
D8F
100
AcDbEntity
  8
Defpoints
 62
     0
100
AcDbPoint
 10
149.5822975221558
 20
233.9483448953906
 30
0.0
  0
POINT
  5
1180
330
D8F
100
AcDbEntity
  8
Defpoints
 62
     0
100
AcDbPoint
 10
149.5822975221558
 20
228.6483448953906
 30
0.0
  0
POINT
  5
1181
330
D8F
100
AcDbEntity
  8
Defpoints
 62
     0
100
AcDbPoint
 10
160.6458820685802
 20
228.6483448953906
 30
0.0
  0
ENDBLK
  5
D9C
330
D8F
100
AcDbEntity
  8
0
100
AcDbBlockEnd
  0
BLOCK
  5
DA8
330
D9D
100
AcDbEntity
  8
0
100
AcDbBlockBegin
  2
*D5
 70
     1
 10
0.0
 20
0.0
 30
0.0
  3
*D5
  1

  0
LINE
  5
11A6
330
D9D
100
AcDbEntity
  8
0
 62
     7
370
     9
100
AcDbLine
 10
303.3375705047715
 20
223.7983448953906
 30
0.0
 11
315.1697858755576
 21
223.7983448953906
 31
0.0
  0
LINE
  5
11A7
330
D9D
100
AcDbEntity
  8
0
 62
     7
370
     9
100
AcDbLine
 10
303.3375705047715
 20
238.7983448953906
 30
0.0
 11
315.1697858755576
 21
238.7983448953906
 31
0.0
  0
LINE
  5
11A8
330
D9D
100
AcDbEntity
  8
0
 62
     0
370
    -2
100
AcDbLine
 10
313.9197858755577
 20
225.7983448953906
 30
0.0
 11
313.9197858755577
 21
236.7983448953906
 31
0.0
  0
LINE
  5
11A9
330
D9D
100
AcDbEntity
  8
0
 62
     0
370
    -2
100
AcDbLine
 10
313.9197858755577
 20
238.7983448953906
 30
0.0
 11
313.9197858755577
 21
255.1733448953906
 31
0.0
  0
SOLID
  5
11AA
330
D9D
100
AcDbEntity
  8
0
 62
     0
100
AcDbTrace
 10
313.5864525422243
 20
225.7983448953906
 30
0.0
 11
314.253119208891
 21
225.7983448953906
 31
0.0
 12
313.9197858755577
 22
223.7983448953906
 32
0.0
 13
313.9197858755577
 23
223.7983448953906
 33
0.0
  0
SOLID
  5
11AB
330
D9D
100
AcDbEntity
  8
0
 62
     0
100
AcDbTrace
 10
313.5864525422243
 20
236.7983448953906
 30
0.0
 11
314.253119208891
 21
236.7983448953906
 31
0.0
 12
313.9197858755577
 22
238.7983448953906
 32
0.0
 13
313.9197858755577
 23
238.7983448953906
 33
0.0
  0
MTEXT
  5
11AC
330
D9D
100
AcDbEntity
  8
0
 62
     0
100
AcDbMText
 10
311.7947858755576
 20
251.0483448953907
 30
0.0
 40
3.0
 41
0.0
 71
     5
 72
     1
  1
%%c15
 11
0.0000000000000001
 21
1.0
 31
0.0
 73
     1
 44
1.0
  0
POINT
  5
11AD
330
D9D
100
AcDbEntity
  8
Defpoints
 62
     0
100
AcDbPoint
 10
302.7125705047715
 20
223.7983448953906
 30
0.0
  0
POINT
  5
11AE
330
D9D
100
AcDbEntity
  8
Defpoints
 62
     0
100
AcDbPoint
 10
302.7125705047715
 20
238.7983448953906
 30
0.0
  0
POINT
  5
11AF
330
D9D
100
AcDbEntity
  8
Defpoints
 62
     0
100
AcDbPoint
 10
313.9197858755577
 20
238.7983448953906
 30
0.0
  0
ENDBLK
  5
DA9
330
D9D
100
AcDbEntity
  8
0
100
AcDbBlockEnd
  0
BLOCK
  5
DB4
330
DAA
100
AcDbEntity
  8
0
100
AcDbBlockBegin
  2
*D6
 70
     1
 10
0.0
 20
0.0
 30
0.0
  3
*D6
  1

  0
LINE
  5
119D
330
DAA
100
AcDbEntity
  8
0
 62
     7
370
     9
100
AcDbLine
 10
267.7125705047715
 20
239.4233448953906
 30
0.0
 11
267.7125705047715
 21
248.5059596887434
 31
0.0
  0
LINE
  5
119E
330
DAA
100
AcDbEntity
  8
0
 62
     7
370
     9
100
AcDbLine
 10
302.7125705047715
 20
239.4233448953906
 30
0.0
 11
302.7125705047715
 21
248.5059596887434
 31
0.0
  0
LINE
  5
119F
330
DAA
100
AcDbEntity
  8
0
 62
     0
370
    -2
100
AcDbLine
 10
269.7125705047715
 20
247.2559596887434
 30
0.0
 11
300.7125705047715
 21
247.2559596887434
 31
0.0
  0
SOLID
  5
11A0
330
DAA
100
AcDbEntity
  8
0
 62
     0
100
AcDbTrace
 10
269.7125705047715
 20
247.5892930220768
 30
0.0
 11
269.7125705047715
 21
246.9226263554101
 31
0.0
 12
267.7125705047715
 22
247.2559596887434
 32
0.0
 13
267.7125705047715
 23
247.2559596887434
 33
0.0
  0
SOLID
  5
11A1
330
DAA
100
AcDbEntity
  8
0
 62
     0
100
AcDbTrace
 10
300.7125705047715
 20
247.5892930220768
 30
0.0
 11
300.7125705047715
 21
246.9226263554101
 31
0.0
 12
302.7125705047715
 22
247.2559596887434
 32
0.0
 13
302.7125705047715
 23
247.2559596887434
 33
0.0
  0
MTEXT
  5
11A2
330
DAA
100
AcDbEntity
  8
0
 62
     0
100
AcDbMText
 10
285.2125705047715
 20
249.3809596887434
 30
0.0
 40
3.0
 41
0.0
 71
     5
 72
     1
  1
35
 73
     1
 44
1.0
  0
POINT
  5
11A3
330
DAA
100
AcDbEntity
  8
Defpoints
 62
     0
100
AcDbPoint
 10
267.7125705047715
 20
238.7983448953906
 30
0.0
  0
POINT
  5
11A4
330
DAA
100
AcDbEntity
  8
Defpoints
 62
     0
100
AcDbPoint
 10
302.7125705047715
 20
238.7983448953906
 30
0.0
  0
POINT
  5
11A5
330
DAA
100
AcDbEntity
  8
Defpoints
 62
     0
100
AcDbPoint
 10
302.7125705047715
 20
247.2559596887434
 30
0.0
  0
ENDBLK
  5
DB5
330
DAA
100
AcDbEntity
  8
0
100
AcDbBlockEnd
  0
BLOCK
  5
F5B
330
F51
100
AcDbEntity
  8
0
100
AcDbBlockBegin
  2
*D7
 70
     1
 10
0.0
 20
0.0
 30
0.0
  3
*D7
  1

  0
LINE
  5
1166
330
F51
100
AcDbEntity
  8
0
 62
     7
370
     9
100
AcDbLine
 10
341.6702669767876
 20
72.70671253998711
 30
0.0
 11
333.0852117320271
 21
65.41402550202997
 31
0.0
  0
LINE
  5
1167
330
F51
100
AcDbEntity
  8
0
 62
     7
370
     9
100
AcDbLine
 10
333.5525391967335
 20
82.26301751933979
 30
0.0
 11
324.9674839519731
 21
74.97033048138269
 31
0.0
  0
LINE
  5
1168
330
F51
100
AcDbEntity
  8
0
 62
     0
370
    -2
100
AcDbLine
 10
332.7430666723524
 20
67.74757146432431
 30
0.0
 11
327.2149820902973
 21
74.25531151783769
 31
0.0
  0
SOLID
  5
1169
330
F51
100
AcDbEntity
  8
0
 62
     0
100
AcDbTrace
 10
332.9971137495057
 20
67.96337506415754
 30
0.0
 11
332.4890195951991
 21
67.53176786449107
 31
0.0
 12
334.0378882713519
 22
66.22328900140465
 32
0.0
 13
334.0378882713519
 23
66.22328900140465
 33
0.0
  0
SOLID
  5
116A
330
F51
100
AcDbEntity
  8
0
 62
     0
100
AcDbTrace
 10
327.4690291674506
 20
74.47111511767094
 30
0.0
 11
326.960935013144
 21
74.03950791800446
 31
0.0
 12
325.9201604912979
 22
75.77959398075737
 32
0.0
 13
325.9201604912979
 23
75.77959398075737
 33
0.0
  0
MTEXT
  5
116B
330
F51
100
AcDbEntity
  8
0
 62
     0
100
AcDbMText
 10
331.598574498177
 20
72.37718944001795
 30
0.0
 40
3.0
 41
0.0
 71
     5
 72
     1
  1
11
 11
0.647410799499739
 21
-0.7621412314598321
 31
0.0
 73
     1
 44
1.0
  0
POINT
  5
116C
330
F51
100
AcDbEntity
  8
Defpoints
 62
     0
100
AcDbPoint
 10
342.1466052464499
 20
73.11134428967446
 30
0.0
  0
POINT
  5
116D
330
F51
100
AcDbEntity
  8
Defpoints
 62
     0
100
AcDbPoint
 10
334.0288774663958
 20
82.66764926902713
 30
0.0
  0
POINT
  5
116E
330
F51
100
AcDbEntity
  8
Defpoints
 62
     0
100
AcDbPoint
 10
325.9201604912979
 20
75.77959398075737
 30
0.0
  0
ENDBLK
  5
F5C
330
F51
100
AcDbEntity
  8
0
100
AcDbBlockEnd
  0
BLOCK
  5
110E
330
1104
100
AcDbEntity
  8
0
100
AcDbBlockBegin
  2
*D8
 70
     1
 10
0.0
 20
0.0
 30
0.0
  3
*D8
  1

  0
LINE
  5
116F
330
1104
100
AcDbEntity
  8
0
 62
     7
370
     9
100
AcDbLine
 10
60.83125629476967
 20
186.785506812584
 30
0.0
 11
60.83125629476967
 21
197.2721042892278
 31
0.0
  0
LINE
  5
1170
330
1104
100
AcDbEntity
  8
0
 62
     7
370
     9
100
AcDbLine
 10
165.8312562947696
 20
186.785506812584
 30
0.0
 11
165.8312562947696
 21
197.2721042892278
 31
0.0
  0
LINE
  5
1171
330
1104
100
AcDbEntity
  8
0
 62
     0
370
    -2
100
AcDbLine
 10
62.83125629476967
 20
196.0221042892278
 30
0.0
 11
163.8312562947696
 21
196.0221042892278
 31
0.0
  0
SOLID
  5
1172
330
1104
100
AcDbEntity
  8
0
 62
     0
100
AcDbTrace
 10
62.83125629476967
 20
196.3554376225611
 30
0.0
 11
62.83125629476967
 21
195.6887709558945
 31
0.0
 12
60.83125629476967
 22
196.0221042892278
 32
0.0
 13
60.83125629476967
 23
196.0221042892278
 33
0.0
  0
SOLID
  5
1173
330
1104
100
AcDbEntity
  8
0
 62
     0
100
AcDbTrace
 10
163.8312562947696
 20
196.3554376225611
 30
0.0
 11
163.8312562947696
 21
195.6887709558945
 31
0.0
 12
165.8312562947696
 22
196.0221042892278
 32
0.0
 13
165.8312562947696
 23
196.0221042892278
 33
0.0
  0
MTEXT
  5
1174
330
1104
100
AcDbEntity
  8
0
 62
     0
100
AcDbMText
 10
113.3312562947696
 20
198.1471042892278
 30
0.0
 40
3.0
 41
0.0
 71
     5
 72
     1
  1
105
 73
     1
 44
1.0
  0
POINT
  5
1175
330
1104
100
AcDbEntity
  8
Defpoints
 62
     0
100
AcDbPoint
 10
60.83125629476967
 20
186.160506812584
 30
0.0
  0
POINT
  5
1176
330
1104
100
AcDbEntity
  8
Defpoints
 62
     0
100
AcDbPoint
 10
165.8312562947696
 20
186.160506812584
 30
0.0
  0
POINT
  5
1177
330
1104
100
AcDbEntity
  8
Defpoints
 62
     0
100
AcDbPoint
 10
165.8312562947696
 20
196.0221042892278
 30
0.0
  0
ENDBLK
  5
110F
330
1104
100
AcDbEntity
  8
0
100
AcDbBlockEnd
  0
BLOCK
  5
111B
330
1111
100
AcDbEntity
  8
0
100
AcDbBlockBegin
  2
*D9
 70
     1
 10
0.0
 20
0.0
 30
0.0
  3
*D9
  1

  0
LINE
  5
11B0
330
1111
100
AcDbEntity
  8
0
 62
     7
370
     9
100
AcDbLine
 10
307.7100672719291
 20
149.702053530113
 30
0.0
 11
307.7100672719291
 21
157.6479230951097
 31
0.0
  0
LINE
  5
11B1
330
1111
100
AcDbEntity
  8
0
 62
     7
370
     9
100
AcDbLine
 10
332.7100672719291
 20
149.702053530113
 30
0.0
 11
332.7100672719291
 21
157.6479230951097
 31
0.0
  0
LINE
  5
11B2
330
1111
100
AcDbEntity
  8
0
 62
     0
370
    -2
100
AcDbLine
 10
309.7100672719291
 20
156.3979230951097
 30
0.0
 11
330.7100672719291
 21
156.3979230951097
 31
0.0
  0
SOLID
  5
11B3
330
1111
100
AcDbEntity
  8
0
 62
     0
100
AcDbTrace
 10
309.7100672719291
 20
156.731256428443
 30
0.0
 11
309.7100672719291
 21
156.0645897617763
 31
0.0
 12
307.7100672719291
 22
156.3979230951097
 32
0.0
 13
307.7100672719291
 23
156.3979230951097
 33
0.0
  0
SOLID
  5
11B4
330
1111
100
AcDbEntity
  8
0
 62
     0
100
AcDbTrace
 10
330.7100672719291
 20
156.731256428443
 30
0.0
 11
330.7100672719291
 21
156.0645897617763
 31
0.0
 12
332.7100672719291
 22
156.3979230951097
 32
0.0
 13
332.7100672719291
 23
156.3979230951097
 33
0.0
  0
MTEXT
  5
11B5
330
1111
100
AcDbEntity
  8
0
 62
     0
100
AcDbMText
 10
320.2100672719291
 20
158.5229230951097
 30
0.0
 40
3.0
 41
0.0
 71
     5
 72
     1
  1
25
 73
     1
 44
1.0
  0
POINT
  5
11B6
330
1111
100
AcDbEntity
  8
Defpoints
 62
     0
100
AcDbPoint
 10
307.7100672719291
 20
149.077053530113
 30
0.0
  0
POINT
  5
11B7
330
1111
100
AcDbEntity
  8
Defpoints
 62
     0
100
AcDbPoint
 10
332.7100672719291
 20
149.077053530113
 30
0.0
  0
POINT
  5
11B8
330
1111
100
AcDbEntity
  8
Defpoints
 62
     0
100
AcDbPoint
 10
332.7100672719291
 20
156.3979230951097
 30
0.0
  0
ENDBLK
  5
111C
330
1111
100
AcDbEntity
  8
0
100
AcDbBlockEnd
  0
BLOCK
  5
1128
330
111E
100
AcDbEntity
  8
0
100
AcDbBlockBegin
  2
*D10
 70
     1
 10
0.0
 20
0.0
 30
0.0
  3
*D10
  1

  0
LINE
  5
115C
330
111E
100
AcDbEntity
  8
0
 62
     7
370
     9
100
AcDbLine
 10
308.3328567374556
 20
149.077053530113
 30
0.0
 11
299.4445645923624
 21
149.077053530113
 31
0.0
  0
LINE
  5
115D
330
111E
100
AcDbEntity
  8
0
 62
     7
370
     9
100
AcDbLine
 10
308.3328567374556
 20
135.077053530113
 30
0.0
 11
299.4445645923624
 21
135.077053530113
 31
0.0
  0
LINE
  5
115E
330
111E
100
AcDbEntity
  8
0
 62
     0
370
    -2
100
AcDbLine
 10
300.6945645923625
 20
137.077053530113
 30
0.0
 11
300.6945645923625
 21
147.0770535301129
 31
0.0
  0
LINE
  5
115F
330
111E
100
AcDbEntity
  8
0
 62
     0
370
    -2
100
AcDbLine
 10
300.6945645923625
 20
149.077053530113
 30
0.0
 11
300.6945645923625
 21
159.327053530113
 31
0.0
  0
SOLID
  5
1160
330
111E
100
AcDbEntity
  8
0
 62
     0
100
AcDbTrace
 10
300.3612312590291
 20
137.077053530113
 30
0.0
 11
301.0278979256958
 21
137.077053530113
 31
0.0
 12
300.6945645923625
 22
135.077053530113
 32
0.0
 13
300.6945645923625
 23
135.077053530113
 33
0.0
  0
SOLID
  5
1161
330
111E
100
AcDbEntity
  8
0
 62
     0
100
AcDbTrace
 10
300.3612312590291
 20
147.0770535301129
 30
0.0
 11
301.0278979256958
 21
147.0770535301129
 31
0.0
 12
300.6945645923625
 22
149.077053530113
 32
0.0
 13
300.6945645923625
 23
149.077053530113
 33
0.0
  0
MTEXT
  5
1162
330
111E
100
AcDbEntity
  8
0
 62
     0
100
AcDbMText
 10
298.5695645923624
 20
155.202053530113
 30
0.0
 40
3.0
 41
0.0
 71
     5
 72
     1
  1
%%c14
 11
0.0000000000000001
 21
1.0
 31
0.0
 73
     1
 44
1.0
  0
POINT
  5
1163
330
111E
100
AcDbEntity
  8
Defpoints
 62
     0
100
AcDbPoint
 10
308.9578567374555
 20
149.077053530113
 30
0.0
  0
POINT
  5
1164
330
111E
100
AcDbEntity
  8
Defpoints
 62
     0
100
AcDbPoint
 10
308.9578567374555
 20
135.077053530113
 30
0.0
  0
POINT
  5
1165
330
111E
100
AcDbEntity
  8
Defpoints
 62
     0
100
AcDbPoint
 10
300.6945645923625
 20
135.077053530113
 30
0.0
  0
ENDBLK
  5
1129
330
111E
100
AcDbEntity
  8
0
100
AcDbBlockEnd
  0
BLOCK
  5
1154
330
114A
100
AcDbEntity
  8
0
100
AcDbBlockBegin
  2
*D11
 70
     1
 10
0.0
 20
0.0
 30
0.0
  3
*D11
  1

  0
LINE
  5
1194
330
114A
100
AcDbEntity
  8
0
 62
     7
370
     9
100
AcDbLine
 10
199.7226211414218
 20
234.1255845934335
 30
0.0
 11
199.7226211414218
 21
247.7609478130159
 31
0.0
  0
LINE
  5
1195
330
114A
100
AcDbEntity
  8
0
 62
     7
370
     9
100
AcDbLine
 10
239.7226211414217
 20
234.1255845934335
 30
0.0
 11
239.7226211414217
 21
247.7609478130159
 31
0.0
  0
LINE
  5
1196
330
114A
100
AcDbEntity
  8
0
 62
     0
370
    -2
100
AcDbLine
 10
201.7226211414218
 20
246.5109478130159
 30
0.0
 11
237.7226211414217
 21
246.5109478130159
 31
0.0
  0
SOLID
  5
1197
330
114A
100
AcDbEntity
  8
0
 62
     0
100
AcDbTrace
 10
201.7226211414218
 20
246.8442811463492
 30
0.0
 11
201.7226211414218
 21
246.1776144796826
 31
0.0
 12
199.7226211414218
 22
246.5109478130159
 32
0.0
 13
199.7226211414218
 23
246.5109478130159
 33
0.0
  0
SOLID
  5
1198
330
114A
100
AcDbEntity
  8
0
 62
     0
100
AcDbTrace
 10
237.7226211414217
 20
246.8442811463492
 30
0.0
 11
237.7226211414217
 21
246.1776144796826
 31
0.0
 12
239.7226211414217
 22
246.5109478130159
 32
0.0
 13
239.7226211414217
 23
246.5109478130159
 33
0.0
  0
MTEXT
  5
1199
330
114A
100
AcDbEntity
  8
0
 62
     0
100
AcDbMText
 10
219.7226211414217
 20
248.6359478130159
 30
0.0
 40
3.0
 41
0.0
 71
     5
 72
     1
  1
40
 73
     1
 44
1.0
  0
POINT
  5
119A
330
114A
100
AcDbEntity
  8
Defpoints
 62
     0
100
AcDbPoint
 10
199.7226211414218
 20
233.5005845934336
 30
0.0
  0
POINT
  5
119B
330
114A
100
AcDbEntity
  8
Defpoints
 62
     0
100
AcDbPoint
 10
239.7226211414217
 20
233.5005845934336
 30
0.0
  0
POINT
  5
119C
330
114A
100
AcDbEntity
  8
Defpoints
 62
     0
100
AcDbPoint
 10
239.7226211414217
 20
246.5109478130159
 30
0.0
  0
ENDBLK
  5
1155
330
114A
100
AcDbEntity
  8
0
100
AcDbBlockEnd
  0
ENDSEC
  0
SECTION
  2
ENTITIES
  0
VIEWPORT
  5
2F
330
1B
100
AcDbEntity
 67
     1
  8
0
100
AcDbViewport
 10
221.5723645383965
 20
138.0803140765944
 30
0.0
 40
670.7353402248332
 41
444.0692951122982
 68
     1
 69
     1
 12
221.5723645383965
 22
138.0803140765944
 13
0.0
 23
0.0
 14
10.0
 24
10.0
 15
10.0
 25
10.0
 16
0.0
 26
0.0
 36
1.0
 17
0.0
 27
0.0
 37
0.0
 42
50.0
 43
0.0
 44
0.0
 45
444.0692951122982
 50
0.0
 51
0.0
 72
   100
 90
    32800
  1

281
     0
 71
     1
 74
     0
110
0.0
120
0.0
130
0.0
111
1.0
121
0.0
131
0.0
112
0.0
122
1.0
132
0.0
 79
     0
146
0.0
  0
LWPOLYLINE
  5
AA
330
1B
100
AcDbEntity
 67
     1
  8
２
 62
     0
100
AcDbPolyline
 90
        4
 70
     1
 43
0.0
 10
1.042221639059562
 20
284.1844718556203
 10
407.757958684845
 20
284.1844718556203
 10
407.757958684845
 20
1.08829855961801
 10
1.042221639059562
 20
1.08829855961801
  0
MTEXT
  5
1DD
330
1B
100
AcDbEntity
 67
     1
  8
１
100
AcDbMText
 10
187.6389970102438
 20
148.8327383458293
 30
0.0
 40
2.5
 41
0.0
 71
     9
 72
     1
  1

  7
ｽﾀｲﾙ1
 73
     1
 44
1.0
  0
MTEXT
  5
1DF
330
1B
100
AcDbEntity
 67
     1
  8
１
100
AcDbMText
 10
125.9251163363451
 20
100.1557259194321
 30
0.0
 40
2.5
 41
0.0
 71
     9
 72
     1
  1

  7
ｽﾀｲﾙ1
 73
     1
 44
1.0
  0
MTEXT
  5
1F5
330
1B
100
AcDbEntity
 67
     1
  8
１
100
AcDbMText
 10
95.93852678293661
 20
241.1781167614512
 30
0.0
 40
2.5
 41
0.0
 71
     1
 72
     1
  1

  7
ｽﾀｲﾙ1
 73
     1
 44
1.0
  0
MTEXT
  5
1F7
330
1B
100
AcDbEntity
 67
     1
  8
１
100
AcDbMText
 10
103.8845037960281
 20
221.796204377297
 30
0.0
 40
2.5
 41
0.0
 71
     1
 72
     1
  1

  7
ｽﾀｲﾙ1
 73
     1
 44
1.0
  0
LINE
  5
408
330
1B
100
AcDbEntity
 67
     1
  8
１
 62
     0
 48
25.0
100
AcDbLine
 10
6.993853619318826
 20
6.288298559618009
 30
0.0
 11
143.2187496312075
 21
6.288298559617537
 31
0.0
  0
LINE
  5
409
330
1B
100
AcDbEntity
 67
     1
  8
１
 62
     0
 48
25.0
100
AcDbLine
 10
143.2187496312075
 20
8.888298559618011
 30
0.0
 11
6.993853619318826
 21
8.888298559618011
 31
0.0
  0
LINE
  5
40A
330
1B
100
AcDbEntity
 67
     1
  8
１
 62
     0
 48
25.0
100
AcDbLine
 10
143.2187496312075
 20
3.68829855961801
 30
0.0
 11
6.993853619318826
 21
3.68829855961801
 31
0.0
  0
LINE
  5
40B
330
1B
100
AcDbEntity
 67
     1
  8
２
 62
     0
370
    20
100
AcDbLine
 10
2.157958684845141
 20
1.08829855961801
 30
0.0
 11
407.757958684845
 21
1.08829855961801
 31
0.0
  0
LINE
  5
40C
330
1B
100
AcDbEntity
 67
     1
  8
2
 62
     0
 48
25.0
100
AcDbLine
 10
2.157958684845141
 20
11.488298559618
 30
0.0
 11
407.757958684845
 21
11.488298559618
 31
0.0
  0
LINE
  5
40D
330
1B
100
AcDbEntity
 67
     1
  8
２
 62
     0
370
    20
100
AcDbLine
 10
407.757958684845
 20
1.08829855961801
 30
0.0
 11
17.7579586848451
 21
1.08829855961801
 31
0.0
  0
LINE
  5
40E
330
1B
100
AcDbEntity
 67
     1
  8
0
 62
     0
100
AcDbLine
 10
2.157958684845141
 20
1.08829855961801
 30
0.0
 11
407.757958684845
 21
1.08829855961801
 31
0.0
  0
LINE
  5
40F
330
1B
100
AcDbEntity
 67
     1
  8
0
 62
     0
100
AcDbLine
 10
17.7579586848451
 20
1.08829855961801
 30
0.0
 11
2.157958684845141
 21
1.08829855961801
 31
0.0
  0
MTEXT
  5
410
330
1B
100
AcDbEntity
 67
     1
  8
１
 62
     0
 48
20.0
100
AcDbMText
 10
4.575906684845307
 20
6.288298559618013
 30
0.0
 40
2.339999999999999
 41
4.835895999999999
 71
     5
 72
     5
  1
{\fMS UI Gothic|b0|i0|c128|p17;記\P事}
 73
     1
 44
1.0
  0
LINE
  5
411
330
1B
100
AcDbEntity
 67
     1
  8
２
 62
     0
 48
25.0
100
AcDbLine
 10
6.993853619318826
 20
11.488298559618
 30
0.0
 11
6.993853619318826
 21
1.08829855961801
 31
0.0
  0
MTEXT
  5
412
330
1B
100
AcDbEntity
 67
     1
  8
１
 62
     0
 48
25.0
100
AcDbMText
 10
380.922486627896
 20
6.288298559618013
 30
0.0
 40
3.9
 41
53.67094199999999
 71
     5
 72
     5
  1
{\fMS UI Gothic|b0|i0|c128|p17;株式会社 アルティマ}
 73
     1
 44
1.0
  0
LINE
  5
413
330
1B
100
AcDbEntity
 67
     1
  8
0
 62
     0
 48
25.0
100
AcDbLine
 10
198.0567989931067
 20
11.488298559618
 30
0.0
 11
218.4927989931064
 21
11.488298559618
 31
0.0
  0
MTEXT
  5
414
330
1B
100
AcDbEntity
 67
     1
  8
１
 62
     0
 48
25.0
100
AcDbMText
 10
208.006976893107
 20
6.288298559618013
 30
0.0
 40
2.339999999999999
 41
16.6764
 71
     5
 72
     5
  1
{\fMS UI Gothic|b0|i0|c128|p17;S=1/１}
 73
     1
 44
1.0
  0
LINE
  5
415
330
1B
100
AcDbEntity
 67
     1
  8
２
 62
     0
 48
25.0
100
AcDbLine
 10
198.0567989931067
 20
11.488298559618
 30
0.0
 11
198.0567989931067
 21
1.08829855961801
 31
0.0
  0
MTEXT
  5
416
330
1B
100
AcDbEntity
 67
     1
  8
１
 62
     0
 48
25.0
100
AcDbMText
 10
180.854726059599
 20
8.888298559618007
 30
0.0
 40
1.82
 41
34.40409999999999
 71
     5
 72
     5
  1
2016-
 73
     1
 44
1.0
  0
LINE
  5
417
330
1B
100
AcDbEntity
 67
     1
  8
0
 62
     0
 48
25.0
100
AcDbLine
 10
143.2187496312075
 20
11.488298559618
 30
0.0
 11
143.2187496312075
 21
6.288298559618009
 31
0.0
  0
MTEXT
  5
418
330
1B
100
AcDbEntity
 67
     1
  8
１
 62
     0
 48
25.0
100
AcDbMText
 10
153.8116670312071
 20
8.888298559618007
 30
0.0
 40
2.339999999999999
 41
21.1858348
 71
     5
 72
     5
  1
{\fMS UI Gothic|b0|i0|c128|p17;作図日}
 73
     1
 44
1.0
  0
MTEXT
  5
419
330
1B
100
AcDbEntity
 67
     1
  8
１
 62
     0
 48
25.0
100
AcDbMText
 10
180.854726059599
 20
3.688298559618004
 30
0.0
 40
1.82
 41
34.4041464
 71
     5
 72
     5
  1
E.Nomura
 73
     1
 44
1.0
  0
MTEXT
  5
41A
330
1B
100
AcDbEntity
 67
     1
  8
１
 62
     0
 48
25.0
100
AcDbMText
 10
153.4357018312073
 20
3.688298559618004
 30
0.0
 40
2.339999999999999
 41
20.4339044
 71
     5
 72
     5
  1
{\fMS UI Gothic|b0|i0|c128|p17;作図者}
 73
     1
 44
1.0
  0
LINE
  5
41B
330
1B
100
AcDbEntity
 67
     1
  8
２
 62
     0
 48
25.0
100
AcDbLine
 10
143.2187496312075
 20
11.488298559618
 30
0.0
 11
143.2187496312075
 21
1.08829855961801
 31
0.0
  0
LINE
  5
41C
330
1B
100
AcDbEntity
 67
     1
  8
２
 62
     0
 48
25.0
100
AcDbLine
 10
143.2187496312075
 20
6.288298559617537
 30
0.0
 11
143.2187496312075
 21
1.08829855961801
 31
0.0
  0
LINE
  5
41D
330
1B
100
AcDbEntity
 67
     1
  8
２
 62
     0
 48
25.0
100
AcDbLine
 10
163.6526528595987
 20
11.488298559618
 30
0.0
 11
163.6526528595987
 21
1.08829855961801
 31
0.0
  0
LINE
  5
41E
330
1B
100
AcDbEntity
 67
     1
  8
１
 62
     0
 48
25.0
100
AcDbLine
 10
143.2187496312075
 20
6.288298559618009
 30
0.0
 11
198.0567989931067
 21
6.288298559618009
 31
0.0
  0
LINE
  5
41F
330
1B
100
AcDbEntity
 67
     1
  8
２
 62
     0
 48
25.0
100
AcDbLine
 10
143.2187496312075
 20
11.488298559618
 30
0.0
 11
198.0567989931067
 21
11.488298559618
 31
0.0
  0
LINE
  5
420
330
1B
100
AcDbEntity
 67
     1
  8
１
 62
     0
 48
25.0
100
AcDbLine
 10
218.4927989931064
 20
6.288298559618009
 30
0.0
 11
333.27521464208
 21
6.288298559618009
 31
0.0
  0
LINE
  5
421
330
1B
100
AcDbEntity
 67
     1
  8
0
 62
     0
 48
25.0
100
AcDbLine
 10
218.4927989931064
 20
11.488298559618
 30
0.0
 11
238.9287989931069
 21
11.488298559618
 31
0.0
  0
MTEXT
  5
422
330
1B
100
AcDbEntity
 67
     1
  8
１
 62
     0
 48
25.0
100
AcDbMText
 10
228.7107989931072
 20
8.888298559618007
 30
0.0
 40
2.339999999999999
 41
20.436
 71
     5
 72
     5
  1
{\fMS UI Gothic|b0|i0|c128|p17;物件名称}
 73
     1
 44
1.0
  0
MTEXT
  5
423
330
1B
100
AcDbEntity
 67
     1
  8
１
 62
     0
 48
25.0
100
AcDbMText
 10
228.7107989931072
 20
3.688298559618004
 30
0.0
 40
2.339999999999999
 41
20.436
 71
     5
 72
     5
  1
{\fMS UI Gothic|b0|i0|c128|p17;図　　　名}
 73
     1
 44
1.0
  0
LINE
  5
424
330
1B
100
AcDbEntity
 67
     1
  8
0
 62
     0
 48
25.0
100
AcDbLine
 10
218.4927989931064
 20
11.488298559618
 30
0.0
 11
218.4927989931064
 21
1.08829855961801
 31
0.0
  0
LINE
  5
425
330
1B
100
AcDbEntity
 67
     1
  8
２
 62
     0
 48
25.0
100
AcDbLine
 10
218.4927989931064
 20
11.488298559618
 30
0.0
 11
218.4927989931064
 21
1.08829855961801
 31
0.0
  0
LINE
  5
426
330
1B
100
AcDbEntity
 67
     1
  8
２
 62
     0
 48
25.0
100
AcDbLine
 10
238.9287989931069
 20
11.488298559618
 30
0.0
 11
238.9287989931069
 21
1.08829855961801
 31
0.0
  0
LINE
  5
427
330
1B
100
AcDbEntity
 67
     1
  8
0
 62
     0
 48
25.0
100
AcDbLine
 10
230.4397987437844
 20
11.488298559618
 30
0.0
 11
292.2633787437843
 21
11.488298559618
 31
0.0
  0
HATCH
  5
428
330
1B
100
AcDbEntity
 67
     1
  8
Object
 62
     0
 48
0.3
100
AcDbHatch
 10
0.0
 20
0.0
 30
0.0
210
0.0
220
0.0
230
1.0
  2
ANSI31
 70
     0
 71
     1
 91
        1
 92
        1
 93
        6
 72
     1
 10
345.7559450982395
 20
9.347503649218374
 11
346.8791450982394
 21
9.347503649218374
 72
     1
 10
346.8791450982394
 20
9.347503649218374
 11
346.8791450982394
 21
4.405423649218423
 72
     1
 10
346.8791450982394
 20
4.405423649218423
 11
349.1255450982392
 21
4.405423649218423
 72
     1
 10
349.1255450982392
 20
4.405423649218423
 11
349.1255450982392
 21
3.282223649218499
 72
     1
 10
349.1255450982392
 20
3.282223649218499
 11
345.7559450982395
 21
3.282223649218499
 72
     1
 10
345.7559450982395
 20
3.282223649218499
 11
345.7559450982395
 21
9.347503649218374
 97
        6
330
42F
330
44F
330
43F
330
43D
330
440
330
44D
 75
     0
 76
     1
 52
0.0
 41
0.00468
 77
     0
 78
     1
 53
45.0
 43
277.0586179603783
 44
-39.40296006486493
 45
-0.0105068996616509
 46
0.0105068996616509
 79
     0
 98
        1
 10
277.0586179603783
 20
-39.40296006486493
  0
HATCH
  5
429
330
1B
100
AcDbEntity
 67
     1
  8
Object
 62
     0
 48
0.3
100
AcDbHatch
 10
0.0
 20
0.0
 30
0.0
210
0.0
220
0.0
230
1.0
  2
ANSI31
 70
     0
 71
     0
 91
        1
 92
        7
 72
     1
 73
     1
 93
       17
 10
351.2469538682474
 20
4.973920343988897
 42
0.0
 10
351.2469538682474
 20
7.662703649218489
 42
-1.0
 10
352.3701538682473
 20
7.662703649218489
 42
0.0
 10
352.3701538682473
 20
7.013858581380404
 42
0.0
 10
353.4933538682472
 20
7.013858581380404
 42
0.0
 10
353.4933538682472
 20
7.662703649218489
 42
1.0
 10
350.1237538682474
 20
7.662703649218489
 42
0.0
 10
350.1237538682474
 20
4.973920343988897
 42
0.3509045778194451
 10
351.4394428629414
 20
3.330050487290604
 42
0.407199901548665
 10
352.3701538682473
 20
3.877388708773791
 42
0.0
 10
352.3701538682473
 20
3.282223649218497
 42
0.0
 10
353.4933538682472
 20
3.282223649218497
 42
0.0
 10
353.4933538682472
 20
6.33880114490555
 42
0.0
 10
351.8101362509458
 20
6.33880114490555
 42
0.0
 10
351.8101362509458
 20
5.215601144905626
 42
0.0
 10
352.3701538682473
 20
5.215601144905626
 42
0.0
 10
352.3701538682473
 20
4.973920343988897
 42
-1.0
 97
        0
 75
     0
 76
     1
 52
0.0
 41
0.00468
 77
     0
 78
     1
 53
45.0
 43
277.0586179603783
 44
-39.40296006486493
 45
-0.0105068996616509
 46
0.0105068996616509
 79
     0
 47
0.0407053698821989
 98
        1
 10
351.694642141981
 20
4.056669519006494
  0
HATCH
  5
42A
330
1B
100
AcDbEntity
 67
     1
  8
Object
 62
     0
 48
0.3
100
AcDbHatch
 10
0.0
 20
0.0
 30
0.0
210
0.0
220
0.0
230
1.0
  2
ANSI31
 70
     0
 71
     1
 91
        1
 92
        1
 93
        8
 72
     1
 10
341.6375450982394
 20
9.347503649218374
 11
340.5143450982395
 21
9.347503649218374
 72
     1
 10
340.5143450982395
 20
9.347503649218374
 11
340.5143450982395
 21
4.967023649218386
 72
     2
 10
342.1991450982394
 20
4.967023649218386
 40
1.6848
 50
180.0
 51
360.0
 73
     1
 72
     1
 10
343.8839450982393
 20
4.967023649218386
 11
343.8839450982393
 21
9.347503649218374
 72
     1
 10
343.8839450982393
 20
9.347503649218374
 11
342.7607450982394
 21
9.347503649218374
 72
     1
 10
342.7607450982394
 20
9.347503649218374
 11
342.7607450982394
 21
4.967023649218386
 72
     2
 10
342.1991450982394
 20
4.967023649218386
 40
0.5616000000000002
 50
360.0
 51
540.0
 73
     0
 72
     1
 10
341.6375450982394
 20
4.967023649218386
 11
341.6375450982394
 21
9.347503649218374
 97
        8
330
432
330
447
330
444
330
44E
330
434
330
445
330
443
330
446
 75
     0
 76
     1
 52
0.0
 41
0.00468
 77
     0
 78
     1
 53
45.0
 43
277.0586179603783
 44
-39.40296006486493
 45
-0.0105068996616509
 46
0.0105068996616509
 79
     0
 98
        1
 10
277.0586179603783
 20
-39.40296006486493
  0
LINE
  5
42B
330
1B
100
AcDbEntity
 67
     1
  8
Object
 62
     0
 48
0.3
100
AcDbLine
 10
353.4933538682472
 20
6.338801144905552
 30
0.0
 11
351.8101362509458
 21
6.338801144905552
 31
0.0
  0
LINE
  5
42C
330
1B
100
AcDbEntity
 67
     1
  8
Object
 62
     0
 48
0.3
100
AcDbLine
 10
352.3701538682472
 20
7.013858581380404
 30
0.0
 11
353.4933538682472
 21
7.013858581380404
 31
0.0
  0
LINE
  5
42D
330
1B
100
AcDbEntity
 67
     1
  8
Object
 62
     0
 48
0.3
100
AcDbLine
 10
352.3701538682472
 20
7.013858581380404
 30
0.0
 11
352.3701538682472
 21
7.662703649218489
 31
0.0
  0
LINE
  5
42E
330
1B
100
AcDbEntity
 67
     1
  8
Object
 62
     0
 48
0.3
100
AcDbLine
 10
353.4933538682472
 20
7.662703649218489
 30
0.0
 11
353.4933538682472
 21
7.013858581380404
 31
0.0
  0
LINE
  5
42F
102
{ACAD_REACTORS
330
428
102
}
330
1B
100
AcDbEntity
 67
     1
  8
Object
 62
     0
 48
0.3
100
AcDbLine
 10
345.7559450982395
 20
9.347503649218374
 30
0.0
 11
346.8791450982394
 21
9.347503649218374
 31
0.0
  0
ARC
  5
430
330
1B
100
AcDbEntity
 67
     1
  8
Object
 62
     0
 48
0.3
100
AcDbCircle
 10
351.8085538682473
 20
7.662703649218489
 30
0.0
 40
0.5616000000000002
100
AcDbArc
 50
0.0
 51
180.0
  0
ARC
  5
431
330
1B
100
AcDbEntity
 67
     1
  8
Object
 62
     0
 48
0.3
100
AcDbCircle
 10
351.8085538682473
 20
7.662703649218489
 30
0.0
 40
1.6848
100
AcDbArc
 50
0.0
 51
180.0
  0
LINE
  5
432
102
{ACAD_REACTORS
330
42A
102
}
330
1B
100
AcDbEntity
 67
     1
  8
Object
 62
     0
 48
0.3
100
AcDbLine
 10
341.6375450982394
 20
9.347503649218374
 30
0.0
 11
340.5143450982395
 21
9.347503649218374
 31
0.0
  0
LINE
  5
433
330
1B
100
AcDbEntity
 67
     1
  8
Object
 62
     0
 48
0.3
100
AcDbLine
 10
340.5143450982395
 20
9.347503649218374
 30
0.0
 11
341.6375450982394
 21
9.347503649218374
 31
0.0
  0
LINE
  5
434
102
{ACAD_REACTORS
330
42A
102
}
330
1B
100
AcDbEntity
 67
     1
  8
Object
 62
     0
 48
0.3
100
AcDbLine
 10
342.7607450982394
 20
9.347503649218374
 30
0.0
 11
343.8839450982393
 21
9.347503649218374
 31
0.0
  0
LINE
  5
435
330
1B
100
AcDbEntity
 67
     1
  8
Object
 62
     0
 48
0.3
100
AcDbLine
 10
352.3701538682472
 20
3.877388708771899
 30
0.0
 11
352.3701538682472
 21
3.282223649218499
 31
0.0
  0
LINE
  5
436
330
1B
100
AcDbEntity
 67
     1
  8
Object
 62
     0
 48
0.3
100
AcDbLine
 10
352.3701538682472
 20
5.215601144905626
 30
0.0
 11
352.3701538682472
 21
4.973920343988897
 31
0.0
  0
LINE
  5
437
330
1B
100
AcDbEntity
 67
     1
  8
Object
 62
     0
 48
0.3
100
AcDbLine
 10
351.8101362509458
 20
5.215601144905626
 30
0.0
 11
352.3701538682472
 21
5.215601144905626
 31
0.0
  0
LINE
  5
438
330
1B
100
AcDbEntity
 67
     1
  8
Object
 62
     0
 48
0.3
100
AcDbLine
 10
352.3701538682472
 20
5.215601144905626
 30
0.0
 11
352.3701538682472
 21
4.955799910284218
 31
0.0
  0
LINE
  5
439
330
1B
100
AcDbEntity
 67
     1
  8
Object
 62
     0
 48
0.3
100
AcDbLine
 10
352.3701538682472
 20
4.973920343988897
 30
0.0
 11
352.3701538682472
 21
5.215601144905626
 31
0.0
  0
LINE
  5
43A
330
1B
100
AcDbEntity
 67
     1
  8
Object
 62
     0
 48
0.3
100
AcDbLine
 10
351.8101362509458
 20
5.215601144905626
 30
0.0
 11
352.3701538682472
 21
5.215601144905626
 31
0.0
  0
LINE
  5
43B
330
1B
100
AcDbEntity
 67
     1
  8
Object
 62
     0
 48
0.3
100
AcDbLine
 10
353.4933538682472
 20
3.282223649218499
 30
0.0
 11
352.3701538682472
 21
3.282223649218499
 31
0.0
  0
LINE
  5
43C
330
1B
100
AcDbEntity
 67
     1
  8
Object
 62
     0
 48
0.3
100
AcDbLine
 10
352.3701538682472
 20
3.282223649218499
 30
0.0
 11
353.4933538682472
 21
3.282223649218499
 31
0.0
  0
LINE
  5
43D
102
{ACAD_REACTORS
330
428
102
}
330
1B
100
AcDbEntity
 67
     1
  8
Object
 62
     0
 48
0.3
100
AcDbLine
 10
349.1255450982392
 20
3.282223649218499
 30
0.0
 11
349.1255450982392
 21
4.405423649218423
 31
0.0
  0
ARC
  5
43E
330
1B
100
AcDbEntity
 67
     1
  8
Object
 62
     0
 48
0.3
100
AcDbCircle
 10
351.8085538682473
 20
4.973920343988897
 30
0.0
 40
1.6848
100
AcDbArc
 50
180.0
 51
257.3448222610501
  0
LINE
  5
43F
102
{ACAD_REACTORS
330
428
102
}
330
1B
100
AcDbEntity
 67
     1
  8
Object
 62
     0
 48
0.3
100
AcDbLine
 10
349.1255450982392
 20
4.405423649218423
 30
0.0
 11
346.8791450982394
 21
4.405423649218423
 31
0.0
  0
LINE
  5
440
102
{ACAD_REACTORS
330
428
102
}
330
1B
100
AcDbEntity
 67
     1
  8
Object
 62
     0
 48
0.3
100
AcDbLine
 10
345.7559450982395
 20
3.282223649218499
 30
0.0
 11
349.1255450982392
 21
3.282223649218499
 31
0.0
  0
ARC
  5
441
330
1B
100
AcDbEntity
 67
     1
  8
Object
 62
     0
 48
0.3
100
AcDbCircle
 10
351.6244795921702
 20
4.080382394780059
 30
0.0
 40
0.7728108193866524
100
AcDbArc
 50
256.1468978562146
 51
344.7714912032799
  0
ARC
  5
442
330
1B
100
AcDbEntity
 67
     1
  8
Object
 62
     0
 48
0.3
100
AcDbCircle
 10
351.8085538682473
 20
4.973920343988897
 30
0.0
 40
0.5616000000000002
100
AcDbArc
 50
180.0
 51
0.0
  0
ARC
  5
443
102
{ACAD_REACTORS
330
42A
102
}
330
1B
100
AcDbEntity
 67
     1
  8
Object
 62
     0
 48
0.3
100
AcDbCircle
 10
342.1991450982394
 20
4.967023649218386
 30
0.0
 40
0.5616000000000002
100
AcDbArc
 50
180.0
 51
0.0
  0
ARC
  5
444
102
{ACAD_REACTORS
330
42A
102
}
330
1B
100
AcDbEntity
 67
     1
  8
Object
 62
     0
 48
0.3
100
AcDbCircle
 10
342.1991450982394
 20
4.967023649218386
 30
0.0
 40
1.6848
100
AcDbArc
 50
180.0
 51
0.0
  0
LINE
  5
445
102
{ACAD_REACTORS
330
42A
102
}
330
1B
100
AcDbEntity
 67
     1
  8
Object
 62
     0
 48
0.3
100
AcDbLine
 10
342.7607450982394
 20
9.347503649218374
 30
0.0
 11
342.7607450982394
 21
4.967023649218386
 31
0.0
  0
LINE
  5
446
102
{ACAD_REACTORS
330
42A
102
}
330
1B
100
AcDbEntity
 67
     1
  8
Object
 62
     0
 48
0.3
100
AcDbLine
 10
341.6375450982394
 20
9.347503649218374
 30
0.0
 11
341.6375450982394
 21
4.967023649218386
 31
0.0
  0
LINE
  5
447
102
{ACAD_REACTORS
330
42A
102
}
330
1B
100
AcDbEntity
 67
     1
  8
Object
 62
     0
 48
0.3
100
AcDbLine
 10
340.5143450982395
 20
4.967023649218386
 30
0.0
 11
340.5143450982395
 21
9.347503649218374
 31
0.0
  0
LINE
  5
448
330
1B
100
AcDbEntity
 67
     1
  8
２
 62
     0
 48
20.0
100
AcDbLine
 10
333.27521464208
 20
11.488298559618
 30
0.0
 11
333.27521464208
 21
1.08829855961801
 31
0.0
  0
LINE
  5
449
330
1B
100
AcDbEntity
 67
     1
  8
1
 62
     0
 48
20.0
100
AcDbLine
 10
333.27521464208
 20
11.488298559618
 30
0.0
 11
333.27521464208
 21
1.08829855961801
 31
0.0
  0
LINE
  5
44A
330
1B
100
AcDbEntity
 67
     1
  8
Object
 62
     0
 48
0.3
100
AcDbLine
 10
351.2469538682474
 20
4.973920343988897
 30
0.0
 11
351.2469538682474
 21
7.662703649218489
 31
0.0
  0
LINE
  5
44B
330
1B
100
AcDbEntity
 67
     1
  8
Object
 62
     0
 48
0.3
100
AcDbLine
 10
350.1237538682464
 20
4.909468561639801
 30
0.0
 11
350.1237538682464
 21
7.662703649218489
 31
0.0
  0
LINE
  5
44C
330
1B
100
AcDbEntity
 67
     1
  8
Object
 62
     0
 48
0.3
100
AcDbLine
 10
351.2469538682474
 20
4.973920343988897
 30
0.0
 11
351.2469538682474
 21
7.662703649218489
 31
0.0
  0
LINE
  5
44D
102
{ACAD_REACTORS
330
428
102
}
330
1B
100
AcDbEntity
 67
     1
  8
Object
 62
     0
 48
0.3
100
AcDbLine
 10
345.7559450982395
 20
9.347503649218374
 30
0.0
 11
345.7559450982395
 21
3.282223649218499
 31
0.0
  0
LINE
  5
44E
102
{ACAD_REACTORS
330
42A
102
}
330
1B
100
AcDbEntity
 67
     1
  8
Object
 62
     0
 48
0.3
100
AcDbLine
 10
343.8839450982393
 20
9.347503649218374
 30
0.0
 11
343.8839450982393
 21
4.967023649218386
 31
0.0
  0
LINE
  5
44F
102
{ACAD_REACTORS
330
428
102
}
330
1B
100
AcDbEntity
 67
     1
  8
Object
 62
     0
 48
0.3
100
AcDbLine
 10
346.8791450982394
 20
9.347503649218374
 30
0.0
 11
346.8791450982394
 21
4.405423649218423
 31
0.0
  0
LINE
  5
450
330
1B
100
AcDbEntity
 67
     1
  8
Object
 62
     0
 48
0.3
100
AcDbLine
 10
353.4933538682472
 20
6.338801144905078
 30
0.0
 11
353.4933538682472
 21
3.282223649218499
 31
0.0
  0
LINE
  5
451
330
1B
100
AcDbEntity
 67
     1
  8
Object
 62
     0
 48
0.3
100
AcDbLine
 10
351.8101362509458
 20
6.338801144905552
 30
0.0
 11
351.8101362509458
 21
5.215601144905626
 31
0.0
  0
LINE
  5
452
330
1B
100
AcDbEntity
 67
     1
  8
2
 62
     0
100
AcDbLine
 10
2.157958684845141
 20
11.488298559618
 30
0.0
 11
1.042221639059562
 21
11.488298559618
 31
0.0
  0
LINE
  5
453
330
1B
100
AcDbEntity
 67
     1
  8
2
 62
     0
100
AcDbLine
 10
1.042221639059562
 20
11.488298559618
 30
0.0
 11
407.757958684845
 21
11.48829855961798
 31
0.0
  0
LINE
  5
454
330
1B
100
AcDbEntity
 67
     1
  8
2
 62
     0
100
AcDbLine
 10
143.2187496312075
 20
11.488298559618
 30
0.0
 11
143.2187496312075
 21
1.08829855961801
 31
0.0
  0
LINE
  5
455
330
1B
100
AcDbEntity
 67
     1
  8
2
 62
     0
100
AcDbLine
 10
163.6526528595987
 20
11.48829855961799
 30
0.0
 11
163.6526528595987
 21
1.08829855961801
 31
0.0
  0
LINE
  5
456
330
1B
100
AcDbEntity
 67
     1
  8
2
 62
     0
100
AcDbLine
 10
198.0567989931067
 20
11.48829855961799
 30
0.0
 11
198.0567989931068
 21
1.08829855961801
 31
0.0
  0
LINE
  5
457
330
1B
100
AcDbEntity
 67
     1
  8
2
 62
     0
100
AcDbLine
 10
218.4927989931064
 20
11.48829855961799
 30
0.0
 11
218.4927989931064
 21
1.08829855961801
 31
0.0
  0
LINE
  5
458
330
1B
100
AcDbEntity
 67
     1
  8
2
 62
     0
100
AcDbLine
 10
238.9287989931069
 20
11.48829855961799
 30
0.0
 11
238.9287989931069
 21
1.08829855961801
 31
0.0
  0
LINE
  5
459
330
1B
100
AcDbEntity
 67
     1
  8
2
 62
     0
100
AcDbLine
 10
333.27521464208
 20
11.48829855961799
 30
0.0
 11
333.27521464208
 21
1.08829855961801
 31
0.0
  0
LINE
  5
45A
330
1B
100
AcDbEntity
 67
     1
  8
2
 62
     0
100
AcDbLine
 10
143.2187496312075
 20
6.288298559617537
 30
0.0
 11
198.0567989931067
 21
6.288298559617536
 31
0.0
  0
LINE
  5
45B
330
1B
100
AcDbEntity
 67
     1
  8
2
 62
     0
100
AcDbLine
 10
218.4927989931064
 20
6.288298559618004
 30
0.0
 11
333.27521464208
 21
6.288298559618009
 31
0.0
  0
LINE
  5
45C
330
1B
100
AcDbEntity
 67
     1
  8
2
 62
     0
100
AcDbLine
 10
6.993853619318826
 20
11.488298559618
 30
0.0
 11
6.993853619318826
 21
1.08829855961801
 31
0.0
  0
MTEXT
  5
492
330
1B
100
AcDbEntity
 67
     1
  8
1
 62
     1
100
AcDbMText
 10
141.076492619535
 20
2.388298559618007
 30
0.0
 40
0.8
 41
4.2845
 71
     5
 72
     5
  1
2.34
 73
     1
 44
1.0
  0
MTEXT
  5
C32
330
1B
100
AcDbEntity
 67
     1
  8
0
 62
     0
 48
0.5
100
AcDbMText
 10
218.1091610984033
 20
259.2702341327691
 30
0.0
 40
4.0
 41
35.5282
 71
     5
 72
     5
  1
グリップ
 73
     1
 44
1.0
  0
LINE
  5
C37
330
1B
100
AcDbEntity
 67
     1
  8
0
 62
     0
 48
0.3
100
AcDbLine
 10
9.249768224072113
 20
18.6700140997231
 30
0.0
 11
81.2497682240721
 21
18.6700140997231
 31
0.0
  0
LINE
  5
C38
330
1B
100
AcDbEntity
 67
     1
  8
0
 62
     0
 48
0.3
100
AcDbLine
 10
81.2497682240721
 20
23.4700140997231
 30
0.0
 11
9.249768224072113
 21
23.4700140997231
 31
0.0
  0
LINE
  5
C39
330
1B
100
AcDbEntity
 67
     1
  8
0
 62
     0
 48
0.3
100
AcDbLine
 10
9.249768224072113
 20
28.27001409972309
 30
0.0
 11
81.2497682240721
 21
28.27001409972309
 31
0.0
  0
LINE
  5
C3A
330
1B
100
AcDbEntity
 67
     1
  8
0
 62
     0
 48
0.3
100
AcDbLine
 10
81.2497682240721
 20
33.07001409972309
 30
0.0
 11
9.249768224072113
 21
33.07001409972309
 31
0.0
  0
LINE
  5
C3B
330
1B
100
AcDbEntity
 67
     1
  8
0
 62
     0
 48
0.3
100
AcDbLine
 10
9.249768224072113
 20
33.07001409972309
 30
0.0
 11
81.2497682240721
 21
33.07001409972309
 31
0.0
  0
MTEXT
  5
C3C
330
1B
100
AcDbEntity
 67
     1
  8
0
 62
     0
 48
0.2
100
AcDbMText
 10
12.45930832879548
 20
43.30250165920233
 30
0.0
 40
2.399999999999999
 41
71.9816
 71
     4
 72
     5
  1
　各部　強度
 73
     1
 44
1.0
  0
MTEXT
  5
C3D
330
1B
100
AcDbEntity
 67
     1
  8
0
 62
     0
 48
0.2
100
AcDbMText
 10
9.249768224072113
 20
21.35831635025265
 30
0.0
 40
2.399999999999999
 41
72.0
 71
     4
 72
     5
  1
　{\H0.8333x;ワイヤー破断強度}
 73
     1
 44
1.0
  0
MTEXT
  5
C3E
330
1B
100
AcDbEntity
 67
     1
  8
0
 62
     0
 48
0.2
100
AcDbMText
 10
9.249768224072113
 20
26.15831635025264
 30
0.0
 40
2.399999999999999
 41
72.0
 71
     4
 72
     5
  1
　端部{\H0.8333x;カシメ}
 73
     1
 44
1.0
  0
MTEXT
  5
C3F
330
1B
100
AcDbEntity
 67
     1
  8
0
 62
     0
 48
0.2
100
AcDbMText
 10
9.249768224072113
 20
30.95831635025263
 30
0.0
 40
2.399999999999999
 41
72.0
 71
     4
 72
     5
  1
　{\H0.8333x;ワイヤーグリップ}
 73
     1
 44
1.0
  0
LINE
  5
C40
330
1B
100
AcDbEntity
 67
     1
  8
0
 62
     0
 48
0.3
100
AcDbLine
 10
9.249768224072113
 20
28.27001409972311
 30
0.0
 11
9.249768224072113
 21
23.4700140997231
 31
0.0
  0
LINE
  5
C41
330
1B
100
AcDbEntity
 67
     1
  8
0
 62
     0
 48
0.3
100
AcDbLine
 10
9.249768224072113
 20
23.4700140997231
 30
0.0
 11
9.249768224072113
 21
18.6700140997231
 31
0.0
  0
LINE
  5
C42
330
1B
100
AcDbEntity
 67
     1
  8
0
 62
     0
 48
0.3
100
AcDbLine
 10
9.249768224072113
 20
33.07001409972309
 30
0.0
 11
9.249768224072113
 21
28.27001409972309
 31
0.0
  0
MTEXT
  5
C44
330
1B
100
AcDbEntity
 67
     1
  8
0
 62
     0
 48
0.2
100
AcDbMText
 10
41.03831933370424
 20
43.22146741749495
 30
0.0
 40
2.0
 41
45.8902
 71
     4
 72
     5
  1
　　%%c3（7×7） SUSワイヤー
 73
     1
 44
1.0
  0
LINE
  5
C45
330
1B
100
AcDbEntity
 67
     1
  8
0
 62
     0
 48
0.2
100
AcDbLine
 10
42.38426366458611
 20
18.67001409972311
 30
0.0
 11
86.92844714505786
 21
18.67001409972311
 31
0.0
  0
LINE
  5
C46
330
1B
100
AcDbEntity
 67
     1
  8
0
 62
     0
 48
0.2
100
AcDbLine
 10
42.38426366458611
 20
23.4700140997231
 30
0.0
 11
86.92844714505786
 21
23.4700140997231
 31
0.0
  0
MTEXT
  5
C47
330
1B
100
AcDbEntity
 67
     1
  8
0
 62
     0
 48
0.2
100
AcDbMText
 10
41.03831933370421
 20
21.35831635025265
 30
0.0
 40
3.599999999999999
 41
45.8902
 71
     4
 72
     5
  1
　{\H0.5556x;660kg}
 73
     1
 44
1.0
  0
MTEXT
  5
C48
330
1B
100
AcDbEntity
 67
     1
  8
0
 62
     0
 48
0.2
100
AcDbMText
 10
41.03831933370421
 20
26.15831635025265
 30
0.0
 40
3.599999999999999
 41
45.8902
 71
     4
 72
     5
  1
　{\H0.5556x;300kg以上（社内規格）}
 73
     1
 44
1.0
  0
LINE
  5
C49
330
1B
100
AcDbEntity
 67
     1
  8
0
 62
     0
 48
0.2
100
AcDbLine
 10
86.92844714505786
 20
28.2700140997231
 30
0.0
 11
42.38426366458611
 21
28.2700140997231
 31
0.0
  0
LINE
  5
C4A
330
1B
100
AcDbEntity
 67
     1
  8
0
 62
     0
 48
0.2
100
AcDbLine
 10
86.92844714505786
 20
33.0700140997231
 30
0.0
 11
42.38426366458611
 21
33.0700140997231
 31
0.0
  0
MTEXT
  5
C4B
330
1B
100
AcDbEntity
 67
     1
  8
0
 62
     0
 48
0.2
100
AcDbMText
 10
41.03831933370421
 20
30.95831635025265
 30
0.0
 40
3.599999999999999
 41
45.8902
 71
     4
 72
     5
  1
　{\H0.5556x;500kg}
 73
     1
 44
1.0
  0
MTEXT
  5
C54
330
1B
100
AcDbEntity
 67
     1
  8
0
 62
     0
 48
0.2
100
AcDbMText
 10
58.92854620773064
 20
30.37517553199112
 30
0.0
 40
2.399999999999999
 41
0.0
 71
     4
 72
     5
  1
　{\H0.8333x;実用300～400kg}
 73
     1
 44
1.0
  0
LINE
  5
C55
330
1B
100
AcDbEntity
 67
     1
  8
0
 62
     0
 48
0.3
100
AcDbLine
 10
86.92844714505786
 20
23.4700140997231
 30
0.0
 11
86.92844714505786
 21
28.27001409972312
 31
0.0
  0
LINE
  5
C56
330
1B
100
AcDbEntity
 67
     1
  8
0
 62
     0
 48
0.3
100
AcDbLine
 10
86.92844714505786
 20
18.67001409972311
 30
0.0
 11
86.92844714505786
 21
23.4700140997231
 31
0.0
  0
LINE
  5
C57
330
1B
100
AcDbEntity
 67
     1
  8
0
 62
     0
 48
0.3
100
AcDbLine
 10
86.92844714505786
 20
28.2700140997231
 30
0.0
 11
86.92844714505786
 21
33.0700140997231
 31
0.0
  0
MTEXT
  5
C58
330
1B
100
AcDbEntity
 67
     1
  8
0
 62
     0
 48
0.5
100
AcDbMText
 10
144.1352582951139
 20
259.7681701922921
 30
0.0
 40
4.0
 41
35.5282
 71
     5
 72
     5
  1
本体
 73
     1
 44
1.0
  0
LEADER
  5
C59
330
1B
100
AcDbEntity
 67
     1
  8
0
 62
     0
 48
0.2
100
AcDbLeader
  3
ISO-25
 73
     0
 40
1.5
 41
9.9
 76
     3
 10
130.90576528359
 20
228.7620667319092
 30
0.0
 10
121.7210658455958
 20
213.293497538884
 30
0.0
 10
121.2489370441942
 20
213.293497538884
 30
0.0
213
0.0
223
1.0
233
0.0
1001
ACAD
1000
DSTYLE
1002
{
1070
   147
1040
0.625
1070
    77
1070
     0
1002
}
  0
MTEXT
  5
C5A
102
{ACAD_REACTORS
330
C59
102
}
330
1B
100
AcDbEntity
 67
     1
  8
0
 62
     0
 48
0.2
100
AcDbMText
 10
119.9989370441942
 20
212.293497538884
 30
0.0
 40
3.0
 41
0.0
 71
     9
 72
     1
  1
貫通孔%%c5.3
 73
     1
 44
1.0
  0
LINE
  5
C5B
330
1B
100
AcDbEntity
 67
     1
  8
0
 62
     0
100
AcDbLine
 10
111.1766914282665
 20
223.7983448953906
 30
0.0
 11
181.1766914282665
 21
223.7983448953906
 31
0.0
  0
LINE
  5
C5C
330
1B
100
AcDbEntity
 67
     1
  8
0
 62
     0
100
AcDbLine
 10
111.1766914282665
 20
238.7983448953906
 30
0.0
 11
181.1766914282665
 21
238.7983448953906
 31
0.0
  0
DIMENSION
  5
C5D
330
1B
100
AcDbEntity
 67
     1
  8
0
 62
     0
100
AcDbDimension
  2
*D2
 10
181.1766914282665
 20
247.170134173846
 30
0.0
 11
143.7303497341272
 21
247.170134173846
 31
0.0
 70
   161
 71
     5
 42
70.0
  3
ISO-25
100
AcDbAlignedDimension
 13
111.1766914282665
 23
238.7983448953906
 33
0.0
 14
181.1766914282665
 24
238.7983448953906
 34
0.0
  0
LINE
  5
C5E
330
1B
100
AcDbEntity
 67
     1
  8
0
 62
     0
100
AcDbLine
 10
60.83125629476967
 20
186.160506812584
 30
0.0
 11
130.8312562947696
 21
186.160506812584
 31
0.0
  0
LINE
  5
C5F
330
1B
100
AcDbEntity
 67
     1
  8
0
 62
     0
100
AcDbLine
 10
60.83125629476967
 20
171.160506812584
 30
0.0
 11
130.8312562947696
 21
171.160506812584
 31
0.0
  0
ARC
  5
C60
330
1B
100
AcDbEntity
 67
     1
  8
0
 62
     0
100
AcDbCircle
 10
57.72483827860674
 20
184.2892136309267
 30
0.0
 40
2.704783243610945
100
AcDbArc
 50
316.2235944163336
 51
43.77640558366637
  0
ARC
  5
C61
330
1B
100
AcDbEntity
 67
     1
  8
0
 62
     0
 48
0.3
100
AcDbCircle
 10
42.80861559181244
 20
184.285506812584
 30
0.0
 40
4.140694259594969
100
AcDbArc
 50
153.0750753098906
 51
206.9249246901093
  0
LINE
  5
C62
330
1B
100
AcDbEntity
 67
     1
  8
0
 62
     0
 48
0.2
100
AcDbLine
 10
60.83125629476967
 20
186.160506812584
 30
0.0
 11
60.83125629476967
 21
171.160506812584
 31
0.0
  0
LINE
  5
C63
330
1B
100
AcDbEntity
 67
     1
  8
0
 62
     0
100
AcDbLine
 10
52.91982815996357
 20
187.1605068125839
 30
0.0
 11
52.91982815996357
 21
170.160506812584
 31
0.0
  0
LINE
  5
C64
330
1B
100
AcDbEntity
 67
     1
  8
0
 62
     0
100
AcDbLine
 10
53.91982815996357
 20
187.1605068125839
 30
0.0
 11
53.91982815996357
 21
170.160506812584
 31
0.0
  0
LINE
  5
C65
330
1B
100
AcDbEntity
 67
     1
  8
0
 62
     0
100
AcDbLine
 10
54.91982815996357
 20
171.160506812584
 30
0.0
 11
54.91982815996357
 21
186.160506812584
 31
0.0
  0
LINE
  5
C66
330
1B
100
AcDbEntity
 67
     1
  8
0
 62
     0
100
AcDbLine
 10
60.83125629476967
 20
186.160506812584
 30
0.0
 11
60.83125629476967
 21
171.160506812584
 31
0.0
  0
LINE
  5
C67
330
1B
100
AcDbEntity
 67
     1
  8
0
 62
     0
100
AcDbLine
 10
46.91982815996357
 20
170.160506812584
 30
0.0
 11
46.91982815996357
 21
187.1605068125839
 31
0.0
  0
LINE
  5
C68
330
1B
100
AcDbEntity
 67
     1
  8
0
 62
     0
100
AcDbLine
 10
45.31982815996366
 20
187.1605068125839
 30
0.0
 11
45.31982815996366
 21
170.160506812584
 31
0.0
  0
LINE
  5
C69
330
1B
100
AcDbEntity
 67
     1
  8
0
 62
     0
100
AcDbLine
 10
45.31982815996321
 20
171.160506812584
 30
0.0
 11
45.31982815996321
 21
186.1605068125841
 31
0.0
  0
LINE
  5
C6A
330
1B
100
AcDbEntity
 67
     1
  8
0
 62
     0
 48
0.2
100
AcDbLine
 10
60.83125629476967
 20
186.160506812584
 30
0.0
 11
60.83125629476967
 21
171.160506812584
 31
0.0
  0
LINE
  5
C6B
330
1B
100
AcDbEntity
 67
     1
  8
0
 62
     0
100
AcDbLine
 10
33.46301482095009
 20
182.035506812584
 30
0.0
 11
38.6948281599632
 21
182.035506812584
 31
0.0
  0
LINE
  5
C6C
330
1B
100
AcDbEntity
 67
     1
  8
0
 62
     0
100
AcDbLine
 10
38.6948281599632
 20
182.660506812584
 30
0.0
 11
34.08801482095009
 21
182.660506812584
 31
0.0
  0
LINE
  5
C6D
330
1B
100
AcDbEntity
 67
     1
  8
0
 62
     0
100
AcDbLine
 10
34.08801482095009
 20
174.660506812584
 30
0.0
 11
38.6948281599632
 21
174.660506812584
 31
0.0
  0
LINE
  5
C6E
330
1B
100
AcDbEntity
 67
     1
  8
0
 62
     0
100
AcDbLine
 10
33.46301482095009
 20
175.285506812584
 30
0.0
 11
38.6948281599632
 21
175.285506812584
 31
0.0
  0
LINE
  5
C6F
330
1B
100
AcDbEntity
 67
     1
  8
0
 62
     0
100
AcDbLine
 10
34.08801482095009
 20
182.660506812584
 30
0.0
 11
33.46301482095009
 21
182.035506812584
 31
0.0
  0
LINE
  5
C70
330
1B
100
AcDbEntity
 67
     1
  8
0
 62
     0
100
AcDbLine
 10
33.46301482095009
 20
175.285506812584
 30
0.0
 11
34.08801482095009
 21
174.660506812584
 31
0.0
  0
LINE
  5
C71
330
1B
100
AcDbEntity
 67
     1
  8
0
 62
     0
100
AcDbLine
 10
33.46301482095009
 20
182.035506812584
 30
0.0
 11
33.46301482095009
 21
175.285506812584
 31
0.0
  0
LINE
  5
C72
330
1B
100
AcDbEntity
 67
     1
  8
0
 62
     0
100
AcDbLine
 10
34.08801482095009
 20
182.660506812584
 30
0.0
 11
34.08801482095009
 21
174.660506812584
 31
0.0
  0
LINE
  5
C73
330
1B
100
AcDbEntity
 67
     1
  8
0
 62
     0
100
AcDbLine
 10
47.68801482095
 20
182.035506812584
 30
0.0
 11
52.91982815996312
 21
182.035506812584
 31
0.0
  0
LINE
  5
C74
330
1B
100
AcDbEntity
 67
     1
  8
0
 62
     0
100
AcDbLine
 10
52.91982815996312
 20
182.660506812584
 30
0.0
 11
48.31301482095
 21
182.660506812584
 31
0.0
  0
LINE
  5
C75
330
1B
100
AcDbEntity
 67
     1
  8
0
 62
     0
100
AcDbLine
 10
48.31301482095
 20
174.660506812584
 30
0.0
 11
52.91982815996312
 21
174.660506812584
 31
0.0
  0
LINE
  5
C76
330
1B
100
AcDbEntity
 67
     1
  8
0
 62
     0
100
AcDbLine
 10
47.68801482095
 20
175.285506812584
 30
0.0
 11
52.91982815996312
 21
175.285506812584
 31
0.0
  0
LINE
  5
C77
330
1B
100
AcDbEntity
 67
     1
  8
0
 62
     0
 48
0.3
100
AcDbLine
 10
39.11676993360311
 20
182.410506812584
 30
0.0
 11
44.3198281599632
 21
182.410506812584
 31
0.0
  0
LINE
  5
C78
330
1B
100
AcDbEntity
 67
     1
  8
0
 62
     0
100
AcDbLine
 10
44.3198281599632
 20
182.410506812584
 30
0.0
 11
45.31982815996321
 21
182.410506812584
 31
0.0
  0
LINE
  5
C79
330
1B
100
AcDbEntity
 67
     1
  8
0
 62
     0
 48
0.2
100
AcDbLine
 10
48.31301482095
 20
182.660506812584
 30
0.0
 11
46.91982815996357
 21
182.660506812584
 31
0.0
  0
LINE
  5
C7A
330
1B
100
AcDbEntity
 67
     1
  8
0
 62
     0
 48
0.2
100
AcDbLine
 10
48.31301482095
 20
182.035506812584
 30
0.0
 11
46.91982815996357
 21
182.035506812584
 31
0.0
  0
LINE
  5
C7B
330
1B
100
AcDbEntity
 67
     1
  8
0
 62
     0
 48
0.3
100
AcDbLine
 10
39.11676993360311
 20
174.910506812584
 30
0.0
 11
44.3198281599632
 21
174.910506812584
 31
0.0
  0
LINE
  5
C7C
330
1B
100
AcDbEntity
 67
     1
  8
0
 62
     0
 48
0.3
100
AcDbLine
 10
39.11676993360311
 20
171.160506812584
 30
0.0
 11
44.3198281599632
 21
171.160506812584
 31
0.0
  0
LINE
  5
C7D
330
1B
100
AcDbEntity
 67
     1
  8
0
 62
     0
 48
0.3
100
AcDbLine
 10
38.6948281599632
 20
174.910506812584
 30
0.0
 11
38.69482815996366
 21
178.660506812584
 31
0.0
  0
LINE
  5
C7E
330
1B
100
AcDbEntity
 67
     1
  8
0
 62
     0
 48
0.3
100
AcDbLine
 10
38.6948281599632
 20
173.109482198179
 30
0.0
 11
38.6948281599632
 21
174.910506812584
 31
0.0
  0
ARC
  5
C7F
330
1B
100
AcDbEntity
 67
     1
  8
0
 62
     0
 48
0.3
100
AcDbCircle
 10
42.9859157310741
 20
173.0355066899992
 30
0.0
 40
4.299524777226425
100
AcDbArc
 50
154.1450295252177
 51
205.8549704747822
  0
LINE
  5
C80
330
1B
100
AcDbEntity
 67
     1
  8
0
 62
     0
100
AcDbLine
 10
44.3198281599632
 20
174.910506812584
 30
0.0
 11
45.31982815996321
 21
174.910506812584
 31
0.0
  0
LINE
  5
C81
330
1B
100
AcDbEntity
 67
     1
  8
0
 62
     0
100
AcDbLine
 10
44.3198281599632
 20
171.160506812584
 30
0.0
 11
45.31982815996321
 21
171.160506812584
 31
0.0
  0
LINE
  5
C82
330
1B
100
AcDbEntity
 67
     1
  8
0
 62
     0
100
AcDbLine
 10
45.31982815996366
 20
170.160506812584
 30
0.0
 11
46.91982815996357
 21
170.160506812584
 31
0.0
  0
LINE
  5
C83
330
1B
100
AcDbEntity
 67
     1
  8
0
 62
     0
 48
0.2
100
AcDbLine
 10
48.31301482095
 20
175.285506812584
 30
0.0
 11
46.91982815996357
 21
175.285506812584
 31
0.0
  0
LINE
  5
C84
330
1B
100
AcDbEntity
 67
     1
  8
0
 62
     0
 48
0.2
100
AcDbLine
 10
48.31301482095
 20
174.660506812584
 30
0.0
 11
46.91982815996357
 21
174.660506812584
 31
0.0
  0
ARC
  5
C85
330
1B
100
AcDbEntity
 67
     1
  8
0
 62
     0
 48
0.3
100
AcDbCircle
 10
55.5698281599632
 20
178.660506812584
 30
0.0
 40
16.875
100
AcDbArc
 50
167.160411228867
 51
192.8395884069012
  0
LINE
  5
C86
330
1B
100
AcDbEntity
 67
     1
  8
0
 62
     0
 48
0.3
100
AcDbLine
 10
38.6948281599632
 20
184.3642793678044
 30
0.0
 11
38.6948281599632
 21
173.0070490780732
 31
0.0
  0
LINE
  5
C87
330
1B
100
AcDbEntity
 67
     1
  8
0
 62
     0
 48
0.3
100
AcDbLine
 10
38.69482815996366
 20
178.660506812584
 30
0.0
 11
38.6948281599632
 21
182.410506812584
 31
0.0
  0
LINE
  5
C88
330
1B
100
AcDbEntity
 67
     1
  8
0
 62
     0
100
AcDbLine
 10
59.67781401404249
 20
182.4179204492694
 30
0.0
 11
54.91982815996357
 21
182.4179204492694
 31
0.0
  0
LINE
  5
C89
330
1B
100
AcDbEntity
 67
     1
  8
0
 62
     0
100
AcDbLine
 10
60.83125629476967
 20
182.660506812584
 30
0.0
 11
60.4600621778261
 21
182.660506812584
 31
0.0
  0
LINE
  5
C8A
330
1B
100
AcDbEntity
 67
     1
  8
0
 62
     0
100
AcDbLine
 10
60.4600621778261
 20
182.035506812584
 30
0.0
 11
60.83125629476967
 21
182.035506812584
 31
0.0
  0
LINE
  5
C8B
330
1B
100
AcDbEntity
 67
     1
  8
0
 62
     0
100
AcDbLine
 10
52.91982815996357
 20
178.660506812584
 30
0.0
 11
52.91982815996357
 21
174.6605068125839
 31
0.0
  0
LINE
  5
C8C
330
1B
100
AcDbEntity
 67
     1
  8
0
 62
     0
 48
0.3
100
AcDbLine
 10
52.91982815996312
 20
174.910506812584
 30
0.0
 11
52.91982815996357
 21
178.660506812584
 31
0.0
  0
LINE
  5
C8D
330
1B
100
AcDbEntity
 67
     1
  8
0
 62
     0
100
AcDbLine
 10
59.67781401404249
 20
174.9327477226403
 30
0.0
 11
54.91982815996357
 21
174.9327477226403
 31
0.0
  0
LINE
  5
C8E
330
1B
100
AcDbEntity
 67
     1
  8
0
 62
     0
100
AcDbLine
 10
54.91982815996357
 20
171.166402270235
 30
0.0
 11
59.67071526311361
 21
171.166402270235
 31
0.0
  0
LINE
  5
C8F
330
1B
100
AcDbEntity
 67
     1
  8
0
 62
     0
100
AcDbLine
 10
54.91982815996357
 20
171.160506812584
 30
0.0
 11
53.91982815996357
 21
170.160506812584
 31
0.0
  0
LINE
  5
C90
330
1B
100
AcDbEntity
 67
     1
  8
0
 62
     0
100
AcDbLine
 10
52.91982815996357
 20
170.160506812584
 30
0.0
 11
53.91982815996357
 21
170.160506812584
 31
0.0
  0
LINE
  5
C91
330
1B
100
AcDbEntity
 67
     1
  8
0
 62
     0
100
AcDbLine
 10
53.91982815996357
 20
170.160506812584
 30
0.0
 11
53.91982815996357
 21
170.160506812584
 31
0.0
  0
LINE
  5
C92
330
1B
100
AcDbEntity
 67
     1
  8
0
 62
     0
100
AcDbLine
 10
60.4600621778261
 20
175.285506812584
 30
0.0
 11
60.83125629476967
 21
175.285506812584
 31
0.0
  0
LINE
  5
C93
330
1B
100
AcDbEntity
 67
     1
  8
0
 62
     0
100
AcDbLine
 10
60.4600621778261
 20
174.6605068125839
 30
0.0
 11
60.83125629476967
 21
174.6605068125839
 31
0.0
  0
ARC
  5
C94
330
1B
100
AcDbEntity
 67
     1
  8
0
 62
     0
100
AcDbCircle
 10
57.64570500767764
 20
173.0614545409831
 30
0.0
 40
2.762463607989373
100
AcDbArc
 50
317.3591881474099
 51
42.64081185258948
  0
LINE
  5
C95
330
1B
100
AcDbEntity
 67
     1
  8
0
 62
     0
100
AcDbLine
 10
60.83125629476967
 20
182.660506812584
 30
0.0
 11
60.83125629476967
 21
174.6605068125839
 31
0.0
  0
ARC
  5
C96
330
1B
100
AcDbEntity
 67
     1
  8
0
 62
     0
100
AcDbCircle
 10
50.77105508991667
 20
178.6753340859548
 30
0.0
 40
9.661123496745085
100
AcDbArc
 50
337.2080385520247
 51
22.79196144797525
  0
LINE
  5
C97
330
1B
100
AcDbEntity
 67
     1
  8
0
 62
     0
100
AcDbLine
 10
60.42962152221775
 20
184.2892136309267
 30
0.0
 11
60.40816861566714
 21
173.0614545409831
 31
0.0
  0
LINE
  5
C98
330
1B
100
AcDbEntity
 67
     1
  8
0
 62
     0
 48
0.3
100
AcDbLine
 10
52.91982815996357
 20
178.660506812584
 30
0.0
 11
52.91982815996312
 21
182.410506812584
 31
0.0
  0
LINE
  5
C99
330
1B
100
AcDbEntity
 67
     1
  8
0
 62
     0
 48
0.3
100
AcDbLine
 10
44.3198281599632
 20
186.160506812584
 30
0.0
 11
39.11676993360311
 21
186.160506812584
 31
0.0
  0
LINE
  5
C9A
330
1B
100
AcDbEntity
 67
     1
  8
0
 62
     0
100
AcDbLine
 10
45.31982815996321
 20
186.1605068125841
 30
0.0
 11
44.3198281599632
 21
186.160506812584
 31
0.0
  0
LINE
  5
C9B
330
1B
100
AcDbEntity
 67
     1
  8
0
 62
     0
100
AcDbLine
 10
46.91982815996357
 20
187.1605068125839
 30
0.0
 11
45.31982815996366
 21
187.1605068125839
 31
0.0
  0
LINE
  5
C9C
330
1B
100
AcDbEntity
 67
     1
  8
0
 62
     0
100
AcDbLine
 10
59.67781401404249
 20
186.160506812584
 30
0.0
 11
54.91982815996357
 21
186.160506812584
 31
0.0
  0
LINE
  5
C9D
330
1B
100
AcDbEntity
 67
     1
  8
0
 62
     0
100
AcDbLine
 10
59.67781401404249
 20
186.160506812584
 30
0.0
 11
54.91982815996357
 21
186.160506812584
 31
0.0
  0
LINE
  5
C9E
330
1B
100
AcDbEntity
 67
     1
  8
0
 62
     0
100
AcDbLine
 10
54.91982815996357
 20
186.160506812584
 30
0.0
 11
53.91982815996357
 21
187.1605068125839
 31
0.0
  0
LINE
  5
C9F
330
1B
100
AcDbEntity
 67
     1
  8
0
 62
     0
100
AcDbLine
 10
53.91982815996357
 20
187.1605068125839
 30
0.0
 11
52.91982815996357
 21
187.1605068125839
 31
0.0
  0
LINE
  5
CA0
330
1B
100
AcDbEntity
 67
     1
  8
0
 62
     0
100
AcDbLine
 10
53.91982815996357
 20
187.1605068125839
 30
0.0
 11
53.91982815996357
 21
187.1605068125839
 31
0.0
  0
LINE
  5
CA1
330
1B
100
AcDbEntity
 67
     1
  8
0
 62
     0
100
AcDbLine
 10
81.32831001795933
 20
181.3105068125839
 30
0.0
 11
101.1783100179592
 21
181.3105068125839
 31
0.0
  0
LINE
  5
CA2
330
1B
100
AcDbEntity
 67
     1
  8
0
 62
     0
100
AcDbLine
 10
81.32831001795933
 20
176.010506812584
 30
0.0
 11
101.1783100179592
 21
176.010506812584
 31
0.0
  0
CIRCLE
  5
CA3
330
1B
100
AcDbEntity
 67
     1
  8
0
 62
     0
100
AcDbCircle
 10
81.32831001795933
 20
178.660506812584
 30
0.0
 40
2.649999999999999
  0
ARC
  5
CA4
330
1B
100
AcDbEntity
 67
     1
  8
0
 62
     0
100
AcDbCircle
 10
101.1783100179592
 20
178.660506812584
 30
0.0
 40
2.649999999999999
100
AcDbArc
 50
270.0
 51
90.0
  0
ARC
  5
CA5
330
1B
100
AcDbEntity
 67
     1
  8
0
 62
     0
100
AcDbCircle
 10
101.1164902234135
 20
231.3131721687615
 30
0.0
 40
9.661123496745085
100
AcDbArc
 50
337.2080385520247
 51
22.79196144797525
  0
LINE
  5
CA6
330
1B
100
AcDbEntity
 67
     1
  8
0
 62
     0
100
AcDbLine
 10
103.2652632934604
 20
231.2983448953906
 30
0.0
 11
103.2652632934604
 21
227.2983448953906
 31
0.0
  0
LINE
  5
CA7
330
1B
100
AcDbEntity
 67
     1
  8
0
 62
     0
100
AcDbLine
 10
110.7750566557145
 20
236.9270517137333
 30
0.0
 11
110.7536037491639
 21
225.6992926237898
 31
0.0
  0
LINE
  5
CA8
330
1B
100
AcDbEntity
 67
     1
  8
0
 62
     0
100
AcDbLine
 10
111.1766914282665
 20
235.2983448953906
 30
0.0
 11
111.1766914282665
 21
227.2983448953906
 31
0.0
  0
LINE
  5
CA9
330
1B
100
AcDbEntity
 67
     1
  8
0
 62
     0
 48
0.3
100
AcDbLine
 10
103.2652632934599
 20
227.5483448953906
 30
0.0
 11
103.2652632934604
 21
231.2983448953906
 31
0.0
  0
LINE
  5
CAA
330
1B
100
AcDbEntity
 67
     1
  8
0
 62
     0
100
AcDbLine
 10
111.1766914282665
 20
238.7983448953906
 30
0.0
 11
111.1766914282665
 21
223.7983448953906
 31
0.0
  0
LINE
  5
CAB
330
1B
100
AcDbEntity
 67
     1
  8
0
 62
     0
100
AcDbLine
 10
105.2652632934603
 20
223.7983448953906
 30
0.0
 11
105.2652632934603
 21
238.7983448953906
 31
0.0
  0
LINE
  5
CAC
330
1B
100
AcDbEntity
 67
     1
  8
0
 62
     0
100
AcDbLine
 10
104.2652632934604
 20
239.7983448953906
 30
0.0
 11
104.2652632934604
 21
222.7983448953906
 31
0.0
  0
LINE
  5
CAD
330
1B
100
AcDbEntity
 67
     1
  8
0
 62
     0
100
AcDbLine
 10
103.2652632934604
 20
239.7983448953906
 30
0.0
 11
103.2652632934604
 21
222.7983448953906
 31
0.0
  0
LINE
  5
CAE
330
1B
100
AcDbEntity
 67
     1
  8
0
 62
     0
 48
0.3
100
AcDbLine
 10
89.04026329346004
 20
237.002117450611
 30
0.0
 11
89.04026329346004
 21
225.6448871608799
 31
0.0
  0
ARC
  5
CAF
330
1B
100
AcDbEntity
 67
     1
  8
0
 62
     0
 48
0.3
100
AcDbCircle
 10
105.91526329346
 20
231.2983448953906
 30
0.0
 40
16.875
100
AcDbArc
 50
167.160411228867
 51
192.8395884069012
  0
LINE
  5
CB0
330
1B
100
AcDbEntity
 67
     1
  8
0
 62
     0
 48
0.3
100
AcDbLine
 10
89.04026329346004
 20
227.5483448953906
 30
0.0
 11
89.0402632934605
 21
231.2983448953906
 31
0.0
  0
LINE
  5
CB1
330
1B
100
AcDbEntity
 67
     1
  8
0
 62
     0
100
AcDbLine
 10
84.43344995444693
 20
235.2983448953906
 30
0.0
 11
84.43344995444693
 21
227.2983448953906
 31
0.0
  0
LINE
  5
CB2
330
1B
100
AcDbEntity
 67
     1
  8
0
 62
     0
100
AcDbLine
 10
83.80844995444693
 20
234.6733448953906
 30
0.0
 11
83.80844995444693
 21
227.9233448953907
 31
0.0
  0
LINE
  5
CB3
330
1B
100
AcDbEntity
 67
     1
  8
0
 62
     0
100
AcDbLine
 10
95.66526329346004
 20
223.7983448953907
 30
0.0
 11
95.66526329346004
 21
238.7983448953907
 31
0.0
  0
LINE
  5
CB4
330
1B
100
AcDbEntity
 67
     1
  8
0
 62
     0
100
AcDbLine
 10
97.26526329346041
 20
222.7983448953906
 30
0.0
 11
97.26526329346041
 21
239.7983448953906
 31
0.0
  0
LINE
  5
CB5
330
1B
100
AcDbEntity
 67
     1
  8
0
 62
     0
100
AcDbLine
 10
95.6652632934605
 20
239.7983448953906
 30
0.0
 11
95.6652632934605
 21
222.7983448953906
 31
0.0
  0
LINE
  5
CB6
330
1B
100
AcDbEntity
 67
     1
  8
0
 62
     0
100
AcDbLine
 10
98.03344995444684
 20
227.9233448953907
 30
0.0
 11
103.2652632934599
 21
227.9233448953907
 31
0.0
  0
LINE
  5
CB7
330
1B
100
AcDbEntity
 67
     1
  8
0
 62
     0
100
AcDbLine
 10
98.65844995444684
 20
227.2983448953906
 30
0.0
 11
103.2652632934599
 21
227.2983448953906
 31
0.0
  0
LINE
  5
CB8
330
1B
100
AcDbEntity
 67
     1
  8
0
 62
     0
100
AcDbLine
 10
83.80844995444693
 20
227.9233448953907
 30
0.0
 11
89.04026329346004
 21
227.9233448953907
 31
0.0
  0
LINE
  5
CB9
330
1B
100
AcDbEntity
 67
     1
  8
0
 62
     0
100
AcDbLine
 10
84.43344995444693
 20
227.2983448953906
 30
0.0
 11
89.04026329346004
 21
227.2983448953906
 31
0.0
  0
LINE
  5
CBA
330
1B
100
AcDbEntity
 67
     1
  8
0
 62
     0
100
AcDbLine
 10
83.80844995444693
 20
227.9233448953907
 30
0.0
 11
84.43344995444693
 21
227.2983448953906
 31
0.0
  0
LINE
  5
CBB
330
1B
100
AcDbEntity
 67
     1
  8
0
 62
     0
 48
0.3
100
AcDbLine
 10
89.46220506709995
 20
227.5483448953906
 30
0.0
 11
94.66526329346004
 21
227.5483448953906
 31
0.0
  0
LINE
  5
CBC
330
1B
100
AcDbEntity
 67
     1
  8
0
 62
     0
100
AcDbLine
 10
94.66526329346004
 20
227.5483448953906
 30
0.0
 11
95.66526329346004
 21
227.5483448953906
 31
0.0
  0
LINE
  5
CBD
330
1B
100
AcDbEntity
 67
     1
  8
0
 62
     0
 48
0.3
100
AcDbLine
 10
89.04026329346004
 20
225.7473202809856
 30
0.0
 11
89.04026329346004
 21
227.5483448953906
 31
0.0
  0
LINE
  5
CBE
330
1B
100
AcDbEntity
 67
     1
  8
0
 62
     0
 48
0.2
100
AcDbLine
 10
98.65844995444684
 20
227.9233448953907
 30
0.0
 11
97.26526329346041
 21
227.9233448953907
 31
0.0
  0
LINE
  5
CBF
330
1B
100
AcDbEntity
 67
     1
  8
0
 62
     0
 48
0.2
100
AcDbLine
 10
98.65844995444684
 20
227.2983448953906
 30
0.0
 11
97.26526329346041
 21
227.2983448953906
 31
0.0
  0
LINE
  5
CC0
330
1B
100
AcDbEntity
 67
     1
  8
0
 62
     0
 48
0.3
100
AcDbLine
 10
89.46220506709995
 20
223.7983448953907
 30
0.0
 11
94.66526329346004
 21
223.7983448953907
 31
0.0
  0
LINE
  5
CC1
330
1B
100
AcDbEntity
 67
     1
  8
0
 62
     0
100
AcDbLine
 10
94.66526329346004
 20
223.7983448953907
 30
0.0
 11
95.66526329346004
 21
223.7983448953907
 31
0.0
  0
LINE
  5
CC2
330
1B
100
AcDbEntity
 67
     1
  8
0
 62
     0
100
AcDbLine
 10
95.6652632934605
 20
222.7983448953906
 30
0.0
 11
97.26526329346041
 21
222.7983448953906
 31
0.0
  0
ARC
  5
CC3
330
1B
100
AcDbEntity
 67
     1
  8
0
 62
     0
 48
0.3
100
AcDbCircle
 10
93.33135086457094
 20
225.6733447728058
 30
0.0
 40
4.299524777226425
100
AcDbArc
 50
154.1450295252177
 51
205.8549704747822
  0
LINE
  5
CC4
330
1B
100
AcDbEntity
 67
     1
  8
0
 62
     0
100
AcDbLine
 10
110.0232491475393
 20
227.5705858054469
 30
0.0
 11
105.2652632934603
 21
227.5705858054469
 31
0.0
  0
LINE
  5
CC5
330
1B
100
AcDbEntity
 67
     1
  8
0
 62
     0
100
AcDbLine
 10
110.8054973113229
 20
227.2983448953906
 30
0.0
 11
111.1766914282665
 21
227.2983448953906
 31
0.0
  0
LINE
  5
CC6
330
1B
100
AcDbEntity
 67
     1
  8
0
 62
     0
100
AcDbLine
 10
110.8054973113229
 20
227.9233448953906
 30
0.0
 11
111.1766914282665
 21
227.9233448953906
 31
0.0
  0
LINE
  5
CC7
330
1B
100
AcDbEntity
 67
     1
  8
0
 62
     0
100
AcDbLine
 10
105.2652632934603
 20
223.8042403530416
 30
0.0
 11
110.0161503966104
 21
223.8042403530416
 31
0.0
  0
LINE
  5
CC8
330
1B
100
AcDbEntity
 67
     1
  8
0
 62
     0
100
AcDbLine
 10
104.2652632934604
 20
222.7983448953906
 30
0.0
 11
104.2652632934604
 21
222.7983448953906
 31
0.0
  0
LINE
  5
CC9
330
1B
100
AcDbEntity
 67
     1
  8
0
 62
     0
100
AcDbLine
 10
103.2652632934604
 20
222.7983448953906
 30
0.0
 11
104.2652632934604
 21
222.7983448953906
 31
0.0
  0
LINE
  5
CCA
330
1B
100
AcDbEntity
 67
     1
  8
0
 62
     0
100
AcDbLine
 10
105.2652632934603
 20
223.7983448953906
 30
0.0
 11
104.2652632934604
 21
222.7983448953906
 31
0.0
  0
ARC
  5
CCB
330
1B
100
AcDbEntity
 67
     1
  8
0
 62
     0
100
AcDbCircle
 10
107.9911401411744
 20
225.6992926237898
 30
0.0
 40
2.762463607989373
100
AcDbArc
 50
317.3591881474099
 51
42.64081185258948
  0
LINE
  5
CCC
330
1B
100
AcDbEntity
 67
     1
  8
0
 62
     0
100
AcDbLine
 10
103.2652632934599
 20
235.2983448953906
 30
0.0
 11
98.65844995444684
 21
235.2983448953906
 31
0.0
  0
LINE
  5
CCD
330
1B
100
AcDbEntity
 67
     1
  8
0
 62
     0
100
AcDbLine
 10
98.03344995444684
 20
234.6733448953906
 30
0.0
 11
103.2652632934599
 21
234.6733448953906
 31
0.0
  0
LINE
  5
CCE
330
1B
100
AcDbEntity
 67
     1
  8
0
 62
     0
100
AcDbLine
 10
89.04026329346004
 20
235.2983448953906
 30
0.0
 11
84.43344995444693
 21
235.2983448953906
 31
0.0
  0
LINE
  5
CCF
330
1B
100
AcDbEntity
 67
     1
  8
0
 62
     0
100
AcDbLine
 10
83.80844995444693
 20
234.6733448953906
 30
0.0
 11
89.04026329346004
 21
234.6733448953906
 31
0.0
  0
LINE
  5
CD0
330
1B
100
AcDbEntity
 67
     1
  8
0
 62
     0
100
AcDbLine
 10
84.43344995444693
 20
235.2983448953906
 30
0.0
 11
83.80844995444693
 21
234.6733448953906
 31
0.0
  0
LINE
  5
CD1
330
1B
100
AcDbEntity
 67
     1
  8
0
 62
     0
 48
0.3
100
AcDbLine
 10
89.0402632934605
 20
231.2983448953906
 30
0.0
 11
89.04026329346004
 21
235.0483448953907
 31
0.0
  0
ARC
  5
CD2
330
1B
100
AcDbEntity
 67
     1
  8
0
 62
     0
 48
0.3
100
AcDbCircle
 10
93.15405072530927
 20
236.9233448953906
 30
0.0
 40
4.140694259594969
100
AcDbArc
 50
153.0750753098906
 51
206.9249246901093
  0
LINE
  5
CD3
330
1B
100
AcDbEntity
 67
     1
  8
0
 62
     0
 48
0.3
100
AcDbLine
 10
94.66526329346004
 20
238.7983448953906
 30
0.0
 11
89.46220506709995
 21
238.7983448953906
 31
0.0
  0
LINE
  5
CD4
330
1B
100
AcDbEntity
 67
     1
  8
0
 62
     0
100
AcDbLine
 10
97.26526329346041
 20
239.7983448953906
 30
0.0
 11
95.6652632934605
 21
239.7983448953906
 31
0.0
  0
LINE
  5
CD5
330
1B
100
AcDbEntity
 67
     1
  8
0
 62
     0
100
AcDbLine
 10
95.66526329346004
 20
238.7983448953907
 30
0.0
 11
94.66526329346004
 21
238.7983448953906
 31
0.0
  0
LINE
  5
CD6
330
1B
100
AcDbEntity
 67
     1
  8
0
 62
     0
 48
0.3
100
AcDbLine
 10
89.46220506709995
 20
235.0483448953907
 30
0.0
 11
94.66526329346004
 21
235.0483448953907
 31
0.0
  0
LINE
  5
CD7
330
1B
100
AcDbEntity
 67
     1
  8
0
 62
     0
100
AcDbLine
 10
94.66526329346004
 20
235.0483448953907
 30
0.0
 11
95.66526329346004
 21
235.0483448953907
 31
0.0
  0
LINE
  5
CD8
330
1B
100
AcDbEntity
 67
     1
  8
0
 62
     0
 48
0.2
100
AcDbLine
 10
98.65844995444684
 20
235.2983448953906
 30
0.0
 11
97.26526329346041
 21
235.2983448953906
 31
0.0
  0
LINE
  5
CD9
330
1B
100
AcDbEntity
 67
     1
  8
0
 62
     0
 48
0.2
100
AcDbLine
 10
98.65844995444684
 20
234.6733448953906
 30
0.0
 11
97.26526329346041
 21
234.6733448953906
 31
0.0
  0
ARC
  5
CDA
330
1B
100
AcDbEntity
 67
     1
  8
0
 62
     0
100
AcDbCircle
 10
108.0702734121035
 20
236.9270517137333
 30
0.0
 40
2.704783243610945
100
AcDbArc
 50
316.2235944163336
 51
43.77640558366637
  0
LINE
  5
CDB
330
1B
100
AcDbEntity
 67
     1
  8
0
 62
     0
100
AcDbLine
 10
110.0232491475393
 20
235.055758532076
 30
0.0
 11
105.2652632934603
 21
235.055758532076
 31
0.0
  0
LINE
  5
CDC
330
1B
100
AcDbEntity
 67
     1
  8
0
 62
     0
100
AcDbLine
 10
110.0232491475393
 20
238.7983448953906
 30
0.0
 11
105.2652632934603
 21
238.7983448953906
 31
0.0
  0
LINE
  5
CDD
330
1B
100
AcDbEntity
 67
     1
  8
0
 62
     0
100
AcDbLine
 10
110.0232491475393
 20
238.7983448953906
 30
0.0
 11
105.2652632934603
 21
238.7983448953906
 31
0.0
  0
LINE
  5
CDE
330
1B
100
AcDbEntity
 67
     1
  8
0
 62
     0
100
AcDbLine
 10
104.2652632934604
 20
239.7983448953906
 30
0.0
 11
104.2652632934604
 21
239.7983448953906
 31
0.0
  0
LINE
  5
CDF
330
1B
100
AcDbEntity
 67
     1
  8
0
 62
     0
100
AcDbLine
 10
104.2652632934604
 20
239.7983448953906
 30
0.0
 11
103.2652632934604
 21
239.7983448953906
 31
0.0
  0
LINE
  5
CE0
330
1B
100
AcDbEntity
 67
     1
  8
0
 62
     0
100
AcDbLine
 10
105.2652632934603
 20
238.7983448953906
 30
0.0
 11
104.2652632934604
 21
239.7983448953906
 31
0.0
  0
LINE
  5
CE1
330
1B
100
AcDbEntity
 67
     1
  8
0
 62
     0
100
AcDbLine
 10
110.8054973113229
 20
234.6733448953906
 30
0.0
 11
111.1766914282665
 21
234.6733448953906
 31
0.0
  0
LINE
  5
CE2
330
1B
100
AcDbEntity
 67
     1
  8
0
 62
     0
100
AcDbLine
 10
111.1766914282665
 20
235.2983448953906
 30
0.0
 11
110.8054973113229
 21
235.2983448953906
 31
0.0
  0
LINE
  5
CE3
330
1B
100
AcDbEntity
 67
     1
  8
0
 62
     0
 48
0.3
100
AcDbLine
 10
103.2652632934604
 20
231.2983448953906
 30
0.0
 11
103.2652632934599
 21
235.0483448953907
 31
0.0
  0
LINE
  5
CE4
330
1B
100
AcDbEntity
 67
     1
  8
0
 62
     0
100
AcDbLine
 10
131.8312562947696
 20
171.160506812584
 30
0.0
 11
161.8312562947696
 21
171.160506812584
 31
0.0
  0
LINE
  5
CE5
330
1B
100
AcDbEntity
 67
     1
  8
0
 62
     0
100
AcDbLine
 10
131.8312562947696
 20
186.160506812584
 30
0.0
 11
161.8312562947696
 21
186.160506812584
 31
0.0
  0
LINE
  5
CE6
330
1B
100
AcDbEntity
 67
     1
  8
0
 62
     0
100
AcDbLine
 10
131.8312562947696
 20
186.160506812584
 30
0.0
 11
157.8312562947696
 21
186.160506812584
 31
0.0
  0
LINE
  5
CE7
330
1B
100
AcDbEntity
 67
     1
  8
0
 62
     0
100
AcDbLine
 10
131.8312562947696
 20
186.160506812584
 30
0.0
 11
161.8312562947696
 21
186.160506812584
 31
0.0
  0
LINE
  5
CE8
330
1B
100
AcDbEntity
 67
     1
  8
0
 62
     0
100
AcDbLine
 10
130.8312562947696
 20
186.160506812584
 30
0.0
 11
130.8312562947696
 21
184.4804694515489
 31
0.0
  0
LINE
  5
CE9
330
1B
100
AcDbEntity
 67
     1
  8
0
 62
     0
100
AcDbLine
 10
130.8312562947696
 20
186.160506812584
 30
0.0
 11
130.8312562947696
 21
171.160506812584
 31
0.0
  0
LINE
  5
CEA
330
1B
100
AcDbEntity
 67
     1
  8
0
 62
     0
100
AcDbLine
 10
130.8312562947696
 20
186.160506812584
 30
0.0
 11
130.8312562947696
 21
171.160506812584
 31
0.0
  0
LINE
  5
CEB
330
1B
100
AcDbEntity
 67
     1
  8
0
 62
     0
100
AcDbLine
 10
130.8312562947696
 20
171.160506812584
 30
0.0
 11
131.8312562947696
 21
171.160506812584
 31
0.0
  0
LINE
  5
CEC
330
1B
100
AcDbEntity
 67
     1
  8
0
 62
     0
100
AcDbLine
 10
130.8312562947696
 20
172.8291776108977
 30
0.0
 11
130.8312562947696
 21
171.160506812584
 31
0.0
  0
LINE
  5
CED
330
1B
100
AcDbEntity
 67
     1
  8
0
 62
     0
100
AcDbLine
 10
131.8312562947696
 20
186.160506812584
 30
0.0
 11
130.8312562947696
 21
186.160506812584
 31
0.0
  0
LEADER
  5
CEE
330
1B
100
AcDbEntity
 67
     1
  8
0
 62
     0
 48
0.2
100
AcDbLeader
  3
ISO-25
 73
     0
 40
3.0
 41
30.2
 76
     3
 10
207.7492551905536
 20
180.1605068125839
 30
0.0
 10
222.6922221295597
 20
193.3445357338432
 30
0.0
 10
224.8424365644164
 20
193.3445357338432
 30
0.0
340
CEF
213
0.0
223
-1.5
233
0.0
1001
ACAD
1000
DSTYLE
1002
{
1070
   147
1040
0.625
1070
    77
1070
     0
1002
}
  0
MTEXT
  5
CEF
102
{ACAD_REACTORS
330
CEE
102
}
330
1B
100
AcDbEntity
 67
     1
  8
0
 62
     0
 48
0.2
100
AcDbMText
 10
225.4674365644163
 20
194.8445357338432
 30
0.0
 40
3.0
 41
0.0
 71
     1
 72
     1
  1
%%c3 SUSワイヤー
 73
     1
 44
1.0
  0
LINE
  5
CF0
330
1B
100
AcDbEntity
 67
     1
  8
0
 62
     0
100
AcDbLine
 10
165.8312562947696
 20
186.160506812584
 30
0.0
 11
165.8312562947696
 21
181.660506812584
 31
0.0
  0
LINE
  5
CF1
330
1B
100
AcDbEntity
 67
     1
  8
0
 62
     0
100
AcDbLine
 10
158.8312562947696
 20
171.160506812584
 30
0.0
 11
162.8312562947696
 21
171.160506812584
 31
0.0
  0
LINE
  5
CF2
330
1B
100
AcDbEntity
 67
     1
  8
0
 62
     0
100
AcDbLine
 10
162.8312562947696
 20
171.160506812584
 30
0.0
 11
165.8312562947696
 21
171.160506812584
 31
0.0
  0
LINE
  5
CF3
330
1B
100
AcDbEntity
 67
     1
  8
0
 62
     0
100
AcDbLine
 10
165.8312562947696
 20
175.660506812584
 30
0.0
 11
165.8312562947696
 21
171.160506812584
 31
0.0
  0
LINE
  5
CF4
330
1B
100
AcDbEntity
 67
     1
  8
0
 62
     0
 48
0.2
100
AcDbLine
 10
165.8312562947696
 20
179.8605068125839
 30
0.0
 11
165.8312562947696
 21
177.4605068125839
 31
0.0
  0
LINE
  5
CF5
330
1B
100
AcDbEntity
 67
     1
  8
0
 62
     0
100
AcDbLine
 10
165.8312562947696
 20
181.660506812584
 30
0.0
 11
165.8312562947696
 21
175.660506812584
 31
0.0
  0
LINE
  5
CF6
330
1B
100
AcDbEntity
 67
     1
  8
0
 62
     0
 48
0.2
100
AcDbLine
 10
165.8312562947696
 20
180.1605068125839
 30
0.0
 11
165.8312562947696
 21
177.160506812584
 31
0.0
  0
LINE
  5
CF7
330
1B
100
AcDbEntity
 67
     1
  8
0
 62
     0
100
AcDbLine
 10
159.3312562947696
 20
186.160506812584
 30
0.0
 11
162.8312562947696
 21
186.160506812584
 31
0.0
  0
LINE
  5
CF8
330
1B
100
AcDbEntity
 67
     1
  8
0
 62
     0
100
AcDbLine
 10
158.8312562947696
 20
186.160506812584
 30
0.0
 11
159.8312562947696
 21
186.160506812584
 31
0.0
  0
LINE
  5
CF9
330
1B
100
AcDbEntity
 67
     1
  8
0
 62
     0
100
AcDbLine
 10
162.8312562947696
 20
186.160506812584
 30
0.0
 11
165.8312562947696
 21
186.160506812584
 31
0.0
  0
DIMENSION
  5
CFA
330
1B
100
AcDbEntity
 67
     1
  8
0
 62
     0
100
AcDbDimension
  2
*D3
 10
154.1737451514561
 20
213.5146114248548
 30
0.0
 11
141.5987451514561
 21
215.6396114248548
 31
0.0
 70
    33
  1
25
 71
     5
 42
25.15000000000009
  3
ISO-25
100
AcDbAlignedDimension
 13
129.023745151456
 23
231.2983448953906
 33
0.0
 14
154.1737451514561
 24
231.2983448953906
 34
0.0
  0
DIMENSION
  5
CFB
330
1B
100
AcDbEntity
 67
     1
  8
0
 62
     0
100
AcDbDimension
  2
*D4
 10
160.6458820685802
 20
228.6483448953906
 30
0.0
 11
158.5208820685801
 21
223.0233448953907
 31
0.0
 70
    33
 71
     5
 42
5.299999999999954
  3
ISO-25
100
AcDbAlignedDimension
 13
149.5822975221558
 23
233.9483448953906
 33
0.0
 14
149.5822975221558
 24
228.6483448953906
 34
0.0
  0
LINE
  5
CFC
330
1B
100
AcDbEntity
 67
     1
  8
0
 62
     0
100
AcDbLine
 10
131.6737451514561
 20
228.6483448953906
 30
0.0
 11
151.523745151456
 21
228.6483448953906
 31
0.0
  0
LINE
  5
CFD
330
1B
100
AcDbEntity
 67
     1
  8
0
 62
     0
100
AcDbLine
 10
131.6737451514561
 20
233.9483448953906
 30
0.0
 11
151.523745151456
 21
233.9483448953906
 31
0.0
  0
CIRCLE
  5
CFE
330
1B
100
AcDbEntity
 67
     1
  8
0
 62
     0
100
AcDbCircle
 10
131.6737451514561
 20
231.2983448953906
 30
0.0
 40
2.649999999999999
  0
ARC
  5
CFF
330
1B
100
AcDbEntity
 67
     1
  8
0
 62
     0
100
AcDbCircle
 10
151.523745151456
 20
231.2983448953906
 30
0.0
 40
2.649999999999999
100
AcDbArc
 50
270.0
 51
90.0
  0
LINE
  5
D02
330
1B
100
AcDbEntity
 67
     1
  8
0
 62
     0
100
AcDbLine
 10
181.1766914282665
 20
238.7983448953906
 30
0.0
 11
181.1766914282665
 21
223.7983448953906
 31
0.0
  0
LINE
  5
D03
330
1B
100
AcDbEntity
 67
     1
  8
0
 62
     0
100
AcDbLine
 10
181.1766914282665
 20
225.4670156937044
 30
0.0
 11
181.1766914282665
 21
223.7983448953906
 31
0.0
  0
LINE
  5
D05
330
1B
100
AcDbEntity
 67
     1
  8
0
 62
     0
100
AcDbLine
 10
181.1766914282665
 20
238.7983448953906
 30
0.0
 11
181.1766914282665
 21
237.1183075343556
 31
0.0
  0
LINE
  5
D16
330
1B
100
AcDbEntity
 67
     1
  8
0
 62
     0
 48
0.2
100
AcDbLine
 10
100.3326867355601
 20
140.5356714155673
 30
0.0
 11
307.7100672719291
 21
140.5356714155673
 31
0.0
  0
LINE
  5
D17
330
1B
100
AcDbEntity
 67
     1
  8
0
 62
     0
 48
0.2
100
AcDbLine
 10
100.3326867355601
 20
143.5356714155673
 30
0.0
 11
307.7100672719291
 21
143.5356714155673
 31
0.0
  0
LINE
  5
D18
330
1B
100
AcDbEntity
 67
     1
  8
0
 62
     0
 48
0.2
100
AcDbLine
 10
165.8312562947696
 20
177.160506812584
 30
0.0
 11
373.2086368311386
 21
177.160506812584
 31
0.0
  0
LINE
  5
D19
330
1B
100
AcDbEntity
 67
     1
  8
0
 62
     0
 48
0.2
100
AcDbLine
 10
165.8312562947696
 20
180.1605068125839
 30
0.0
 11
373.2086368311386
 21
180.1605068125839
 31
0.0
  0
LINE
  5
D20
330
1B
100
AcDbEntity
 67
     1
  8
0
 62
     0
 48
2.0
100
AcDbLine
 10
314.7100672719291
 20
135.077053530113
 30
0.0
 11
332.7100672719291
 21
135.077053530113
 31
0.0
  0
LINE
  5
D21
330
1B
100
AcDbEntity
 67
     1
  8
0
 62
     0
 48
2.0
100
AcDbLine
 10
332.7100672719291
 20
149.077053530113
 30
0.0
 11
314.7100672719291
 21
149.077053530113
 31
0.0
  0
LINE
  5
D32
330
1B
100
AcDbEntity
 67
     1
  8
0
 62
     0
 48
0.2
100
AcDbLine
 10
314.7100672719291
 20
145.577053530113
 30
0.0
 11
314.7100672719291
 21
138.577053530113
 31
0.0
  0
LINE
  5
D33
330
1B
100
AcDbEntity
 67
     1
  8
0
 62
     0
 48
2.0
100
AcDbLine
 10
307.7100672719291
 20
147.077053530113
 30
0.0
 11
307.7100672719291
 21
137.077053530113
 31
0.0
  0
LINE
  5
D34
330
1B
100
AcDbEntity
 67
     1
  8
0
 62
     0
 48
2.0
100
AcDbLine
 10
307.7100672719291
 20
142.077053530113
 30
0.0
 11
307.7100672719291
 21
137.077053530113
 31
0.0
  0
LINE
  5
D36
330
1B
100
AcDbEntity
 67
     1
  8
0
 62
     0
 48
0.2
100
AcDbLine
 10
314.7100672719291
 20
138.577053530113
 30
0.0
 11
307.7100672719291
 21
138.577053530113
 31
0.0
  0
LINE
  5
D37
330
1B
100
AcDbEntity
 67
     1
  8
0
 62
     0
 48
0.2
100
AcDbLine
 10
314.7100672719291
 20
135.077053530113
 30
0.0
 11
307.7100672719291
 21
135.077053530113
 31
0.0
  0
LINE
  5
D38
330
1B
100
AcDbEntity
 67
     1
  8
0
 62
     0
 48
0.2
100
AcDbLine
 10
307.7100672719291
 20
137.077053530113
 30
0.0
 11
307.7100672719291
 21
134.9215851943358
 31
0.0
  0
LINE
  5
D3A
330
1B
100
AcDbEntity
 67
     1
  8
0
 62
     0
 48
0.2
100
AcDbLine
 10
314.7100672719291
 20
149.077053530113
 30
0.0
 11
307.7100672719291
 21
149.077053530113
 31
0.0
  0
LINE
  5
D3B
330
1B
100
AcDbEntity
 67
     1
  8
0
 62
     0
 48
0.2
100
AcDbLine
 10
307.7100672719291
 20
145.577053530113
 30
0.0
 11
314.7100672719291
 21
145.577053530113
 31
0.0
  0
LINE
  5
D3C
330
1B
100
AcDbEntity
 67
     1
  8
0
 62
     0
 48
0.2
100
AcDbLine
 10
307.7100672719291
 20
147.077053530113
 30
0.0
 11
307.7100672719291
 21
149.077053530113
 31
0.0
  0
LINE
  5
D3D
330
1B
100
AcDbEntity
 67
     1
  8
0
 62
     0
 48
0.2
100
AcDbLine
 10
307.7100672719291
 20
142.077053530113
 30
0.0
 11
307.7100672719291
 21
145.577053530113
 31
0.0
  0
LINE
  5
D3E
330
1B
100
AcDbEntity
 67
     1
  8
0
 62
     0
 48
0.2
100
AcDbLine
 10
307.7100672719291
 20
142.077053530113
 30
0.0
 11
307.7100672719291
 21
149.077053530113
 31
0.0
  0
LINE
  5
D3F
330
1B
100
AcDbEntity
 67
     1
  8
0
 62
     0
 48
2.0
100
AcDbLine
 10
307.7100672719291
 20
142.077053530113
 30
0.0
 11
307.7100672719291
 21
147.077053530113
 31
0.0
  0
LINE
  5
D40
330
1B
100
AcDbEntity
 67
     1
  8
0
 62
     0
 48
0.2
100
AcDbLine
 10
307.7100672719291
 20
143.5356714155673
 30
0.0
 11
307.7100672719291
 21
140.5356714155673
 31
0.0
  0
ARC
  5
D46
330
1B
100
AcDbEntity
 67
     1
  8
0
 62
     0
100
AcDbCircle
 10
352.3212992361412
 20
142.0934414892421
 30
0.0
 40
12.90787727772602
100
AcDbArc
 50
337.2080385520192
 51
22.7919614479807
  0
LINE
  5
D47
330
1B
100
AcDbEntity
 67
     1
  8
0
 62
     0
 48
0.2
100
AcDbLine
 10
332.7100672719291
 20
142.077053530113
 30
0.0
 11
332.7100672719291
 21
137.577053530113
 31
0.0
  0
LINE
  5
D48
330
1B
100
AcDbEntity
 67
     1
  8
0
 62
     0
100
AcDbLine
 10
356.2829289022936
 20
142.0770535301129
 30
0.0
 11
356.2829289022936
 21
137.0767194079758
 31
0.0
  0
LINE
  5
D49
330
1B
100
AcDbEntity
 67
     1
  8
0
 62
     0
 48
2.0
100
AcDbLine
 10
332.7100672719291
 20
136.577053530113
 30
0.0
 11
332.7100672719291
 21
149.077053530113
 31
0.0
  0
LINE
  5
D4A
330
1B
100
AcDbEntity
 67
     1
  8
0
 62
     0
 48
0.2
100
AcDbLine
 10
332.7100672719291
 20
149.077053530113
 30
0.0
 11
332.7100672719291
 21
135.077053530113
 31
0.0
  0
LINE
  5
D4B
330
1B
100
AcDbEntity
 67
     1
  8
0
 62
     0
100
AcDbLine
 10
365.2257601126537
 20
149.5939426724477
 30
0.0
 11
365.1970976610143
 21
134.5929403060365
 31
0.0
  0
LINE
  5
D4C
330
1B
100
AcDbEntity
 67
     1
  8
0
 62
     0
100
AcDbLine
 10
356.2829289022936
 20
151.8440930274095
 30
0.0
 11
356.2829289022936
 21
132.3100140328163
 31
0.0
  0
LINE
  5
D4D
330
1B
100
AcDbEntity
 67
     1
  8
0
 62
     0
100
AcDbLine
 10
357.6777652659054
 20
137.093107367105
 30
0.0
 11
356.2829289022936
 21
137.093107367105
 31
0.0
  0
LINE
  5
D4E
330
1B
100
AcDbEntity
 67
     1
  8
0
 62
     0
100
AcDbLine
 10
356.5329434774137
 20
132.061029586343
 30
0.0
 11
356.2829289022936
 21
132.3100140328163
 31
0.0
  0
LINE
  5
D51
330
1B
100
AcDbEntity
 67
     1
  8
0
 62
     0
100
AcDbLine
 10
364.2212973236967
 20
137.093107367105
 30
0.0
 11
357.6777652659054
 21
137.093107367105
 31
0.0
  0
LINE
  5
D52
330
1B
100
AcDbEntity
 67
     1
  8
0
 62
     0
100
AcDbLine
 10
356.5329434774137
 20
132.061029586343
 30
0.0
 11
364.2118129396237
 21
132.061029586343
 31
0.0
  0
ARC
  5
D53
330
1B
100
AcDbEntity
 67
     1
  8
0
 62
     0
100
AcDbCircle
 10
361.5062700623273
 20
134.5929403060365
 30
0.0
 40
3.690827598687089
100
AcDbArc
 50
317.3591881474099
 51
42.64081185258948
  0
LINE
  5
D54
330
1B
100
AcDbEntity
 67
     1
  8
0
 62
     0
100
AcDbLine
 10
356.5329456084007
 20
152.0941097335164
 30
0.0
 11
356.2829289022936
 21
151.8440930274095
 31
0.0
  0
LINE
  5
D55
330
1B
100
AcDbEntity
 67
     1
  8
0
 62
     0
100
AcDbLine
 10
357.6777652659054
 20
147.0937756113792
 30
0.0
 11
356.2829289022936
 21
147.0937756113792
 31
0.0
  0
LINE
  5
D58
330
1B
100
AcDbEntity
 67
     1
  8
0
 62
     0
 48
0.2
100
AcDbLine
 10
332.7100672719291
 20
142.077053530113
 30
0.0
 11
332.7100672719291
 21
146.577053530113
 31
0.0
  0
LINE
  5
D59
330
1B
100
AcDbEntity
 67
     1
  8
0
 62
     0
 48
0.2
100
AcDbLine
 10
332.7100672719291
 20
142.077053530113
 30
0.0
 11
332.7100672719291
 21
147.077053530113
 31
0.0
  0
LINE
  5
D5A
330
1B
100
AcDbEntity
 67
     1
  8
0
 62
     0
100
AcDbLine
 10
356.2829289022936
 20
142.0770535301129
 30
0.0
 11
356.2829289022936
 21
139.5768864690443
 31
0.0
  0
LINE
  5
D5B
330
1B
100
AcDbEntity
 67
     1
  8
0
 62
     0
100
AcDbLine
 10
364.2212973236971
 20
147.0937756113792
 30
0.0
 11
357.6777652659054
 21
147.0937756113792
 31
0.0
  0
LINE
  5
D5C
330
1B
100
AcDbEntity
 67
     1
  8
0
 62
     0
100
AcDbLine
 10
364.2212973236971
 20
152.0941097335164
 30
0.0
 11
357.6777652659054
 21
152.0941097335164
 31
0.0
  0
LINE
  5
D5D
330
1B
100
AcDbEntity
 67
     1
  8
0
 62
     0
100
AcDbLine
 10
364.2212973236971
 20
152.0941097335164
 30
0.0
 11
356.5329456084007
 21
152.0941097335164
 31
0.0
  0
ARC
  5
D5E
330
1B
100
AcDbEntity
 67
     1
  8
0
 62
     0
100
AcDbCircle
 10
361.6119971602246
 20
149.5939426724477
 30
0.0
 40
3.613762952429115
100
AcDbArc
 50
316.2235944163359
 51
43.77640558366406
  0
DIMENSION
  5
D5F
330
1B
100
AcDbEntity
 67
     1
  8
0
 62
     0
100
AcDbDimension
  2
*D5
 10
313.9197858755577
 20
238.7983448953906
 30
0.0
 11
313.9197858755576
 21
251.0483448953907
 31
0.0
 70
   161
  1
%%c15
 71
     5
 42
15.0
  3
ISO-25
100
AcDbAlignedDimension
 13
302.7125705047715
 23
223.7983448953906
 33
0.0
 14
302.7125705047715
 24
238.7983448953906
 34
0.0
  0
LINE
  5
D65
330
1B
100
AcDbEntity
 67
     1
  8
0
 62
     0
100
AcDbLine
 10
302.7125705047715
 20
234.2983448953906
 30
0.0
 11
302.7125705047715
 21
228.2983448953906
 31
0.0
  0
LINE
  5
D66
330
1B
100
AcDbEntity
 67
     1
  8
0
 62
     0
100
AcDbLine
 10
267.7125705047715
 20
238.7983448953906
 30
0.0
 11
267.7125705047715
 21
223.7983448953906
 31
0.0
  0
LINE
  5
D67
330
1B
100
AcDbEntity
 67
     1
  8
0
 62
     0
100
AcDbLine
 10
268.7125705047715
 20
223.7983448953906
 30
0.0
 11
295.7125705047715
 21
223.7983448953906
 31
0.0
  0
LINE
  5
D68
330
1B
100
AcDbEntity
 67
     1
  8
0
 62
     0
100
AcDbLine
 10
267.7125705047715
 20
223.7983448953906
 30
0.0
 11
268.7125705047715
 21
223.7983448953906
 31
0.0
  0
LINE
  5
D69
330
1B
100
AcDbEntity
 67
     1
  8
0
 62
     0
 48
0.2
100
AcDbLine
 10
267.7125705047715
 20
223.7983448953906
 30
0.0
 11
271.9312095303737
 21
223.7983448953906
 31
0.0
  0
LINE
  5
D6A
330
1B
100
AcDbEntity
 67
     1
  8
0
 62
     0
100
AcDbLine
 10
295.7125705047715
 20
223.7983448953906
 30
0.0
 11
299.7125705047715
 21
223.7983448953906
 31
0.0
  0
LINE
  5
D6B
330
1B
100
AcDbEntity
 67
     1
  8
0
 62
     0
100
AcDbLine
 10
299.7125705047715
 20
223.7983448953906
 30
0.0
 11
302.7125705047715
 21
223.7983448953906
 31
0.0
  0
LINE
  5
D6C
330
1B
100
AcDbEntity
 67
     1
  8
0
 62
     0
100
AcDbLine
 10
302.7125705047715
 20
228.2983448953906
 30
0.0
 11
302.7125705047715
 21
223.7983448953906
 31
0.0
  0
MTEXT
  5
D6D
330
1B
100
AcDbEntity
 67
     1
  8
0
 62
     0
 48
0.5
100
AcDbMText
 10
284.8294560893302
 20
259.0485766243129
 30
0.0
 40
4.0
 41
32.64739999999999
 71
     5
 72
     5
  1
キャップ
 73
     1
 44
1.0
  0
LINE
  5
D6E
330
1B
100
AcDbEntity
 67
     1
  8
0
 62
     0
100
AcDbLine
 10
268.7125705047715
 20
238.7983448953906
 30
0.0
 11
295.7125705047715
 21
238.7983448953906
 31
0.0
  0
LINE
  5
D6F
330
1B
100
AcDbEntity
 67
     1
  8
0
 62
     0
100
AcDbLine
 10
268.7125705047715
 20
238.7983448953906
 30
0.0
 11
291.7125705047715
 21
238.7983448953906
 31
0.0
  0
DIMENSION
  5
D70
330
1B
100
AcDbEntity
 67
     1
  8
0
 62
     0
 48
0.2
100
AcDbDimension
  2
*D6
 10
302.7125705047715
 20
247.2559596887434
 30
0.0
 11
285.2125705047715
 21
249.3809596887434
 31
0.0
 70
    33
 71
     5
 42
35.0
  3
ISO-25
100
AcDbAlignedDimension
 13
267.7125705047715
 23
238.7983448953906
 33
0.0
 14
302.7125705047715
 24
238.7983448953906
 34
0.0
  0
LINE
  5
D71
330
1B
100
AcDbEntity
 67
     1
  8
0
 62
     0
100
AcDbLine
 10
268.7125705047715
 20
238.7983448953906
 30
0.0
 11
267.7125705047715
 21
238.7983448953906
 31
0.0
  0
LINE
  5
D72
330
1B
100
AcDbEntity
 67
     1
  8
0
 62
     0
 48
0.2
100
AcDbLine
 10
267.7125705047715
 20
238.7983448953906
 30
0.0
 11
269.7125705047715
 21
238.7983448953906
 31
0.0
  0
LINE
  5
D73
330
1B
100
AcDbEntity
 67
     1
  8
0
 62
     0
100
AcDbLine
 10
296.2125705047715
 20
238.7983448953906
 30
0.0
 11
299.7125705047715
 21
238.7983448953906
 31
0.0
  0
LINE
  5
D74
330
1B
100
AcDbEntity
 67
     1
  8
0
 62
     0
100
AcDbLine
 10
295.7125705047715
 20
238.7983448953906
 30
0.0
 11
296.7125705047715
 21
238.7983448953906
 31
0.0
  0
LINE
  5
D75
330
1B
100
AcDbEntity
 67
     1
  8
0
 62
     0
100
AcDbLine
 10
299.7125705047715
 20
238.7983448953906
 30
0.0
 11
302.7125705047715
 21
238.7983448953906
 31
0.0
  0
LINE
  5
D76
330
1B
100
AcDbEntity
 67
     1
  8
0
 62
     0
100
AcDbLine
 10
302.7125705047715
 20
238.7983448953906
 30
0.0
 11
302.7125705047715
 21
234.2983448953906
 31
0.0
  0
LINE
  5
E7C
330
1B
100
AcDbEntity
 67
     1
  8
0
100
AcDbLine
 10
356.2829289022936
 20
147.0937756113792
 30
0.0
 11
341.8899279922516
 21
147.0937756113792
 31
0.0
  0
LINE
  5
E82
330
1B
100
AcDbEntity
 67
     1
  8
0
100
AcDbLine
 10
341.2829289022936
 20
146.577053530113
 30
0.0
 11
341.8899279922516
 21
147.0937756113792
 31
0.0
  0
LINE
  5
E84
330
1B
100
AcDbEntity
 67
     1
  8
0
100
AcDbLine
 10
341.8899279922516
 20
137.0937756113792
 30
0.0
 11
356.2829289022936
 21
137.0937756113792
 31
0.0
  0
LINE
  5
E85
330
1B
100
AcDbEntity
 67
     1
  8
0
100
AcDbLine
 10
341.8899279922516
 20
137.0937756113792
 30
0.0
 11
341.2829289022936
 21
137.577053530113
 31
0.0
  0
LINE
  5
E87
330
1B
100
AcDbEntity
 67
     1
  8
0
100
AcDbLine
 10
341.2829289022936
 20
146.577053530113
 30
0.0
 11
341.2829289022936
 21
137.577053530113
 31
0.0
  0
LINE
  5
E8A
330
1B
100
AcDbEntity
 67
     1
  8
0
 62
     0
 48
0.2
100
AcDbLine
 10
100.3326867355601
 20
110.5356714155673
 30
0.0
 11
307.7100672719291
 21
110.5356714155673
 31
0.0
  0
LINE
  5
E8B
330
1B
100
AcDbEntity
 67
     1
  8
0
 62
     0
 48
0.2
100
AcDbLine
 10
100.3326867355601
 20
113.5356714155673
 30
0.0
 11
307.7100672719291
 21
113.5356714155673
 31
0.0
  0
LINE
  5
E8C
330
1B
100
AcDbEntity
 67
     1
  8
0
 62
     0
 48
2.0
100
AcDbLine
 10
314.7100672719291
 20
105.077053530113
 30
0.0
 11
332.7100672719291
 21
105.077053530113
 31
0.0
  0
LINE
  5
E8D
330
1B
100
AcDbEntity
 67
     1
  8
0
 62
     0
 48
2.0
100
AcDbLine
 10
332.7100672719291
 20
119.0770535301129
 30
0.0
 11
314.7100672719291
 21
119.0770535301129
 31
0.0
  0
LINE
  5
E8E
330
1B
100
AcDbEntity
 67
     1
  8
0
 62
     0
 48
0.2
100
AcDbLine
 10
307.7100672719291
 20
112.077053530113
 30
0.0
 11
307.7100672719291
 21
115.577053530113
 31
0.0
  0
LINE
  5
E8F
330
1B
100
AcDbEntity
 67
     1
  8
0
 62
     0
 48
0.2
100
AcDbLine
 10
307.7100672719291
 20
112.077053530113
 30
0.0
 11
307.7100672719291
 21
119.077053530113
 31
0.0
  0
LINE
  5
E90
330
1B
100
AcDbEntity
 67
     1
  8
0
 62
     0
 48
2.0
100
AcDbLine
 10
307.7100672719291
 20
112.077053530113
 30
0.0
 11
307.7100672719291
 21
117.077053530113
 31
0.0
  0
LINE
  5
E91
330
1B
100
AcDbEntity
 67
     1
  8
0
 62
     0
 48
0.2
100
AcDbLine
 10
307.7100672719291
 20
113.5356714155673
 30
0.0
 11
307.7100672719291
 21
110.5356714155673
 31
0.0
  0
LINE
  5
E92
330
1B
100
AcDbEntity
 67
     1
  8
0
 62
     0
 48
0.2
100
AcDbLine
 10
314.7100672719291
 20
115.577053530113
 30
0.0
 11
314.7100672719291
 21
108.577053530113
 31
0.0
  0
LINE
  5
E93
330
1B
100
AcDbEntity
 67
     1
  8
0
 62
     0
 48
2.0
100
AcDbLine
 10
307.7100672719291
 20
117.077053530113
 30
0.0
 11
307.7100672719291
 21
107.077053530113
 31
0.0
  0
LINE
  5
E94
330
1B
100
AcDbEntity
 67
     1
  8
0
 62
     0
 48
0.2
100
AcDbLine
 10
314.7100672719291
 20
108.577053530113
 30
0.0
 11
307.7100672719291
 21
108.577053530113
 31
0.0
  0
LINE
  5
E95
330
1B
100
AcDbEntity
 67
     1
  8
0
 62
     0
 48
0.2
100
AcDbLine
 10
314.7100672719291
 20
105.077053530113
 30
0.0
 11
307.7100672719291
 21
105.077053530113
 31
0.0
  0
LINE
  5
E96
330
1B
100
AcDbEntity
 67
     1
  8
0
 62
     0
 48
0.2
100
AcDbLine
 10
307.7100672719291
 20
107.077053530113
 30
0.0
 11
307.7100672719291
 21
104.9215851943358
 31
0.0
  0
LINE
  5
E97
330
1B
100
AcDbEntity
 67
     1
  8
0
 62
     0
 48
2.0
100
AcDbLine
 10
307.7100672719291
 20
112.077053530113
 30
0.0
 11
307.7100672719291
 21
107.077053530113
 31
0.0
  0
LINE
  5
E98
330
1B
100
AcDbEntity
 67
     1
  8
0
 62
     0
 48
0.2
100
AcDbLine
 10
314.7100672719291
 20
119.0770535301129
 30
0.0
 11
307.7100672719291
 21
119.0770535301129
 31
0.0
  0
LINE
  5
E99
330
1B
100
AcDbEntity
 67
     1
  8
0
 62
     0
 48
0.2
100
AcDbLine
 10
307.7100672719291
 20
115.577053530113
 30
0.0
 11
314.7100672719291
 21
115.577053530113
 31
0.0
  0
LINE
  5
E9A
330
1B
100
AcDbEntity
 67
     1
  8
0
 62
     0
 48
0.2
100
AcDbLine
 10
307.7100672719291
 20
117.077053530113
 30
0.0
 11
307.7100672719291
 21
119.077053530113
 31
0.0
  0
LINE
  5
E9B
330
1B
100
AcDbEntity
 67
     1
  8
0
 62
     0
 48
0.2
100
AcDbLine
 10
332.7100672719291
 20
112.077053530113
 30
0.0
 11
332.7100672719291
 21
116.577053530113
 31
0.0
  0
LINE
  5
E9C
330
1B
100
AcDbEntity
 67
     1
  8
0
 62
     0
 48
0.2
100
AcDbLine
 10
332.7100672719291
 20
112.077053530113
 30
0.0
 11
332.7100672719291
 21
117.077053530113
 31
0.0
  0
LINE
  5
E9D
330
1B
100
AcDbEntity
 67
     1
  8
0
 62
     0
 48
2.0
100
AcDbLine
 10
332.7100672719291
 20
106.577053530113
 30
0.0
 11
332.7100672719291
 21
119.0770535301129
 31
0.0
  0
LINE
  5
E9E
330
1B
100
AcDbEntity
 67
     1
  8
0
 62
     0
 48
0.2
100
AcDbLine
 10
332.7100672719291
 20
119.0770535301129
 30
0.0
 11
332.7100672719291
 21
105.077053530113
 31
0.0
  0
LINE
  5
E9F
330
1B
100
AcDbEntity
 67
     1
  8
0
 62
     0
 48
0.2
100
AcDbLine
 10
332.7100672719291
 20
112.077053530113
 30
0.0
 11
332.7100672719291
 21
107.577053530113
 31
0.0
  0
LINE
  5
EBB
330
1B
100
AcDbEntity
 67
     1
  8
Object
 62
     0
 48
0.3
100
AcDbLine
 10
356.6953047595161
 20
108.077053530113
 30
0.0
 11
342.3203047595162
 21
108.077053530113
 31
0.0
  0
LINE
  5
EBD
330
1B
100
AcDbEntity
 67
     1
  8
Object
 62
     0
 48
0.3
100
AcDbLine
 10
342.3203047595161
 20
116.077053530113
 30
0.0
 11
342.3203047595161
 21
108.077053530113
 31
0.0
  0
LINE
  5
EBE
330
1B
100
AcDbEntity
 67
     1
  8
Object
 62
     0
 48
0.3
100
AcDbLine
 10
341.6953047595161
 20
108.702053530113
 30
0.0
 11
341.6953047595161
 21
115.452053530113
 31
0.0
  0
LINE
  5
EBF
330
1B
100
AcDbEntity
 67
     1
  8
Object
 62
     0
 48
0.3
100
AcDbLine
 10
342.3203047595161
 20
116.077053530113
 30
0.0
 11
341.6953047595161
 21
115.452053530113
 31
0.0
  0
LINE
  5
EC0
330
1B
100
AcDbEntity
 67
     1
  8
Object
 62
     0
 48
0.3
100
AcDbLine
 10
342.3203047595161
 20
108.077053530113
 30
0.0
 11
341.6953047595161
 21
108.702053530113
 31
0.0
  0
LINE
  5
EC1
330
1B
100
AcDbEntity
 67
     1
  8
Object
 62
     0
 48
0.3
100
AcDbLine
 10
356.6953047595161
 20
119.577053530113
 30
0.0
 11
356.6953047595161
 21
104.577053530113
 31
0.0
  0
LINE
  5
EC2
330
1B
100
AcDbEntity
 67
     1
  8
Object
 62
     0
 48
0.3
100
AcDbLine
 10
362.3203047595161
 20
106.3732809748926
 30
0.0
 11
362.3203047595161
 21
117.7305112646238
 31
0.0
  0
ARC
  5
EC3
330
1B
100
AcDbEntity
 67
     1
  8
Object
 62
     0
 48
0.3
100
AcDbCircle
 10
345.4453047595161
 20
112.077053530113
 30
0.0
 40
16.875
100
AcDbArc
 50
347.160411228867
 51
12.8395884069045
  0
LINE
  5
EC4
330
1B
100
AcDbEntity
 67
     1
  8
Object
 62
     0
 48
0.3
100
AcDbLine
 10
362.3203047595161
 20
115.827053530113
 30
0.0
 11
362.3203047595161
 21
112.077053530113
 31
0.0
  0
LINE
  5
EC5
330
1B
100
AcDbEntity
 67
     1
  8
Object
 62
     0
 48
0.3
100
AcDbLine
 10
361.8983629858763
 20
115.827053530113
 30
0.0
 11
356.6953047595161
 21
115.827053530113
 31
0.0
  0
LINE
  5
EC6
330
1B
100
AcDbEntity
 67
     1
  8
Object
 62
     0
 48
0.3
100
AcDbLine
 10
361.8983629858763
 20
119.577053530113
 30
0.0
 11
356.6953047595161
 21
119.577053530113
 31
0.0
  0
LINE
  5
EC7
330
1B
100
AcDbEntity
 67
     1
  8
Object
 62
     0
 48
0.3
100
AcDbLine
 10
362.3203047595161
 20
117.6280781445181
 30
0.0
 11
362.3203047595161
 21
115.827053530113
 31
0.0
  0
ARC
  5
EC8
330
1B
100
AcDbEntity
 67
     1
  8
Object
 62
     0
 48
0.3
100
AcDbCircle
 10
358.0292171884053
 20
117.7020536526978
 30
0.0
 40
4.299524777226425
100
AcDbArc
 50
334.1450295252213
 51
25.85497047477861
  0
LINE
  5
EC9
330
1B
100
AcDbEntity
 67
     1
  8
Object
 62
     0
 48
0.3
100
AcDbLine
 10
356.6953047595161
 20
104.577053530113
 30
0.0
 11
361.8983629858763
 21
104.577053530113
 31
0.0
  0
LINE
  5
ECA
330
1B
100
AcDbEntity
 67
     1
  8
Object
 62
     0
 48
0.3
100
AcDbLine
 10
361.8983629858763
 20
108.327053530113
 30
0.0
 11
356.6953047595161
 21
108.327053530113
 31
0.0
  0
LINE
  5
ECB
330
1B
100
AcDbEntity
 67
     1
  8
Object
 62
     0
 48
0.3
100
AcDbLine
 10
356.6953047595161
 20
112.077053530113
 30
0.0
 11
356.6953047595161
 21
108.077053530113
 31
0.0
  0
ARC
  5
ECC
330
1B
100
AcDbEntity
 67
     1
  8
Object
 62
     0
 48
0.3
100
AcDbCircle
 10
358.206517327667
 20
106.452053530113
 30
0.0
 40
4.140694259594969
100
AcDbArc
 50
333.075075309887
 51
26.92492469011296
  0
LINE
  5
ECD
330
1B
100
AcDbEntity
 67
     1
  8
Object
 62
     0
 48
0.3
100
AcDbLine
 10
362.3203047595161
 20
112.077053530113
 30
0.0
 11
362.3203047595161
 21
108.327053530113
 31
0.0
  0
LINE
  5
ECF
330
1B
100
AcDbEntity
 67
     1
  8
0
100
AcDbLine
 10
349.0864284472726
 20
146.3437756113792
 30
0.0
 11
341.2829289022936
 21
146.3437756113792
 31
0.0
  0
LINE
  5
ED0
330
1B
100
AcDbEntity
 67
     1
  8
0
100
AcDbLine
 10
341.2829289022936
 20
146.3437756113792
 30
0.0
 11
356.2829289022936
 21
146.3437756113792
 31
0.0
  0
LINE
  5
ED2
330
1B
100
AcDbEntity
 67
     1
  8
0
100
AcDbLine
 10
345.5979132371648
 20
137.8437756113792
 30
0.0
 11
341.2829289022936
 21
137.8437756113792
 31
0.0
  0
LINE
  5
ED3
330
1B
100
AcDbEntity
 67
     1
  8
0
100
AcDbLine
 10
341.2829289022936
 20
137.8437756113792
 30
0.0
 11
356.2829289022936
 21
137.8437756113792
 31
0.0
  0
LINE
  5
ED4
330
1B
100
AcDbEntity
 67
     1
  8
0
100
AcDbLine
 10
341.8899279922516
 20
147.0937756113792
 30
0.0
 11
341.8899279922516
 21
137.0937756113792
 31
0.0
  0
LINE
  5
EE3
330
1B
100
AcDbEntity
 67
     1
  8
Object
 62
     0
 48
0.3
100
AcDbLine
 10
342.3203047595162
 20
116.077053530113
 30
0.0
 11
356.6953047595161
 21
116.077053530113
 31
0.0
  0
LINE
  5
EE4
330
1B
100
AcDbEntity
 67
     1
  8
0
 62
     0
 48
0.3
100
AcDbLine
 10
341.6953047595161
 20
115.452053530113
 30
0.0
 11
356.6953047595161
 21
115.452053530113
 31
0.0
  0
LINE
  5
EE6
330
1B
100
AcDbEntity
 67
     1
  8
0
 62
     0
 48
0.3
100
AcDbLine
 10
341.6953047595161
 20
108.702053530113
 30
0.0
 11
356.6953047595161
 21
108.702053530113
 31
0.0
  0
MTEXT
  5
EE7
330
1B
100
AcDbEntity
 67
     1
  8
0
100
AcDbMText
 10
315.8891465346046
 20
133.0665717033727
 30
0.0
 40
3.0
 41
16.7459
 71
     1
 72
     5
  1
M10用
 73
     1
 44
1.0
  0
MTEXT
  5
EE8
330
1B
100
AcDbEntity
 67
     1
  8
0
100
AcDbMText
 10
316.5956295308449
 20
103.5400626152784
 30
0.0
 40
3.0
 41
16.7459
 71
     1
 72
     5
  1
M8用
 73
     1
 44
1.0
  0
LINE
  5
F06
330
1B
100
AcDbEntity
 67
     1
  8
0
 62
     0
 48
0.2
100
AcDbLine
 10
305.1968807136534
 20
84.08213198522425
 30
0.0
 11
100.2999791779759
 21
84.08213198522426
 31
0.0
  0
LINE
  5
F07
330
1B
100
AcDbEntity
 67
     1
  8
0
 62
     0
 48
0.2
100
AcDbLine
 10
305.1968807136534
 20
81.08213198522426
 30
0.0
 11
100.6296682107642
 21
81.08213198522426
 31
0.0
  0
ARC
  5
F0A
330
1B
100
AcDbEntity
 67
     1
  8
0
 62
     0
 48
0.3
100
AcDbCircle
 10
345.1968807136533
 20
82.58213198522424
 30
0.0
 40
15.0
100
AcDbArc
 50
256.2437479056125
 51
150.5685435300298
  0
LINE
  5
F0B
330
1B
100
AcDbEntity
 67
     1
  8
３
 62
     0
 48
0.2
100
AcDbLine
 10
322.4438798927587
 20
84.08213198522425
 30
0.0
 11
305.1968807136534
 21
84.08213198522425
 31
0.0
  0
LINE
  5
F0C
330
1B
100
AcDbEntity
 67
     1
  8
３
 62
     0
 48
0.2
100
AcDbLine
 10
322.4438798927587
 20
81.08213198522426
 30
0.0
 11
305.1968807136534
 21
81.08213198522426
 31
0.0
  0
LINE
  5
F0D
330
1B
100
AcDbEntity
 67
     1
  8
0
 62
     0
 48
0.3
100
AcDbLine
 10
305.4968807136533
 20
85.08213198522424
 30
0.0
 11
325.1968807136534
 21
85.08213198522424
 31
0.0
  0
LINE
  5
F0E
330
1B
100
AcDbEntity
 67
     1
  8
0
 62
     0
 48
0.3
100
AcDbLine
 10
325.1968807136534
 20
80.08213198522424
 30
0.0
 11
305.4968807136533
 21
80.08213198522424
 31
0.0
  0
LINE
  5
F0F
330
1B
100
AcDbEntity
 67
     1
  8
0
 62
     0
 48
0.2
100
AcDbLine
 10
305.1968807136534
 20
82.58213198522424
 30
0.0
 11
305.1968807136534
 21
83.58213198522426
 31
0.0
  0
LINE
  5
F10
330
1B
100
AcDbEntity
 67
     1
  8
0
 62
     0
 48
0.3
100
AcDbLine
 10
305.1968807136534
 20
84.78213198522418
 30
0.0
 11
305.1968807136534
 21
80.3821319852242
 31
0.0
  0
LINE
  5
F11
330
1B
100
AcDbEntity
 67
     1
  8
0
 62
     0
 48
0.3
100
AcDbLine
 10
305.4968807136533
 20
85.08213198522424
 30
0.0
 11
305.1968807136534
 21
84.78213198522418
 31
0.0
  0
LINE
  5
F12
330
1B
100
AcDbEntity
 67
     1
  8
0
 62
     0
 48
0.3
100
AcDbLine
 10
305.4968807136533
 20
80.08213198522424
 30
0.0
 11
305.1968807136534
 21
80.3821319852242
 31
0.0
  0
ARC
  5
F13
330
1B
100
AcDbEntity
 67
     1
  8
0
 62
     0
 48
0.3
100
AcDbCircle
 10
325.6125370728994
 20
92.575485278005
 30
0.0
 40
13.0
100
AcDbArc
 50
268.1677373265008
 51
334.6255699255217
  0
ARC
  5
F14
330
1B
100
AcDbEntity
 67
     1
  8
0
 62
     0
 48
0.3
100
AcDbCircle
 10
323.8018969189356
 20
95.48435497869773
 30
0.0
 40
10.0
100
AcDbArc
 50
278.0188206779693
 51
326.4166617351195
  0
LINE
  5
F15
330
1B
100
AcDbEntity
 67
     1
  8
３
 62
     0
 48
0.2
100
AcDbLine
 10
322.4438798927587
 20
84.08213198522425
 30
0.0
 11
322.4438798927587
 21
81.08213198522426
 31
0.0
  0
LINE
  5
F16
330
1B
100
AcDbEntity
 67
     1
  8
0
 62
     0
 48
0.3
100
AcDbLine
 10
325.1968807136534
 20
85.08213198522424
 30
0.0
 11
325.1968807136534
 21
80.08213198522424
 31
0.0
  0
LINE
  5
F17
330
1B
100
AcDbEntity
 67
     1
  8
0
 62
     0
 48
0.3
100
AcDbLine
 10
325.1968807136534
 20
85.58213198522425
 30
0.0
 11
325.1968807136534
 21
79.58213198522425
 31
0.0
  0
LINE
  5
F18
330
1B
100
AcDbEntity
 67
     1
  8
0
 62
     0
 48
0.3
100
AcDbLine
 10
325.1968807136534
 20
82.58213198522424
 30
0.0
 11
325.1968807136534
 21
85.58213198522425
 31
0.0
  0
ARC
  5
F19
330
1B
100
AcDbEntity
 67
     1
  8
0
 62
     0
 48
0.3
100
AcDbCircle
 10
345.1968807136533
 20
82.58213198522424
 30
0.0
 40
9.0
100
AcDbArc
 50
257.8868746247251
 51
150.5685435300269
  0
ARC
  5
F1A
330
1B
100
AcDbEntity
 67
     1
  8
0
 62
     0
 48
0.3
100
AcDbCircle
 10
341.8677943460484
 20
68.98370619555909
 30
0.0
 40
1.0
100
AcDbArc
 50
162.1477041474594
 51
256.2437479056125
  0
ARC
  5
F1B
330
1B
100
AcDbEntity
 67
     1
  8
0
 62
     0
 48
0.3
100
AcDbCircle
 10
343.0984552238819
 20
72.80478007052479
 30
0.0
 40
1.0
100
AcDbArc
 50
77.88687462472511
 51
162.1477041474594
  0
LINE
  5
F1C
330
1B
100
AcDbEntity
 67
     1
  8
0
 62
     0
 48
0.3
100
AcDbLine
 10
342.1466052464499
 20
73.11134428967445
 30
0.0
 11
340.9159443686167
 21
69.29027041470876
 31
0.0
  0
LEADER
  5
F4E
330
1B
100
AcDbEntity
 67
     1
  8
0
100
AcDbLeader
  3
ISO-25
 73
     0
 40
3.0
 41
5.0
 76
     2
 10
360.1968807136533
 20
82.58213198522424
 30
0.0
 10
369.3126583185621
 20
82.58213198522424
 30
0.0
340
F4F
213
0.0
223
-1.5
233
0.0
1001
ACAD
1000
DSTYLE
1002
{
1070
   147
1040
0.625
1070
    77
1070
     0
1002
}
  0
MTEXT
  5
F4F
102
{ACAD_REACTORS
330
F4E
102
}
330
1B
100
AcDbEntity
 67
     1
  8
0
100
AcDbMText
 10
369.9376583185621
 20
84.08213198522425
 30
0.0
 40
3.0
 41
22.13169999999999
 71
     1
 72
     1
  1
%%c6
 73
     1
 44
1.0
  0
DIMENSION
  5
F50
330
1B
100
AcDbEntity
 67
     1
  8
0
100
AcDbDimension
  2
*D7
 10
325.9201604912979
 20
75.77959398075737
 30
0.0
 11
331.598574498177
 21
72.37718944001795
 31
0.0
 70
    33
  1
11
 71
     5
 42
12.53875867737562
  3
ISO-25
100
AcDbAlignedDimension
 13
342.1466052464499
 23
73.11134428967445
 33
0.0
 14
334.0288774663959
 24
82.66764926902716
 34
0.0
  0
LINE
  5
F70
330
1B
100
AcDbEntity
 67
     1
  8
0
100
AcDbLine
 10
42.43714795559208
 20
33.07001409972309
 30
0.0
 11
42.43714795559208
 21
18.6700140997231
 31
0.0
  0
LINE
  5
103C
330
1B
100
AcDbEntity
 67
     1
  8
0
100
AcDbLine
 10
229.9901844653486
 20
237.0798237267278
 30
0.0
 11
229.2250194556012
 21
235.684611805805
 31
0.0
  0
LINE
  5
103D
330
1B
100
AcDbEntity
 67
     1
  8
0
100
AcDbLine
 10
230.5040958575301
 20
225.4207326062988
 30
0.0
 11
229.694368311188
 21
226.7289021381259
 31
0.0
  0
LINE
  5
103E
330
1B
100
AcDbEntity
 67
     1
  8
0
100
AcDbLine
 10
199.7226211414217
 20
236.1360919692947
 30
0.0
 11
199.7226211414217
 21
227.1395514510237
 31
0.0
  0
LINE
  5
103F
330
1B
100
AcDbEntity
 67
     1
  8
0
100
AcDbLine
 10
228.3278644133689
 20
237.0317381081379
 30
0.0
 11
228.8391250392407
 21
225.4733637592182
 31
0.0
  0
LINE
  5
1040
330
1B
100
AcDbEntity
 67
     1
  8
0
100
AcDbLine
 10
226.5778644133689
 20
237.0317381081379
 30
0.0
 11
227.0891250392407
 21
225.4733637592182
 31
0.0
  0
LINE
  5
1041
330
1B
100
AcDbEntity
 67
     1
  8
0
100
AcDbLine
 10
224.8278644133689
 20
237.0317381081379
 30
0.0
 11
225.3391250392407
 21
225.4733637592182
 31
0.0
  0
LINE
  5
1042
330
1B
100
AcDbEntity
 67
     1
  8
0
100
AcDbLine
 10
223.0778644133688
 20
237.0317381081379
 30
0.0
 11
223.5891250392408
 21
225.4733637592182
 31
0.0
  0
LINE
  5
1043
330
1B
100
AcDbEntity
 67
     1
  8
0
100
AcDbLine
 10
221.3278644133688
 20
237.0317381081379
 30
0.0
 11
221.8391250392408
 21
225.4733637592182
 31
0.0
  0
LINE
  5
1044
330
1B
100
AcDbEntity
 67
     1
  8
0
100
AcDbLine
 10
219.5778644133688
 20
237.0317381081379
 30
0.0
 11
220.0891250392408
 21
225.4733637592182
 31
0.0
  0
LINE
  5
1045
330
1B
100
AcDbEntity
 67
     1
  8
0
100
AcDbLine
 10
217.8278644133689
 20
237.0317381081379
 30
0.0
 11
218.3391250392408
 21
225.4733637592182
 31
0.0
  0
LINE
  5
1046
330
1B
100
AcDbEntity
 67
     1
  8
0
100
AcDbLine
 10
216.0778644133689
 20
237.0317381081379
 30
0.0
 11
216.5891250392407
 21
225.4733637592182
 31
0.0
  0
LINE
  5
1047
330
1B
100
AcDbEntity
 67
     1
  8
0
100
AcDbLine
 10
214.3278644133689
 20
237.0317381081379
 30
0.0
 11
214.8391250392407
 21
225.4733637592182
 31
0.0
  0
LINE
  5
1048
330
1B
100
AcDbEntity
 67
     1
  8
0
100
AcDbLine
 10
220.4750194556012
 20
235.684611805805
 30
0.0
 11
220.9443683111879
 21
226.7289021381259
 31
0.0
  0
LINE
  5
1049
330
1B
100
AcDbEntity
 67
     1
  8
0
100
AcDbLine
 10
218.7250194556012
 20
235.684611805805
 30
0.0
 11
219.1943683111879
 21
226.7289021381259
 31
0.0
  0
LINE
  5
104A
330
1B
100
AcDbEntity
 67
     1
  8
0
100
AcDbLine
 10
216.9750194556012
 20
235.684611805805
 30
0.0
 11
217.444368311188
 21
226.7289021381259
 31
0.0
  0
LINE
  5
104B
330
1B
100
AcDbEntity
 67
     1
  8
0
100
AcDbLine
 10
215.2250194556012
 20
235.684611805805
 30
0.0
 11
215.694368311188
 21
226.7289021381259
 31
0.0
  0
LINE
  5
104C
330
1B
100
AcDbEntity
 67
     1
  8
0
100
AcDbLine
 10
213.4750194556012
 20
235.684611805805
 30
0.0
 11
213.9443683111879
 21
226.7289021381259
 31
0.0
  0
LINE
  5
104D
330
1B
100
AcDbEntity
 67
     1
  8
0
100
AcDbLine
 10
229.2250194556012
 20
235.684611805805
 30
0.0
 11
229.694368311188
 21
226.7289021381259
 31
0.0
  0
LINE
  5
104E
330
1B
100
AcDbEntity
 67
     1
  8
0
100
AcDbLine
 10
227.4750194556012
 20
235.684611805805
 30
0.0
 11
227.944368311188
 21
226.7289021381259
 31
0.0
  0
LINE
  5
104F
330
1B
100
AcDbEntity
 67
     1
  8
0
100
AcDbLine
 10
225.7250194556012
 20
235.684611805805
 30
0.0
 11
226.1943683111879
 21
226.7289021381259
 31
0.0
  0
LINE
  5
1050
330
1B
100
AcDbEntity
 67
     1
  8
0
100
AcDbLine
 10
223.9750194556012
 20
235.684611805805
 30
0.0
 11
224.4443683111879
 21
226.7289021381259
 31
0.0
  0
LINE
  5
1051
330
1B
100
AcDbEntity
 67
     1
  8
0
100
AcDbLine
 10
222.2250194556012
 20
235.684611805805
 30
0.0
 11
222.6943683111879
 21
226.7289021381259
 31
0.0
  0
LINE
  5
1052
330
1B
100
AcDbEntity
 67
     1
  8
0
100
AcDbLine
 10
206.4750194556011
 20
235.684611805805
 30
0.0
 11
206.9443683111879
 21
226.7289021381259
 31
0.0
  0
LINE
  5
1053
330
1B
100
AcDbEntity
 67
     1
  8
0
100
AcDbLine
 10
208.2250194556011
 20
235.684611805805
 30
0.0
 11
208.6943683111879
 21
226.7289021381259
 31
0.0
  0
LINE
  5
1054
330
1B
100
AcDbEntity
 67
     1
  8
0
100
AcDbLine
 10
209.9750194556011
 20
235.684611805805
 30
0.0
 11
210.4443683111879
 21
226.7289021381259
 31
0.0
  0
LINE
  5
1055
330
1B
100
AcDbEntity
 67
     1
  8
0
100
AcDbLine
 10
211.7250194556011
 20
235.684611805805
 30
0.0
 11
212.1943683111879
 21
226.7289021381259
 31
0.0
  0
LINE
  5
1056
330
1B
100
AcDbEntity
 67
     1
  8
0
100
AcDbLine
 10
199.7226211414217
 20
230.9600901945513
 30
0.0
 11
199.9443683111879
 21
226.7289021381259
 31
0.0
  0
LINE
  5
1057
330
1B
100
AcDbEntity
 67
     1
  8
0
100
AcDbLine
 10
201.2250194556011
 20
235.684611805805
 30
0.0
 11
201.6943683111879
 21
226.7289021381259
 31
0.0
  0
LINE
  5
1058
330
1B
100
AcDbEntity
 67
     1
  8
0
100
AcDbLine
 10
202.9750194556011
 20
235.684611805805
 30
0.0
 11
203.4443683111879
 21
226.7289021381259
 31
0.0
  0
LINE
  5
1059
330
1B
100
AcDbEntity
 67
     1
  8
0
100
AcDbLine
 10
204.7250194556011
 20
235.684611805805
 30
0.0
 11
205.1943683111879
 21
226.7289021381259
 31
0.0
  0
LINE
  5
105A
330
1B
100
AcDbEntity
 67
     1
  8
0
100
AcDbLine
 10
213.4750194556011
 20
235.684611805805
 30
0.0
 11
213.9443683111879
 21
226.7289021381259
 31
0.0
  0
LINE
  5
105B
330
1B
100
AcDbEntity
 67
     1
  8
0
100
AcDbLine
 10
200.3278644133688
 20
237.0317381081379
 30
0.0
 11
200.8391250392407
 21
225.4733637592182
 31
0.0
  0
LINE
  5
105C
330
1B
100
AcDbEntity
 67
     1
  8
0
100
AcDbLine
 10
202.0778644133688
 20
237.0317381081379
 30
0.0
 11
202.5891250392407
 21
225.4733637592182
 31
0.0
  0
LINE
  5
105D
330
1B
100
AcDbEntity
 67
     1
  8
0
100
AcDbLine
 10
203.8278644133688
 20
237.0317381081379
 30
0.0
 11
204.3391250392407
 21
225.4733637592182
 31
0.0
  0
LINE
  5
105E
330
1B
100
AcDbEntity
 67
     1
  8
0
100
AcDbLine
 10
205.5778644133688
 20
237.0317381081379
 30
0.0
 11
206.0891250392407
 21
225.4733637592182
 31
0.0
  0
LINE
  5
105F
330
1B
100
AcDbEntity
 67
     1
  8
0
100
AcDbLine
 10
207.3278644133689
 20
237.0317381081379
 30
0.0
 11
207.8391250392407
 21
225.4733637592182
 31
0.0
  0
LINE
  5
1060
330
1B
100
AcDbEntity
 67
     1
  8
0
100
AcDbLine
 10
209.0778644133688
 20
237.0317381081379
 30
0.0
 11
209.5891250392407
 21
225.4733637592182
 31
0.0
  0
LINE
  5
1061
330
1B
100
AcDbEntity
 67
     1
  8
0
100
AcDbLine
 10
210.8278644133688
 20
237.0317381081379
 30
0.0
 11
211.3391250392407
 21
225.4733637592182
 31
0.0
  0
LINE
  5
1062
330
1B
100
AcDbEntity
 67
     1
  8
0
100
AcDbLine
 10
212.5778644133688
 20
237.0317381081379
 30
0.0
 11
213.0891250392407
 21
225.4733637592182
 31
0.0
  0
LINE
  5
1063
330
1B
100
AcDbEntity
 67
     1
  8
0
100
AcDbLine
 10
214.3278644133689
 20
237.0317381081379
 30
0.0
 11
214.8391250392407
 21
225.4733637592182
 31
0.0
  0
LINE
  5
1064
330
1B
100
AcDbEntity
 67
     1
  8
0
100
AcDbLine
 10
213.1768049872609
 20
225.4252781406283
 30
0.0
 11
213.9419699970084
 21
226.8204900615511
 31
0.0
  0
LINE
  5
1065
330
1B
100
AcDbEntity
 67
     1
  8
0
100
AcDbLine
 10
206.0040958575301
 20
225.4207326062988
 30
0.0
 11
205.1943683111879
 21
226.7289021381259
 31
0.0
  0
LINE
  5
1066
330
1B
100
AcDbEntity
 67
     1
  8
0
100
AcDbLine
 10
199.9443683111879
 20
226.7289021381259
 30
0.0
 11
199.7226211414217
 21
227.1395514510237
 31
0.0
  0
LINE
  5
1067
330
1B
100
AcDbEntity
 67
     1
  8
0
100
AcDbLine
 10
200.7540958575301
 20
225.4207326062988
 30
0.0
 11
199.9443683111879
 21
226.7289021381259
 31
0.0
  0
LINE
  5
1068
330
1B
100
AcDbEntity
 67
     1
  8
0
100
AcDbLine
 10
200.9268049872609
 20
225.4252781406283
 30
0.0
 11
201.6919699970084
 21
226.8204900615511
 31
0.0
  0
ARC
  5
1069
330
1B
100
AcDbEntity
 67
     1
  8
0
100
AcDbCircle
 10
200.8391250392407
 20
225.4733637592182
 30
0.0
 40
0.1
100
AcDbArc
 50
211.7565767855592
 51
331.2586641960008
  0
LINE
  5
106A
330
1B
100
AcDbEntity
 67
     1
  8
0
100
AcDbLine
 10
202.5040958575301
 20
225.4207326062988
 30
0.0
 11
201.6943683111879
 21
226.7289021381259
 31
0.0
  0
LINE
  5
106B
330
1B
100
AcDbEntity
 67
     1
  8
0
100
AcDbLine
 10
202.6768049872609
 20
225.4252781406283
 30
0.0
 11
203.4419699970084
 21
226.8204900615511
 31
0.0
  0
ARC
  5
106C
330
1B
100
AcDbEntity
 67
     1
  8
0
100
AcDbCircle
 10
202.5891250392407
 20
225.4733637592182
 30
0.0
 40
0.1
100
AcDbArc
 50
211.7565767855592
 51
331.2586641960008
  0
LINE
  5
106D
330
1B
100
AcDbEntity
 67
     1
  8
0
100
AcDbLine
 10
204.2540958575301
 20
225.4207326062988
 30
0.0
 11
203.4443683111879
 21
226.7289021381259
 31
0.0
  0
LINE
  5
106E
330
1B
100
AcDbEntity
 67
     1
  8
0
100
AcDbLine
 10
204.4268049872609
 20
225.4252781406283
 30
0.0
 11
205.1919699970084
 21
226.8204900615511
 31
0.0
  0
ARC
  5
106F
330
1B
100
AcDbEntity
 67
     1
  8
0
100
AcDbCircle
 10
204.3391250392407
 20
225.4733637592182
 30
0.0
 40
0.1
100
AcDbArc
 50
211.7565767855592
 51
331.2586641960008
  0
LINE
  5
1070
330
1B
100
AcDbEntity
 67
     1
  8
0
100
AcDbLine
 10
206.1768049872609
 20
225.4252781406283
 30
0.0
 11
206.9419699970084
 21
226.8204900615511
 31
0.0
  0
ARC
  5
1071
330
1B
100
AcDbEntity
 67
     1
  8
0
100
AcDbCircle
 10
206.0891250392407
 20
225.4733637592182
 30
0.0
 40
0.1
100
AcDbArc
 50
211.7565767855592
 51
331.2586641960008
  0
LINE
  5
1072
330
1B
100
AcDbEntity
 67
     1
  8
0
100
AcDbLine
 10
207.75409585753
 20
225.4207326062988
 30
0.0
 11
206.9443683111879
 21
226.7289021381259
 31
0.0
  0
LINE
  5
1073
330
1B
100
AcDbEntity
 67
     1
  8
0
100
AcDbLine
 10
207.9268049872609
 20
225.4252781406283
 30
0.0
 11
208.6919699970084
 21
226.8204900615511
 31
0.0
  0
ARC
  5
1074
330
1B
100
AcDbEntity
 67
     1
  8
0
100
AcDbCircle
 10
207.8391250392407
 20
225.4733637592182
 30
0.0
 40
0.1
100
AcDbArc
 50
211.7565767855592
 51
331.2586641960008
  0
LINE
  5
1075
330
1B
100
AcDbEntity
 67
     1
  8
0
100
AcDbLine
 10
209.50409585753
 20
225.4207326062988
 30
0.0
 11
208.6943683111879
 21
226.7289021381259
 31
0.0
  0
LINE
  5
1076
330
1B
100
AcDbEntity
 67
     1
  8
0
100
AcDbLine
 10
209.6768049872609
 20
225.4252781406283
 30
0.0
 11
210.4419699970084
 21
226.8204900615511
 31
0.0
  0
ARC
  5
1077
330
1B
100
AcDbEntity
 67
     1
  8
0
100
AcDbCircle
 10
209.5891250392407
 20
225.4733637592182
 30
0.0
 40
0.1
100
AcDbArc
 50
211.7565767855592
 51
331.2586641960008
  0
LINE
  5
1078
330
1B
100
AcDbEntity
 67
     1
  8
0
100
AcDbLine
 10
211.25409585753
 20
225.4207326062988
 30
0.0
 11
210.4443683111879
 21
226.7289021381259
 31
0.0
  0
LINE
  5
1079
330
1B
100
AcDbEntity
 67
     1
  8
0
100
AcDbLine
 10
211.4268049872609
 20
225.4252781406283
 30
0.0
 11
212.1919699970084
 21
226.8204900615511
 31
0.0
  0
ARC
  5
107A
330
1B
100
AcDbEntity
 67
     1
  8
0
100
AcDbCircle
 10
211.3391250392407
 20
225.4733637592182
 30
0.0
 40
0.1
100
AcDbArc
 50
211.7565767855592
 51
331.2586641960008
  0
LINE
  5
107B
330
1B
100
AcDbEntity
 67
     1
  8
0
100
AcDbLine
 10
213.0040958575301
 20
225.4207326062988
 30
0.0
 11
212.1943683111879
 21
226.7289021381259
 31
0.0
  0
ARC
  5
107C
330
1B
100
AcDbEntity
 67
     1
  8
0
100
AcDbCircle
 10
213.0891250392407
 20
225.4733637592182
 30
0.0
 40
0.1
100
AcDbArc
 50
211.7565767855592
 51
331.2586641960008
  0
ARC
  5
107D
330
1B
100
AcDbEntity
 67
     1
  8
0
100
AcDbCircle
 10
221.8391250392408
 20
225.4733637592182
 30
0.0
 40
0.1
100
AcDbArc
 50
211.7565767855592
 51
331.2586641960008
  0
LINE
  5
107E
330
1B
100
AcDbEntity
 67
     1
  8
0
100
AcDbLine
 10
221.7540958575301
 20
225.4207326062988
 30
0.0
 11
220.9443683111879
 21
226.7289021381259
 31
0.0
  0
ARC
  5
107F
330
1B
100
AcDbEntity
 67
     1
  8
0
100
AcDbCircle
 10
220.0891250392408
 20
225.4733637592182
 30
0.0
 40
0.1
100
AcDbArc
 50
211.7565767855592
 51
331.2586641960008
  0
LINE
  5
1080
330
1B
100
AcDbEntity
 67
     1
  8
0
100
AcDbLine
 10
220.1768049872609
 20
225.4252781406283
 30
0.0
 11
220.9419699970084
 21
226.8204900615511
 31
0.0
  0
LINE
  5
1081
330
1B
100
AcDbEntity
 67
     1
  8
0
100
AcDbLine
 10
220.0040958575301
 20
225.4207326062988
 30
0.0
 11
219.1943683111879
 21
226.7289021381259
 31
0.0
  0
ARC
  5
1082
330
1B
100
AcDbEntity
 67
     1
  8
0
100
AcDbCircle
 10
218.3391250392408
 20
225.4733637592182
 30
0.0
 40
0.1
100
AcDbArc
 50
211.7565767855592
 51
331.2586641960008
  0
LINE
  5
1083
330
1B
100
AcDbEntity
 67
     1
  8
0
100
AcDbLine
 10
218.4268049872609
 20
225.4252781406283
 30
0.0
 11
219.1919699970084
 21
226.8204900615511
 31
0.0
  0
ARC
  5
1084
330
1B
100
AcDbEntity
 67
     1
  8
0
100
AcDbCircle
 10
216.5891250392407
 20
225.4733637592182
 30
0.0
 40
0.1
100
AcDbArc
 50
211.7565767855592
 51
331.2586641960008
  0
LINE
  5
1085
330
1B
100
AcDbEntity
 67
     1
  8
0
100
AcDbLine
 10
216.6768049872609
 20
225.4252781406283
 30
0.0
 11
217.4419699970084
 21
226.8204900615511
 31
0.0
  0
LINE
  5
1086
330
1B
100
AcDbEntity
 67
     1
  8
0
100
AcDbLine
 10
216.5040958575301
 20
225.4207326062988
 30
0.0
 11
215.694368311188
 21
226.7289021381259
 31
0.0
  0
ARC
  5
1087
330
1B
100
AcDbEntity
 67
     1
  8
0
100
AcDbCircle
 10
214.8391250392407
 20
225.4733637592182
 30
0.0
 40
0.1
100
AcDbArc
 50
211.7565767855592
 51
331.2586641960008
  0
LINE
  5
1088
330
1B
100
AcDbEntity
 67
     1
  8
0
100
AcDbLine
 10
214.9268049872609
 20
225.4252781406283
 30
0.0
 11
215.6919699970084
 21
226.8204900615511
 31
0.0
  0
LINE
  5
1089
330
1B
100
AcDbEntity
 67
     1
  8
0
100
AcDbLine
 10
214.7540958575301
 20
225.4207326062988
 30
0.0
 11
213.9443683111879
 21
226.7289021381259
 31
0.0
  0
LINE
  5
108A
330
1B
100
AcDbEntity
 67
     1
  8
0
100
AcDbLine
 10
218.2540958575301
 20
225.4207326062988
 30
0.0
 11
217.444368311188
 21
226.7289021381259
 31
0.0
  0
LINE
  5
108B
330
1B
100
AcDbEntity
 67
     1
  8
0
100
AcDbLine
 10
214.7540958575301
 20
225.4207326062988
 30
0.0
 11
213.9443683111879
 21
226.7289021381259
 31
0.0
  0
LINE
  5
108C
330
1B
100
AcDbEntity
 67
     1
  8
0
100
AcDbLine
 10
214.9268049872609
 20
225.4252781406283
 30
0.0
 11
215.6919699970084
 21
226.8204900615511
 31
0.0
  0
ARC
  5
108D
330
1B
100
AcDbEntity
 67
     1
  8
0
100
AcDbCircle
 10
214.8391250392407
 20
225.4733637592182
 30
0.0
 40
0.1
100
AcDbArc
 50
211.7565767855592
 51
331.2586641960008
  0
ARC
  5
108E
330
1B
100
AcDbEntity
 67
     1
  8
0
100
AcDbCircle
 10
228.8391250392407
 20
225.4733637592182
 30
0.0
 40
0.1
100
AcDbArc
 50
211.7565767855592
 51
331.2586641960008
  0
LINE
  5
108F
330
1B
100
AcDbEntity
 67
     1
  8
0
100
AcDbLine
 10
228.9268049872609
 20
225.4252781406283
 30
0.0
 11
229.6919699970084
 21
226.8204900615511
 31
0.0
  0
LINE
  5
1090
330
1B
100
AcDbEntity
 67
     1
  8
0
100
AcDbLine
 10
228.7540958575301
 20
225.4207326062988
 30
0.0
 11
227.944368311188
 21
226.7289021381259
 31
0.0
  0
ARC
  5
1091
330
1B
100
AcDbEntity
 67
     1
  8
0
100
AcDbCircle
 10
227.0891250392407
 20
225.4733637592182
 30
0.0
 40
0.1
100
AcDbArc
 50
211.7565767855592
 51
331.2586641960008
  0
LINE
  5
1092
330
1B
100
AcDbEntity
 67
     1
  8
0
100
AcDbLine
 10
227.1768049872609
 20
225.4252781406283
 30
0.0
 11
227.9419699970084
 21
226.8204900615511
 31
0.0
  0
LINE
  5
1093
330
1B
100
AcDbEntity
 67
     1
  8
0
100
AcDbLine
 10
227.0040958575301
 20
225.4207326062988
 30
0.0
 11
226.1943683111879
 21
226.7289021381259
 31
0.0
  0
ARC
  5
1094
330
1B
100
AcDbEntity
 67
     1
  8
0
100
AcDbCircle
 10
225.3391250392407
 20
225.4733637592182
 30
0.0
 40
0.1
100
AcDbArc
 50
211.7565767855592
 51
331.2586641960008
  0
LINE
  5
1095
330
1B
100
AcDbEntity
 67
     1
  8
0
100
AcDbLine
 10
225.2540958575301
 20
225.4207326062988
 30
0.0
 11
224.4443683111879
 21
226.7289021381259
 31
0.0
  0
ARC
  5
1096
330
1B
100
AcDbEntity
 67
     1
  8
0
100
AcDbCircle
 10
223.5891250392408
 20
225.4733637592182
 30
0.0
 40
0.1
100
AcDbArc
 50
211.7565767855592
 51
331.2586641960008
  0
LINE
  5
1097
330
1B
100
AcDbEntity
 67
     1
  8
0
100
AcDbLine
 10
223.676804987261
 20
225.4252781406283
 30
0.0
 11
224.4419699970084
 21
226.8204900615511
 31
0.0
  0
LINE
  5
1098
330
1B
100
AcDbEntity
 67
     1
  8
0
100
AcDbLine
 10
223.5040958575301
 20
225.4207326062988
 30
0.0
 11
222.6943683111879
 21
226.7289021381259
 31
0.0
  0
LINE
  5
1099
330
1B
100
AcDbEntity
 67
     1
  8
0
100
AcDbLine
 10
221.926804987261
 20
225.4252781406283
 30
0.0
 11
222.6919699970084
 21
226.8204900615511
 31
0.0
  0
LINE
  5
109A
330
1B
100
AcDbEntity
 67
     1
  8
0
100
AcDbLine
 10
225.426804987261
 20
225.4252781406283
 30
0.0
 11
226.1919699970084
 21
226.8204900615511
 31
0.0
  0
LINE
  5
109B
330
1B
100
AcDbEntity
 67
     1
  8
0
100
AcDbLine
 10
214.2401844653487
 20
237.0798237267278
 30
0.0
 11
213.4750194556012
 21
235.684611805805
 31
0.0
  0
LINE
  5
109C
330
1B
100
AcDbEntity
 67
     1
  8
0
100
AcDbLine
 10
214.2401844653487
 20
237.0798237267278
 30
0.0
 11
213.4750194556011
 21
235.684611805805
 31
0.0
  0
LINE
  5
109D
330
1B
100
AcDbEntity
 67
     1
  8
0
100
AcDbLine
 10
205.4901844653486
 20
237.0798237267278
 30
0.0
 11
204.7250194556011
 21
235.684611805805
 31
0.0
  0
ARC
  5
109E
330
1B
100
AcDbEntity
 67
     1
  8
0
100
AcDbCircle
 10
200.3278644133688
 20
237.0317381081379
 30
0.0
 40
0.1
100
AcDbArc
 50
31.75657678555928
 51
151.2586641960008
  0
ARC
  5
109F
330
1B
100
AcDbEntity
 67
     1
  8
0
100
AcDbCircle
 10
202.0778644133688
 20
237.0317381081379
 30
0.0
 40
0.1
100
AcDbArc
 50
31.75657678555928
 51
151.2586641960008
  0
ARC
  5
10A0
330
1B
100
AcDbEntity
 67
     1
  8
0
100
AcDbCircle
 10
203.8278644133688
 20
237.0317381081379
 30
0.0
 40
0.1
100
AcDbArc
 50
31.75657678555928
 51
151.2586641960008
  0
LINE
  5
10A1
330
1B
100
AcDbEntity
 67
     1
  8
0
100
AcDbLine
 10
200.2401844653486
 20
237.0798237267278
 30
0.0
 11
199.7226211414217
 21
236.1360919692947
 31
0.0
  0
LINE
  5
10A2
330
1B
100
AcDbEntity
 67
     1
  8
0
100
AcDbLine
 10
200.4128935950795
 20
237.0843692610572
 30
0.0
 11
201.2226211414217
 21
235.7761997292301
 31
0.0
  0
LINE
  5
10A3
330
1B
100
AcDbEntity
 67
     1
  8
0
100
AcDbLine
 10
201.9901844653486
 20
237.0798237267278
 30
0.0
 11
201.2250194556011
 21
235.684611805805
 31
0.0
  0
LINE
  5
10A4
330
1B
100
AcDbEntity
 67
     1
  8
0
100
AcDbLine
 10
202.1628935950795
 20
237.0843692610572
 30
0.0
 11
202.9726211414216
 21
235.7761997292301
 31
0.0
  0
LINE
  5
10A5
330
1B
100
AcDbEntity
 67
     1
  8
0
100
AcDbLine
 10
203.7401844653486
 20
237.0798237267278
 30
0.0
 11
202.9750194556011
 21
235.684611805805
 31
0.0
  0
LINE
  5
10A6
330
1B
100
AcDbEntity
 67
     1
  8
0
100
AcDbLine
 10
203.9128935950795
 20
237.0843692610572
 30
0.0
 11
204.7226211414217
 21
235.7761997292301
 31
0.0
  0
ARC
  5
10A7
330
1B
100
AcDbEntity
 67
     1
  8
0
100
AcDbCircle
 10
205.5778644133688
 20
237.0317381081379
 30
0.0
 40
0.1
100
AcDbArc
 50
31.75657678555928
 51
151.2586641960008
  0
ARC
  5
10A8
330
1B
100
AcDbEntity
 67
     1
  8
0
100
AcDbCircle
 10
207.3278644133689
 20
237.0317381081379
 30
0.0
 40
0.1
100
AcDbArc
 50
31.75657678555928
 51
151.2586641960008
  0
ARC
  5
10A9
330
1B
100
AcDbEntity
 67
     1
  8
0
100
AcDbCircle
 10
209.0778644133688
 20
237.0317381081379
 30
0.0
 40
0.1
100
AcDbArc
 50
31.75657678555928
 51
151.2586641960008
  0
ARC
  5
10AA
330
1B
100
AcDbEntity
 67
     1
  8
0
100
AcDbCircle
 10
210.8278644133688
 20
237.0317381081379
 30
0.0
 40
0.1
100
AcDbArc
 50
31.75657678555928
 51
151.2586641960008
  0
ARC
  5
10AB
330
1B
100
AcDbEntity
 67
     1
  8
0
100
AcDbCircle
 10
212.5778644133688
 20
237.0317381081379
 30
0.0
 40
0.1
100
AcDbArc
 50
31.75657678555928
 51
151.2586641960008
  0
LINE
  5
10AC
330
1B
100
AcDbEntity
 67
     1
  8
0
100
AcDbLine
 10
205.6628935950795
 20
237.0843692610572
 30
0.0
 11
206.4726211414217
 21
235.7761997292301
 31
0.0
  0
LINE
  5
10AD
330
1B
100
AcDbEntity
 67
     1
  8
0
100
AcDbLine
 10
207.2401844653486
 20
237.0798237267278
 30
0.0
 11
206.4750194556011
 21
235.684611805805
 31
0.0
  0
LINE
  5
10AE
330
1B
100
AcDbEntity
 67
     1
  8
0
100
AcDbLine
 10
207.4128935950795
 20
237.0843692610572
 30
0.0
 11
208.2226211414217
 21
235.7761997292301
 31
0.0
  0
LINE
  5
10AF
330
1B
100
AcDbEntity
 67
     1
  8
0
100
AcDbLine
 10
208.9901844653486
 20
237.0798237267278
 30
0.0
 11
208.2250194556011
 21
235.684611805805
 31
0.0
  0
LINE
  5
10B0
330
1B
100
AcDbEntity
 67
     1
  8
0
100
AcDbLine
 10
209.1628935950795
 20
237.0843692610572
 30
0.0
 11
209.9726211414217
 21
235.7761997292301
 31
0.0
  0
LINE
  5
10B1
330
1B
100
AcDbEntity
 67
     1
  8
0
100
AcDbLine
 10
210.7401844653487
 20
237.0798237267278
 30
0.0
 11
209.9750194556011
 21
235.684611805805
 31
0.0
  0
LINE
  5
10B2
330
1B
100
AcDbEntity
 67
     1
  8
0
100
AcDbLine
 10
210.9128935950795
 20
237.0843692610572
 30
0.0
 11
211.7226211414217
 21
235.7761997292301
 31
0.0
  0
LINE
  5
10B3
330
1B
100
AcDbEntity
 67
     1
  8
0
100
AcDbLine
 10
212.4901844653487
 20
237.0798237267278
 30
0.0
 11
211.7250194556011
 21
235.684611805805
 31
0.0
  0
LINE
  5
10B4
330
1B
100
AcDbEntity
 67
     1
  8
0
100
AcDbLine
 10
212.6628935950795
 20
237.0843692610572
 30
0.0
 11
213.4726211414217
 21
235.7761997292301
 31
0.0
  0
LINE
  5
10B5
330
1B
100
AcDbEntity
 67
     1
  8
0
100
AcDbLine
 10
221.4128935950796
 20
237.0843692610572
 30
0.0
 11
222.2226211414217
 21
235.7761997292301
 31
0.0
  0
LINE
  5
10B6
330
1B
100
AcDbEntity
 67
     1
  8
0
100
AcDbLine
 10
221.2401844653486
 20
237.0798237267278
 30
0.0
 11
220.4750194556012
 21
235.684611805805
 31
0.0
  0
LINE
  5
10B7
330
1B
100
AcDbEntity
 67
     1
  8
0
100
AcDbLine
 10
219.6628935950796
 20
237.0843692610572
 30
0.0
 11
220.4726211414217
 21
235.7761997292301
 31
0.0
  0
LINE
  5
10B8
330
1B
100
AcDbEntity
 67
     1
  8
0
100
AcDbLine
 10
219.4901844653486
 20
237.0798237267278
 30
0.0
 11
218.7250194556012
 21
235.684611805805
 31
0.0
  0
LINE
  5
10B9
330
1B
100
AcDbEntity
 67
     1
  8
0
100
AcDbLine
 10
217.9128935950795
 20
237.0843692610572
 30
0.0
 11
218.7226211414217
 21
235.7761997292301
 31
0.0
  0
ARC
  5
10BA
330
1B
100
AcDbEntity
 67
     1
  8
0
100
AcDbCircle
 10
221.3278644133688
 20
237.0317381081379
 30
0.0
 40
0.1
100
AcDbArc
 50
31.75657678555928
 51
151.2586641960008
  0
ARC
  5
10BB
330
1B
100
AcDbEntity
 67
     1
  8
0
100
AcDbCircle
 10
219.5778644133688
 20
237.0317381081379
 30
0.0
 40
0.1
100
AcDbArc
 50
31.75657678555928
 51
151.2586641960008
  0
ARC
  5
10BC
330
1B
100
AcDbEntity
 67
     1
  8
0
100
AcDbCircle
 10
217.8278644133689
 20
237.0317381081379
 30
0.0
 40
0.1
100
AcDbArc
 50
31.75657678555928
 51
151.2586641960008
  0
LINE
  5
10BD
330
1B
100
AcDbEntity
 67
     1
  8
0
100
AcDbLine
 10
216.1628935950795
 20
237.0843692610572
 30
0.0
 11
216.9726211414217
 21
235.7761997292301
 31
0.0
  0
LINE
  5
10BE
330
1B
100
AcDbEntity
 67
     1
  8
0
100
AcDbLine
 10
215.9901844653487
 20
237.0798237267278
 30
0.0
 11
215.2250194556012
 21
235.684611805805
 31
0.0
  0
LINE
  5
10BF
330
1B
100
AcDbEntity
 67
     1
  8
0
100
AcDbLine
 10
214.4128935950795
 20
237.0843692610572
 30
0.0
 11
215.2226211414217
 21
235.7761997292301
 31
0.0
  0
ARC
  5
10C0
330
1B
100
AcDbEntity
 67
     1
  8
0
100
AcDbCircle
 10
216.0778644133689
 20
237.0317381081379
 30
0.0
 40
0.1
100
AcDbArc
 50
31.75657678555928
 51
151.2586641960008
  0
ARC
  5
10C1
330
1B
100
AcDbEntity
 67
     1
  8
0
100
AcDbCircle
 10
214.3278644133689
 20
237.0317381081379
 30
0.0
 40
0.1
100
AcDbArc
 50
31.75657678555928
 51
151.2586641960008
  0
LINE
  5
10C2
330
1B
100
AcDbEntity
 67
     1
  8
0
100
AcDbLine
 10
217.7401844653487
 20
237.0798237267278
 30
0.0
 11
216.9750194556012
 21
235.684611805805
 31
0.0
  0
ARC
  5
10C3
330
1B
100
AcDbEntity
 67
     1
  8
0
100
AcDbCircle
 10
214.3278644133689
 20
237.0317381081379
 30
0.0
 40
0.1
100
AcDbArc
 50
31.75657678555928
 51
151.2586641960008
  0
LINE
  5
10C4
330
1B
100
AcDbEntity
 67
     1
  8
0
100
AcDbLine
 10
214.4128935950795
 20
237.0843692610572
 30
0.0
 11
215.2226211414216
 21
235.7761997292301
 31
0.0
  0
LINE
  5
10C5
330
1B
100
AcDbEntity
 67
     1
  8
0
100
AcDbLine
 10
228.4128935950795
 20
237.0843692610572
 30
0.0
 11
229.2226211414217
 21
235.7761997292301
 31
0.0
  0
LINE
  5
10C6
330
1B
100
AcDbEntity
 67
     1
  8
0
100
AcDbLine
 10
228.2401844653487
 20
237.0798237267278
 30
0.0
 11
227.4750194556012
 21
235.684611805805
 31
0.0
  0
LINE
  5
10C7
330
1B
100
AcDbEntity
 67
     1
  8
0
100
AcDbLine
 10
226.6628935950795
 20
237.0843692610572
 30
0.0
 11
227.4726211414217
 21
235.7761997292301
 31
0.0
  0
ARC
  5
10C8
330
1B
100
AcDbEntity
 67
     1
  8
0
100
AcDbCircle
 10
228.3278644133689
 20
237.0317381081379
 30
0.0
 40
0.1
100
AcDbArc
 50
31.75657678555928
 51
151.2586641960008
  0
ARC
  5
10C9
330
1B
100
AcDbEntity
 67
     1
  8
0
100
AcDbCircle
 10
226.5778644133689
 20
237.0317381081379
 30
0.0
 40
0.1
100
AcDbArc
 50
31.75657678555928
 51
151.2586641960008
  0
LINE
  5
10CA
330
1B
100
AcDbEntity
 67
     1
  8
0
100
AcDbLine
 10
224.9128935950796
 20
237.0843692610572
 30
0.0
 11
225.7226211414217
 21
235.7761997292301
 31
0.0
  0
LINE
  5
10CB
330
1B
100
AcDbEntity
 67
     1
  8
0
100
AcDbLine
 10
224.7401844653487
 20
237.0798237267278
 30
0.0
 11
223.9750194556012
 21
235.684611805805
 31
0.0
  0
LINE
  5
10CC
330
1B
100
AcDbEntity
 67
     1
  8
0
100
AcDbLine
 10
223.1628935950796
 20
237.0843692610572
 30
0.0
 11
223.9726211414217
 21
235.7761997292301
 31
0.0
  0
LINE
  5
10CD
330
1B
100
AcDbEntity
 67
     1
  8
0
100
AcDbLine
 10
222.9901844653487
 20
237.0798237267278
 30
0.0
 11
222.2250194556012
 21
235.684611805805
 31
0.0
  0
ARC
  5
10CE
330
1B
100
AcDbEntity
 67
     1
  8
0
100
AcDbCircle
 10
224.8278644133689
 20
237.0317381081379
 30
0.0
 40
0.1
100
AcDbArc
 50
31.75657678555928
 51
151.2586641960008
  0
ARC
  5
10CF
330
1B
100
AcDbEntity
 67
     1
  8
0
100
AcDbCircle
 10
223.0778644133688
 20
237.0317381081379
 30
0.0
 40
0.1
100
AcDbArc
 50
31.75657678555928
 51
151.2586641960008
  0
LINE
  5
10D0
330
1B
100
AcDbEntity
 67
     1
  8
0
100
AcDbLine
 10
226.4901844653487
 20
237.0798237267278
 30
0.0
 11
225.7250194556012
 21
235.684611805805
 31
0.0
  0
LINE
  5
10D1
330
1B
100
AcDbEntity
 67
     1
  8
0
100
AcDbLine
 10
239.7226211414217
 20
235.7761997292301
 30
0.0
 11
239.7226211414217
 21
226.8204900615511
 31
0.0
  0
LINE
  5
10D2
330
1B
100
AcDbEntity
 67
     1
  8
0
100
AcDbLine
 10
238.8625161811836
 20
236.2483448953906
 30
0.0
 11
239.3004220703109
 21
226.3483448953905
 31
0.0
  0
LINE
  5
10D3
330
1B
100
AcDbEntity
 67
     1
  8
0
100
AcDbLine
 10
237.1125161811835
 20
236.2483448953906
 30
0.0
 11
237.5504220703109
 21
226.3483448953905
 31
0.0
  0
LINE
  5
10D4
330
1B
100
AcDbEntity
 67
     1
  8
0
100
AcDbLine
 10
235.3625161811835
 20
236.2483448953906
 30
0.0
 11
235.8004220703109
 21
226.3483448953905
 31
0.0
  0
LINE
  5
10D5
330
1B
100
AcDbEntity
 67
     1
  8
0
100
AcDbLine
 10
233.5778644133689
 20
237.0317381081379
 30
0.0
 11
234.0891250392408
 21
225.4733637592182
 31
0.0
  0
LINE
  5
10D6
330
1B
100
AcDbEntity
 67
     1
  8
0
100
AcDbLine
 10
231.8278644133689
 20
237.0317381081379
 30
0.0
 11
232.3391250392408
 21
225.4733637592182
 31
0.0
  0
LINE
  5
10D7
330
1B
100
AcDbEntity
 67
     1
  8
0
100
AcDbLine
 10
230.0778644133689
 20
237.0317381081379
 30
0.0
 11
230.5891250392408
 21
225.4733637592182
 31
0.0
  0
LINE
  5
10D8
330
1B
100
AcDbEntity
 67
     1
  8
0
100
AcDbLine
 10
237.9750194556012
 20
235.684611805805
 30
0.0
 11
238.444368311188
 21
226.7289021381259
 31
0.0
  0
LINE
  5
10D9
330
1B
100
AcDbEntity
 67
     1
  8
0
100
AcDbLine
 10
236.2250194556012
 20
235.684611805805
 30
0.0
 11
236.6943683111879
 21
226.7289021381259
 31
0.0
  0
LINE
  5
10DA
330
1B
100
AcDbEntity
 67
     1
  8
0
100
AcDbLine
 10
234.4750194556012
 20
235.684611805805
 30
0.0
 11
234.9443683111879
 21
226.7289021381259
 31
0.0
  0
LINE
  5
10DB
330
1B
100
AcDbEntity
 67
     1
  8
0
100
AcDbLine
 10
232.7250194556012
 20
235.684611805805
 30
0.0
 11
233.1943683111879
 21
226.7289021381259
 31
0.0
  0
LINE
  5
10DC
330
1B
100
AcDbEntity
 67
     1
  8
0
100
AcDbLine
 10
230.9750194556012
 20
235.684611805805
 30
0.0
 11
231.4443683111879
 21
226.7289021381259
 31
0.0
  0
LINE
  5
10DD
330
1B
100
AcDbEntity
 67
     1
  8
0
 62
     0
100
AcDbLine
 10
239.7226211414217
 20
236.2483448953906
 30
0.0
 11
239.7226211414217
 21
226.3483448953905
 31
0.0
  0
LINE
  5
10DE
330
1B
100
AcDbEntity
 67
     1
  8
0
 62
     0
100
AcDbLine
 10
249.7226211414217
 20
233.3983448953906
 30
0.0
 11
249.7226211414217
 21
229.1983448953906
 31
0.0
  0
LINE
  5
10DF
330
1B
100
AcDbEntity
 67
     1
  8
0
 62
     0
100
AcDbLine
 10
247.7226211414217
 20
229.1983448953906
 30
0.0
 11
239.7226211414217
 21
229.1983448953906
 31
0.0
  0
LINE
  5
10E0
330
1B
100
AcDbEntity
 67
     1
  8
0
 62
     0
100
AcDbLine
 10
234.7226211414217
 20
226.3483448953905
 30
0.0
 11
239.7226211414217
 21
226.3483448953905
 31
0.0
  0
LINE
  5
10E1
330
1B
100
AcDbEntity
 67
     1
  8
0
100
AcDbLine
 10
236.9299246935266
 20
226.3483448953905
 30
0.0
 11
236.6943683111879
 21
226.7289021381259
 31
0.0
  0
LINE
  5
10E2
330
1B
100
AcDbEntity
 67
     1
  8
0
100
AcDbLine
 10
236.4330351676469
 20
226.3483448953905
 30
0.0
 11
236.6919699970085
 21
226.8204900615511
 31
0.0
  0
LINE
  5
10E3
330
1B
100
AcDbEntity
 67
     1
  8
0
100
AcDbLine
 10
235.1799246935266
 20
226.3483448953905
 30
0.0
 11
234.9443683111879
 21
226.7289021381259
 31
0.0
  0
ARC
  5
10E4
330
1B
100
AcDbEntity
 67
     1
  8
0
100
AcDbCircle
 10
234.0891250392408
 20
225.4733637592182
 30
0.0
 40
0.1
100
AcDbArc
 50
211.7565767855592
 51
331.2586641960008
  0
LINE
  5
10E5
330
1B
100
AcDbEntity
 67
     1
  8
0
100
AcDbLine
 10
234.176804987261
 20
225.4252781406283
 30
0.0
 11
234.9419699970085
 21
226.8204900615511
 31
0.0
  0
ARC
  5
10E6
330
1B
100
AcDbEntity
 67
     1
  8
0
100
AcDbCircle
 10
232.3391250392408
 20
225.4733637592182
 30
0.0
 40
0.1
100
AcDbArc
 50
211.7565767855592
 51
331.2586641960008
  0
LINE
  5
10E7
330
1B
100
AcDbEntity
 67
     1
  8
0
100
AcDbLine
 10
232.426804987261
 20
225.4252781406283
 30
0.0
 11
233.1919699970085
 21
226.8204900615511
 31
0.0
  0
LINE
  5
10E8
330
1B
100
AcDbEntity
 67
     1
  8
0
100
AcDbLine
 10
232.2540958575301
 20
225.4207326062988
 30
0.0
 11
231.4443683111879
 21
226.7289021381259
 31
0.0
  0
ARC
  5
10E9
330
1B
100
AcDbEntity
 67
     1
  8
0
100
AcDbCircle
 10
230.5891250392408
 20
225.4733637592182
 30
0.0
 40
0.1
100
AcDbArc
 50
211.7565767855592
 51
331.2586641960008
  0
LINE
  5
10EA
330
1B
100
AcDbEntity
 67
     1
  8
0
100
AcDbLine
 10
230.6768049872609
 20
225.4252781406283
 30
0.0
 11
231.4419699970085
 21
226.8204900615511
 31
0.0
  0
LINE
  5
10EB
330
1B
100
AcDbEntity
 67
     1
  8
0
100
AcDbLine
 10
234.0040958575301
 20
225.4207326062988
 30
0.0
 11
233.1943683111879
 21
226.7289021381259
 31
0.0
  0
LINE
  5
10EC
330
1B
100
AcDbEntity
 67
     1
  8
0
100
AcDbLine
 10
238.1830351676469
 20
226.3483448953905
 30
0.0
 11
238.4419699970085
 21
226.8204900615511
 31
0.0
  0
LINE
  5
10ED
330
1B
100
AcDbEntity
 67
     1
  8
0
100
AcDbLine
 10
238.6799246935265
 20
226.3483448953905
 30
0.0
 11
238.444368311188
 21
226.7289021381259
 31
0.0
  0
LINE
  5
10EE
330
1B
100
AcDbEntity
 67
     1
  8
0
 62
     0
100
AcDbLine
 10
247.7226211414217
 20
229.1983448953906
 30
0.0
 11
249.7226211414217
 21
229.1983448953906
 31
0.0
  0
LINE
  5
10EF
330
1B
100
AcDbEntity
 67
     1
  8
0
 62
     0
100
AcDbLine
 10
239.7226211414217
 20
233.3983448953906
 30
0.0
 11
247.7226211414217
 21
233.3983448953906
 31
0.0
  0
LINE
  5
10F0
330
1B
100
AcDbEntity
 67
     1
  8
0
100
AcDbLine
 10
238.2841831235138
 20
236.2483448953906
 30
0.0
 11
237.9750194556012
 21
235.684611805805
 31
0.0
  0
LINE
  5
10F1
330
1B
100
AcDbEntity
 67
     1
  8
0
 62
     0
100
AcDbLine
 10
239.7226211414217
 20
236.2483448953906
 30
0.0
 11
234.7226211414217
 21
236.2483448953906
 31
0.0
  0
LINE
  5
10F2
330
1B
100
AcDbEntity
 67
     1
  8
0
100
AcDbLine
 10
237.6803738924138
 20
236.2483448953906
 30
0.0
 11
237.9726211414217
 21
235.7761997292301
 31
0.0
  0
LINE
  5
10F3
330
1B
100
AcDbEntity
 67
     1
  8
0
100
AcDbLine
 10
236.5341831235137
 20
236.2483448953906
 30
0.0
 11
236.2250194556012
 21
235.684611805805
 31
0.0
  0
LINE
  5
10F4
330
1B
100
AcDbEntity
 67
     1
  8
0
100
AcDbLine
 10
235.9303738924139
 20
236.2483448953906
 30
0.0
 11
236.2226211414217
 21
235.7761997292301
 31
0.0
  0
LINE
  5
10F5
330
1B
100
AcDbEntity
 67
     1
  8
0
100
AcDbLine
 10
234.7841831235137
 20
236.2483448953906
 30
0.0
 11
234.4750194556012
 21
235.684611805805
 31
0.0
  0
LINE
  5
10F6
330
1B
100
AcDbEntity
 67
     1
  8
0
100
AcDbLine
 10
233.4901844653487
 20
237.0798237267278
 30
0.0
 11
232.7250194556012
 21
235.684611805805
 31
0.0
  0
LINE
  5
10F7
330
1B
100
AcDbEntity
 67
     1
  8
0
100
AcDbLine
 10
231.9128935950796
 20
237.0843692610572
 30
0.0
 11
232.7226211414217
 21
235.7761997292301
 31
0.0
  0
LINE
  5
10F8
330
1B
100
AcDbEntity
 67
     1
  8
0
100
AcDbLine
 10
231.7401844653487
 20
237.0798237267278
 30
0.0
 11
230.9750194556012
 21
235.684611805805
 31
0.0
  0
LINE
  5
10F9
330
1B
100
AcDbEntity
 67
     1
  8
0
100
AcDbLine
 10
230.1628935950795
 20
237.0843692610572
 30
0.0
 11
230.9726211414217
 21
235.7761997292301
 31
0.0
  0
ARC
  5
10FA
330
1B
100
AcDbEntity
 67
     1
  8
0
100
AcDbCircle
 10
233.5778644133689
 20
237.0317381081379
 30
0.0
 40
0.1
100
AcDbArc
 50
31.75657678555928
 51
151.2586641960008
  0
ARC
  5
10FB
330
1B
100
AcDbEntity
 67
     1
  8
0
100
AcDbCircle
 10
231.8278644133689
 20
237.0317381081379
 30
0.0
 40
0.1
100
AcDbArc
 50
31.75657678555928
 51
151.2586641960008
  0
ARC
  5
10FC
330
1B
100
AcDbEntity
 67
     1
  8
0
100
AcDbCircle
 10
230.0778644133689
 20
237.0317381081379
 30
0.0
 40
0.1
100
AcDbArc
 50
31.75657678555928
 51
151.2586641960008
  0
LINE
  5
10FD
330
1B
100
AcDbEntity
 67
     1
  8
0
100
AcDbLine
 10
233.6628935950796
 20
237.0843692610572
 30
0.0
 11
234.4726211414217
 21
235.7761997292301
 31
0.0
  0
LINE
  5
10FE
330
1B
100
AcDbEntity
 67
     1
  8
0
100
AcDbLine
 10
239.4303738924139
 20
236.2483448953906
 30
0.0
 11
239.7226211414217
 21
235.7761997292301
 31
0.0
  0
LINE
  5
10FF
330
1B
100
AcDbEntity
 67
     1
  8
0
 62
     0
100
AcDbLine
 10
239.7226211414217
 20
231.2983448953906
 30
0.0
 11
239.7226211414217
 21
236.2483448953906
 31
0.0
  0
LINE
  5
1100
330
1B
100
AcDbEntity
 67
     1
  8
0
 62
     0
100
AcDbLine
 10
239.7226211414217
 20
231.2983448953906
 30
0.0
 11
239.7226211414217
 21
233.3983448953906
 31
0.0
  0
LINE
  5
1101
330
1B
100
AcDbEntity
 67
     1
  8
0
 62
     0
100
AcDbLine
 10
247.7226211414217
 20
233.3983448953906
 30
0.0
 11
249.7226211414217
 21
233.3983448953906
 31
0.0
  0
DIMENSION
  5
1103
330
1B
100
AcDbEntity
 67
     1
  8
0
100
AcDbDimension
  2
*D8
 10
165.8312562947696
 20
196.0221042892278
 30
0.0
 11
113.3312562947696
 21
198.1471042892278
 31
0.0
 70
    33
 71
     5
 42
105.0
  3
ISO-25
100
AcDbAlignedDimension
 13
60.83125629476967
 23
186.160506812584
 33
0.0
 14
165.8312562947696
 24
186.160506812584
 34
0.0
  0
DIMENSION
  5
1110
330
1B
100
AcDbEntity
 67
     1
  8
0
100
AcDbDimension
  2
*D9
 10
332.7100672719291
 20
156.3979230951097
 30
0.0
 11
320.2100672719291
 21
158.5229230951097
 31
0.0
 70
    33
 71
     5
 42
25.0
  3
ISO-25
100
AcDbAlignedDimension
 13
307.7100672719291
 23
149.077053530113
 33
0.0
 14
332.7100672719291
 24
149.077053530113
 34
0.0
  0
DIMENSION
  5
111D
330
1B
100
AcDbEntity
 67
     1
  8
0
100
AcDbDimension
  2
*D10
 10
300.6945645923625
 20
135.077053530113
 30
0.0
 11
300.6945645923624
 21
155.202053530113
 31
0.0
 70
   161
  1
%%c14
 71
     5
 42
13.99999999999994
  3
ISO-25
100
AcDbAlignedDimension
 13
308.9578567374555
 23
149.077053530113
 33
0.0
 14
308.9578567374555
 24
135.077053530113
 34
0.0
  0
LINE
  5
113D
330
1B
100
AcDbEntity
 67
     1
  8
0
 62
     0
 48
0.3
100
AcDbLine
 10
9.249768224072113
 20
37.87001409972309
 30
0.0
 11
81.2497682240721
 21
37.87001409972309
 31
0.0
  0
LINE
  5
113E
330
1B
100
AcDbEntity
 67
     1
  8
0
 62
     0
 48
0.3
100
AcDbLine
 10
81.2497682240721
 20
37.87001409972309
 30
0.0
 11
9.249768224072113
 21
37.87001409972309
 31
0.0
  0
LINE
  5
113F
330
1B
100
AcDbEntity
 67
     1
  8
0
 62
     0
 48
0.3
100
AcDbLine
 10
9.249768224072113
 20
33.07001409972309
 30
0.0
 11
81.2497682240721
 21
33.07001409972309
 31
0.0
  0
LINE
  5
1141
330
1B
100
AcDbEntity
 67
     1
  8
0
 62
     0
 48
0.2
100
AcDbLine
 10
86.92844714505786
 20
33.0700140997231
 30
0.0
 11
42.38426366458611
 21
33.0700140997231
 31
0.0
  0
LINE
  5
1142
330
1B
100
AcDbEntity
 67
     1
  8
0
 62
     0
 48
0.2
100
AcDbLine
 10
86.92844714505786
 20
37.8700140997231
 30
0.0
 11
42.38426366458611
 21
37.8700140997231
 31
0.0
  0
MTEXT
  5
1143
330
1B
100
AcDbEntity
 67
     1
  8
0
 62
     0
 48
0.2
100
AcDbMText
 10
12.1234981456148
 20
35.75831635025263
 30
0.0
 40
2.399999999999999
 41
72.0
 71
     4
 72
     5
  1
ワイヤーフック
 73
     1
 44
1.0
  0
LINE
  5
1144
330
1B
100
AcDbEntity
 67
     1
  8
0
 62
     0
 48
0.3
100
AcDbLine
 10
9.249768224072113
 20
37.87001409972309
 30
0.0
 11
9.249768224072113
 21
33.07001409972309
 31
0.0
  0
MTEXT
  5
1145
330
1B
100
AcDbEntity
 67
     1
  8
0
 62
     0
 48
0.2
100
AcDbMText
 10
41.03831933370421
 20
35.75831635025265
 30
0.0
 40
3.599999999999999
 41
45.8902
 71
     4
 72
     5
  1
　{\H0.5556x;300kg}
 73
     1
 44
1.0
  0
LINE
  5
1146
330
1B
100
AcDbEntity
 67
     1
  8
0
 62
     0
 48
0.3
100
AcDbLine
 10
86.92844714505786
 20
33.0700140997231
 30
0.0
 11
86.92844714505786
 21
37.8700140997231
 31
0.0
  0
LINE
  5
1147
330
1B
100
AcDbEntity
 67
     1
  8
0
100
AcDbLine
 10
42.38426366458611
 20
33.0700140997231
 30
0.0
 11
42.38426366458611
 21
37.8700140997231
 31
0.0
  0
MTEXT
  5
1148
330
1B
100
AcDbEntity
 67
     1
  8
0
100
AcDbMText
 10
335.4838873815012
 20
60.01906447949818
 30
0.0
 40
3.0
 41
0.0
 71
     1
 72
     5
  1
SUSフック
 73
     1
 44
1.0
  0
DIMENSION
  5
1149
330
1B
100
AcDbEntity
 67
     1
  8
0
100
AcDbDimension
  2
*D11
 10
239.7226211414217
 20
246.5109478130159
 30
0.0
 11
219.7226211414217
 21
248.6359478130159
 31
0.0
 70
    33
 71
     5
 42
39.99999999999997
  3
ISO-25
100
AcDbAlignedDimension
 13
199.7226211414218
 23
233.5005845934336
 33
0.0
 14
239.7226211414217
 24
233.5005845934336
 34
0.0
  0
LEADER
  5
11BA
330
1B
100
AcDbEntity
 67
     1
  8
0
100
AcDbLeader
  3
ISO-25
 73
     0
 40
3.0
 41
5.0
 76
     3
 10
100.9618566239534
 20
235.2983448953906
 30
0.0
 10
100.9618566239534
 20
247.0333285006213
 30
0.0
 10
98.82423310735545
 20
247.0333285006213
 30
0.0
340
11BB
213
0.0
223
1.5
233
0.0
1001
ACAD
1000
DSTYLE
1002
{
1070
   147
1040
0.625
1070
    77
1070
     0
1002
}
  0
MTEXT
  5
11BB
102
{ACAD_REACTORS
330
11BA
102
}
330
1B
100
AcDbEntity
 67
     1
  8
0
100
AcDbMText
 10
98.19923310735545
 20
245.5333285006213
 30
0.0
 40
3.0
 41
22.13169999999999
 71
     9
 72
     1
  1
M8
 73
     1
 44
1.0
  0
ENDSEC
  0
SECTION
  2
OBJECTS
  0
DICTIONARY
  5
C
330
0
100
AcDbDictionary
281
     1
  3
ACAD_GROUP
350
D
  3
ACAD_IMAGE_VARS
350
2B
  3
ACAD_LAYOUT
350
1A
  3
ACAD_MLINESTYLE
350
17
  3
ACAD_PLOTSETTINGS
350
19
  3
ACAD_PLOTSTYLENAME
350
E
  3
AcadDim
350
11B9
  0
DICTIONARY
  5
D
102
{ACAD_REACTORS
330
C
102
}
330
C
100
AcDbDictionary
281
     1
  0
RASTERVARIABLES
  5
2B
102
{ACAD_REACTORS
330
C
102
}
330
C
100
AcDbRasterVariables
 90
        0
 70
     1
 71
     1
 72
     1
  0
DICTIONARY
  5
1A
102
{ACAD_REACTORS
330
C
102
}
330
C
100
AcDbDictionary
281
     1
  3
Model
350
22
  3
ﾚｲｱｳﾄ1
350
1E
  3
ﾚｲｱｳﾄ2
350
26
  0
DICTIONARY
  5
17
102
{ACAD_REACTORS
330
C
102
}
330
C
100
AcDbDictionary
281
     1
  3
Standard
350
18
  0
DICTIONARY
  5
19
102
{ACAD_REACTORS
330
C
102
}
330
C
100
AcDbDictionary
281
     1
  0
ACDBDICTIONARYWDFLT
  5
E
102
{ACAD_REACTORS
330
C
102
}
330
C
100
AcDbDictionary
281
     1
  3
Normal
350
F
100
AcDbDictionaryWithDefault
340
F
  0
XRECORD
  5
11B9
102
{ACAD_REACTORS
330
C
102
}
330
C
100
AcDbXrecord
280
     1
 90
   990106
  3

 60
     0
 61
     0
 62
     1
 63
     3
 64
     0
 65
     0
 66
     0
 67
     3
 68
     1
 69
     0
 70
     0
 71
     0
 72
     0
 40
22.13170009420243
170
     0
340
11BB
  0
LAYOUT
  5
22
102
{ACAD_REACTORS
330
1A
102
}
330
1A
100
AcDbPlotSettings
  1

  2
RICOH imagio Neo C380 RPCS
  4

  6

 40
0.0
 41
0.0
 42
0.0
 43
0.0
 44
0.0
 45
0.0
 46
0.0
 47
0.0
 48
0.0
 49
0.0
140
0.0
141
0.0
142
1.0
143
1.0
 70
  1712
 72
     0
 73
     0
 74
     0
  7

 75
     0
147
1.0
148
0.0
149
0.0
100
AcDbLayout
  1
Model
 70
     1
 71
     0
 10
0.0
 20
0.0
 11
12.0
 21
9.0
 12
0.0
 22
0.0
 32
0.0
 14
0.0
 24
0.0
 34
0.0
 15
0.0
 25
0.0
 35
0.0
146
0.0
 13
0.0
 23
0.0
 33
0.0
 16
1.0
 26
0.0
 36
0.0
 17
0.0
 27
1.0
 37
0.0
 76
     0
330
1F
  0
LAYOUT
  5
1E
102
{ACAD_REACTORS
330
1A
102
}
330
1A
100
AcDbPlotSettings
  1

  2
RICOH imagio MP C3500 RPCS
  4
A3
  6

 40
5.873749732971191
 41
5.873747825622558
 42
5.873748779296875
 43
5.873748779296875
 44
296.9259948730469
 45
419.9466552734374
 46
0.0
 47
0.0
 48
0.0
 49
0.0
140
0.0
141
0.0
142
1.0
143
1.0
 70
   688
 72
     1
 73
     1
 74
     5
  7

 75
    16
147
1.0
148
0.0
149
0.0
100
AcDbLayout
  1
ﾚｲｱｳﾄ1
 70
     1
 71
     1
 10
-5.873748779296875
 20
-5.873749732971191
 11
414.0729064941406
 21
291.0522451400757
 12
0.0
 22
0.0
 32
0.0
 14
1.042221639059562
 24
1.08829855961801
 34
0.0
 15
407.757958684845
 25
284.1844718556203
 35
0.0
146
0.0
 13
0.0
 23
0.0
 33
0.0
 16
1.0
 26
0.0
 36
0.0
 17
0.0
 27
1.0
 37
0.0
 76
     0
330
1B
331
2F
  0
LAYOUT
  5
26
102
{ACAD_REACTORS
330
1A
102
}
330
1A
100
AcDbPlotSettings
  1

  2
RICOH imagio Neo C380 RPCS
  4

  6

 40
0.0
 41
0.0
 42
0.0
 43
0.0
 44
0.0
 45
0.0
 46
0.0
 47
0.0
 48
0.0
 49
0.0
140
0.0
141
0.0
142
1.0
143
1.0
 70
   688
 72
     0
 73
     1
 74
     5
  7

 75
    16
147
1.0
148
0.0
149
0.0
100
AcDbLayout
  1
ﾚｲｱｳﾄ2
 70
     1
 71
     2
 10
0.0
 20
0.0
 11
0.0
 21
0.0
 12
0.0
 22
0.0
 32
0.0
 14
0.0
 24
0.0
 34
0.0
 15
0.0
 25
0.0
 35
0.0
146
0.0
 13
0.0
 23
0.0
 33
0.0
 16
1.0
 26
0.0
 36
0.0
 17
0.0
 27
1.0
 37
0.0
 76
     0
330
23
331
49D
  0
MLINESTYLE
  5
18
102
{ACAD_REACTORS
330
17
102
}
330
17
100
AcDbMlineStyle
  2
STANDARD
 70
     0
  3

 62
   256
 51
90.0
 52
90.0
 71
     2
 49
0.5
 62
   256
  6
BYLAYER
 49
-0.5
 62
   256
  6
BYLAYER
  0
ACDBPLACEHOLDER
  5
F
102
{ACAD_REACTORS
330
E
102
}
330
E
  0
ENDSEC
  0
EOF
