  0
SECTION
  2
HEADER
  9
$ACADVER
  1
AC1015
  9
$ACADMAINTVER
 70
     6
  9
$DWGCODEPAGE
  3
ANSI_932
  9
$INSBASE
 10
0.0
 20
0.0
 30
0.0
  9
$EXTMIN
 10
1.000000000000000E+20
 20
1.000000000000000E+20
 30
1.000000000000000E+20
  9
$EXTMAX
 10
-1.000000000000000E+20
 20
-1.000000000000000E+20
 30
-1.000000000000000E+20
  9
$LIMMIN
 10
0.0
 20
0.0
  9
$LIMMAX
 10
420.0
 20
297.0
  9
$ORTHOMODE
 70
     0
  9
$REGENMODE
 70
     1
  9
$FILLMODE
 70
     1
  9
$QTEXTMODE
 70
     0
  9
$MIRRTEXT
 70
     1
  9
$LTSCALE
 40
1.0
  9
$ATTMODE
 70
     1
  9
$TEXTSIZE
 40
2.5
  9
$TRACEWID
 40
1.0
  9
$TEXTSTYLE
  7
Standard
  9
$CLAYER
  8
0
  9
$CELTYPE
  6
ByLayer
  9
$CECOLOR
 62
   256
  9
$CELTSCALE
 40
1.0
  9
$DISPSILH
 70
     0
  9
$DIMSCALE
 40
1.0
  9
$DIMASZ
 40
2.0
  9
$DIMEXO
 40
0.625
  9
$DIMDLI
 40
3.75
  9
$DIMRND
 40
0.0
  9
$DIMDLE
 40
0.0
  9
$DIMEXE
 40
1.25
  9
$DIMTP
 40
0.0
  9
$DIMTM
 40
0.0
  9
$DIMTXT
 40
3.0
  9
$DIMCEN
 40
2.5
  9
$DIMTSZ
 40
0.0
  9
$DIMTOL
 70
     0
  9
$DIMLIM
 70
     0
  9
$DIMTIH
 70
     0
  9
$DIMTOH
 70
     0
  9
$DIMSE1
 70
     0
  9
$DIMSE2
 70
     0
  9
$DIMTAD
 70
     1
  9
$DIMZIN
 70
     8
  9
$DIMBLK
  1

  9
$DIMASO
 70
     1
  9
$DIMSHO
 70
     1
  9
$DIMPOST
  1

  9
$DIMAPOST
  1

  9
$DIMALT
 70
     0
  9
$DIMALTD
 70
     3
  9
$DIMALTF
 40
0.03937007874016
  9
$DIMLFAC
 40
1.0
  9
$DIMTOFL
 70
     1
  9
$DIMTVP
 40
0.0
  9
$DIMTIX
 70
     0
  9
$DIMSOXD
 70
     0
  9
$DIMSAH
 70
     0
  9
$DIMBLK1
  1

  9
$DIMBLK2
  1

  9
$DIMSTYLE
  2
ISO-25
  9
$DIMCLRD
 70
     0
  9
$DIMCLRE
 70
     7
  9
$DIMCLRT
 70
     0
  9
$DIMTFAC
 40
1.0
  9
$DIMGAP
 40
0.625
  9
$DIMJUST
 70
     0
  9
$DIMSD1
 70
     0
  9
$DIMSD2
 70
     0
  9
$DIMTOLJ
 70
     0
  9
$DIMTZIN
 70
     8
  9
$DIMALTZ
 70
     0
  9
$DIMALTTZ
 70
     0
  9
$DIMUPT
 70
     0
  9
$DIMDEC
 70
     2
  9
$DIMTDEC
 70
     2
  9
$DIMALTU
 70
     2
  9
$DIMALTTD
 70
     3
  9
$DIMTXSTY
  7
Standard
  9
$DIMAUNIT
 70
     0
  9
$DIMADEC
 70
     0
  9
$DIMALTRND
 40
0.0
  9
$DIMAZIN
 70
     0
  9
$DIMDSEP
 70
    46
  9
$DIMATFIT
 70
     3
  9
$DIMFRAC
 70
     0
  9
$DIMLDRBLK
  1

  9
$DIMLUNIT
 70
     2
  9
$DIMLWD
 70
    -2
  9
$DIMLWE
 70
     9
  9
$DIMTMOVE
 70
     0
  9
$LUNITS
 70
     2
  9
$LUPREC
 70
     4
  9
$SKETCHINC
 40
1.0
  9
$FILLETRAD
 40
10.0
  9
$AUNITS
 70
     0
  9
$AUPREC
 70
     0
  9
$MENU
  1
.
  9
$ELEVATION
 40
0.0
  9
$PELEVATION
 40
0.0
  9
$THICKNESS
 40
0.0
  9
$LIMCHECK
 70
     0
  9
$CHAMFERA
 40
10.0
  9
$CHAMFERB
 40
10.0
  9
$CHAMFERC
 40
20.0
  9
$CHAMFERD
 40
0.0
  9
$SKPOLY
 70
     0
  9
$TDCREATE
 40
2454873.622250069
  9
$TDUCREATE
 40
2454873.247250069
  9
$TDUPDATE
 40
2459116.702922268
  9
$TDUUPDATE
 40
2459116.327922268
  9
$TDINDWG
 40
0.1771871065
  9
$TDUSRTIMER
 40
0.1771871065
  9
$USRTIMER
 70
     1
  9
$ANGBASE
 50
0.0
  9
$ANGDIR
 70
     0
  9
$PDMODE
 70
     0
  9
$PDSIZE
 40
0.0
  9
$PLINEWID
 40
0.0
  9
$SPLFRAME
 70
     0
  9
$SPLINETYPE
 70
     6
  9
$SPLINESEGS
 70
     8
  9
$HANDSEED
  5
137C
  9
$SURFTAB1
 70
     6
  9
$SURFTAB2
 70
     6
  9
$SURFTYPE
 70
     6
  9
$SURFU
 70
     6
  9
$SURFV
 70
     6
  9
$UCSBASE
  2

  9
$UCSNAME
  2

  9
$UCSORG
 10
0.0
 20
0.0
 30
0.0
  9
$UCSXDIR
 10
1.0
 20
0.0
 30
0.0
  9
$UCSYDIR
 10
0.0
 20
1.0
 30
0.0
  9
$UCSORTHOREF
  2

  9
$UCSORTHOVIEW
 70
     0
  9
$UCSORGTOP
 10
0.0
 20
0.0
 30
0.0
  9
$UCSORGBOTTOM
 10
0.0
 20
0.0
 30
0.0
  9
$UCSORGLEFT
 10
0.0
 20
0.0
 30
0.0
  9
$UCSORGRIGHT
 10
0.0
 20
0.0
 30
0.0
  9
$UCSORGFRONT
 10
0.0
 20
0.0
 30
0.0
  9
$UCSORGBACK
 10
0.0
 20
0.0
 30
0.0
  9
$PUCSBASE
  2

  9
$PUCSNAME
  2

  9
$PUCSORG
 10
0.0
 20
0.0
 30
0.0
  9
$PUCSXDIR
 10
1.0
 20
0.0
 30
0.0
  9
$PUCSYDIR
 10
0.0
 20
1.0
 30
0.0
  9
$PUCSORTHOREF
  2

  9
$PUCSORTHOVIEW
 70
     0
  9
$PUCSORGTOP
 10
0.0
 20
0.0
 30
0.0
  9
$PUCSORGBOTTOM
 10
0.0
 20
0.0
 30
0.0
  9
$PUCSORGLEFT
 10
0.0
 20
0.0
 30
0.0
  9
$PUCSORGRIGHT
 10
0.0
 20
0.0
 30
0.0
  9
$PUCSORGFRONT
 10
0.0
 20
0.0
 30
0.0
  9
$PUCSORGBACK
 10
0.0
 20
0.0
 30
0.0
  9
$USERI1
 70
     0
  9
$USERI2
 70
     0
  9
$USERI3
 70
     0
  9
$USERI4
 70
     0
  9
$USERI5
 70
     0
  9
$USERR1
 40
0.0
  9
$USERR2
 40
0.0
  9
$USERR3
 40
0.0
  9
$USERR4
 40
0.0
  9
$USERR5
 40
0.0
  9
$WORLDVIEW
 70
     1
  9
$SHADEDGE
 70
     3
  9
$SHADEDIF
 70
    70
  9
$TILEMODE
 70
     0
  9
$MAXACTVP
 70
    64
  9
$PINSBASE
 10
0.0
 20
0.0
 30
0.0
  9
$PLIMCHECK
 70
     0
  9
$PEXTMIN
 10
1.033944076393936
 20
1.071861777917433
 30
-0.0015258207003583
  9
$PEXTMAX
 10
407.7739639505677
 20
284.1972496344207
 30
0.0000000349246037
  9
$PLIMMIN
 10
-5.873748779296875
 20
-5.873749732971191
  9
$PLIMMAX
 10
414.0729064941406
 20
291.0522451400757
  9
$UNITMODE
 70
     0
  9
$VISRETAIN
 70
     1
  9
$PLINEGEN
 70
     0
  9
$PSLTSCALE
 70
     1
  9
$TREEDEPTH
 70
  3020
  9
$CMLSTYLE
  2
Standard
  9
$CMLJUST
 70
     0
  9
$CMLSCALE
 40
20.0
  9
$PROXYGRAPHICS
 70
     1
  9
$MEASUREMENT
 70
     1
  9
$CELWEIGHT
370
    -1
  9
$ENDCAPS
280
     0
  9
$JOINSTYLE
280
     0
  9
$LWDISPLAY
290
     0
  9
$INSUNITS
 70
     4
  9
$HYPERLINKBASE
  1

  9
$STYLESHEET
  1

  9
$XEDIT
290
     1
  9
$CEPSNTYPE
380
     0
  9
$PSTYLEMODE
290
     1
  9
$FINGERPRINTGUID
  2
{951E45A9-2098-449B-99F4-687C375CF490}
  9
$VERSIONGUID
  2
{03ADCC8A-6D64-4448-9168-AE9BBB4C7A35}
  9
$EXTNAMES
290
     1
  9
$PSVPSCALE
 40
0.0
  9
$OLESTARTUP
290
     0
  0
ENDSEC
  0
SECTION
  2
CLASSES
  0
CLASS
  1
ACDBDICTIONARYWDFLT
  2
AcDbDictionaryWithDefault
  3
AutoCAD 2000
 90
        0
280
     0
281
     0
  0
CLASS
  1
ACDBPLACEHOLDER
  2
AcDbPlaceHolder
  3
AutoCAD 2000
 90
        0
280
     0
281
     0
  0
CLASS
  1
LAYOUT
  2
AcDbLayout
  3
AutoCAD 2000
 90
        0
280
     0
281
     0
  0
CLASS
  1
RASTERVARIABLES
  2
AcDbRasterVariables
  3
ISM
 90
        0
280
     0
281
     0
  0
ENDSEC
  0
SECTION
  2
TABLES
  0
TABLE
  2
VPORT
  5
8
330
0
100
AcDbSymbolTable
 70
     1
  0
VPORT
  5
499
330
8
100
AcDbSymbolTableRecord
100
AcDbViewportTableRecord
  2
*Active
 70
     0
 10
0.0
 20
0.0
 11
1.0
 21
1.0
 12
220.9969276907449
 22
172.7619420735345
 13
0.0
 23
0.0
 14
10.0
 24
10.0
 15
10.0
 25
10.0
 16
0.0
 26
0.0
 36
1.0
 17
0.0
 27
0.0
 37
0.0
 40
274.9023805563505
 41
1.478908188585607
 42
50.0
 43
0.0
 44
0.0
 50
0.0
 51
0.0
 71
     0
 72
   100
 73
     1
 74
     3
 75
     0
 76
     0
 77
     0
 78
     0
281
     0
 65
     1
110
0.0
120
0.0
130
0.0
111
1.0
121
0.0
131
0.0
112
0.0
122
1.0
132
0.0
 79
     0
146
0.0
  0
ENDTAB
  0
TABLE
  2
LTYPE
  5
5
330
0
100
AcDbSymbolTable
 70
     5
  0
LTYPE
  5
14
330
5
100
AcDbSymbolTableRecord
100
AcDbLinetypeTableRecord
  2
ByBlock
 70
     0
  3

 72
    65
 73
     0
 40
0.0
  0
LTYPE
  5
15
330
5
100
AcDbSymbolTableRecord
100
AcDbLinetypeTableRecord
  2
ByLayer
 70
     0
  3

 72
    65
 73
     0
 40
0.0
  0
LTYPE
  5
16
330
5
100
AcDbSymbolTableRecord
100
AcDbLinetypeTableRecord
  2
Continuous
 70
     0
  3
Solid line
 72
    65
 73
     0
 40
0.0
  0
LTYPE
  5
35
330
5
100
AcDbSymbolTableRecord
100
AcDbLinetypeTableRecord
  2
HIDDEN
 70
     0
  3
Hidden __ __ __ __ __ __ __ __ __ __ __ __ __ _
 72
    65
 73
     2
 40
9.524999999999998
 49
6.349999999999999
 74
     0
 49
-3.174999999999999
 74
     0
  0
LTYPE
  5
36
330
5
100
AcDbSymbolTableRecord
100
AcDbLinetypeTableRecord
  2
HIDDEN2
 70
     0
  3
Hidden (.5x) _ _ _ _ _ _ _ _ _ _ _ _ _ _ _ _ _
 72
    65
 73
     2
 40
4.762499999999999
 49
3.174999999999999
 74
     0
 49
-1.587499999999999
 74
     0
  0
LTYPE
  5
37
330
5
100
AcDbSymbolTableRecord
100
AcDbLinetypeTableRecord
  2
CENTER
 70
     0
  3
Center ____ _ ____ _ ____ _ ____ _ ____ _ ____
 72
    65
 73
     4
 40
50.8
 49
31.75
 74
     0
 49
-6.349999999999999
 74
     0
 49
6.349999999999999
 74
     0
 49
-6.349999999999999
 74
     0
  0
LTYPE
  5
38
330
5
100
AcDbSymbolTableRecord
100
AcDbLinetypeTableRecord
  2
PHANTOM2
 70
     0
  3
Phantom (.5x) ___ _ _ ___ _ _ ___ _ _ ___ _ _
 72
    65
 73
     6
 40
31.75
 49
15.875
 74
     0
 49
-3.174999999999999
 74
     0
 49
3.174999999999999
 74
     0
 49
-3.174999999999999
 74
     0
 49
3.174999999999999
 74
     0
 49
-3.174999999999999
 74
     0
  0
ENDTAB
  0
TABLE
  2
LAYER
  5
2
330
0
100
AcDbSymbolTable
 70
    13
  0
LAYER
  5
10
330
2
100
AcDbSymbolTableRecord
100
AcDbLayerTableRecord
  2
0
 70
     0
 62
     7
  6
Continuous
370
     9
390
F
  0
LAYER
  5
39
330
2
100
AcDbSymbolTableRecord
100
AcDbLayerTableRecord
  2
１
 70
     0
 62
     2
  6
Continuous
370
     9
390
F
  0
LAYER
  5
3A
330
2
100
AcDbSymbolTableRecord
100
AcDbLayerTableRecord
  2
２
 70
     0
 62
     3
  6
Continuous
370
    20
390
F
  0
LAYER
  5
3B
330
2
100
AcDbSymbolTableRecord
100
AcDbLayerTableRecord
  2
３
 70
     0
 62
     4
  6
HIDDEN
370
    15
390
F
  0
LAYER
  5
3C
330
2
100
AcDbSymbolTableRecord
100
AcDbLayerTableRecord
  2
４
 70
     0
 62
     4
  6
HIDDEN2
370
    15
390
F
  0
LAYER
  5
3D
330
2
100
AcDbSymbolTableRecord
100
AcDbLayerTableRecord
  2
５
 70
     0
 62
     6
  6
CENTER
370
    15
390
F
  0
LAYER
  5
3E
330
2
100
AcDbSymbolTableRecord
100
AcDbLayerTableRecord
  2
６
 70
     0
 62
     5
  6
PHANTOM2
370
    15
390
F
  0
LAYER
  5
46
330
2
100
AcDbSymbolTableRecord
100
AcDbLayerTableRecord
  2
Defpoints
 70
     0
 62
     7
  6
Continuous
290
     0
370
    -3
390
F
  0
LAYER
  5
AB
330
2
100
AcDbSymbolTableRecord
100
AcDbLayerTableRecord
  2
Object
 70
     0
 62
     3
  6
Continuous
370
    20
390
F
  0
LAYER
  5
3B8
330
2
100
AcDbSymbolTableRecord
100
AcDbLayerTableRecord
  2
1
 70
     0
 62
     7
  6
Continuous
370
     9
390
F
  0
LAYER
  5
3B9
330
2
100
AcDbSymbolTableRecord
100
AcDbLayerTableRecord
  2
2
 70
     0
 62
     3
  6
Continuous
370
    20
390
F
  0
LAYER
  5
78C
330
2
100
AcDbSymbolTableRecord
100
AcDbLayerTableRecord
  2
Center
 70
     0
 62
     7
  6
CENTER
370
     9
390
F
  0
LAYER
  5
B15
330
2
100
AcDbSymbolTableRecord
100
AcDbLayerTableRecord
  2
Hidden
 70
     0
 62
     4
  6
HIDDEN
370
    13
390
F
  0
ENDTAB
  0
TABLE
  2
STYLE
  5
3
330
0
100
AcDbSymbolTable
 70
     3
  0
STYLE
  5
11
330
3
100
AcDbSymbolTableRecord
100
AcDbTextStyleTableRecord
  2
Standard
 70
     0
 40
0.0
 41
1.0
 50
0.0
 71
     0
 42
2.5
  3
txt.shx
  4
bigfont.shx
  0
STYLE
  5
34
330
3
100
AcDbSymbolTableRecord
100
AcDbTextStyleTableRecord
  2

 70
     1
 40
0.0
 41
1.0
 50
0.0
 71
     0
 42
2.5
  3
ltypeshp.shx
  4

  0
STYLE
  5
12E
330
3
100
AcDbSymbolTableRecord
100
AcDbTextStyleTableRecord
  2
ｽﾀｲﾙ1
 70
     0
 40
2.5
 41
1.0
 50
0.0
 71
     0
 42
2.5
  3
txt.shx
  4

  0
ENDTAB
  0
TABLE
  2
VIEW
  5
6
330
0
100
AcDbSymbolTable
 70
     0
  0
ENDTAB
  0
TABLE
  2
UCS
  5
7
330
0
100
AcDbSymbolTable
 70
     0
  0
ENDTAB
  0
TABLE
  2
APPID
  5
9
330
0
100
AcDbSymbolTable
 70
     1
  0
APPID
  5
12
330
9
100
AcDbSymbolTableRecord
100
AcDbRegAppTableRecord
  2
ACAD
 70
     0
  0
ENDTAB
  0
TABLE
  2
DIMSTYLE
  5
A
330
0
100
AcDbSymbolTable
 70
     3
100
AcDbDimStyleTable
 71
     1
340
27
  0
DIMSTYLE
105
27
102
{ACAD_REACTORS
330
C3C
330
C66
330
C82
330
C67
330
C3D
330
BF9
330
10D0
330
118A
330
119A
330
11ED
330
1357
330
1369
102
}
330
A
100
AcDbSymbolTableRecord
100
AcDbDimStyleTableRecord
  2
ISO-25
 70
     0
 41
2.0
 42
0.625
 43
3.75
 44
1.25
 73
     0
 74
     0
 77
     1
 78
     8
140
3.0
141
2.5
143
0.03937007874016
147
0.625
171
     3
172
     1
177
     7
271
     2
272
     2
274
     3
283
     0
284
     8
340
11
372
     9
  0
DIMSTYLE
105
AC
330
A
100
AcDbSymbolTableRecord
100
AcDbDimStyleTableRecord
  2
JIS
 70
     0
 41
2.5
 42
1.0
 43
7.0
 44
1.0
 73
     0
 74
     0
 77
     1
 78
     8
140
2.5
141
0.0
143
0.0394
147
0.0
172
     1
174
     1
175
     1
340
11
  0
DIMSTYLE
105
9D3
330
A
100
AcDbSymbolTableRecord
100
AcDbDimStyleTableRecord
  2
ｺﾋﾟｰ - ISO-25
 70
     0
 41
2.5
 42
0.625
 43
3.75
 44
1.25
 73
     0
 74
     0
 77
     1
 78
     8
140
2.5
141
2.5
143
0.03937007874016
147
0.625
171
     3
172
     1
271
     2
272
     2
274
     3
283
     0
284
     8
340
11
343
9CE
  0
ENDTAB
  0
TABLE
  2
BLOCK_RECORD
  5
1
330
0
100
AcDbSymbolTable
 70
    13
  0
BLOCK_RECORD
  5
1F
330
1
100
AcDbSymbolTableRecord
100
AcDbBlockTableRecord
  2
*Model_Space
340
22
  0
BLOCK_RECORD
  5
1B
330
1
100
AcDbSymbolTableRecord
100
AcDbBlockTableRecord
  2
*Paper_Space
340
1E
  0
BLOCK_RECORD
  5
23
330
1
100
AcDbSymbolTableRecord
100
AcDbBlockTableRecord
  2
*Paper_Space0
340
26
  0
BLOCK_RECORD
  5
9CE
330
1
100
AcDbSymbolTableRecord
100
AcDbBlockTableRecord
  2
_Dot
340
0
  0
BLOCK_RECORD
  5
CB6
330
1
100
AcDbSymbolTableRecord
100
AcDbBlockTableRecord
  2
*D2
340
0
  0
BLOCK_RECORD
  5
CDC
330
1
100
AcDbSymbolTableRecord
100
AcDbBlockTableRecord
  2
*D3
340
0
  0
BLOCK_RECORD
  5
CE8
330
1
100
AcDbSymbolTableRecord
100
AcDbBlockTableRecord
  2
*D4
340
0
  0
BLOCK_RECORD
  5
D08
330
1
100
AcDbSymbolTableRecord
100
AcDbBlockTableRecord
  2
*D5
340
0
  0
BLOCK_RECORD
  5
D15
330
1
100
AcDbSymbolTableRecord
100
AcDbBlockTableRecord
  2
*D6
340
0
  0
BLOCK_RECORD
  5
10D1
330
1
100
AcDbSymbolTableRecord
100
AcDbBlockTableRecord
  2
*D7
340
0
  0
BLOCK_RECORD
  5
11FC
330
1
100
AcDbSymbolTableRecord
100
AcDbBlockTableRecord
  2
*D8
340
0
  0
BLOCK_RECORD
  5
1209
330
1
100
AcDbSymbolTableRecord
100
AcDbBlockTableRecord
  2
*D9
340
0
  0
BLOCK_RECORD
  5
1215
330
1
100
AcDbSymbolTableRecord
100
AcDbBlockTableRecord
  2
*D10
340
0
  0
BLOCK_RECORD
  5
1358
330
1
100
AcDbSymbolTableRecord
100
AcDbBlockTableRecord
  2
*D11
340
0
  0
BLOCK_RECORD
  5
136A
330
1
100
AcDbSymbolTableRecord
100
AcDbBlockTableRecord
  2
*D12
340
0
  0
ENDTAB
  0
ENDSEC
  0
SECTION
  2
BLOCKS
  0
BLOCK
  5
20
330
1F
100
AcDbEntity
  8
0
100
AcDbBlockBegin
  2
*Model_Space
 70
     0
 10
0.0
 20
0.0
 30
0.0
  3
*Model_Space
  1

  0
ENDBLK
  5
21
330
1F
100
AcDbEntity
  8
0
100
AcDbBlockEnd
  0
BLOCK
  5
1C
330
1B
100
AcDbEntity
 67
     1
  8
0
100
AcDbBlockBegin
  2
*Paper_Space
 70
     0
 10
0.0
 20
0.0
 30
0.0
  3
*Paper_Space
  1

  0
ENDBLK
  5
1D
330
1B
100
AcDbEntity
 67
     1
  8
0
100
AcDbBlockEnd
  0
BLOCK
  5
24
330
23
100
AcDbEntity
  8
0
100
AcDbBlockBegin
  2
*Paper_Space0
 70
     0
 10
0.0
 20
0.0
 30
0.0
  3
*Paper_Space0
  1

  0
VIEWPORT
  5
49D
330
23
100
AcDbEntity
  8
0
100
AcDbViewport
 10
0.0
 20
0.0
 30
0.0
 40
0.0
 41
0.0
 69
     0
 12
0.0
 22
0.0
 13
0.0
 23
0.0
 14
10.0
 24
10.0
 15
10.0
 25
10.0
 16
0.0
 26
0.0
 36
1.0
 17
0.0
 27
0.0
 37
0.0
 42
50.0
 43
0.0
 44
0.0
 45
0.0
 50
0.0
 51
0.0
 72
   100
 90
    32800
  1

281
     0
 71
     1
 74
     0
110
0.0
120
0.0
130
0.0
111
1.0
121
0.0
131
0.0
112
0.0
122
1.0
132
0.0
 79
     0
146
0.0
  0
VIEWPORT
  5
49F
330
23
100
AcDbEntity
  8
1
100
AcDbViewport
 10
0.0
 20
0.0
 30
0.0
 40
0.0
 41
0.0
 69
     0
 12
220.9969276907449
 22
172.7619420735345
 13
0.0
 23
0.0
 14
10.0
 24
10.0
 15
10.0
 25
10.0
 16
0.0
 26
0.0
 36
1.0
 17
0.0
 27
0.0
 37
0.0
 42
50.0
 43
0.0
 44
0.0
 45
274.9023805563505
 50
0.0
 51
0.0
 72
   100
 90
    32864
  1

281
     0
 71
     1
 74
     0
110
0.0
120
0.0
130
0.0
111
1.0
121
0.0
131
0.0
112
0.0
122
1.0
132
0.0
 79
     0
146
0.0
  0
ENDBLK
  5
25
330
23
100
AcDbEntity
  8
0
100
AcDbBlockEnd
  0
BLOCK
  5
9D1
330
9CE
100
AcDbEntity
  8
0
100
AcDbBlockBegin
  2
_Dot
 70
     0
 10
0.0
 20
0.0
 30
0.0
  3
_Dot
  1

  0
LWPOLYLINE
  5
9CF
330
9CE
100
AcDbEntity
  8
0
 62
     0
100
AcDbPolyline
 90
        2
 70
     1
 43
0.5
 10
-0.25
 20
0.0
 42
1.0
 10
0.25
 20
0.0
 42
1.0
  0
LINE
  5
9D0
330
9CE
100
AcDbEntity
  8
0
 62
     0
370
    -2
100
AcDbLine
 10
-0.5
 20
0.0
 30
0.0
 11
-1.0
 21
0.0
 31
0.0
  0
ENDBLK
  5
9D2
330
9CE
100
AcDbEntity
  8
0
100
AcDbBlockEnd
  0
BLOCK
  5
CC0
330
CB6
100
AcDbEntity
  8
0
100
AcDbBlockBegin
  2
*D2
 70
     1
 10
0.0
 20
0.0
 30
0.0
  3
*D2
  1

  0
LINE
  5
1278
330
CB6
100
AcDbEntity
  8
0
 62
     7
370
     9
100
AcDbLine
 10
118.393030398263
 20
239.4094718556203
 30
0.0
 11
118.393030398263
 21
248.4058943594304
 31
0.0
  0
LINE
  5
1279
330
CB6
100
AcDbEntity
  8
0
 62
     7
370
     9
100
AcDbLine
 10
188.393030398263
 20
239.4094718556203
 30
0.0
 11
188.393030398263
 21
248.4058943594304
 31
0.0
  0
LINE
  5
127A
330
CB6
100
AcDbEntity
  8
0
 62
     0
370
    -2
100
AcDbLine
 10
120.393030398263
 20
247.1558943594304
 30
0.0
 11
186.393030398263
 21
247.1558943594304
 31
0.0
  0
SOLID
  5
127B
330
CB6
100
AcDbEntity
  8
0
 62
     0
100
AcDbTrace
 10
120.393030398263
 20
247.4892276927637
 30
0.0
 11
120.393030398263
 21
246.822561026097
 31
0.0
 12
118.393030398263
 22
247.1558943594304
 32
0.0
 13
118.393030398263
 23
247.1558943594304
 33
0.0
  0
SOLID
  5
127C
330
CB6
100
AcDbEntity
  8
0
 62
     0
100
AcDbTrace
 10
186.393030398263
 20
247.4892276927637
 30
0.0
 11
186.393030398263
 21
246.822561026097
 31
0.0
 12
188.393030398263
 22
247.1558943594304
 32
0.0
 13
188.393030398263
 23
247.1558943594304
 33
0.0
  0
MTEXT
  5
127D
330
CB6
100
AcDbEntity
  8
0
 62
     0
100
AcDbMText
 10
153.3611077271273
 20
249.2808943594304
 30
0.0
 40
3.0
 41
0.0
 71
     5
 72
     1
  1
70
 73
     1
 44
1.0
  0
POINT
  5
127E
330
CB6
100
AcDbEntity
  8
Defpoints
 62
     0
100
AcDbPoint
 10
118.393030398263
 20
238.7844718556203
 30
0.0
  0
POINT
  5
127F
330
CB6
100
AcDbEntity
  8
Defpoints
 62
     0
100
AcDbPoint
 10
188.393030398263
 20
238.7844718556203
 30
0.0
  0
POINT
  5
1280
330
CB6
100
AcDbEntity
  8
Defpoints
 62
     0
100
AcDbPoint
 10
188.393030398263
 20
247.1558943594304
 30
0.0
  0
ENDBLK
  5
CC1
330
CB6
100
AcDbEntity
  8
0
100
AcDbBlockEnd
  0
BLOCK
  5
CE6
330
CDC
100
AcDbEntity
  8
0
100
AcDbBlockBegin
  2
*D3
 70
     1
 10
0.0
 20
0.0
 30
0.0
  3
*D3
  1

  0
LINE
  5
126F
330
CDC
100
AcDbEntity
  8
0
 62
     7
370
     9
100
AcDbLine
 10
136.2400841214525
 20
230.6594718556203
 30
0.0
 11
136.2400841214525
 21
212.2507383850845
 31
0.0
  0
LINE
  5
1270
330
CDC
100
AcDbEntity
  8
0
 62
     7
370
     9
100
AcDbLine
 10
161.3900841214526
 20
230.6594718556203
 30
0.0
 11
161.3900841214526
 21
212.2507383850845
 31
0.0
  0
LINE
  5
1271
330
CDC
100
AcDbEntity
  8
0
 62
     0
370
    -2
100
AcDbLine
 10
138.2400841214525
 20
213.5007383850845
 30
0.0
 11
159.3900841214526
 21
213.5007383850845
 31
0.0
  0
SOLID
  5
1272
330
CDC
100
AcDbEntity
  8
0
 62
     0
100
AcDbTrace
 10
138.2400841214525
 20
213.8340717184178
 30
0.0
 11
138.2400841214525
 21
213.1674050517511
 31
0.0
 12
136.2400841214525
 22
213.5007383850845
 32
0.0
 13
136.2400841214525
 23
213.5007383850845
 33
0.0
  0
SOLID
  5
1273
330
CDC
100
AcDbEntity
  8
0
 62
     0
100
AcDbTrace
 10
159.3900841214526
 20
213.8340717184178
 30
0.0
 11
159.3900841214526
 21
213.1674050517511
 31
0.0
 12
161.3900841214526
 22
213.5007383850845
 32
0.0
 13
161.3900841214526
 23
213.5007383850845
 33
0.0
  0
MTEXT
  5
1274
330
CDC
100
AcDbEntity
  8
0
 62
     0
100
AcDbMText
 10
148.8150841214526
 20
215.6257383850845
 30
0.0
 40
3.0
 41
0.0
 71
     5
 72
     1
  1
25
 73
     1
 44
1.0
  0
POINT
  5
1275
330
CDC
100
AcDbEntity
  8
Defpoints
 62
     0
100
AcDbPoint
 10
136.2400841214525
 20
231.2844718556203
 30
0.0
  0
POINT
  5
1276
330
CDC
100
AcDbEntity
  8
Defpoints
 62
     0
100
AcDbPoint
 10
161.3900841214526
 20
231.2844718556203
 30
0.0
  0
POINT
  5
1277
330
CDC
100
AcDbEntity
  8
Defpoints
 62
     0
100
AcDbPoint
 10
161.3900841214526
 20
213.5007383850845
 30
0.0
  0
ENDBLK
  5
CE7
330
CDC
100
AcDbEntity
  8
0
100
AcDbBlockEnd
  0
BLOCK
  5
CF4
330
CE8
100
AcDbEntity
  8
0
100
AcDbBlockBegin
  2
*D4
 70
     1
 10
0.0
 20
0.0
 30
0.0
  3
*D4
  1

  0
LINE
  5
128A
330
CE8
100
AcDbEntity
  8
0
 62
     7
370
     9
100
AcDbLine
 10
157.4236364921523
 20
233.9344718556203
 30
0.0
 11
170.9160337202247
 21
233.9344718556203
 31
0.0
  0
LINE
  5
128B
330
CE8
100
AcDbEntity
  8
0
 62
     7
370
     9
100
AcDbLine
 10
157.4236364921523
 20
228.6344718556204
 30
0.0
 11
170.9160337202247
 21
228.6344718556204
 31
0.0
  0
LINE
  5
128C
330
CE8
100
AcDbEntity
  8
0
 62
     0
370
    -2
100
AcDbLine
 10
169.6660337202247
 20
231.9344718556203
 30
0.0
 11
169.6660337202247
 21
230.6344718556203
 31
0.0
  0
LINE
  5
128D
330
CE8
100
AcDbEntity
  8
0
 62
     0
370
    -2
100
AcDbLine
 10
169.6660337202247
 20
228.6344718556204
 30
0.0
 11
169.6660337202247
 21
212.3832794959521
 31
0.0
  0
SOLID
  5
128E
330
CE8
100
AcDbEntity
  8
0
 62
     0
100
AcDbTrace
 10
169.3327003868914
 20
231.9344718556203
 30
0.0
 11
169.9993670535581
 21
231.9344718556203
 31
0.0
 12
169.6660337202247
 22
233.9344718556203
 32
0.0
 13
169.6660337202247
 23
233.9344718556203
 33
0.0
  0
SOLID
  5
128F
330
CE8
100
AcDbEntity
  8
0
 62
     0
100
AcDbTrace
 10
169.3327003868914
 20
230.6344718556203
 30
0.0
 11
169.9993670535581
 21
230.6344718556203
 31
0.0
 12
169.6660337202247
 22
228.6344718556204
 32
0.0
 13
169.6660337202247
 23
228.6344718556204
 33
0.0
  0
MTEXT
  5
1290
330
CE8
100
AcDbEntity
  8
0
 62
     0
100
AcDbMText
 10
167.5410337202247
 20
216.0082794959522
 30
0.0
 40
3.0
 41
0.0
 71
     5
 72
     1
  1
5.3
 11
0.0000000000000001
 21
1.0
 31
0.0
 73
     1
 44
1.0
  0
POINT
  5
1291
330
CE8
100
AcDbEntity
  8
Defpoints
 62
     0
100
AcDbPoint
 10
156.7986364921523
 20
233.9344718556203
 30
0.0
  0
POINT
  5
1292
330
CE8
100
AcDbEntity
  8
Defpoints
 62
     0
100
AcDbPoint
 10
156.7986364921523
 20
228.6344718556204
 30
0.0
  0
POINT
  5
1293
330
CE8
100
AcDbEntity
  8
Defpoints
 62
     0
100
AcDbPoint
 10
169.6660337202247
 20
228.6344718556204
 30
0.0
  0
ENDBLK
  5
CF5
330
CE8
100
AcDbEntity
  8
0
100
AcDbBlockEnd
  0
BLOCK
  5
D13
330
D08
100
AcDbEntity
  8
0
100
AcDbBlockBegin
  2
*D5
 70
     1
 10
0.0
 20
0.0
 30
0.0
  3
*D5
  1

  0
LINE
  5
1294
330
D08
100
AcDbEntity
  8
0
 62
     7
370
     9
100
AcDbLine
 10
310.553909474768
 20
223.7844718556203
 30
0.0
 11
322.3861248455542
 21
223.7844718556203
 31
0.0
  0
LINE
  5
1295
330
D08
100
AcDbEntity
  8
0
 62
     7
370
     9
100
AcDbLine
 10
310.553909474768
 20
238.7844718556203
 30
0.0
 11
322.3861248455542
 21
238.7844718556203
 31
0.0
  0
LINE
  5
1296
330
D08
100
AcDbEntity
  8
0
 62
     0
370
    -2
100
AcDbLine
 10
321.1361248455542
 20
225.7844718556203
 30
0.0
 11
321.1361248455542
 21
236.7844718556203
 31
0.0
  0
LINE
  5
1297
330
D08
100
AcDbEntity
  8
0
 62
     0
370
    -2
100
AcDbLine
 10
321.1361248455542
 20
238.7844718556203
 30
0.0
 11
321.1361248455542
 21
255.1594718556203
 31
0.0
  0
SOLID
  5
1298
330
D08
100
AcDbEntity
  8
0
 62
     0
100
AcDbTrace
 10
320.8027915122209
 20
225.7844718556203
 30
0.0
 11
321.4694581788875
 21
225.7844718556203
 31
0.0
 12
321.1361248455542
 22
223.7844718556203
 32
0.0
 13
321.1361248455542
 23
223.7844718556203
 33
0.0
  0
SOLID
  5
1299
330
D08
100
AcDbEntity
  8
0
 62
     0
100
AcDbTrace
 10
320.8027915122209
 20
236.7844718556203
 30
0.0
 11
321.4694581788875
 21
236.7844718556203
 31
0.0
 12
321.1361248455542
 22
238.7844718556203
 32
0.0
 13
321.1361248455542
 23
238.7844718556203
 33
0.0
  0
MTEXT
  5
129A
330
D08
100
AcDbEntity
  8
0
 62
     0
100
AcDbMText
 10
319.0111248455541
 20
251.0344718556204
 30
0.0
 40
3.0
 41
0.0
 71
     5
 72
     1
  1
%%c15
 11
0.0000000000000001
 21
1.0
 31
0.0
 73
     1
 44
1.0
  0
POINT
  5
129B
330
D08
100
AcDbEntity
  8
Defpoints
 62
     0
100
AcDbPoint
 10
309.928909474768
 20
223.7844718556203
 30
0.0
  0
POINT
  5
129C
330
D08
100
AcDbEntity
  8
Defpoints
 62
     0
100
AcDbPoint
 10
309.928909474768
 20
238.7844718556203
 30
0.0
  0
POINT
  5
129D
330
D08
100
AcDbEntity
  8
Defpoints
 62
     0
100
AcDbPoint
 10
321.1361248455542
 20
238.7844718556203
 30
0.0
  0
ENDBLK
  5
D14
330
D08
100
AcDbEntity
  8
0
100
AcDbBlockEnd
  0
BLOCK
  5
D1F
330
D15
100
AcDbEntity
  8
0
100
AcDbBlockBegin
  2
*D6
 70
     1
 10
0.0
 20
0.0
 30
0.0
  3
*D6
  1

  0
LINE
  5
12A7
330
D15
100
AcDbEntity
  8
0
 62
     7
370
     9
100
AcDbLine
 10
274.928909474768
 20
239.4094718556203
 30
0.0
 11
274.928909474768
 21
248.4920866489731
 31
0.0
  0
LINE
  5
12A8
330
D15
100
AcDbEntity
  8
0
 62
     7
370
     9
100
AcDbLine
 10
309.928909474768
 20
239.4094718556203
 30
0.0
 11
309.928909474768
 21
248.4920866489731
 31
0.0
  0
LINE
  5
12A9
330
D15
100
AcDbEntity
  8
0
 62
     0
370
    -2
100
AcDbLine
 10
276.928909474768
 20
247.2420866489732
 30
0.0
 11
307.928909474768
 21
247.2420866489732
 31
0.0
  0
SOLID
  5
12AA
330
D15
100
AcDbEntity
  8
0
 62
     0
100
AcDbTrace
 10
276.928909474768
 20
247.5754199823065
 30
0.0
 11
276.928909474768
 21
246.9087533156398
 31
0.0
 12
274.928909474768
 22
247.2420866489732
 32
0.0
 13
274.928909474768
 23
247.2420866489732
 33
0.0
  0
SOLID
  5
12AB
330
D15
100
AcDbEntity
  8
0
 62
     0
100
AcDbTrace
 10
307.928909474768
 20
247.5754199823065
 30
0.0
 11
307.928909474768
 21
246.9087533156398
 31
0.0
 12
309.928909474768
 22
247.2420866489732
 32
0.0
 13
309.928909474768
 23
247.2420866489732
 33
0.0
  0
MTEXT
  5
12AC
330
D15
100
AcDbEntity
  8
0
 62
     0
100
AcDbMText
 10
292.428909474768
 20
249.3670866489731
 30
0.0
 40
3.0
 41
0.0
 71
     5
 72
     1
  1
35
 73
     1
 44
1.0
  0
POINT
  5
12AD
330
D15
100
AcDbEntity
  8
Defpoints
 62
     0
100
AcDbPoint
 10
274.928909474768
 20
238.7844718556203
 30
0.0
  0
POINT
  5
12AE
330
D15
100
AcDbEntity
  8
Defpoints
 62
     0
100
AcDbPoint
 10
309.928909474768
 20
238.7844718556203
 30
0.0
  0
POINT
  5
12AF
330
D15
100
AcDbEntity
  8
Defpoints
 62
     0
100
AcDbPoint
 10
309.928909474768
 20
247.2420866489732
 30
0.0
  0
ENDBLK
  5
D20
330
D15
100
AcDbEntity
  8
0
100
AcDbBlockEnd
  0
BLOCK
  5
10DB
330
10D1
100
AcDbEntity
  8
0
100
AcDbBlockBegin
  2
*D7
 70
     1
 10
0.0
 20
0.0
 30
0.0
  3
*D7
  1

  0
LINE
  5
129E
330
10D1
100
AcDbEntity
  8
0
 62
     7
370
     9
100
AcDbLine
 10
206.6574621651761
 20
234.5706646932763
 30
0.0
 11
206.6574621651761
 21
248.0886919013269
 31
0.0
  0
LINE
  5
129F
330
10D1
100
AcDbEntity
  8
0
 62
     7
370
     9
100
AcDbLine
 10
246.6574621651761
 20
234.5706646932764
 30
0.0
 11
246.6574621651761
 21
248.0886919013269
 31
0.0
  0
LINE
  5
12A0
330
10D1
100
AcDbEntity
  8
0
 62
     0
370
    -2
100
AcDbLine
 10
208.6574621651761
 20
246.838691901327
 30
0.0
 11
244.6574621651761
 21
246.838691901327
 31
0.0
  0
SOLID
  5
12A1
330
10D1
100
AcDbEntity
  8
0
 62
     0
100
AcDbTrace
 10
208.6574621651761
 20
247.1720252346603
 30
0.0
 11
208.6574621651761
 21
246.5053585679936
 31
0.0
 12
206.6574621651761
 22
246.838691901327
 32
0.0
 13
206.6574621651761
 23
246.838691901327
 33
0.0
  0
SOLID
  5
12A2
330
10D1
100
AcDbEntity
  8
0
 62
     0
100
AcDbTrace
 10
244.6574621651761
 20
247.1720252346603
 30
0.0
 11
244.6574621651761
 21
246.5053585679936
 31
0.0
 12
246.6574621651761
 22
246.838691901327
 32
0.0
 13
246.6574621651761
 23
246.838691901327
 33
0.0
  0
MTEXT
  5
12A3
330
10D1
100
AcDbEntity
  8
0
 62
     0
100
AcDbMText
 10
226.6574621651761
 20
248.9636919013269
 30
0.0
 40
3.0
 41
0.0
 71
     5
 72
     1
  1
40
 73
     1
 44
1.0
  0
POINT
  5
12A4
330
10D1
100
AcDbEntity
  8
Defpoints
 62
     0
100
AcDbPoint
 10
206.6574621651761
 20
233.9456646932763
 30
0.0
  0
POINT
  5
12A5
330
10D1
100
AcDbEntity
  8
Defpoints
 62
     0
100
AcDbPoint
 10
246.6574621651761
 20
233.9456646932764
 30
0.0
  0
POINT
  5
12A6
330
10D1
100
AcDbEntity
  8
Defpoints
 62
     0
100
AcDbPoint
 10
246.6574621651761
 20
246.838691901327
 30
0.0
  0
ENDBLK
  5
10DC
330
10D1
100
AcDbEntity
  8
0
100
AcDbBlockEnd
  0
BLOCK
  5
1207
330
11FC
100
AcDbEntity
  8
0
100
AcDbBlockBegin
  2
*D8
 70
     1
 10
0.0
 20
0.0
 30
0.0
  3
*D8
  1

  0
LINE
  5
12C2
330
11FC
100
AcDbEntity
  8
0
 62
     7
370
     9
100
AcDbLine
 10
314.7621768801909
 20
149.125853970166
 30
0.0
 11
305.8738847350978
 21
149.125853970166
 31
0.0
  0
LINE
  5
12C3
330
11FC
100
AcDbEntity
  8
0
 62
     7
370
     9
100
AcDbLine
 10
314.7621768801909
 20
135.125853970166
 30
0.0
 11
305.8738847350978
 21
135.125853970166
 31
0.0
  0
LINE
  5
12C4
330
11FC
100
AcDbEntity
  8
0
 62
     0
370
    -2
100
AcDbLine
 10
307.1238847350978
 20
137.125853970166
 30
0.0
 11
307.1238847350978
 21
147.125853970166
 31
0.0
  0
LINE
  5
12C5
330
11FC
100
AcDbEntity
  8
0
 62
     0
370
    -2
100
AcDbLine
 10
307.1238847350978
 20
149.125853970166
 30
0.0
 11
307.1238847350978
 21
159.3758539701661
 31
0.0
  0
SOLID
  5
12C6
330
11FC
100
AcDbEntity
  8
0
 62
     0
100
AcDbTrace
 10
306.7905514017645
 20
137.125853970166
 30
0.0
 11
307.4572180684311
 21
137.125853970166
 31
0.0
 12
307.1238847350978
 22
135.125853970166
 32
0.0
 13
307.1238847350978
 23
135.125853970166
 33
0.0
  0
SOLID
  5
12C7
330
11FC
100
AcDbEntity
  8
0
 62
     0
100
AcDbTrace
 10
306.7905514017645
 20
147.125853970166
 30
0.0
 11
307.4572180684311
 21
147.125853970166
 31
0.0
 12
307.1238847350978
 22
149.125853970166
 32
0.0
 13
307.1238847350978
 23
149.125853970166
 33
0.0
  0
MTEXT
  5
12C8
330
11FC
100
AcDbEntity
  8
0
 62
     0
100
AcDbMText
 10
304.9988847350978
 20
155.2508539701661
 30
0.0
 40
3.0
 41
0.0
 71
     5
 72
     1
  1
%%c14
 11
0.0000000000000001
 21
1.0
 31
0.0
 73
     1
 44
1.0
  0
POINT
  5
12C9
330
11FC
100
AcDbEntity
  8
Defpoints
 62
     0
100
AcDbPoint
 10
315.3871768801909
 20
149.125853970166
 30
0.0
  0
POINT
  5
12CA
330
11FC
100
AcDbEntity
  8
Defpoints
 62
     0
100
AcDbPoint
 10
315.3871768801909
 20
135.125853970166
 30
0.0
  0
POINT
  5
12CB
330
11FC
100
AcDbEntity
  8
Defpoints
 62
     0
100
AcDbPoint
 10
307.1238847350978
 20
135.125853970166
 30
0.0
  0
ENDBLK
  5
1208
330
11FC
100
AcDbEntity
  8
0
100
AcDbBlockEnd
  0
BLOCK
  5
1213
330
1209
100
AcDbEntity
  8
0
100
AcDbBlockBegin
  2
*D9
 70
     1
 10
0.0
 20
0.0
 30
0.0
  3
*D9
  1

  0
LINE
  5
12CC
330
1209
100
AcDbEntity
  8
0
 62
     7
370
     9
100
AcDbLine
 10
348.099587119523
 20
72.75551298004012
 30
0.0
 11
339.5145318747627
 21
65.46282594208307
 31
0.0
  0
LINE
  5
12CD
330
1209
100
AcDbEntity
  8
0
 62
     7
370
     9
100
AcDbLine
 10
339.9818593394689
 20
82.31181795939287
 30
0.0
 11
331.3968040947086
 21
75.01913092143581
 31
0.0
  0
LINE
  5
12CE
330
1209
100
AcDbEntity
  8
0
 62
     0
370
    -2
100
AcDbLine
 10
339.172386815088
 20
67.79637190437743
 30
0.0
 11
333.6443022330328
 21
74.30411195789083
 31
0.0
  0
SOLID
  5
12CF
330
1209
100
AcDbEntity
  8
0
 62
     0
100
AcDbTrace
 10
339.4264338922412
 20
68.01217550421066
 30
0.0
 11
338.9183397379348
 21
67.58056830454418
 31
0.0
 12
340.4672084140875
 22
66.27208944145775
 32
0.0
 13
340.4672084140875
 23
66.27208944145775
 33
0.0
  0
SOLID
  5
12D0
330
1209
100
AcDbEntity
  8
0
 62
     0
100
AcDbTrace
 10
333.8983493101861
 20
74.51991555772406
 30
0.0
 11
333.3902551558796
 21
74.08830835805758
 31
0.0
 12
332.3494806340334
 22
75.82839442081049
 32
0.0
 13
332.3494806340334
 23
75.82839442081049
 33
0.0
  0
MTEXT
  5
12D1
330
1209
100
AcDbEntity
  8
0
 62
     0
100
AcDbMText
 10
338.0278946409125
 20
72.42598988007106
 30
0.0
 40
3.0
 41
0.0
 71
     5
 72
     1
  1
11
 11
0.6474107994997416
 21
-0.7621412314598297
 31
0.0
 73
     1
 44
1.0
  0
POINT
  5
12D2
330
1209
100
AcDbEntity
  8
Defpoints
 62
     0
100
AcDbPoint
 10
348.5759253891854
 20
73.16014472972745
 30
0.0
  0
POINT
  5
12D3
330
1209
100
AcDbEntity
  8
Defpoints
 62
     0
100
AcDbPoint
 10
340.4581976091313
 20
82.71644970908019
 30
0.0
  0
POINT
  5
12D4
330
1209
100
AcDbEntity
  8
Defpoints
 62
     0
100
AcDbPoint
 10
332.3494806340334
 20
75.82839442081049
 30
0.0
  0
ENDBLK
  5
1214
330
1209
100
AcDbEntity
  8
0
100
AcDbBlockEnd
  0
BLOCK
  5
121F
330
1215
100
AcDbEntity
  8
0
100
AcDbBlockBegin
  2
*D10
 70
     1
 10
0.0
 20
0.0
 30
0.0
  3
*D10
  1

  0
LINE
  5
12B9
330
1215
100
AcDbEntity
  8
0
 62
     7
370
     9
100
AcDbLine
 10
314.1393874146645
 20
149.750853970166
 30
0.0
 11
314.1393874146645
 21
157.6967235351627
 31
0.0
  0
LINE
  5
12BA
330
1215
100
AcDbEntity
  8
0
 62
     7
370
     9
100
AcDbLine
 10
339.1393874146645
 20
149.750853970166
 30
0.0
 11
339.1393874146645
 21
157.6967235351627
 31
0.0
  0
LINE
  5
12BB
330
1215
100
AcDbEntity
  8
0
 62
     0
370
    -2
100
AcDbLine
 10
316.1393874146645
 20
156.4467235351627
 30
0.0
 11
337.1393874146645
 21
156.4467235351627
 31
0.0
  0
SOLID
  5
12BC
330
1215
100
AcDbEntity
  8
0
 62
     0
100
AcDbTrace
 10
316.1393874146645
 20
156.780056868496
 30
0.0
 11
316.1393874146645
 21
156.1133902018293
 31
0.0
 12
314.1393874146645
 22
156.4467235351627
 32
0.0
 13
314.1393874146645
 23
156.4467235351627
 33
0.0
  0
SOLID
  5
12BD
330
1215
100
AcDbEntity
  8
0
 62
     0
100
AcDbTrace
 10
337.1393874146645
 20
156.780056868496
 30
0.0
 11
337.1393874146645
 21
156.1133902018293
 31
0.0
 12
339.1393874146645
 22
156.4467235351627
 32
0.0
 13
339.1393874146645
 23
156.4467235351627
 33
0.0
  0
MTEXT
  5
12BE
330
1215
100
AcDbEntity
  8
0
 62
     0
100
AcDbMText
 10
326.6393874146645
 20
158.5717235351627
 30
0.0
 40
3.0
 41
0.0
 71
     5
 72
     1
  1
25
 73
     1
 44
1.0
  0
POINT
  5
12BF
330
1215
100
AcDbEntity
  8
Defpoints
 62
     0
100
AcDbPoint
 10
314.1393874146645
 20
149.125853970166
 30
0.0
  0
POINT
  5
12C0
330
1215
100
AcDbEntity
  8
Defpoints
 62
     0
100
AcDbPoint
 10
339.1393874146645
 20
149.125853970166
 30
0.0
  0
POINT
  5
12C1
330
1215
100
AcDbEntity
  8
Defpoints
 62
     0
100
AcDbPoint
 10
339.1393874146645
 20
156.4467235351627
 30
0.0
  0
ENDBLK
  5
1220
330
1215
100
AcDbEntity
  8
0
100
AcDbBlockEnd
  0
BLOCK
  5
1361
330
1358
100
AcDbEntity
  8
0
100
AcDbBlockBegin
  2
*D11
 70
     1
 10
0.0
 20
0.0
 30
0.0
  3
*D11
  1

  0
LINE
  5
1359
330
1358
100
AcDbEntity
  8
0
 62
     0
370
    -2
100
AcDbLine
 10
84.21098177265067
 20
214.9674589983228
 30
0.0
 11
94.504348049254
 21
224.7426024366812
 31
0.0
  0
LINE
  5
135A
330
1358
100
AcDbEntity
  8
0
 62
     0
370
    -2
100
AcDbLine
 10
108.281712747272
 20
237.8263412745594
 30
0.0
 11
109.7319616628528
 21
239.2035769417045
 31
0.0
  0
MTEXT
  5
135B
330
1358
100
AcDbEntity
  8
0
 62
     0
100
AcDbMText
 10
85.73880726469456
 20
219.3488970346141
 30
0.0
 40
3.0
 41
0.0
 71
     5
 72
     1
  1
\U+220515
 11
0.7251244577904247
 21
0.6886178335725432
 31
0.0
 73
     1
 44
1.0
  0
LINE
  5
135C
330
1358
100
AcDbEntity
  8
0
 62
     0
370
    -2
100
AcDbLine
 10
106.8314638316911
 20
236.4491056074144
 30
0.0
 11
95.95459696483485
 21
226.1198381038262
 31
0.0
  0
SOLID
  5
135D
330
1358
100
AcDbEntity
  8
0
 62
     0
100
AcDbTrace
 10
108.0521734694145
 20
238.0680494271562
 30
0.0
 11
108.5112520251295
 21
237.5846331219626
 31
0.0
 12
106.8314638316911
 22
236.4491056074144
 32
0.0
 13
106.8314638316911
 23
236.4491056074144
 33
0.0
  0
SOLID
  5
135E
330
1358
100
AcDbEntity
  8
0
 62
     0
100
AcDbTrace
 10
94.27480877139648
 20
224.984310589278
 30
0.0
 11
94.73388732711152
 21
224.5008942840843
 31
0.0
 12
95.95459696483485
 22
226.1198381038262
 32
0.0
 13
95.95459696483485
 23
226.1198381038262
 33
0.0
  0
POINT
  5
135F
330
1358
100
AcDbEntity
  8
Defpoints
 62
     0
100
AcDbPoint
 10
95.95459696483485
 20
226.1198381038262
 30
0.0
  0
POINT
  5
1360
330
1358
100
AcDbEntity
  8
Defpoints
 62
     0
100
AcDbPoint
 10
106.8314638316911
 20
236.4491056074144
 30
0.0
  0
ENDBLK
  5
1362
330
1358
100
AcDbEntity
  8
0
100
AcDbBlockEnd
  0
BLOCK
  5
1374
330
136A
100
AcDbEntity
  8
0
100
AcDbBlockBegin
  2
*D12
 70
     1
 10
0.0
 20
0.0
 30
0.0
  3
*D12
  1

  0
LINE
  5
136B
330
136A
100
AcDbEntity
  8
0
 62
     7
370
     9
100
AcDbLine
 10
58.16530600641454
 20
186.8094718556203
 30
0.0
 11
58.16530600641454
 21
196.250911811171
 31
0.0
  0
LINE
  5
136C
330
136A
100
AcDbEntity
  8
0
 62
     7
370
     9
100
AcDbLine
 10
163.1653060064145
 20
186.8094718556203
 30
0.0
 11
163.1653060064145
 21
196.250911811171
 31
0.0
  0
LINE
  5
136D
330
136A
100
AcDbEntity
  8
0
 62
     0
370
    -2
100
AcDbLine
 10
60.16530600641454
 20
195.000911811171
 30
0.0
 11
161.1653060064145
 21
195.000911811171
 31
0.0
  0
SOLID
  5
136E
330
136A
100
AcDbEntity
  8
0
 62
     0
100
AcDbTrace
 10
60.16530600641454
 20
195.3342451445043
 30
0.0
 11
60.16530600641454
 21
194.6675784778376
 31
0.0
 12
58.16530600641454
 22
195.000911811171
 32
0.0
 13
58.16530600641454
 23
195.000911811171
 33
0.0
  0
SOLID
  5
136F
330
136A
100
AcDbEntity
  8
0
 62
     0
100
AcDbTrace
 10
161.1653060064145
 20
195.3342451445043
 30
0.0
 11
161.1653060064145
 21
194.6675784778376
 31
0.0
 12
163.1653060064145
 22
195.000911811171
 32
0.0
 13
163.1653060064145
 23
195.000911811171
 33
0.0
  0
MTEXT
  5
1370
330
136A
100
AcDbEntity
  8
0
 62
     0
100
AcDbMText
 10
110.6653060064145
 20
197.125911811171
 30
0.0
 40
3.0
 41
0.0
 71
     5
 72
     1
  1
105
 73
     1
 44
1.0
  0
POINT
  5
1371
330
136A
100
AcDbEntity
  8
Defpoints
 62
     0
100
AcDbPoint
 10
58.16530600641454
 20
186.1844718556203
 30
0.0
  0
POINT
  5
1372
330
136A
100
AcDbEntity
  8
Defpoints
 62
     0
100
AcDbPoint
 10
163.1653060064145
 20
186.1844718556203
 30
0.0
  0
POINT
  5
1373
330
136A
100
AcDbEntity
  8
Defpoints
 62
     0
100
AcDbPoint
 10
163.1653060064145
 20
195.000911811171
 30
0.0
  0
ENDBLK
  5
1375
330
136A
100
AcDbEntity
  8
0
100
AcDbBlockEnd
  0
ENDSEC
  0
SECTION
  2
ENTITIES
  0
VIEWPORT
  5
2F
330
1B
100
AcDbEntity
 67
     1
  8
0
100
AcDbViewport
 10
172.4193114695038
 20
119.6043385912647
 30
0.0
 40
604.3347078516019
 41
400.1078691300207
 68
     1
 69
     1
 12
172.4193114695038
 22
119.6043385912647
 13
0.0
 23
0.0
 14
10.0
 24
10.0
 15
10.0
 25
10.0
 16
0.0
 26
0.0
 36
1.0
 17
0.0
 27
0.0
 37
0.0
 42
50.0
 43
0.0
 44
0.0
 45
400.1078691300207
 50
0.0
 51
0.0
 72
   100
 90
    32800
  1

281
     0
 71
     1
 74
     0
110
0.0
120
0.0
130
0.0
111
1.0
121
0.0
131
0.0
112
0.0
122
1.0
132
0.0
 79
     0
146
0.0
  0
LWPOLYLINE
  5
AA
330
1B
100
AcDbEntity
 67
     1
  8
２
 62
     0
100
AcDbPolyline
 90
        4
 70
     1
 43
0.0
 10
1.042221639059562
 20
284.1844718556203
 10
407.757958684845
 20
284.1844718556203
 10
407.757958684845
 20
1.08829855961801
 10
1.042221639059562
 20
1.08829855961801
  0
MTEXT
  5
1DD
330
1B
100
AcDbEntity
 67
     1
  8
１
100
AcDbMText
 10
187.6389970102438
 20
148.8327383458293
 30
0.0
 40
2.5
 41
0.0
 71
     9
 72
     1
  1

  7
ｽﾀｲﾙ1
 73
     1
 44
1.0
  0
MTEXT
  5
1DF
330
1B
100
AcDbEntity
 67
     1
  8
１
100
AcDbMText
 10
125.9251163363451
 20
100.1557259194321
 30
0.0
 40
2.5
 41
0.0
 71
     9
 72
     1
  1

  7
ｽﾀｲﾙ1
 73
     1
 44
1.0
  0
MTEXT
  5
1F5
330
1B
100
AcDbEntity
 67
     1
  8
１
100
AcDbMText
 10
95.93852678293661
 20
241.1781167614512
 30
0.0
 40
2.5
 41
0.0
 71
     1
 72
     1
  1

  7
ｽﾀｲﾙ1
 73
     1
 44
1.0
  0
MTEXT
  5
1F7
330
1B
100
AcDbEntity
 67
     1
  8
１
100
AcDbMText
 10
103.8845037960281
 20
221.796204377297
 30
0.0
 40
2.5
 41
0.0
 71
     1
 72
     1
  1

  7
ｽﾀｲﾙ1
 73
     1
 44
1.0
  0
LINE
  5
408
330
1B
100
AcDbEntity
 67
     1
  8
１
 62
     0
 48
25.0
100
AcDbLine
 10
6.993853619318826
 20
6.288298559618009
 30
0.0
 11
143.2187496312075
 21
6.288298559617537
 31
0.0
  0
LINE
  5
409
330
1B
100
AcDbEntity
 67
     1
  8
１
 62
     0
 48
25.0
100
AcDbLine
 10
143.2187496312075
 20
8.888298559618011
 30
0.0
 11
6.993853619318826
 21
8.888298559618011
 31
0.0
  0
LINE
  5
40A
330
1B
100
AcDbEntity
 67
     1
  8
１
 62
     0
 48
25.0
100
AcDbLine
 10
143.2187496312075
 20
3.68829855961801
 30
0.0
 11
6.993853619318826
 21
3.68829855961801
 31
0.0
  0
LINE
  5
40B
330
1B
100
AcDbEntity
 67
     1
  8
２
 62
     0
370
    20
100
AcDbLine
 10
2.157958684845141
 20
1.08829855961801
 30
0.0
 11
407.757958684845
 21
1.08829855961801
 31
0.0
  0
LINE
  5
40C
330
1B
100
AcDbEntity
 67
     1
  8
2
 62
     0
 48
25.0
100
AcDbLine
 10
2.157958684845141
 20
11.488298559618
 30
0.0
 11
407.757958684845
 21
11.488298559618
 31
0.0
  0
LINE
  5
40D
330
1B
100
AcDbEntity
 67
     1
  8
２
 62
     0
370
    20
100
AcDbLine
 10
407.757958684845
 20
1.08829855961801
 30
0.0
 11
17.7579586848451
 21
1.08829855961801
 31
0.0
  0
LINE
  5
40E
330
1B
100
AcDbEntity
 67
     1
  8
0
 62
     0
100
AcDbLine
 10
2.157958684845141
 20
1.08829855961801
 30
0.0
 11
407.757958684845
 21
1.08829855961801
 31
0.0
  0
LINE
  5
40F
330
1B
100
AcDbEntity
 67
     1
  8
0
 62
     0
100
AcDbLine
 10
17.7579586848451
 20
1.08829855961801
 30
0.0
 11
2.157958684845141
 21
1.08829855961801
 31
0.0
  0
MTEXT
  5
410
330
1B
100
AcDbEntity
 67
     1
  8
１
 62
     0
 48
20.0
100
AcDbMText
 10
4.575906684845307
 20
6.288298559618013
 30
0.0
 40
2.339999999999999
 41
4.835895999999999
 71
     5
 72
     5
  1
{\fMS UI Gothic|b0|i0|c128|p17;記\P事}
 73
     1
 44
1.0
  0
LINE
  5
411
330
1B
100
AcDbEntity
 67
     1
  8
２
 62
     0
 48
25.0
100
AcDbLine
 10
6.993853619318826
 20
11.488298559618
 30
0.0
 11
6.993853619318826
 21
1.08829855961801
 31
0.0
  0
MTEXT
  5
412
330
1B
100
AcDbEntity
 67
     1
  8
１
 62
     0
 48
25.0
100
AcDbMText
 10
380.922486627896
 20
6.288298559618013
 30
0.0
 40
3.9
 41
53.67094199999999
 71
     5
 72
     5
  1
{\fMS UI Gothic|b0|i0|c128|p17;株式会社 アルティマ}
 73
     1
 44
1.0
  0
LINE
  5
413
330
1B
100
AcDbEntity
 67
     1
  8
0
 62
     0
 48
25.0
100
AcDbLine
 10
198.0567989931067
 20
11.488298559618
 30
0.0
 11
218.4927989931064
 21
11.488298559618
 31
0.0
  0
MTEXT
  5
414
330
1B
100
AcDbEntity
 67
     1
  8
１
 62
     0
 48
25.0
100
AcDbMText
 10
208.006976893107
 20
6.288298559618013
 30
0.0
 40
2.339999999999999
 41
16.6764
 71
     5
 72
     5
  1
{\fMS UI Gothic|b0|i0|c128|p17;S=1/１}
 73
     1
 44
1.0
  0
LINE
  5
415
330
1B
100
AcDbEntity
 67
     1
  8
２
 62
     0
 48
25.0
100
AcDbLine
 10
198.0567989931067
 20
11.488298559618
 30
0.0
 11
198.0567989931067
 21
1.08829855961801
 31
0.0
  0
MTEXT
  5
416
330
1B
100
AcDbEntity
 67
     1
  8
１
 62
     0
 48
25.0
100
AcDbMText
 10
180.854726059599
 20
8.888298559618007
 30
0.0
 40
1.82
 41
34.40409999999999
 71
     5
 72
     5
  1
2016-
 73
     1
 44
1.0
  0
LINE
  5
417
330
1B
100
AcDbEntity
 67
     1
  8
0
 62
     0
 48
25.0
100
AcDbLine
 10
143.2187496312075
 20
11.488298559618
 30
0.0
 11
143.2187496312075
 21
6.288298559618009
 31
0.0
  0
MTEXT
  5
418
330
1B
100
AcDbEntity
 67
     1
  8
１
 62
     0
 48
25.0
100
AcDbMText
 10
153.8116670312071
 20
8.888298559618007
 30
0.0
 40
2.339999999999999
 41
21.1858348
 71
     5
 72
     5
  1
{\fMS UI Gothic|b0|i0|c128|p17;作図日}
 73
     1
 44
1.0
  0
MTEXT
  5
419
330
1B
100
AcDbEntity
 67
     1
  8
１
 62
     0
 48
25.0
100
AcDbMText
 10
180.854726059599
 20
3.688298559618004
 30
0.0
 40
1.82
 41
34.4041464
 71
     5
 72
     5
  1
E.Nomura
 73
     1
 44
1.0
  0
MTEXT
  5
41A
330
1B
100
AcDbEntity
 67
     1
  8
１
 62
     0
 48
25.0
100
AcDbMText
 10
153.4357018312073
 20
3.688298559618004
 30
0.0
 40
2.339999999999999
 41
20.4339044
 71
     5
 72
     5
  1
{\fMS UI Gothic|b0|i0|c128|p17;作図者}
 73
     1
 44
1.0
  0
LINE
  5
41B
330
1B
100
AcDbEntity
 67
     1
  8
２
 62
     0
 48
25.0
100
AcDbLine
 10
143.2187496312075
 20
11.488298559618
 30
0.0
 11
143.2187496312075
 21
1.08829855961801
 31
0.0
  0
LINE
  5
41C
330
1B
100
AcDbEntity
 67
     1
  8
２
 62
     0
 48
25.0
100
AcDbLine
 10
143.2187496312075
 20
6.288298559617537
 30
0.0
 11
143.2187496312075
 21
1.08829855961801
 31
0.0
  0
LINE
  5
41D
330
1B
100
AcDbEntity
 67
     1
  8
２
 62
     0
 48
25.0
100
AcDbLine
 10
163.6526528595987
 20
11.488298559618
 30
0.0
 11
163.6526528595987
 21
1.08829855961801
 31
0.0
  0
LINE
  5
41E
330
1B
100
AcDbEntity
 67
     1
  8
１
 62
     0
 48
25.0
100
AcDbLine
 10
143.2187496312075
 20
6.288298559618009
 30
0.0
 11
198.0567989931067
 21
6.288298559618009
 31
0.0
  0
LINE
  5
41F
330
1B
100
AcDbEntity
 67
     1
  8
２
 62
     0
 48
25.0
100
AcDbLine
 10
143.2187496312075
 20
11.488298559618
 30
0.0
 11
198.0567989931067
 21
11.488298559618
 31
0.0
  0
LINE
  5
420
330
1B
100
AcDbEntity
 67
     1
  8
１
 62
     0
 48
25.0
100
AcDbLine
 10
218.4927989931064
 20
6.288298559618009
 30
0.0
 11
333.27521464208
 21
6.288298559618009
 31
0.0
  0
LINE
  5
421
330
1B
100
AcDbEntity
 67
     1
  8
0
 62
     0
 48
25.0
100
AcDbLine
 10
218.4927989931064
 20
11.488298559618
 30
0.0
 11
238.9287989931069
 21
11.488298559618
 31
0.0
  0
MTEXT
  5
422
330
1B
100
AcDbEntity
 67
     1
  8
１
 62
     0
 48
25.0
100
AcDbMText
 10
228.7107989931072
 20
8.888298559618007
 30
0.0
 40
2.339999999999999
 41
20.436
 71
     5
 72
     5
  1
{\fMS UI Gothic|b0|i0|c128|p17;物件名称}
 73
     1
 44
1.0
  0
MTEXT
  5
423
330
1B
100
AcDbEntity
 67
     1
  8
１
 62
     0
 48
25.0
100
AcDbMText
 10
228.7107989931072
 20
3.688298559618004
 30
0.0
 40
2.339999999999999
 41
20.436
 71
     5
 72
     5
  1
{\fMS UI Gothic|b0|i0|c128|p17;図　　　名}
 73
     1
 44
1.0
  0
LINE
  5
424
330
1B
100
AcDbEntity
 67
     1
  8
0
 62
     0
 48
25.0
100
AcDbLine
 10
218.4927989931064
 20
11.488298559618
 30
0.0
 11
218.4927989931064
 21
1.08829855961801
 31
0.0
  0
LINE
  5
425
330
1B
100
AcDbEntity
 67
     1
  8
２
 62
     0
 48
25.0
100
AcDbLine
 10
218.4927989931064
 20
11.488298559618
 30
0.0
 11
218.4927989931064
 21
1.08829855961801
 31
0.0
  0
LINE
  5
426
330
1B
100
AcDbEntity
 67
     1
  8
２
 62
     0
 48
25.0
100
AcDbLine
 10
238.9287989931069
 20
11.488298559618
 30
0.0
 11
238.9287989931069
 21
1.08829855961801
 31
0.0
  0
LINE
  5
427
330
1B
100
AcDbEntity
 67
     1
  8
0
 62
     0
 48
25.0
100
AcDbLine
 10
230.4397987437844
 20
11.488298559618
 30
0.0
 11
292.2633787437843
 21
11.488298559618
 31
0.0
  0
HATCH
  5
428
330
1B
100
AcDbEntity
 67
     1
  8
Object
 62
     0
 48
0.3
100
AcDbHatch
 10
0.0
 20
0.0
 30
0.0
210
0.0
220
0.0
230
1.0
  2
ANSI31
 70
     0
 71
     1
 91
        1
 92
        1
 93
        6
 72
     1
 10
345.7559450982395
 20
9.347503649218374
 11
346.8791450982394
 21
9.347503649218374
 72
     1
 10
346.8791450982394
 20
9.347503649218374
 11
346.8791450982394
 21
4.405423649218423
 72
     1
 10
346.8791450982394
 20
4.405423649218423
 11
349.1255450982392
 21
4.405423649218423
 72
     1
 10
349.1255450982392
 20
4.405423649218423
 11
349.1255450982392
 21
3.282223649218499
 72
     1
 10
349.1255450982392
 20
3.282223649218499
 11
345.7559450982395
 21
3.282223649218499
 72
     1
 10
345.7559450982395
 20
3.282223649218499
 11
345.7559450982395
 21
9.347503649218374
 97
        6
330
42F
330
44F
330
43F
330
43D
330
440
330
44D
 75
     0
 76
     1
 52
0.0
 41
0.00468
 77
     0
 78
     1
 53
45.0
 43
277.0586179603783
 44
-39.40296006486493
 45
-0.0105068996616509
 46
0.0105068996616509
 79
     0
 98
        1
 10
277.0586179603783
 20
-39.40296006486493
  0
HATCH
  5
429
330
1B
100
AcDbEntity
 67
     1
  8
Object
 62
     0
 48
0.3
100
AcDbHatch
 10
0.0
 20
0.0
 30
0.0
210
0.0
220
0.0
230
1.0
  2
ANSI31
 70
     0
 71
     0
 91
        1
 92
        7
 72
     1
 73
     1
 93
       17
 10
351.2469538682474
 20
4.973920343988897
 42
0.0
 10
351.2469538682474
 20
7.662703649218489
 42
-1.0
 10
352.3701538682473
 20
7.662703649218489
 42
0.0
 10
352.3701538682473
 20
7.013858581380404
 42
0.0
 10
353.4933538682472
 20
7.013858581380404
 42
0.0
 10
353.4933538682472
 20
7.662703649218489
 42
1.0
 10
350.1237538682474
 20
7.662703649218489
 42
0.0
 10
350.1237538682474
 20
4.973920343988897
 42
0.3509045778194451
 10
351.4394428629414
 20
3.330050487290604
 42
0.407199901548665
 10
352.3701538682473
 20
3.877388708773791
 42
0.0
 10
352.3701538682473
 20
3.282223649218497
 42
0.0
 10
353.4933538682472
 20
3.282223649218497
 42
0.0
 10
353.4933538682472
 20
6.33880114490555
 42
0.0
 10
351.8101362509458
 20
6.33880114490555
 42
0.0
 10
351.8101362509458
 20
5.215601144905626
 42
0.0
 10
352.3701538682473
 20
5.215601144905626
 42
0.0
 10
352.3701538682473
 20
4.973920343988897
 42
-1.0
 97
        0
 75
     0
 76
     1
 52
0.0
 41
0.00468
 77
     0
 78
     1
 53
45.0
 43
277.0586179603783
 44
-39.40296006486493
 45
-0.0105068996616509
 46
0.0105068996616509
 79
     0
 47
0.0407053698821989
 98
        1
 10
351.694642141981
 20
4.056669519006494
  0
HATCH
  5
42A
330
1B
100
AcDbEntity
 67
     1
  8
Object
 62
     0
 48
0.3
100
AcDbHatch
 10
0.0
 20
0.0
 30
0.0
210
0.0
220
0.0
230
1.0
  2
ANSI31
 70
     0
 71
     1
 91
        1
 92
        1
 93
        8
 72
     1
 10
341.6375450982394
 20
9.347503649218374
 11
340.5143450982395
 21
9.347503649218374
 72
     1
 10
340.5143450982395
 20
9.347503649218374
 11
340.5143450982395
 21
4.967023649218386
 72
     2
 10
342.1991450982394
 20
4.967023649218386
 40
1.6848
 50
180.0
 51
360.0
 73
     1
 72
     1
 10
343.8839450982393
 20
4.967023649218386
 11
343.8839450982393
 21
9.347503649218374
 72
     1
 10
343.8839450982393
 20
9.347503649218374
 11
342.7607450982394
 21
9.347503649218374
 72
     1
 10
342.7607450982394
 20
9.347503649218374
 11
342.7607450982394
 21
4.967023649218386
 72
     2
 10
342.1991450982394
 20
4.967023649218386
 40
0.5616000000000002
 50
360.0
 51
540.0
 73
     0
 72
     1
 10
341.6375450982394
 20
4.967023649218386
 11
341.6375450982394
 21
9.347503649218374
 97
        8
330
432
330
447
330
444
330
44E
330
434
330
445
330
443
330
446
 75
     0
 76
     1
 52
0.0
 41
0.00468
 77
     0
 78
     1
 53
45.0
 43
277.0586179603783
 44
-39.40296006486493
 45
-0.0105068996616509
 46
0.0105068996616509
 79
     0
 98
        1
 10
277.0586179603783
 20
-39.40296006486493
  0
LINE
  5
42B
330
1B
100
AcDbEntity
 67
     1
  8
Object
 62
     0
 48
0.3
100
AcDbLine
 10
353.4933538682472
 20
6.338801144905552
 30
0.0
 11
351.8101362509458
 21
6.338801144905552
 31
0.0
  0
LINE
  5
42C
330
1B
100
AcDbEntity
 67
     1
  8
Object
 62
     0
 48
0.3
100
AcDbLine
 10
352.3701538682472
 20
7.013858581380404
 30
0.0
 11
353.4933538682472
 21
7.013858581380404
 31
0.0
  0
LINE
  5
42D
330
1B
100
AcDbEntity
 67
     1
  8
Object
 62
     0
 48
0.3
100
AcDbLine
 10
352.3701538682472
 20
7.013858581380404
 30
0.0
 11
352.3701538682472
 21
7.662703649218489
 31
0.0
  0
LINE
  5
42E
330
1B
100
AcDbEntity
 67
     1
  8
Object
 62
     0
 48
0.3
100
AcDbLine
 10
353.4933538682472
 20
7.662703649218489
 30
0.0
 11
353.4933538682472
 21
7.013858581380404
 31
0.0
  0
LINE
  5
42F
102
{ACAD_REACTORS
330
428
102
}
330
1B
100
AcDbEntity
 67
     1
  8
Object
 62
     0
 48
0.3
100
AcDbLine
 10
345.7559450982395
 20
9.347503649218374
 30
0.0
 11
346.8791450982394
 21
9.347503649218374
 31
0.0
  0
ARC
  5
430
330
1B
100
AcDbEntity
 67
     1
  8
Object
 62
     0
 48
0.3
100
AcDbCircle
 10
351.8085538682473
 20
7.662703649218489
 30
0.0
 40
0.5616000000000002
100
AcDbArc
 50
0.0
 51
180.0
  0
ARC
  5
431
330
1B
100
AcDbEntity
 67
     1
  8
Object
 62
     0
 48
0.3
100
AcDbCircle
 10
351.8085538682473
 20
7.662703649218489
 30
0.0
 40
1.6848
100
AcDbArc
 50
0.0
 51
180.0
  0
LINE
  5
432
102
{ACAD_REACTORS
330
42A
102
}
330
1B
100
AcDbEntity
 67
     1
  8
Object
 62
     0
 48
0.3
100
AcDbLine
 10
341.6375450982394
 20
9.347503649218374
 30
0.0
 11
340.5143450982395
 21
9.347503649218374
 31
0.0
  0
LINE
  5
433
330
1B
100
AcDbEntity
 67
     1
  8
Object
 62
     0
 48
0.3
100
AcDbLine
 10
340.5143450982395
 20
9.347503649218374
 30
0.0
 11
341.6375450982394
 21
9.347503649218374
 31
0.0
  0
LINE
  5
434
102
{ACAD_REACTORS
330
42A
102
}
330
1B
100
AcDbEntity
 67
     1
  8
Object
 62
     0
 48
0.3
100
AcDbLine
 10
342.7607450982394
 20
9.347503649218374
 30
0.0
 11
343.8839450982393
 21
9.347503649218374
 31
0.0
  0
LINE
  5
435
330
1B
100
AcDbEntity
 67
     1
  8
Object
 62
     0
 48
0.3
100
AcDbLine
 10
352.3701538682472
 20
3.877388708771899
 30
0.0
 11
352.3701538682472
 21
3.282223649218499
 31
0.0
  0
LINE
  5
436
330
1B
100
AcDbEntity
 67
     1
  8
Object
 62
     0
 48
0.3
100
AcDbLine
 10
352.3701538682472
 20
5.215601144905626
 30
0.0
 11
352.3701538682472
 21
4.973920343988897
 31
0.0
  0
LINE
  5
437
330
1B
100
AcDbEntity
 67
     1
  8
Object
 62
     0
 48
0.3
100
AcDbLine
 10
351.8101362509458
 20
5.215601144905626
 30
0.0
 11
352.3701538682472
 21
5.215601144905626
 31
0.0
  0
LINE
  5
438
330
1B
100
AcDbEntity
 67
     1
  8
Object
 62
     0
 48
0.3
100
AcDbLine
 10
352.3701538682472
 20
5.215601144905626
 30
0.0
 11
352.3701538682472
 21
4.955799910284218
 31
0.0
  0
LINE
  5
439
330
1B
100
AcDbEntity
 67
     1
  8
Object
 62
     0
 48
0.3
100
AcDbLine
 10
352.3701538682472
 20
4.973920343988897
 30
0.0
 11
352.3701538682472
 21
5.215601144905626
 31
0.0
  0
LINE
  5
43A
330
1B
100
AcDbEntity
 67
     1
  8
Object
 62
     0
 48
0.3
100
AcDbLine
 10
351.8101362509458
 20
5.215601144905626
 30
0.0
 11
352.3701538682472
 21
5.215601144905626
 31
0.0
  0
LINE
  5
43B
330
1B
100
AcDbEntity
 67
     1
  8
Object
 62
     0
 48
0.3
100
AcDbLine
 10
353.4933538682472
 20
3.282223649218499
 30
0.0
 11
352.3701538682472
 21
3.282223649218499
 31
0.0
  0
LINE
  5
43C
330
1B
100
AcDbEntity
 67
     1
  8
Object
 62
     0
 48
0.3
100
AcDbLine
 10
352.3701538682472
 20
3.282223649218499
 30
0.0
 11
353.4933538682472
 21
3.282223649218499
 31
0.0
  0
LINE
  5
43D
102
{ACAD_REACTORS
330
428
102
}
330
1B
100
AcDbEntity
 67
     1
  8
Object
 62
     0
 48
0.3
100
AcDbLine
 10
349.1255450982392
 20
3.282223649218499
 30
0.0
 11
349.1255450982392
 21
4.405423649218423
 31
0.0
  0
ARC
  5
43E
330
1B
100
AcDbEntity
 67
     1
  8
Object
 62
     0
 48
0.3
100
AcDbCircle
 10
351.8085538682473
 20
4.973920343988897
 30
0.0
 40
1.6848
100
AcDbArc
 50
180.0
 51
257.3448222610501
  0
LINE
  5
43F
102
{ACAD_REACTORS
330
428
102
}
330
1B
100
AcDbEntity
 67
     1
  8
Object
 62
     0
 48
0.3
100
AcDbLine
 10
349.1255450982392
 20
4.405423649218423
 30
0.0
 11
346.8791450982394
 21
4.405423649218423
 31
0.0
  0
LINE
  5
440
102
{ACAD_REACTORS
330
428
102
}
330
1B
100
AcDbEntity
 67
     1
  8
Object
 62
     0
 48
0.3
100
AcDbLine
 10
345.7559450982395
 20
3.282223649218499
 30
0.0
 11
349.1255450982392
 21
3.282223649218499
 31
0.0
  0
ARC
  5
441
330
1B
100
AcDbEntity
 67
     1
  8
Object
 62
     0
 48
0.3
100
AcDbCircle
 10
351.6244795921702
 20
4.080382394780059
 30
0.0
 40
0.7728108193866524
100
AcDbArc
 50
256.1468978562146
 51
344.7714912032799
  0
ARC
  5
442
330
1B
100
AcDbEntity
 67
     1
  8
Object
 62
     0
 48
0.3
100
AcDbCircle
 10
351.8085538682473
 20
4.973920343988897
 30
0.0
 40
0.5616000000000002
100
AcDbArc
 50
180.0
 51
0.0
  0
ARC
  5
443
102
{ACAD_REACTORS
330
42A
102
}
330
1B
100
AcDbEntity
 67
     1
  8
Object
 62
     0
 48
0.3
100
AcDbCircle
 10
342.1991450982394
 20
4.967023649218386
 30
0.0
 40
0.5616000000000002
100
AcDbArc
 50
180.0
 51
0.0
  0
ARC
  5
444
102
{ACAD_REACTORS
330
42A
102
}
330
1B
100
AcDbEntity
 67
     1
  8
Object
 62
     0
 48
0.3
100
AcDbCircle
 10
342.1991450982394
 20
4.967023649218386
 30
0.0
 40
1.6848
100
AcDbArc
 50
180.0
 51
0.0
  0
LINE
  5
445
102
{ACAD_REACTORS
330
42A
102
}
330
1B
100
AcDbEntity
 67
     1
  8
Object
 62
     0
 48
0.3
100
AcDbLine
 10
342.7607450982394
 20
9.347503649218374
 30
0.0
 11
342.7607450982394
 21
4.967023649218386
 31
0.0
  0
LINE
  5
446
102
{ACAD_REACTORS
330
42A
102
}
330
1B
100
AcDbEntity
 67
     1
  8
Object
 62
     0
 48
0.3
100
AcDbLine
 10
341.6375450982394
 20
9.347503649218374
 30
0.0
 11
341.6375450982394
 21
4.967023649218386
 31
0.0
  0
LINE
  5
447
102
{ACAD_REACTORS
330
42A
102
}
330
1B
100
AcDbEntity
 67
     1
  8
Object
 62
     0
 48
0.3
100
AcDbLine
 10
340.5143450982395
 20
4.967023649218386
 30
0.0
 11
340.5143450982395
 21
9.347503649218374
 31
0.0
  0
LINE
  5
448
330
1B
100
AcDbEntity
 67
     1
  8
２
 62
     0
 48
20.0
100
AcDbLine
 10
333.27521464208
 20
11.488298559618
 30
0.0
 11
333.27521464208
 21
1.08829855961801
 31
0.0
  0
LINE
  5
449
330
1B
100
AcDbEntity
 67
     1
  8
1
 62
     0
 48
20.0
100
AcDbLine
 10
333.27521464208
 20
11.488298559618
 30
0.0
 11
333.27521464208
 21
1.08829855961801
 31
0.0
  0
LINE
  5
44A
330
1B
100
AcDbEntity
 67
     1
  8
Object
 62
     0
 48
0.3
100
AcDbLine
 10
351.2469538682474
 20
4.973920343988897
 30
0.0
 11
351.2469538682474
 21
7.662703649218489
 31
0.0
  0
LINE
  5
44B
330
1B
100
AcDbEntity
 67
     1
  8
Object
 62
     0
 48
0.3
100
AcDbLine
 10
350.1237538682464
 20
4.909468561639801
 30
0.0
 11
350.1237538682464
 21
7.662703649218489
 31
0.0
  0
LINE
  5
44C
330
1B
100
AcDbEntity
 67
     1
  8
Object
 62
     0
 48
0.3
100
AcDbLine
 10
351.2469538682474
 20
4.973920343988897
 30
0.0
 11
351.2469538682474
 21
7.662703649218489
 31
0.0
  0
LINE
  5
44D
102
{ACAD_REACTORS
330
428
102
}
330
1B
100
AcDbEntity
 67
     1
  8
Object
 62
     0
 48
0.3
100
AcDbLine
 10
345.7559450982395
 20
9.347503649218374
 30
0.0
 11
345.7559450982395
 21
3.282223649218499
 31
0.0
  0
LINE
  5
44E
102
{ACAD_REACTORS
330
42A
102
}
330
1B
100
AcDbEntity
 67
     1
  8
Object
 62
     0
 48
0.3
100
AcDbLine
 10
343.8839450982393
 20
9.347503649218374
 30
0.0
 11
343.8839450982393
 21
4.967023649218386
 31
0.0
  0
LINE
  5
44F
102
{ACAD_REACTORS
330
428
102
}
330
1B
100
AcDbEntity
 67
     1
  8
Object
 62
     0
 48
0.3
100
AcDbLine
 10
346.8791450982394
 20
9.347503649218374
 30
0.0
 11
346.8791450982394
 21
4.405423649218423
 31
0.0
  0
LINE
  5
450
330
1B
100
AcDbEntity
 67
     1
  8
Object
 62
     0
 48
0.3
100
AcDbLine
 10
353.4933538682472
 20
6.338801144905078
 30
0.0
 11
353.4933538682472
 21
3.282223649218499
 31
0.0
  0
LINE
  5
451
330
1B
100
AcDbEntity
 67
     1
  8
Object
 62
     0
 48
0.3
100
AcDbLine
 10
351.8101362509458
 20
6.338801144905552
 30
0.0
 11
351.8101362509458
 21
5.215601144905626
 31
0.0
  0
LINE
  5
452
330
1B
100
AcDbEntity
 67
     1
  8
2
 62
     0
100
AcDbLine
 10
2.157958684845141
 20
11.488298559618
 30
0.0
 11
1.042221639059562
 21
11.488298559618
 31
0.0
  0
LINE
  5
453
330
1B
100
AcDbEntity
 67
     1
  8
2
 62
     0
100
AcDbLine
 10
1.042221639059562
 20
11.488298559618
 30
0.0
 11
407.757958684845
 21
11.48829855961798
 31
0.0
  0
LINE
  5
454
330
1B
100
AcDbEntity
 67
     1
  8
2
 62
     0
100
AcDbLine
 10
143.2187496312075
 20
11.488298559618
 30
0.0
 11
143.2187496312075
 21
1.08829855961801
 31
0.0
  0
LINE
  5
455
330
1B
100
AcDbEntity
 67
     1
  8
2
 62
     0
100
AcDbLine
 10
163.6526528595987
 20
11.48829855961799
 30
0.0
 11
163.6526528595987
 21
1.08829855961801
 31
0.0
  0
LINE
  5
456
330
1B
100
AcDbEntity
 67
     1
  8
2
 62
     0
100
AcDbLine
 10
198.0567989931067
 20
11.48829855961799
 30
0.0
 11
198.0567989931068
 21
1.08829855961801
 31
0.0
  0
LINE
  5
457
330
1B
100
AcDbEntity
 67
     1
  8
2
 62
     0
100
AcDbLine
 10
218.4927989931064
 20
11.48829855961799
 30
0.0
 11
218.4927989931064
 21
1.08829855961801
 31
0.0
  0
LINE
  5
458
330
1B
100
AcDbEntity
 67
     1
  8
2
 62
     0
100
AcDbLine
 10
238.9287989931069
 20
11.48829855961799
 30
0.0
 11
238.9287989931069
 21
1.08829855961801
 31
0.0
  0
LINE
  5
459
330
1B
100
AcDbEntity
 67
     1
  8
2
 62
     0
100
AcDbLine
 10
333.27521464208
 20
11.48829855961799
 30
0.0
 11
333.27521464208
 21
1.08829855961801
 31
0.0
  0
LINE
  5
45A
330
1B
100
AcDbEntity
 67
     1
  8
2
 62
     0
100
AcDbLine
 10
143.2187496312075
 20
6.288298559617537
 30
0.0
 11
198.0567989931067
 21
6.288298559617536
 31
0.0
  0
LINE
  5
45B
330
1B
100
AcDbEntity
 67
     1
  8
2
 62
     0
100
AcDbLine
 10
218.4927989931064
 20
6.288298559618004
 30
0.0
 11
333.27521464208
 21
6.288298559618009
 31
0.0
  0
LINE
  5
45C
330
1B
100
AcDbEntity
 67
     1
  8
2
 62
     0
100
AcDbLine
 10
6.993853619318826
 20
11.488298559618
 30
0.0
 11
6.993853619318826
 21
1.08829855961801
 31
0.0
  0
MTEXT
  5
492
330
1B
100
AcDbEntity
 67
     1
  8
1
 62
     1
100
AcDbMText
 10
141.076492619535
 20
2.388298559618007
 30
0.0
 40
0.8
 41
4.2845
 71
     5
 72
     5
  1
2.34
 73
     1
 44
1.0
  0
LINE
  5
BEE
330
1B
100
AcDbEntity
 67
     1
  8
0
 62
     0
 48
0.2
100
AcDbLine
 10
163.1653060064145
 20
177.1844718556203
 30
0.0
 11
370.5426865427834
 21
177.1844718556203
 31
0.0
  0
LINE
  5
BEF
330
1B
100
AcDbEntity
 67
     1
  8
0
 62
     0
 48
0.2
100
AcDbLine
 10
163.1653060064145
 20
180.1844718556203
 30
0.0
 11
370.5426865427834
 21
180.1844718556203
 31
0.0
  0
MTEXT
  5
BF0
330
1B
100
AcDbEntity
 67
     1
  8
0
 62
     0
 48
0.5
100
AcDbMText
 10
225.3255000683998
 20
260.9309146628576
 30
0.0
 40
4.0
 41
35.5281
 71
     5
 72
     5
  1
グリップ
 73
     1
 44
1.0
  0
MTEXT
  5
BF2
330
1B
100
AcDbEntity
 67
     1
  8
0
 62
     0
 48
0.3
100
AcDbMText
 10
20.17375992307836
 20
266.9497187228206
 30
0.0
 40
5.0
 41
0.0
 71
     1
 72
     5
  1
UTB-30CN
 73
     1
 44
1.0
  0
LINE
  5
BF3
330
1B
100
AcDbEntity
 67
     1
  8
0
 62
     0
100
AcDbLine
 10
58.16530600641454
 20
186.1844718556203
 30
0.0
 11
128.1653060064145
 21
186.1844718556203
 31
0.0
  0
LINE
  5
BF4
330
1B
100
AcDbEntity
 67
     1
  8
0
 62
     0
100
AcDbLine
 10
58.16530600641454
 20
171.1844718556203
 30
0.0
 11
128.1653060064145
 21
171.1844718556203
 31
0.0
  0
LINE
  5
BF7
330
1B
100
AcDbEntity
 67
     1
  8
0
 62
     0
100
AcDbLine
 10
118.393030398263
 20
238.7844718556203
 30
0.0
 11
188.393030398263
 21
238.7844718556203
 31
0.0
  0
LINE
  5
BF8
330
1B
100
AcDbEntity
 67
     1
  8
0
 62
     0
100
AcDbLine
 10
118.393030398263
 20
223.7844718556203
 30
0.0
 11
188.393030398263
 21
223.7844718556203
 31
0.0
  0
DIMENSION
  5
BF9
330
1B
100
AcDbEntity
 67
     1
  8
0
 62
     0
100
AcDbDimension
  2
*D2
 10
188.393030398263
 20
247.1558943594304
 30
0.0
 11
153.3611077271273
 21
247.1558943594304
 31
0.0
 70
   161
 71
     5
 42
70.0
  3
ISO-25
100
AcDbAlignedDimension
 13
118.393030398263
 23
238.7844718556203
 33
0.0
 14
188.393030398263
 24
238.7844718556203
 34
0.0
  0
LINE
  5
C0D
330
1B
100
AcDbEntity
 67
     1
  8
0
 62
     0
100
AcDbLine
 10
78.66235972960419
 20
181.3344718556203
 30
0.0
 11
98.51235972960409
 21
181.3344718556203
 31
0.0
  0
LINE
  5
C0E
330
1B
100
AcDbEntity
 67
     1
  8
0
 62
     0
100
AcDbLine
 10
78.66235972960419
 20
176.0344718556203
 30
0.0
 11
98.51235972960409
 21
176.0344718556203
 31
0.0
  0
CIRCLE
  5
C0F
330
1B
100
AcDbEntity
 67
     1
  8
0
 62
     0
100
AcDbCircle
 10
78.66235972960419
 20
178.6844718556203
 30
0.0
 40
2.649999999999999
  0
ARC
  5
C10
330
1B
100
AcDbEntity
 67
     1
  8
0
 62
     0
100
AcDbCircle
 10
98.51235972960409
 20
178.6844718556203
 30
0.0
 40
2.649999999999999
100
AcDbArc
 50
270.0
 51
90.0
  0
LINE
  5
C26
330
1B
100
AcDbEntity
 67
     1
  8
0
 62
     0
100
AcDbLine
 10
132.1653060064145
 20
171.1844718556203
 30
0.0
 11
162.1653060064145
 21
171.1844718556203
 31
0.0
  0
LINE
  5
C27
330
1B
100
AcDbEntity
 67
     1
  8
0
 62
     0
100
AcDbLine
 10
132.1653060064145
 20
186.1844718556203
 30
0.0
 11
162.1653060064145
 21
186.1844718556203
 31
0.0
  0
LINE
  5
C28
330
1B
100
AcDbEntity
 67
     1
  8
0
 62
     0
100
AcDbLine
 10
132.1653060064145
 20
186.1844718556203
 30
0.0
 11
158.1653060064145
 21
186.1844718556203
 31
0.0
  0
LINE
  5
C29
330
1B
100
AcDbEntity
 67
     1
  8
0
 62
     0
100
AcDbLine
 10
132.1653060064145
 20
186.1844718556203
 30
0.0
 11
162.1653060064145
 21
186.1844718556203
 31
0.0
  0
LINE
  5
C2A
330
1B
100
AcDbEntity
 67
     1
  8
0
 62
     0
100
AcDbLine
 10
129.1653060064145
 20
186.1844718556203
 30
0.0
 11
128.1653060064145
 21
186.1844718556203
 31
0.0
  0
LINE
  5
C2B
330
1B
100
AcDbEntity
 67
     1
  8
0
 62
     0
100
AcDbLine
 10
128.1653060064145
 20
171.1844718556203
 30
0.0
 11
129.1653060064145
 21
171.1844718556203
 31
0.0
  0
LINE
  5
C2C
330
1B
100
AcDbEntity
 67
     1
  8
0
 62
     0
100
AcDbLine
 10
128.1653060064145
 20
186.1844718556203
 30
0.0
 11
128.1653060064145
 21
171.1844718556203
 31
0.0
  0
LINE
  5
C2D
330
1B
100
AcDbEntity
 67
     1
  8
0
 62
     0
100
AcDbLine
 10
128.1653060064145
 20
186.1844718556203
 30
0.0
 11
128.1653060064145
 21
171.1844718556203
 31
0.0
  0
LINE
  5
C2E
330
1B
100
AcDbEntity
 67
     1
  8
0
 62
     0
100
AcDbLine
 10
128.1653060064145
 20
172.8531426539341
 30
0.0
 11
128.1653060064145
 21
171.1844718556203
 31
0.0
  0
LINE
  5
C2F
330
1B
100
AcDbEntity
 67
     1
  8
0
 62
     0
100
AcDbLine
 10
128.1653060064145
 20
186.1844718556203
 30
0.0
 11
128.1653060064145
 21
184.5044344945853
 31
0.0
  0
LINE
  5
C30
330
1B
100
AcDbEntity
 67
     1
  8
0
 62
     0
 48
0.2
100
AcDbLine
 10
163.1653060064145
 20
179.8844718556203
 30
0.0
 11
163.1653060064145
 21
177.4844718556203
 31
0.0
  0
LINE
  5
C31
330
1B
100
AcDbEntity
 67
     1
  8
0
 62
     0
100
AcDbLine
 10
163.1653060064145
 20
181.6844718556203
 30
0.0
 11
163.1653060064145
 21
175.6844718556203
 31
0.0
  0
LINE
  5
C32
330
1B
100
AcDbEntity
 67
     1
  8
0
 62
     0
 48
0.2
100
AcDbLine
 10
163.1653060064145
 20
180.1844718556203
 30
0.0
 11
163.1653060064145
 21
177.1844718556203
 31
0.0
  0
LINE
  5
C33
330
1B
100
AcDbEntity
 67
     1
  8
0
 62
     0
100
AcDbLine
 10
160.1653060064145
 20
171.1844718556203
 30
0.0
 11
163.1653060064145
 21
171.1844718556203
 31
0.0
  0
LINE
  5
C34
330
1B
100
AcDbEntity
 67
     1
  8
0
 62
     0
100
AcDbLine
 10
163.1653060064145
 20
175.6844718556203
 30
0.0
 11
163.1653060064145
 21
171.1844718556203
 31
0.0
  0
LINE
  5
C35
330
1B
100
AcDbEntity
 67
     1
  8
0
 62
     0
100
AcDbLine
 10
156.1653060064145
 20
171.1844718556203
 30
0.0
 11
160.1653060064145
 21
171.1844718556203
 31
0.0
  0
LINE
  5
C36
330
1B
100
AcDbEntity
 67
     1
  8
0
 62
     0
100
AcDbLine
 10
160.1653060064145
 20
186.1844718556203
 30
0.0
 11
163.1653060064145
 21
186.1844718556203
 31
0.0
  0
LINE
  5
C37
330
1B
100
AcDbEntity
 67
     1
  8
0
 62
     0
100
AcDbLine
 10
163.1653060064145
 20
186.1844718556203
 30
0.0
 11
163.1653060064145
 21
181.6844718556203
 31
0.0
  0
LINE
  5
C38
330
1B
100
AcDbEntity
 67
     1
  8
0
 62
     0
100
AcDbLine
 10
156.1653060064145
 20
186.1844718556203
 30
0.0
 11
157.1653060064145
 21
186.1844718556203
 31
0.0
  0
LINE
  5
C39
330
1B
100
AcDbEntity
 67
     1
  8
0
 62
     0
100
AcDbLine
 10
156.6653060064145
 20
186.1844718556203
 30
0.0
 11
160.1653060064145
 21
186.1844718556203
 31
0.0
  0
ARC
  5
C3A
330
1B
100
AcDbEntity
 67
     1
  8
0
 62
     0
100
AcDbCircle
 10
158.7400841214526
 20
231.2844718556203
 30
0.0
 40
2.649999999999999
100
AcDbArc
 50
270.0
 51
90.0
  0
CIRCLE
  5
C3B
330
1B
100
AcDbEntity
 67
     1
  8
0
 62
     0
100
AcDbCircle
 10
138.8900841214526
 20
231.2844718556203
 30
0.0
 40
2.649999999999999
  0
DIMENSION
  5
C3C
330
1B
100
AcDbEntity
 67
     1
  8
0
 62
     0
100
AcDbDimension
  2
*D3
 10
161.3900841214526
 20
213.5007383850845
 30
0.0
 11
148.8150841214526
 21
215.6257383850845
 31
0.0
 70
    33
  1
25
 71
     5
 42
25.15000000000009
  3
ISO-25
100
AcDbAlignedDimension
 13
136.2400841214525
 23
231.2844718556203
 33
0.0
 14
161.3900841214526
 24
231.2844718556203
 34
0.0
  0
DIMENSION
  5
C3D
330
1B
100
AcDbEntity
 67
     1
  8
0
 62
     0
100
AcDbDimension
  2
*D4
 10
169.6660337202247
 20
228.6344718556204
 30
0.0
 11
169.6660337202247
 21
216.0082794959522
 31
0.0
 70
   161
 71
     5
 42
5.299999999999954
  3
ISO-25
100
AcDbAlignedDimension
 13
156.7986364921523
 23
233.9344718556203
 33
0.0
 14
156.7986364921523
 24
228.6344718556204
 34
0.0
  0
LINE
  5
C3E
330
1B
100
AcDbEntity
 67
     1
  8
0
 62
     0
100
AcDbLine
 10
138.8900841214526
 20
228.6344718556204
 30
0.0
 11
158.7400841214526
 21
228.6344718556204
 31
0.0
  0
LINE
  5
C3F
330
1B
100
AcDbEntity
 67
     1
  8
0
 62
     0
100
AcDbLine
 10
138.8900841214526
 20
233.9344718556203
 30
0.0
 11
158.7400841214526
 21
233.9344718556203
 31
0.0
  0
LINE
  5
C42
330
1B
100
AcDbEntity
 67
     1
  8
0
 62
     0
100
AcDbLine
 10
188.393030398263
 20
238.7844718556203
 30
0.0
 11
188.393030398263
 21
223.7844718556203
 31
0.0
  0
LINE
  5
C43
330
1B
100
AcDbEntity
 67
     1
  8
0
 62
     0
100
AcDbLine
 10
188.393030398263
 20
225.4531426539341
 30
0.0
 11
188.393030398263
 21
223.7844718556203
 31
0.0
  0
LINE
  5
C45
330
1B
100
AcDbEntity
 67
     1
  8
0
 62
     0
100
AcDbLine
 10
188.393030398263
 20
238.7844718556203
 30
0.0
 11
188.393030398263
 21
237.1044344945853
 31
0.0
  0
MTEXT
  5
C47
330
1B
100
AcDbEntity
 67
     1
  8
0
 62
     0
 48
0.5
100
AcDbMText
 10
151.3515972651105
 20
260.9309146628576
 30
0.0
 40
4.0
 41
35.5282
 71
     5
 72
     5
  1
本体
 73
     1
 44
1.0
  0
MTEXT
  5
C65
102
{ACAD_REACTORS
330
C67
102
}
330
1B
100
AcDbEntity
 67
     1
  8
0
 62
     0
 48
0.2
100
AcDbMText
 10
256.3049106298849
 20
195.6281307212389
 30
0.0
 40
2.5
 41
0.0
 71
     1
 72
     1
  1
SUS304 %%c3　ワイヤー
 73
     1
 44
1.0
  0
DIMENSION
  5
C66
330
1B
100
AcDbEntity
 67
     1
  8
0
 62
     0
100
AcDbDimension
  2
*D5
 10
321.1361248455542
 20
238.7844718556203
 30
0.0
 11
321.1361248455541
 21
251.0344718556204
 31
0.0
 70
   161
  1
%%c15
 71
     5
 42
15.0
  3
ISO-25
100
AcDbAlignedDimension
 13
309.928909474768
 23
223.7844718556203
 33
0.0
 14
309.928909474768
 24
238.7844718556203
 34
0.0
  0
LEADER
  5
C67
330
1B
100
AcDbEntity
 67
     1
  8
0
 62
     0
 48
0.2
100
AcDbLeader
  3
ISO-25
 73
     0
 40
2.5
 41
35.25
 76
     3
 10
240.4093252348071
 20
180.1844718556203
 30
0.0
 10
252.544239179982
 20
194.6281307212388
 30
0.0
 10
255.6799106298849
 20
194.6281307212388
 30
0.0
340
C65
213
0.0
223
-1.0
233
0.0
1001
ACAD
1000
DSTYLE
1002
{
1070
   147
1040
0.625
1070
    77
1070
     0
1002
}
  0
LINE
  5
C68
330
1B
100
AcDbEntity
 67
     1
  8
0
 62
     0
100
AcDbLine
 10
256.6574621651761
 20
233.3844718556203
 30
0.0
 11
256.6574621651761
 21
229.1844718556203
 31
0.0
  0
LINE
  5
C69
330
1B
100
AcDbEntity
 67
     1
  8
0
 62
     0
100
AcDbLine
 10
246.6574621651762
 20
236.2344718556203
 30
0.0
 11
246.6574621651762
 21
226.3344718556203
 31
0.0
  0
LINE
  5
C6B
330
1B
100
AcDbEntity
 67
     1
  8
0
 62
     0
100
AcDbLine
 10
241.6574621651761
 20
226.3344718556203
 30
0.0
 11
246.6574621651762
 21
226.3344718556203
 31
0.0
  0
LINE
  5
C6F
330
1B
100
AcDbEntity
 67
     1
  8
0
 62
     0
100
AcDbLine
 10
254.6574621651761
 20
229.1844718556203
 30
0.0
 11
256.6574621651761
 21
229.1844718556203
 31
0.0
  0
LINE
  5
C70
330
1B
100
AcDbEntity
 67
     1
  8
0
 62
     0
100
AcDbLine
 10
254.6574621651761
 20
229.1844718556203
 30
0.0
 11
246.6574621651762
 21
229.1844718556203
 31
0.0
  0
LINE
  5
C76
330
1B
100
AcDbEntity
 67
     1
  8
0
 62
     0
100
AcDbLine
 10
254.6574621651761
 20
233.3844718556203
 30
0.0
 11
256.6574621651761
 21
233.3844718556203
 31
0.0
  0
LINE
  5
C77
330
1B
100
AcDbEntity
 67
     1
  8
0
 62
     0
100
AcDbLine
 10
246.6574621651762
 20
231.2844718556203
 30
0.0
 11
246.6574621651762
 21
233.3844718556203
 31
0.0
  0
LINE
  5
C78
330
1B
100
AcDbEntity
 67
     1
  8
0
 62
     0
100
AcDbLine
 10
246.6574621651762
 20
231.2844718556203
 30
0.0
 11
246.6574621651762
 21
236.2344718556203
 31
0.0
  0
LINE
  5
C79
330
1B
100
AcDbEntity
 67
     1
  8
0
 62
     0
100
AcDbLine
 10
246.6574621651762
 20
233.3844718556203
 30
0.0
 11
254.6574621651761
 21
233.3844718556203
 31
0.0
  0
LINE
  5
C7A
330
1B
100
AcDbEntity
 67
     1
  8
0
 62
     0
100
AcDbLine
 10
309.928909474768
 20
234.2844718556203
 30
0.0
 11
309.928909474768
 21
228.2844718556203
 31
0.0
  0
LINE
  5
C7B
330
1B
100
AcDbEntity
 67
     1
  8
0
 62
     0
100
AcDbLine
 10
274.928909474768
 20
238.7844718556203
 30
0.0
 11
274.928909474768
 21
223.7844718556203
 31
0.0
  0
LINE
  5
C7C
330
1B
100
AcDbEntity
 67
     1
  8
0
 62
     0
100
AcDbLine
 10
275.9289094747681
 20
223.7844718556203
 30
0.0
 11
302.928909474768
 21
223.7844718556203
 31
0.0
  0
LINE
  5
C7D
330
1B
100
AcDbEntity
 67
     1
  8
0
 62
     0
 48
0.2
100
AcDbLine
 10
274.928909474768
 20
223.7844718556203
 30
0.0
 11
279.1475485003702
 21
223.7844718556203
 31
0.0
  0
LINE
  5
C7E
330
1B
100
AcDbEntity
 67
     1
  8
0
 62
     0
100
AcDbLine
 10
274.928909474768
 20
223.7844718556203
 30
0.0
 11
275.928909474768
 21
223.7844718556203
 31
0.0
  0
LINE
  5
C7F
330
1B
100
AcDbEntity
 67
     1
  8
0
 62
     0
100
AcDbLine
 10
302.928909474768
 20
223.7844718556203
 30
0.0
 11
306.928909474768
 21
223.7844718556203
 31
0.0
  0
LINE
  5
C80
330
1B
100
AcDbEntity
 67
     1
  8
0
 62
     0
100
AcDbLine
 10
309.928909474768
 20
228.2844718556203
 30
0.0
 11
309.928909474768
 21
223.7844718556203
 31
0.0
  0
LINE
  5
C81
330
1B
100
AcDbEntity
 67
     1
  8
0
 62
     0
100
AcDbLine
 10
306.928909474768
 20
223.7844718556203
 30
0.0
 11
309.928909474768
 21
223.7844718556203
 31
0.0
  0
DIMENSION
  5
C82
330
1B
100
AcDbEntity
 67
     1
  8
0
 62
     0
 48
0.2
100
AcDbDimension
  2
*D6
 10
309.928909474768
 20
247.2420866489732
 30
0.0
 11
292.428909474768
 21
249.3670866489731
 31
0.0
 70
    33
 71
     5
 42
35.0
  3
ISO-25
100
AcDbAlignedDimension
 13
274.928909474768
 23
238.7844718556203
 33
0.0
 14
309.928909474768
 24
238.7844718556203
 34
0.0
  0
LINE
  5
C83
330
1B
100
AcDbEntity
 67
     1
  8
0
 62
     0
100
AcDbLine
 10
275.928909474768
 20
238.7844718556203
 30
0.0
 11
298.928909474768
 21
238.7844718556203
 31
0.0
  0
LINE
  5
C84
330
1B
100
AcDbEntity
 67
     1
  8
0
 62
     0
100
AcDbLine
 10
275.9289094747681
 20
238.7844718556203
 30
0.0
 11
302.928909474768
 21
238.7844718556203
 31
0.0
  0
LINE
  5
C85
330
1B
100
AcDbEntity
 67
     1
  8
0
 62
     0
 48
0.2
100
AcDbLine
 10
274.928909474768
 20
238.7844718556203
 30
0.0
 11
276.928909474768
 21
238.7844718556203
 31
0.0
  0
LINE
  5
C86
330
1B
100
AcDbEntity
 67
     1
  8
0
 62
     0
100
AcDbLine
 10
275.928909474768
 20
238.7844718556203
 30
0.0
 11
274.928909474768
 21
238.7844718556203
 31
0.0
  0
LINE
  5
C87
330
1B
100
AcDbEntity
 67
     1
  8
0
 62
     0
100
AcDbLine
 10
303.428909474768
 20
238.7844718556203
 30
0.0
 11
306.928909474768
 21
238.7844718556203
 31
0.0
  0
LINE
  5
C88
330
1B
100
AcDbEntity
 67
     1
  8
0
 62
     0
100
AcDbLine
 10
302.928909474768
 20
238.7844718556203
 30
0.0
 11
303.928909474768
 21
238.7844718556203
 31
0.0
  0
LINE
  5
C89
330
1B
100
AcDbEntity
 67
     1
  8
0
 62
     0
100
AcDbLine
 10
309.928909474768
 20
238.7844718556203
 30
0.0
 11
309.928909474768
 21
234.2844718556203
 31
0.0
  0
LINE
  5
C8A
330
1B
100
AcDbEntity
 67
     1
  8
0
 62
     0
100
AcDbLine
 10
306.928909474768
 20
238.7844718556203
 30
0.0
 11
309.928909474768
 21
238.7844718556203
 31
0.0
  0
MTEXT
  5
C8B
330
1B
100
AcDbEntity
 67
     1
  8
0
 62
     0
 48
0.5
100
AcDbMText
 10
292.0457950593267
 20
260.2113210948783
 30
0.0
 40
4.0
 41
32.64739999999999
 71
     5
 72
     5
  1
キャップ
 73
     1
 44
1.0
  0
LINE
  5
C8C
330
1B
100
AcDbEntity
 67
     1
  8
0
 62
     0
 48
0.2
100
AcDbLine
 10
38.46109698898074
 20
22.32029734068048
 30
0.0
 11
83.00528046945249
 21
22.32029734068048
 31
0.0
  0
LINE
  5
C8D
330
1B
100
AcDbEntity
 67
     1
  8
0
 62
     0
 48
0.2
100
AcDbLine
 10
38.46109698898074
 20
27.12029734068048
 30
0.0
 11
83.00528046945249
 21
27.12029734068048
 31
0.0
  0
LINE
  5
C8E
330
1B
100
AcDbEntity
 67
     1
  8
0
 62
     0
 48
0.2
100
AcDbLine
 10
38.46109698898074
 20
41.52029734068046
 30
0.0
 11
83.00528046945249
 21
41.52029734068046
 31
0.0
  0
LINE
  5
C8F
330
1B
100
AcDbEntity
 67
     1
  8
0
 62
     0
 48
0.2
100
AcDbLine
 10
38.46109698898074
 20
46.32029734068047
 30
0.0
 11
83.00528046945249
 21
46.32029734068047
 31
0.0
  0
LINE
  5
C90
330
1B
100
AcDbEntity
 67
     1
  8
0
 62
     0
 48
0.2
100
AcDbLine
 10
83.00528046945249
 20
31.92029734068046
 30
0.0
 11
38.46109698898074
 21
31.92029734068046
 31
0.0
  0
LINE
  5
C91
330
1B
100
AcDbEntity
 67
     1
  8
0
 62
     0
 48
0.2
100
AcDbLine
 10
83.00528046945249
 20
36.72029734068047
 30
0.0
 11
38.46109698898074
 21
36.72029734068047
 31
0.0
  0
LINE
  5
C92
330
1B
100
AcDbEntity
 67
     1
  8
0
 62
     0
 48
0.3
100
AcDbLine
 10
11.00528046945248
 20
22.32029734068048
 30
0.0
 11
83.00528046945249
 21
22.32029734068048
 31
0.0
  0
LINE
  5
C93
330
1B
100
AcDbEntity
 67
     1
  8
0
 62
     0
 48
0.3
100
AcDbLine
 10
83.00528046945249
 20
27.12029734068048
 30
0.0
 11
11.00528046945248
 21
27.12029734068048
 31
0.0
  0
LINE
  5
C94
330
1B
100
AcDbEntity
 67
     1
  8
0
 62
     0
 48
0.3
100
AcDbLine
 10
11.00528046945248
 20
31.92029734068047
 30
0.0
 11
83.00528046945249
 21
31.92029734068047
 31
0.0
  0
LINE
  5
C95
330
1B
100
AcDbEntity
 67
     1
  8
0
 62
     0
 48
0.3
100
AcDbLine
 10
83.00528046945249
 20
36.72029734068047
 30
0.0
 11
11.00528046945248
 21
36.72029734068047
 31
0.0
  0
LINE
  5
C96
330
1B
100
AcDbEntity
 67
     1
  8
0
 62
     0
 48
0.3
100
AcDbLine
 10
11.00528046945248
 20
36.72029734068047
 30
0.0
 11
83.00528046945249
 21
36.72029734068047
 31
0.0
  0
LINE
  5
C97
330
1B
100
AcDbEntity
 67
     1
  8
0
 62
     0
 48
0.3
100
AcDbLine
 10
83.00528046945249
 20
41.52029734068048
 30
0.0
 11
11.00528046945248
 21
41.52029734068046
 31
0.0
  0
LINE
  5
C98
330
1B
100
AcDbEntity
 67
     1
  8
0
 62
     0
 48
0.3
100
AcDbLine
 10
83.00528046945249
 20
46.32029734068047
 30
0.0
 11
11.00528046945248
 21
46.32029734068047
 31
0.0
  0
LINE
  5
C99
330
1B
100
AcDbEntity
 67
     1
  8
0
 62
     0
 48
0.2
100
AcDbLine
 10
38.46109698898074
 20
46.32029734068047
 30
0.0
 11
38.46109698898074
 21
22.32029734068048
 31
0.0
  0
MTEXT
  5
C9A
330
1B
100
AcDbEntity
 67
     1
  8
0
 62
     0
 48
0.2
100
AcDbMText
 10
11.00528046945248
 20
44.20859959121
 30
0.0
 40
2.399999999999999
 41
72.0
 71
     4
 72
     5
  1
　{\H0.8333x;本体丸環部}
 73
     1
 44
1.0
  0
LINE
  5
C9B
330
1B
100
AcDbEntity
 67
     1
  8
0
 62
     0
 48
0.3
100
AcDbLine
 10
38.46109698898074
 20
41.52029734068046
 30
0.0
 11
38.46109698898074
 21
46.32029734068047
 31
0.0
  0
LINE
  5
C9C
330
1B
100
AcDbEntity
 67
     1
  8
0
 62
     0
 48
0.3
100
AcDbLine
 10
11.00528046945248
 20
46.32029734068047
 30
0.0
 11
11.00528046945248
 21
41.52029734068046
 31
0.0
  0
MTEXT
  5
C9D
330
1B
100
AcDbEntity
 67
     1
  8
0
 62
     0
 48
0.2
100
AcDbMText
 10
11.00528046945248
 20
25.00859959121003
 30
0.0
 40
2.399999999999999
 41
72.0
 71
     4
 72
     5
  1
　{\H0.8333x;ワイヤー破断強度}
 73
     1
 44
1.0
  0
MTEXT
  5
C9E
330
1B
100
AcDbEntity
 67
     1
  8
0
 62
     0
 48
0.2
100
AcDbMText
 10
11.00528046945248
 20
29.80859959121002
 30
0.0
 40
2.399999999999999
 41
72.0
 71
     4
 72
     5
  1
　{\H0.8333x;カシメ部}
 73
     1
 44
1.0
  0
MTEXT
  5
C9F
330
1B
100
AcDbEntity
 67
     1
  8
0
 62
     0
 48
0.2
100
AcDbMText
 10
11.00528046945248
 20
34.60859959121
 30
0.0
 40
2.399999999999999
 41
72.0
 71
     4
 72
     5
  1
　{\H0.8333x;ワイヤーグリップ}
 73
     1
 44
1.0
  0
MTEXT
  5
CA0
330
1B
100
AcDbEntity
 67
     1
  8
0
 62
     0
 48
0.2
100
AcDbMText
 10
11.00528046945248
 20
39.40859959121002
 30
0.0
 40
2.399999999999999
 41
72.0
 71
     4
 72
     5
  1
　{\H0.8333x;ワイヤーフック}
 73
     1
 44
1.0
  0
LINE
  5
CA1
330
1B
100
AcDbEntity
 67
     1
  8
0
 62
     0
 48
0.3
100
AcDbLine
 10
11.00528046945248
 20
31.92029734068049
 30
0.0
 11
11.00528046945248
 21
27.12029734068048
 31
0.0
  0
LINE
  5
CA2
330
1B
100
AcDbEntity
 67
     1
  8
0
 62
     0
 48
0.3
100
AcDbLine
 10
11.00528046945248
 20
27.12029734068048
 30
0.0
 11
11.00528046945248
 21
22.32029734068048
 31
0.0
  0
LINE
  5
CA3
330
1B
100
AcDbEntity
 67
     1
  8
0
 62
     0
 48
0.3
100
AcDbLine
 10
11.00528046945248
 20
41.52029734068048
 30
0.0
 11
11.00528046945248
 21
36.72029734068047
 31
0.0
  0
LINE
  5
CA4
330
1B
100
AcDbEntity
 67
     1
  8
0
 62
     0
 48
0.3
100
AcDbLine
 10
11.00528046945248
 20
36.72029734068047
 30
0.0
 11
11.00528046945248
 21
31.92029734068047
 31
0.0
  0
LINE
  5
CA5
330
1B
100
AcDbEntity
 67
     1
  8
0
 62
     0
 48
0.3
100
AcDbLine
 10
38.46109698898074
 20
27.12029734068048
 30
0.0
 11
38.46109698898074
 21
31.92029734068047
 31
0.0
  0
LINE
  5
CA6
330
1B
100
AcDbEntity
 67
     1
  8
0
 62
     0
 48
0.3
100
AcDbLine
 10
38.46109698898074
 20
22.32029734068048
 30
0.0
 11
38.46109698898074
 21
27.12029734068048
 31
0.0
  0
LINE
  5
CA7
330
1B
100
AcDbEntity
 67
     1
  8
0
 62
     0
 48
0.3
100
AcDbLine
 10
38.46109698898074
 20
36.72029734068047
 30
0.0
 11
38.46109698898074
 21
41.52029734068046
 31
0.0
  0
LINE
  5
CA8
330
1B
100
AcDbEntity
 67
     1
  8
0
 62
     0
 48
0.3
100
AcDbLine
 10
38.46109698898074
 20
31.92029734068046
 30
0.0
 11
38.46109698898074
 21
36.72029734068047
 31
0.0
  0
MTEXT
  5
CA9
330
1B
100
AcDbEntity
 67
     1
  8
0
 62
     0
 48
0.2
100
AcDbMText
 10
15.07785369841679
 20
49.0896338329174
 30
0.0
 40
2.399999999999999
 41
71.9816
 71
     4
 72
     5
  1
　各部　強度
 73
     1
 44
1.0
  0
LINE
  5
CAA
330
1B
100
AcDbEntity
 67
     1
  8
0
 62
     0
 48
0.3
100
AcDbLine
 10
83.00528046945249
 20
41.52029734068046
 30
0.0
 11
83.00528046945249
 21
46.32029734068047
 31
0.0
  0
MTEXT
  5
CAB
330
1B
100
AcDbEntity
 67
     1
  8
0
 62
     0
 48
0.2
100
AcDbMText
 10
37.11515265809883
 20
44.20859959121
 30
0.0
 40
3.599999999999999
 41
45.8902
 71
     4
 72
     5
  1
　{\H0.5556x;300kg以上}
 73
     1
 44
1.0
  0
MTEXT
  5
CAC
330
1B
100
AcDbEntity
 67
     1
  8
0
 62
     0
 48
0.2
100
AcDbMText
 10
53.12025133405132
 20
34.02545877294848
 30
0.0
 40
1.999919999999999
 41
0.0
 71
     4
 72
     5
  1
　（実用200～300kg）
 73
     1
 44
1.0
  0
MTEXT
  5
CAD
330
1B
100
AcDbEntity
 67
     1
  8
0
 62
     0
 48
0.2
100
AcDbMText
 10
37.11515265809883
 20
29.80859959121002
 30
0.0
 40
3.599999999999999
 41
45.8902
 71
     4
 72
     5
  1
　{\H0.5556x;400kg以上}
 73
     1
 44
1.0
  0
MTEXT
  5
CAE
330
1B
100
AcDbEntity
 67
     1
  8
0
 62
     0
 48
0.2
100
AcDbMText
 10
37.11515265809883
 20
25.00859959121003
 30
0.0
 40
3.599999999999999
 41
45.8902
 71
     4
 72
     5
  1
　{\H0.5556x;660kg}
 73
     1
 44
1.0
  0
MTEXT
  5
CAF
330
1B
100
AcDbEntity
 67
     1
  8
0
 62
     0
 48
0.2
100
AcDbMText
 10
41.45934957983762
 20
38.90859959121
 30
0.0
 40
2.0
 41
45.8902
 71
     4
 72
     5
  1
300kg以上
 73
     1
 44
1.0
  0
MTEXT
  5
CB0
330
1B
100
AcDbEntity
 67
     1
  8
0
 62
     0
 48
0.2
100
AcDbMText
 10
37.11515265809883
 20
34.60859959121002
 30
0.0
 40
3.599999999999999
 41
45.8902
 71
     4
 72
     5
  1
　{\H0.5556x;500kg}
 73
     1
 44
1.0
  0
LINE
  5
CB1
330
1B
100
AcDbEntity
 67
     1
  8
0
 62
     0
 48
0.3
100
AcDbLine
 10
83.00528046945249
 20
27.12029734068048
 30
0.0
 11
83.00528046945249
 21
31.92029734068047
 31
0.0
  0
LINE
  5
CB2
330
1B
100
AcDbEntity
 67
     1
  8
0
 62
     0
 48
0.3
100
AcDbLine
 10
83.00528046945249
 20
22.32029734068048
 30
0.0
 11
83.00528046945249
 21
27.12029734068048
 31
0.0
  0
LINE
  5
CB3
330
1B
100
AcDbEntity
 67
     1
  8
0
 62
     0
 48
0.3
100
AcDbLine
 10
83.00528046945249
 20
36.72029734068047
 30
0.0
 11
83.00528046945249
 21
41.52029734068046
 31
0.0
  0
LINE
  5
CB4
330
1B
100
AcDbEntity
 67
     1
  8
0
 62
     0
 48
0.3
100
AcDbLine
 10
83.00528046945249
 20
31.92029734068046
 30
0.0
 11
83.00528046945249
 21
36.72029734068047
 31
0.0
  0
MTEXT
  5
CB5
330
1B
100
AcDbEntity
 67
     1
  8
0
 62
     0
 48
0.2
100
AcDbMText
 10
37.11515265809886
 20
49.00859959121001
 30
0.0
 40
2.0
 41
45.8902
 71
     4
 72
     5
  1
　　%%c3（7×7） SUSワイヤー
 73
     1
 44
1.0
  0
MTEXT
  5
E69
330
1B
100
AcDbEntity
 67
     1
  8
0
100
AcDbMText
 10
121.885165879908
 20
205.7258439725201
 30
0.0
 40
3.0
 41
0.0
 71
     9
 72
     1
  1
貫通孔　%%c5.3
 73
     1
 44
1.0
  0
LINE
  5
E6A
330
1B
100
AcDbEntity
 67
     1
  8
0
 62
     0
100
AcDbLine
 10
246.6574621651762
 20
236.2344718556203
 30
0.0
 11
241.6574621651761
 21
236.2344718556203
 31
0.0
  0
LINE
  5
EE7
330
1B
100
AcDbEntity
 67
     1
  8
0
100
AcDbLine
 10
221.3477346188339
 20
237.0704962212869
 30
0.0
 11
222.1574621651761
 21
235.7623266894598
 31
0.0
  0
LINE
  5
EE8
330
1B
100
AcDbEntity
 67
     1
  8
0
100
AcDbLine
 10
221.2627054371233
 20
237.0178650683676
 30
0.0
 11
221.7739660629951
 21
225.4594907194479
 31
0.0
  0
LINE
  5
EE9
330
1B
100
AcDbEntity
 67
     1
  8
0
100
AcDbLine
 10
221.1750254891031
 20
237.0659506869575
 30
0.0
 11
220.4098604793555
 21
235.6707387660347
 31
0.0
  0
LINE
  5
EEA
330
1B
100
AcDbEntity
 67
     1
  8
0
100
AcDbLine
 10
219.5977346188339
 20
237.0704962212869
 30
0.0
 11
220.4074621651761
 21
235.7623266894598
 31
0.0
  0
LINE
  5
EEB
330
1B
100
AcDbEntity
 67
     1
  8
0
100
AcDbLine
 10
219.5127054371233
 20
237.0178650683676
 30
0.0
 11
220.0239660629951
 21
225.4594907194479
 31
0.0
  0
LINE
  5
EEC
330
1B
100
AcDbEntity
 67
     1
  8
0
100
AcDbLine
 10
219.4250254891031
 20
237.0659506869575
 30
0.0
 11
218.6598604793555
 21
235.6707387660347
 31
0.0
  0
LINE
  5
EED
330
1B
100
AcDbEntity
 67
     1
  8
0
100
AcDbLine
 10
217.8477346188339
 20
237.0704962212869
 30
0.0
 11
218.6574621651761
 21
235.7623266894598
 31
0.0
  0
LINE
  5
EEE
330
1B
100
AcDbEntity
 67
     1
  8
0
100
AcDbLine
 10
217.7627054371233
 20
237.0178650683676
 30
0.0
 11
218.2739660629951
 21
225.4594907194479
 31
0.0
  0
LINE
  5
EEF
330
1B
100
AcDbEntity
 67
     1
  8
0
100
AcDbLine
 10
217.6750254891031
 20
237.0659506869575
 30
0.0
 11
216.9098604793556
 21
235.6707387660347
 31
0.0
  0
LINE
  5
EF0
330
1B
100
AcDbEntity
 67
     1
  8
0
100
AcDbLine
 10
216.0977346188339
 20
237.0704962212869
 30
0.0
 11
216.9074621651761
 21
235.7623266894598
 31
0.0
  0
LINE
  5
EF1
330
1B
100
AcDbEntity
 67
     1
  8
0
100
AcDbLine
 10
216.0127054371233
 20
237.0178650683676
 30
0.0
 11
216.5239660629951
 21
225.4594907194479
 31
0.0
  0
LINE
  5
EF2
330
1B
100
AcDbEntity
 67
     1
  8
0
100
AcDbLine
 10
215.9250254891031
 20
237.0659506869575
 30
0.0
 11
215.1598604793556
 21
235.6707387660347
 31
0.0
  0
LINE
  5
EF3
330
1B
100
AcDbEntity
 67
     1
  8
0
100
AcDbLine
 10
214.3477346188339
 20
237.0704962212869
 30
0.0
 11
215.1574621651761
 21
235.7623266894598
 31
0.0
  0
LINE
  5
EF4
330
1B
100
AcDbEntity
 67
     1
  8
0
100
AcDbLine
 10
214.2627054371233
 20
237.0178650683676
 30
0.0
 11
214.7739660629951
 21
225.4594907194479
 31
0.0
  0
LINE
  5
EF5
330
1B
100
AcDbEntity
 67
     1
  8
0
100
AcDbLine
 10
214.1750254891031
 20
237.0659506869575
 30
0.0
 11
213.4098604793555
 21
235.6707387660347
 31
0.0
  0
LINE
  5
EF6
330
1B
100
AcDbEntity
 67
     1
  8
0
100
AcDbLine
 10
212.5977346188339
 20
237.0704962212869
 30
0.0
 11
213.4074621651761
 21
235.7623266894598
 31
0.0
  0
LINE
  5
EF7
330
1B
100
AcDbEntity
 67
     1
  8
0
100
AcDbLine
 10
212.5127054371232
 20
237.0178650683676
 30
0.0
 11
213.0239660629951
 21
225.4594907194479
 31
0.0
  0
LINE
  5
EF8
330
1B
100
AcDbEntity
 67
     1
  8
0
100
AcDbLine
 10
212.425025489103
 20
237.0659506869575
 30
0.0
 11
211.6598604793555
 21
235.6707387660347
 31
0.0
  0
LINE
  5
EF9
330
1B
100
AcDbEntity
 67
     1
  8
0
100
AcDbLine
 10
210.8477346188339
 20
237.0704962212869
 30
0.0
 11
211.6574621651761
 21
235.7623266894598
 31
0.0
  0
LINE
  5
EFA
330
1B
100
AcDbEntity
 67
     1
  8
0
100
AcDbLine
 10
210.7627054371232
 20
237.0178650683676
 30
0.0
 11
211.2739660629951
 21
225.4594907194479
 31
0.0
  0
LINE
  5
EFB
330
1B
100
AcDbEntity
 67
     1
  8
0
100
AcDbLine
 10
210.675025489103
 20
237.0659506869575
 30
0.0
 11
209.9098604793555
 21
235.6707387660347
 31
0.0
  0
LINE
  5
EFC
330
1B
100
AcDbEntity
 67
     1
  8
0
100
AcDbLine
 10
209.0977346188339
 20
237.0704962212869
 30
0.0
 11
209.9074621651761
 21
235.7623266894598
 31
0.0
  0
LINE
  5
EFD
330
1B
100
AcDbEntity
 67
     1
  8
0
100
AcDbLine
 10
209.0127054371232
 20
237.0178650683676
 30
0.0
 11
209.5239660629951
 21
225.4594907194479
 31
0.0
  0
LINE
  5
EFE
330
1B
100
AcDbEntity
 67
     1
  8
0
100
AcDbLine
 10
208.925025489103
 20
237.0659506869575
 30
0.0
 11
208.1598604793555
 21
235.6707387660347
 31
0.0
  0
LINE
  5
EFF
330
1B
100
AcDbEntity
 67
     1
  8
0
100
AcDbLine
 10
207.3477346188339
 20
237.0704962212869
 30
0.0
 11
208.1574621651761
 21
235.7623266894598
 31
0.0
  0
LINE
  5
F00
330
1B
100
AcDbEntity
 67
     1
  8
0
100
AcDbLine
 10
207.2627054371232
 20
237.0178650683676
 30
0.0
 11
207.7739660629951
 21
225.4594907194479
 31
0.0
  0
LINE
  5
F01
330
1B
100
AcDbEntity
 67
     1
  8
0
100
AcDbLine
 10
207.175025489103
 20
237.0659506869575
 30
0.0
 11
206.6574621651761
 21
236.1222189295244
 31
0.0
  0
LINE
  5
F14
330
1B
100
AcDbEntity
 67
     1
  8
0
100
AcDbLine
 10
220.4098604793555
 20
235.6707387660347
 30
0.0
 11
220.8792093349423
 21
226.7150290983556
 31
0.0
  0
LINE
  5
F15
330
1B
100
AcDbEntity
 67
     1
  8
0
100
AcDbLine
 10
220.1116460110153
 20
225.411405100858
 30
0.0
 11
220.8768110207628
 21
226.8066170217808
 31
0.0
  0
LINE
  5
F28
330
1B
100
AcDbEntity
 67
     1
  8
0
100
AcDbLine
 10
212.9389368812845
 20
225.4068595665285
 30
0.0
 11
212.1292093349423
 21
226.7150290983556
 31
0.0
  0
LINE
  5
F29
330
1B
100
AcDbEntity
 67
     1
  8
0
100
AcDbLine
 10
211.6598604793555
 20
235.6707387660347
 30
0.0
 11
212.1292093349423
 21
226.7150290983556
 31
0.0
  0
ARC
  5
F2A
330
1B
100
AcDbEntity
 67
     1
  8
0
100
AcDbCircle
 10
211.2739660629951
 20
225.4594907194479
 30
0.0
 40
0.1
100
AcDbArc
 50
211.7565767855592
 51
331.2586641960008
  0
LINE
  5
F2B
330
1B
100
AcDbEntity
 67
     1
  8
0
100
AcDbLine
 10
211.3616460110153
 20
225.411405100858
 30
0.0
 11
212.1268110207628
 21
226.8066170217808
 31
0.0
  0
LINE
  5
F2C
330
1B
100
AcDbEntity
 67
     1
  8
0
100
AcDbLine
 10
209.9098604793555
 20
235.6707387660347
 30
0.0
 11
210.3792093349423
 21
226.7150290983556
 31
0.0
  0
LINE
  5
F2D
330
1B
100
AcDbEntity
 67
     1
  8
0
100
AcDbLine
 10
211.1889368812845
 20
225.4068595665285
 30
0.0
 11
210.3792093349423
 21
226.7150290983556
 31
0.0
  0
ARC
  5
F2E
330
1B
100
AcDbEntity
 67
     1
  8
0
100
AcDbCircle
 10
209.5239660629951
 20
225.4594907194479
 30
0.0
 40
0.1
100
AcDbArc
 50
211.7565767855592
 51
331.2586641960008
  0
LINE
  5
F2F
330
1B
100
AcDbEntity
 67
     1
  8
0
100
AcDbLine
 10
209.6116460110153
 20
225.411405100858
 30
0.0
 11
210.3768110207628
 21
226.8066170217808
 31
0.0
  0
LINE
  5
F30
330
1B
100
AcDbEntity
 67
     1
  8
0
100
AcDbLine
 10
208.1598604793555
 20
235.6707387660347
 30
0.0
 11
208.6292093349423
 21
226.7150290983556
 31
0.0
  0
LINE
  5
F31
330
1B
100
AcDbEntity
 67
     1
  8
0
100
AcDbLine
 10
209.4389368812845
 20
225.4068595665285
 30
0.0
 11
208.6292093349423
 21
226.7150290983556
 31
0.0
  0
ARC
  5
F32
330
1B
100
AcDbEntity
 67
     1
  8
0
100
AcDbCircle
 10
207.7739660629951
 20
225.4594907194479
 30
0.0
 40
0.1
100
AcDbArc
 50
211.7565767855592
 51
331.2586641960008
  0
LINE
  5
F33
330
1B
100
AcDbEntity
 67
     1
  8
0
100
AcDbLine
 10
207.8616460110153
 20
225.411405100858
 30
0.0
 11
208.6268110207628
 21
226.8066170217808
 31
0.0
  0
LINE
  5
F34
330
1B
100
AcDbEntity
 67
     1
  8
0
100
AcDbLine
 10
206.6574621651761
 20
230.946217154781
 30
0.0
 11
206.8792093349423
 21
226.7150290983556
 31
0.0
  0
LINE
  5
F35
330
1B
100
AcDbEntity
 67
     1
  8
0
100
AcDbLine
 10
207.6889368812845
 20
225.4068595665285
 30
0.0
 11
206.8792093349423
 21
226.7150290983556
 31
0.0
  0
ARC
  5
F3C
330
1B
100
AcDbEntity
 67
     1
  8
0
100
AcDbCircle
 10
220.0239660629951
 20
225.4594907194479
 30
0.0
 40
0.1
100
AcDbArc
 50
211.7565767855592
 51
331.2586641960008
  0
LINE
  5
F3D
330
1B
100
AcDbEntity
 67
     1
  8
0
100
AcDbLine
 10
218.6598604793555
 20
235.6707387660347
 30
0.0
 11
219.1292093349423
 21
226.7150290983556
 31
0.0
  0
LINE
  5
F3E
330
1B
100
AcDbEntity
 67
     1
  8
0
100
AcDbLine
 10
219.9389368812845
 20
225.4068595665285
 30
0.0
 11
219.1292093349423
 21
226.7150290983556
 31
0.0
  0
ARC
  5
F3F
330
1B
100
AcDbEntity
 67
     1
  8
0
100
AcDbCircle
 10
218.2739660629951
 20
225.4594907194479
 30
0.0
 40
0.1
100
AcDbArc
 50
211.7565767855592
 51
331.2586641960008
  0
LINE
  5
F40
330
1B
100
AcDbEntity
 67
     1
  8
0
100
AcDbLine
 10
218.3616460110153
 20
225.411405100858
 30
0.0
 11
219.1268110207628
 21
226.8066170217808
 31
0.0
  0
LINE
  5
F41
330
1B
100
AcDbEntity
 67
     1
  8
0
100
AcDbLine
 10
216.9098604793556
 20
235.6707387660347
 30
0.0
 11
217.3792093349423
 21
226.7150290983556
 31
0.0
  0
LINE
  5
F42
330
1B
100
AcDbEntity
 67
     1
  8
0
100
AcDbLine
 10
218.1889368812845
 20
225.4068595665285
 30
0.0
 11
217.3792093349423
 21
226.7150290983556
 31
0.0
  0
ARC
  5
F43
330
1B
100
AcDbEntity
 67
     1
  8
0
100
AcDbCircle
 10
216.5239660629951
 20
225.4594907194479
 30
0.0
 40
0.1
100
AcDbArc
 50
211.7565767855592
 51
331.2586641960008
  0
LINE
  5
F44
330
1B
100
AcDbEntity
 67
     1
  8
0
100
AcDbLine
 10
216.6116460110153
 20
225.411405100858
 30
0.0
 11
217.3768110207628
 21
226.8066170217808
 31
0.0
  0
LINE
  5
F45
330
1B
100
AcDbEntity
 67
     1
  8
0
100
AcDbLine
 10
215.1598604793556
 20
235.6707387660347
 30
0.0
 11
215.6292093349423
 21
226.7150290983556
 31
0.0
  0
LINE
  5
F46
330
1B
100
AcDbEntity
 67
     1
  8
0
100
AcDbLine
 10
216.4389368812845
 20
225.4068595665285
 30
0.0
 11
215.6292093349423
 21
226.7150290983556
 31
0.0
  0
ARC
  5
F47
330
1B
100
AcDbEntity
 67
     1
  8
0
100
AcDbCircle
 10
214.7739660629951
 20
225.4594907194479
 30
0.0
 40
0.1
100
AcDbArc
 50
211.7565767855592
 51
331.2586641960008
  0
LINE
  5
F48
330
1B
100
AcDbEntity
 67
     1
  8
0
100
AcDbLine
 10
214.8616460110153
 20
225.411405100858
 30
0.0
 11
215.6268110207629
 21
226.8066170217808
 31
0.0
  0
LINE
  5
F49
330
1B
100
AcDbEntity
 67
     1
  8
0
100
AcDbLine
 10
213.4098604793555
 20
235.6707387660347
 30
0.0
 11
213.8792093349423
 21
226.7150290983556
 31
0.0
  0
LINE
  5
F4A
330
1B
100
AcDbEntity
 67
     1
  8
0
100
AcDbLine
 10
214.6889368812845
 20
225.4068595665285
 30
0.0
 11
213.8792093349423
 21
226.7150290983556
 31
0.0
  0
ARC
  5
F4B
330
1B
100
AcDbEntity
 67
     1
  8
0
100
AcDbCircle
 10
213.0239660629951
 20
225.4594907194479
 30
0.0
 40
0.1
100
AcDbArc
 50
211.7565767855592
 51
331.2586641960008
  0
LINE
  5
F4C
330
1B
100
AcDbEntity
 67
     1
  8
0
100
AcDbLine
 10
213.1116460110153
 20
225.411405100858
 30
0.0
 11
213.8768110207629
 21
226.8066170217808
 31
0.0
  0
ARC
  5
F4D
330
1B
100
AcDbEntity
 67
     1
  8
0
100
AcDbCircle
 10
221.7739660629951
 20
225.4594907194479
 30
0.0
 40
0.1
100
AcDbArc
 50
211.7565767855592
 51
331.2586641960008
  0
LINE
  5
F4E
330
1B
100
AcDbEntity
 67
     1
  8
0
100
AcDbLine
 10
221.8616460110153
 20
225.411405100858
 30
0.0
 11
222.6268110207628
 21
226.8066170217808
 31
0.0
  0
LINE
  5
F4F
330
1B
100
AcDbEntity
 67
     1
  8
0
100
AcDbLine
 10
221.6889368812845
 20
225.4068595665285
 30
0.0
 11
220.8792093349423
 21
226.7150290983556
 31
0.0
  0
ARC
  5
F55
330
1B
100
AcDbEntity
 67
     1
  8
0
100
AcDbCircle
 10
210.7627054371232
 20
237.0178650683676
 30
0.0
 40
0.1
100
AcDbArc
 50
31.75657678555928
 51
151.2586641960008
  0
ARC
  5
F56
330
1B
100
AcDbEntity
 67
     1
  8
0
100
AcDbCircle
 10
209.0127054371232
 20
237.0178650683676
 30
0.0
 40
0.1
100
AcDbArc
 50
31.75657678555928
 51
151.2586641960008
  0
ARC
  5
F57
330
1B
100
AcDbEntity
 67
     1
  8
0
100
AcDbCircle
 10
207.2627054371232
 20
237.0178650683676
 30
0.0
 40
0.1
100
AcDbArc
 50
31.75657678555928
 51
151.2586641960008
  0
ARC
  5
F59
330
1B
100
AcDbEntity
 67
     1
  8
0
100
AcDbCircle
 10
219.5127054371233
 20
237.0178650683676
 30
0.0
 40
0.1
100
AcDbArc
 50
31.75657678555928
 51
151.2586641960008
  0
ARC
  5
F5A
330
1B
100
AcDbEntity
 67
     1
  8
0
100
AcDbCircle
 10
217.7627054371233
 20
237.0178650683676
 30
0.0
 40
0.1
100
AcDbArc
 50
31.75657678555928
 51
151.2586641960008
  0
ARC
  5
F5B
330
1B
100
AcDbEntity
 67
     1
  8
0
100
AcDbCircle
 10
216.0127054371233
 20
237.0178650683676
 30
0.0
 40
0.1
100
AcDbArc
 50
31.75657678555928
 51
151.2586641960008
  0
ARC
  5
F5C
330
1B
100
AcDbEntity
 67
     1
  8
0
100
AcDbCircle
 10
214.2627054371233
 20
237.0178650683676
 30
0.0
 40
0.1
100
AcDbArc
 50
31.75657678555928
 51
151.2586641960008
  0
ARC
  5
F5D
330
1B
100
AcDbEntity
 67
     1
  8
0
100
AcDbCircle
 10
212.5127054371232
 20
237.0178650683676
 30
0.0
 40
0.1
100
AcDbArc
 50
31.75657678555928
 51
151.2586641960008
  0
ARC
  5
F5E
330
1B
100
AcDbEntity
 67
     1
  8
0
100
AcDbCircle
 10
221.2627054371233
 20
237.0178650683676
 30
0.0
 40
0.1
100
AcDbArc
 50
31.75657678555928
 51
151.2586641960008
  0
LINE
  5
FD7
330
1B
100
AcDbEntity
 67
     1
  8
0
100
AcDbLine
 10
237.9098604793556
 20
235.6707387660347
 30
0.0
 11
238.3792093349423
 21
226.7150290983556
 31
0.0
  0
LINE
  5
FD8
330
1B
100
AcDbEntity
 67
     1
  8
0
100
AcDbLine
 10
239.6598604793556
 20
235.6707387660347
 30
0.0
 11
240.1292093349423
 21
226.7150290983556
 31
0.0
  0
LINE
  5
FD9
330
1B
100
AcDbEntity
 67
     1
  8
0
100
AcDbLine
 10
241.4098604793556
 20
235.6707387660347
 30
0.0
 11
241.8792093349424
 21
226.7150290983556
 31
0.0
  0
LINE
  5
FDA
330
1B
100
AcDbEntity
 67
     1
  8
0
100
AcDbLine
 10
243.1598604793556
 20
235.6707387660347
 30
0.0
 11
243.6292093349424
 21
226.7150290983556
 31
0.0
  0
LINE
  5
FDB
330
1B
100
AcDbEntity
 67
     1
  8
0
100
AcDbLine
 10
229.1598604793556
 20
235.6707387660347
 30
0.0
 11
229.6292093349423
 21
226.7150290983556
 31
0.0
  0
LINE
  5
FDC
330
1B
100
AcDbEntity
 67
     1
  8
0
100
AcDbLine
 10
230.9098604793556
 20
235.6707387660347
 30
0.0
 11
231.3792093349424
 21
226.7150290983556
 31
0.0
  0
LINE
  5
FDD
330
1B
100
AcDbEntity
 67
     1
  8
0
100
AcDbLine
 10
232.6598604793556
 20
235.6707387660347
 30
0.0
 11
233.1292093349424
 21
226.7150290983556
 31
0.0
  0
LINE
  5
FDE
330
1B
100
AcDbEntity
 67
     1
  8
0
100
AcDbLine
 10
234.4098604793556
 20
235.6707387660347
 30
0.0
 11
234.8792093349424
 21
226.7150290983556
 31
0.0
  0
LINE
  5
FDF
330
1B
100
AcDbEntity
 67
     1
  8
0
100
AcDbLine
 10
236.1598604793556
 20
235.6707387660347
 30
0.0
 11
236.6292093349424
 21
226.7150290983556
 31
0.0
  0
LINE
  5
FE0
330
1B
100
AcDbEntity
 67
     1
  8
0
100
AcDbLine
 10
220.4098604793556
 20
235.6707387660347
 30
0.0
 11
220.8792093349424
 21
226.7150290983556
 31
0.0
  0
LINE
  5
FE1
330
1B
100
AcDbEntity
 67
     1
  8
0
100
AcDbLine
 10
222.1598604793556
 20
235.6707387660347
 30
0.0
 11
222.6292093349424
 21
226.7150290983556
 31
0.0
  0
LINE
  5
FE2
330
1B
100
AcDbEntity
 67
     1
  8
0
100
AcDbLine
 10
223.9098604793556
 20
235.6707387660347
 30
0.0
 11
224.3792093349424
 21
226.7150290983556
 31
0.0
  0
LINE
  5
FE3
330
1B
100
AcDbEntity
 67
     1
  8
0
100
AcDbLine
 10
225.6598604793556
 20
235.6707387660347
 30
0.0
 11
226.1292093349424
 21
226.7150290983556
 31
0.0
  0
LINE
  5
FE4
330
1B
100
AcDbEntity
 67
     1
  8
0
100
AcDbLine
 10
227.4098604793556
 20
235.6707387660347
 30
0.0
 11
227.8792093349423
 21
226.7150290983556
 31
0.0
  0
LINE
  5
FE5
330
1B
100
AcDbEntity
 67
     1
  8
0
100
AcDbLine
 10
244.9098604793556
 20
235.6707387660347
 30
0.0
 11
245.3792093349424
 21
226.7150290983556
 31
0.0
  0
LINE
  5
FE6
330
1B
100
AcDbEntity
 67
     1
  8
0
100
AcDbLine
 10
221.2627054371233
 20
237.0178650683676
 30
0.0
 11
221.7739660629951
 21
225.4594907194479
 31
0.0
  0
LINE
  5
FE7
330
1B
100
AcDbEntity
 67
     1
  8
0
100
AcDbLine
 10
223.0127054371233
 20
237.0178650683676
 30
0.0
 11
223.5239660629952
 21
225.4594907194479
 31
0.0
  0
LINE
  5
FE8
330
1B
100
AcDbEntity
 67
     1
  8
0
100
AcDbLine
 10
224.7627054371233
 20
237.0178650683676
 30
0.0
 11
225.2739660629952
 21
225.4594907194479
 31
0.0
  0
LINE
  5
FE9
330
1B
100
AcDbEntity
 67
     1
  8
0
100
AcDbLine
 10
226.5127054371233
 20
237.0178650683676
 30
0.0
 11
227.0239660629952
 21
225.4594907194479
 31
0.0
  0
LINE
  5
FEA
330
1B
100
AcDbEntity
 67
     1
  8
0
100
AcDbLine
 10
228.2627054371233
 20
237.0178650683676
 30
0.0
 11
228.7739660629952
 21
225.4594907194479
 31
0.0
  0
LINE
  5
FEB
330
1B
100
AcDbEntity
 67
     1
  8
0
100
AcDbLine
 10
230.0127054371233
 20
237.0178650683676
 30
0.0
 11
230.5239660629952
 21
225.4594907194479
 31
0.0
  0
LINE
  5
FEC
330
1B
100
AcDbEntity
 67
     1
  8
0
100
AcDbLine
 10
231.7627054371233
 20
237.0178650683676
 30
0.0
 11
232.2739660629952
 21
225.4594907194479
 31
0.0
  0
LINE
  5
FED
330
1B
100
AcDbEntity
 67
     1
  8
0
100
AcDbLine
 10
233.5127054371233
 20
237.0178650683676
 30
0.0
 11
234.0239660629952
 21
225.4594907194479
 31
0.0
  0
LINE
  5
FEE
330
1B
100
AcDbEntity
 67
     1
  8
0
100
AcDbLine
 10
235.2627054371233
 20
237.0178650683676
 30
0.0
 11
235.7739660629952
 21
225.4594907194479
 31
0.0
  0
LINE
  5
FEF
330
1B
100
AcDbEntity
 67
     1
  8
0
100
AcDbLine
 10
237.0127054371233
 20
237.0178650683676
 30
0.0
 11
237.5239660629952
 21
225.4594907194479
 31
0.0
  0
LINE
  5
FF0
330
1B
100
AcDbEntity
 67
     1
  8
0
100
AcDbLine
 10
238.7627054371233
 20
237.0178650683676
 30
0.0
 11
239.2739660629952
 21
225.4594907194479
 31
0.0
  0
LINE
  5
FF1
330
1B
100
AcDbEntity
 67
     1
  8
0
100
AcDbLine
 10
240.5127054371233
 20
237.0178650683676
 30
0.0
 11
241.0239660629952
 21
225.4594907194479
 31
0.0
  0
LINE
  5
FF2
330
1B
100
AcDbEntity
 67
     1
  8
0
100
AcDbLine
 10
242.2973572049379
 20
236.2344718556203
 30
0.0
 11
242.7352630940653
 21
226.3344718556203
 31
0.0
  0
LINE
  5
FF3
330
1B
100
AcDbEntity
 67
     1
  8
0
100
AcDbLine
 10
244.0473572049379
 20
236.2344718556203
 30
0.0
 11
244.4852630940653
 21
226.3344718556203
 31
0.0
  0
LINE
  5
FF4
330
1B
100
AcDbEntity
 67
     1
  8
0
100
AcDbLine
 10
245.797357204938
 20
236.2344718556203
 30
0.0
 11
246.2352630940654
 21
226.3344718556203
 31
0.0
  0
LINE
  5
FF5
330
1B
100
AcDbEntity
 67
     1
  8
0
100
AcDbLine
 10
232.3616460110154
 20
225.411405100858
 30
0.0
 11
233.1268110207628
 21
226.8066170217808
 31
0.0
  0
LINE
  5
FF6
330
1B
100
AcDbEntity
 67
     1
  8
0
100
AcDbLine
 10
225.1889368812845
 20
225.4068595665285
 30
0.0
 11
224.3792093349424
 21
226.7150290983556
 31
0.0
  0
LINE
  5
FF7
330
1B
100
AcDbEntity
 67
     1
  8
0
100
AcDbLine
 10
221.6889368812845
 20
225.4068595665285
 30
0.0
 11
220.8792093349424
 21
226.7150290983556
 31
0.0
  0
LINE
  5
FF8
330
1B
100
AcDbEntity
 67
     1
  8
0
100
AcDbLine
 10
221.8616460110154
 20
225.411405100858
 30
0.0
 11
222.6268110207628
 21
226.8066170217808
 31
0.0
  0
ARC
  5
FF9
330
1B
100
AcDbEntity
 67
     1
  8
0
100
AcDbCircle
 10
221.7739660629951
 20
225.4594907194479
 30
0.0
 40
0.1
100
AcDbArc
 50
211.7565767855592
 51
331.2586641960008
  0
LINE
  5
FFA
330
1B
100
AcDbEntity
 67
     1
  8
0
100
AcDbLine
 10
223.4389368812845
 20
225.4068595665285
 30
0.0
 11
222.6292093349424
 21
226.7150290983556
 31
0.0
  0
LINE
  5
FFB
330
1B
100
AcDbEntity
 67
     1
  8
0
100
AcDbLine
 10
223.6116460110153
 20
225.411405100858
 30
0.0
 11
224.3768110207629
 21
226.8066170217808
 31
0.0
  0
ARC
  5
FFC
330
1B
100
AcDbEntity
 67
     1
  8
0
100
AcDbCircle
 10
223.5239660629952
 20
225.4594907194479
 30
0.0
 40
0.1
100
AcDbArc
 50
211.7565767855592
 51
331.2586641960008
  0
LINE
  5
FFD
330
1B
100
AcDbEntity
 67
     1
  8
0
100
AcDbLine
 10
228.8616460110154
 20
225.411405100858
 30
0.0
 11
229.6268110207628
 21
226.8066170217808
 31
0.0
  0
ARC
  5
FFE
330
1B
100
AcDbEntity
 67
     1
  8
0
100
AcDbCircle
 10
228.7739660629952
 20
225.4594907194479
 30
0.0
 40
0.1
100
AcDbArc
 50
211.7565767855592
 51
331.2586641960008
  0
LINE
  5
FFF
330
1B
100
AcDbEntity
 67
     1
  8
0
100
AcDbLine
 10
230.4389368812845
 20
225.4068595665285
 30
0.0
 11
229.6292093349423
 21
226.7150290983556
 31
0.0
  0
LINE
  5
1000
330
1B
100
AcDbEntity
 67
     1
  8
0
100
AcDbLine
 10
230.6116460110154
 20
225.411405100858
 30
0.0
 11
231.3768110207628
 21
226.8066170217808
 31
0.0
  0
ARC
  5
1001
330
1B
100
AcDbEntity
 67
     1
  8
0
100
AcDbCircle
 10
230.5239660629952
 20
225.4594907194479
 30
0.0
 40
0.1
100
AcDbArc
 50
211.7565767855592
 51
331.2586641960008
  0
LINE
  5
1002
330
1B
100
AcDbEntity
 67
     1
  8
0
100
AcDbLine
 10
232.1889368812845
 20
225.4068595665285
 30
0.0
 11
231.3792093349424
 21
226.7150290983556
 31
0.0
  0
ARC
  5
1003
330
1B
100
AcDbEntity
 67
     1
  8
0
100
AcDbCircle
 10
232.2739660629952
 20
225.4594907194479
 30
0.0
 40
0.1
100
AcDbArc
 50
211.7565767855592
 51
331.2586641960008
  0
LINE
  5
1004
330
1B
100
AcDbEntity
 67
     1
  8
0
100
AcDbLine
 10
225.3616460110154
 20
225.411405100858
 30
0.0
 11
226.1268110207629
 21
226.8066170217808
 31
0.0
  0
ARC
  5
1005
330
1B
100
AcDbEntity
 67
     1
  8
0
100
AcDbCircle
 10
225.2739660629952
 20
225.4594907194479
 30
0.0
 40
0.1
100
AcDbArc
 50
211.7565767855592
 51
331.2586641960008
  0
LINE
  5
1006
330
1B
100
AcDbEntity
 67
     1
  8
0
100
AcDbLine
 10
226.9389368812845
 20
225.4068595665285
 30
0.0
 11
226.1292093349424
 21
226.7150290983556
 31
0.0
  0
LINE
  5
1007
330
1B
100
AcDbEntity
 67
     1
  8
0
100
AcDbLine
 10
227.1116460110154
 20
225.411405100858
 30
0.0
 11
227.8768110207628
 21
226.8066170217808
 31
0.0
  0
ARC
  5
1008
330
1B
100
AcDbEntity
 67
     1
  8
0
100
AcDbCircle
 10
227.0239660629952
 20
225.4594907194479
 30
0.0
 40
0.1
100
AcDbArc
 50
211.7565767855592
 51
331.2586641960008
  0
LINE
  5
1009
330
1B
100
AcDbEntity
 67
     1
  8
0
100
AcDbLine
 10
228.6889368812845
 20
225.4068595665285
 30
0.0
 11
227.8792093349423
 21
226.7150290983556
 31
0.0
  0
LINE
  5
100A
330
1B
100
AcDbEntity
 67
     1
  8
0
100
AcDbLine
 10
240.9389368812845
 20
225.4068595665285
 30
0.0
 11
240.1292093349423
 21
226.7150290983556
 31
0.0
  0
LINE
  5
100B
330
1B
100
AcDbEntity
 67
     1
  8
0
100
AcDbLine
 10
237.6116460110154
 20
225.411405100858
 30
0.0
 11
238.3768110207629
 21
226.8066170217808
 31
0.0
  0
ARC
  5
100C
330
1B
100
AcDbEntity
 67
     1
  8
0
100
AcDbCircle
 10
237.5239660629952
 20
225.4594907194479
 30
0.0
 40
0.1
100
AcDbArc
 50
211.7565767855592
 51
331.2586641960008
  0
LINE
  5
100D
330
1B
100
AcDbEntity
 67
     1
  8
0
100
AcDbLine
 10
239.1889368812845
 20
225.4068595665285
 30
0.0
 11
238.3792093349423
 21
226.7150290983556
 31
0.0
  0
LINE
  5
100E
330
1B
100
AcDbEntity
 67
     1
  8
0
100
AcDbLine
 10
239.3616460110154
 20
225.411405100858
 30
0.0
 11
240.1268110207629
 21
226.8066170217808
 31
0.0
  0
ARC
  5
100F
330
1B
100
AcDbEntity
 67
     1
  8
0
100
AcDbCircle
 10
239.2739660629952
 20
225.4594907194479
 30
0.0
 40
0.1
100
AcDbArc
 50
211.7565767855592
 51
331.2586641960008
  0
LINE
  5
1010
330
1B
100
AcDbEntity
 67
     1
  8
0
100
AcDbLine
 10
233.9389368812845
 20
225.4068595665285
 30
0.0
 11
233.1292093349424
 21
226.7150290983556
 31
0.0
  0
LINE
  5
1011
330
1B
100
AcDbEntity
 67
     1
  8
0
100
AcDbLine
 10
234.1116460110153
 20
225.411405100858
 30
0.0
 11
234.8768110207628
 21
226.8066170217808
 31
0.0
  0
ARC
  5
1012
330
1B
100
AcDbEntity
 67
     1
  8
0
100
AcDbCircle
 10
234.0239660629952
 20
225.4594907194479
 30
0.0
 40
0.1
100
AcDbArc
 50
211.7565767855592
 51
331.2586641960008
  0
LINE
  5
1013
330
1B
100
AcDbEntity
 67
     1
  8
0
100
AcDbLine
 10
235.6889368812845
 20
225.4068595665285
 30
0.0
 11
234.8792093349424
 21
226.7150290983556
 31
0.0
  0
LINE
  5
1014
330
1B
100
AcDbEntity
 67
     1
  8
0
100
AcDbLine
 10
235.8616460110154
 20
225.411405100858
 30
0.0
 11
236.6268110207629
 21
226.8066170217808
 31
0.0
  0
ARC
  5
1015
330
1B
100
AcDbEntity
 67
     1
  8
0
100
AcDbCircle
 10
235.7739660629952
 20
225.4594907194479
 30
0.0
 40
0.1
100
AcDbArc
 50
211.7565767855592
 51
331.2586641960008
  0
LINE
  5
1016
330
1B
100
AcDbEntity
 67
     1
  8
0
100
AcDbLine
 10
237.4389368812845
 20
225.4068595665285
 30
0.0
 11
236.6292093349424
 21
226.7150290983556
 31
0.0
  0
LINE
  5
1017
330
1B
100
AcDbEntity
 67
     1
  8
0
100
AcDbLine
 10
245.614765717281
 20
226.3344718556203
 30
0.0
 11
245.3792093349424
 21
226.7150290983556
 31
0.0
  0
LINE
  5
101A
330
1B
100
AcDbEntity
 67
     1
  8
0
100
AcDbLine
 10
241.1116460110154
 20
225.411405100858
 30
0.0
 11
241.8768110207629
 21
226.8066170217808
 31
0.0
  0
ARC
  5
101B
330
1B
100
AcDbEntity
 67
     1
  8
0
100
AcDbCircle
 10
241.0239660629952
 20
225.4594907194479
 30
0.0
 40
0.1
100
AcDbArc
 50
211.7565767855592
 51
331.2586641960008
  0
LINE
  5
101C
330
1B
100
AcDbEntity
 67
     1
  8
0
100
AcDbLine
 10
242.114765717281
 20
226.3344718556203
 30
0.0
 11
241.8792093349424
 21
226.7150290983556
 31
0.0
  0
LINE
  5
101D
330
1B
100
AcDbEntity
 67
     1
  8
0
100
AcDbLine
 10
243.3678761914013
 20
226.3344718556203
 30
0.0
 11
243.6268110207629
 21
226.8066170217808
 31
0.0
  0
LINE
  5
101F
330
1B
100
AcDbEntity
 67
     1
  8
0
100
AcDbLine
 10
243.8647657172811
 20
226.3344718556203
 30
0.0
 11
243.6292093349424
 21
226.7150290983556
 31
0.0
  0
LINE
  5
1021
330
1B
100
AcDbEntity
 67
     1
  8
0
100
AcDbLine
 10
245.1178761914013
 20
226.3344718556203
 30
0.0
 11
245.3768110207629
 21
226.8066170217808
 31
0.0
  0
LINE
  5
1022
330
1B
100
AcDbEntity
 67
     1
  8
0
100
AcDbLine
 10
233.4250254891031
 20
237.0659506869575
 30
0.0
 11
232.6598604793556
 21
235.6707387660347
 31
0.0
  0
LINE
  5
1023
330
1B
100
AcDbEntity
 67
     1
  8
0
100
AcDbLine
 10
224.6750254891031
 20
237.0659506869575
 30
0.0
 11
223.9098604793556
 21
235.6707387660347
 31
0.0
  0
ARC
  5
1024
330
1B
100
AcDbEntity
 67
     1
  8
0
100
AcDbCircle
 10
221.2627054371233
 20
237.0178650683676
 30
0.0
 40
0.1
100
AcDbArc
 50
31.75657678555928
 51
151.2586641960008
  0
ARC
  5
1025
330
1B
100
AcDbEntity
 67
     1
  8
0
100
AcDbCircle
 10
223.0127054371233
 20
237.0178650683676
 30
0.0
 40
0.1
100
AcDbArc
 50
31.75657678555928
 51
151.2586641960008
  0
LINE
  5
1026
330
1B
100
AcDbEntity
 67
     1
  8
0
100
AcDbLine
 10
221.1750254891031
 20
237.0659506869575
 30
0.0
 11
220.4098604793556
 21
235.6707387660347
 31
0.0
  0
LINE
  5
1027
330
1B
100
AcDbEntity
 67
     1
  8
0
100
AcDbLine
 10
221.347734618834
 20
237.0704962212869
 30
0.0
 11
222.1574621651762
 21
235.7623266894598
 31
0.0
  0
LINE
  5
1028
330
1B
100
AcDbEntity
 67
     1
  8
0
100
AcDbLine
 10
222.9250254891031
 20
237.0659506869575
 30
0.0
 11
222.1598604793556
 21
235.6707387660347
 31
0.0
  0
LINE
  5
1029
330
1B
100
AcDbEntity
 67
     1
  8
0
100
AcDbLine
 10
223.0977346188339
 20
237.0704962212869
 30
0.0
 11
223.9074621651762
 21
235.7623266894598
 31
0.0
  0
ARC
  5
102A
330
1B
100
AcDbEntity
 67
     1
  8
0
100
AcDbCircle
 10
230.0127054371233
 20
237.0178650683676
 30
0.0
 40
0.1
100
AcDbArc
 50
31.75657678555928
 51
151.2586641960008
  0
ARC
  5
102B
330
1B
100
AcDbEntity
 67
     1
  8
0
100
AcDbCircle
 10
231.7627054371233
 20
237.0178650683676
 30
0.0
 40
0.1
100
AcDbArc
 50
31.75657678555928
 51
151.2586641960008
  0
ARC
  5
102C
330
1B
100
AcDbEntity
 67
     1
  8
0
100
AcDbCircle
 10
224.7627054371233
 20
237.0178650683676
 30
0.0
 40
0.1
100
AcDbArc
 50
31.75657678555928
 51
151.2586641960008
  0
ARC
  5
102D
330
1B
100
AcDbEntity
 67
     1
  8
0
100
AcDbCircle
 10
226.5127054371233
 20
237.0178650683676
 30
0.0
 40
0.1
100
AcDbArc
 50
31.75657678555928
 51
151.2586641960008
  0
ARC
  5
102E
330
1B
100
AcDbEntity
 67
     1
  8
0
100
AcDbCircle
 10
228.2627054371233
 20
237.0178650683676
 30
0.0
 40
0.1
100
AcDbArc
 50
31.75657678555928
 51
151.2586641960008
  0
LINE
  5
102F
330
1B
100
AcDbEntity
 67
     1
  8
0
100
AcDbLine
 10
224.847734618834
 20
237.0704962212869
 30
0.0
 11
225.6574621651761
 21
235.7623266894598
 31
0.0
  0
LINE
  5
1030
330
1B
100
AcDbEntity
 67
     1
  8
0
100
AcDbLine
 10
226.4250254891031
 20
237.0659506869575
 30
0.0
 11
225.6598604793556
 21
235.6707387660347
 31
0.0
  0
LINE
  5
1031
330
1B
100
AcDbEntity
 67
     1
  8
0
100
AcDbLine
 10
226.597734618834
 20
237.0704962212869
 30
0.0
 11
227.4074621651761
 21
235.7623266894598
 31
0.0
  0
LINE
  5
1032
330
1B
100
AcDbEntity
 67
     1
  8
0
100
AcDbLine
 10
228.1750254891031
 20
237.0659506869575
 30
0.0
 11
227.4098604793556
 21
235.6707387660347
 31
0.0
  0
LINE
  5
1033
330
1B
100
AcDbEntity
 67
     1
  8
0
100
AcDbLine
 10
228.347734618834
 20
237.0704962212869
 30
0.0
 11
229.1574621651761
 21
235.7623266894598
 31
0.0
  0
LINE
  5
1034
330
1B
100
AcDbEntity
 67
     1
  8
0
100
AcDbLine
 10
229.9250254891031
 20
237.0659506869575
 30
0.0
 11
229.1598604793556
 21
235.6707387660347
 31
0.0
  0
LINE
  5
1035
330
1B
100
AcDbEntity
 67
     1
  8
0
100
AcDbLine
 10
230.097734618834
 20
237.0704962212869
 30
0.0
 11
230.9074621651761
 21
235.7623266894598
 31
0.0
  0
LINE
  5
1036
330
1B
100
AcDbEntity
 67
     1
  8
0
100
AcDbLine
 10
231.6750254891031
 20
237.0659506869575
 30
0.0
 11
230.9098604793556
 21
235.6707387660347
 31
0.0
  0
LINE
  5
1037
330
1B
100
AcDbEntity
 67
     1
  8
0
100
AcDbLine
 10
231.847734618834
 20
237.0704962212869
 30
0.0
 11
232.6574621651761
 21
235.7623266894598
 31
0.0
  0
LINE
  5
1038
330
1B
100
AcDbEntity
 67
     1
  8
0
100
AcDbLine
 10
240.597734618834
 20
237.0704962212869
 30
0.0
 11
241.4074621651761
 21
235.7623266894598
 31
0.0
  0
ARC
  5
1039
330
1B
100
AcDbEntity
 67
     1
  8
0
100
AcDbCircle
 10
237.0127054371233
 20
237.0178650683676
 30
0.0
 40
0.1
100
AcDbArc
 50
31.75657678555928
 51
151.2586641960008
  0
ARC
  5
103A
330
1B
100
AcDbEntity
 67
     1
  8
0
100
AcDbCircle
 10
238.7627054371233
 20
237.0178650683676
 30
0.0
 40
0.1
100
AcDbArc
 50
31.75657678555928
 51
151.2586641960008
  0
ARC
  5
103B
330
1B
100
AcDbEntity
 67
     1
  8
0
100
AcDbCircle
 10
240.5127054371233
 20
237.0178650683676
 30
0.0
 40
0.1
100
AcDbArc
 50
31.75657678555928
 51
151.2586641960008
  0
ARC
  5
103C
330
1B
100
AcDbEntity
 67
     1
  8
0
100
AcDbCircle
 10
233.5127054371233
 20
237.0178650683676
 30
0.0
 40
0.1
100
AcDbArc
 50
31.75657678555928
 51
151.2586641960008
  0
ARC
  5
103D
330
1B
100
AcDbEntity
 67
     1
  8
0
100
AcDbCircle
 10
235.2627054371233
 20
237.0178650683676
 30
0.0
 40
0.1
100
AcDbArc
 50
31.75657678555928
 51
151.2586641960008
  0
LINE
  5
103E
330
1B
100
AcDbEntity
 67
     1
  8
0
100
AcDbLine
 10
233.5977346188339
 20
237.0704962212869
 30
0.0
 11
234.4074621651762
 21
235.7623266894598
 31
0.0
  0
LINE
  5
103F
330
1B
100
AcDbEntity
 67
     1
  8
0
100
AcDbLine
 10
235.1750254891031
 20
237.0659506869575
 30
0.0
 11
234.4098604793556
 21
235.6707387660347
 31
0.0
  0
LINE
  5
1040
330
1B
100
AcDbEntity
 67
     1
  8
0
100
AcDbLine
 10
235.347734618834
 20
237.0704962212869
 30
0.0
 11
236.1574621651761
 21
235.7623266894598
 31
0.0
  0
LINE
  5
1041
330
1B
100
AcDbEntity
 67
     1
  8
0
100
AcDbLine
 10
236.9250254891031
 20
237.0659506869575
 30
0.0
 11
236.1598604793556
 21
235.6707387660347
 31
0.0
  0
LINE
  5
1042
330
1B
100
AcDbEntity
 67
     1
  8
0
100
AcDbLine
 10
237.097734618834
 20
237.0704962212869
 30
0.0
 11
237.9074621651761
 21
235.7623266894598
 31
0.0
  0
LINE
  5
1043
330
1B
100
AcDbEntity
 67
     1
  8
0
100
AcDbLine
 10
238.6750254891031
 20
237.0659506869575
 30
0.0
 11
237.9098604793556
 21
235.6707387660347
 31
0.0
  0
LINE
  5
1044
330
1B
100
AcDbEntity
 67
     1
  8
0
100
AcDbLine
 10
238.847734618834
 20
237.0704962212869
 30
0.0
 11
239.6574621651761
 21
235.7623266894598
 31
0.0
  0
LINE
  5
1045
330
1B
100
AcDbEntity
 67
     1
  8
0
100
AcDbLine
 10
240.4250254891031
 20
237.0659506869575
 30
0.0
 11
239.6598604793556
 21
235.6707387660347
 31
0.0
  0
LINE
  5
1049
330
1B
100
AcDbEntity
 67
     1
  8
0
100
AcDbLine
 10
241.7190241472682
 20
236.2344718556203
 30
0.0
 11
241.4098604793556
 21
235.6707387660347
 31
0.0
  0
LINE
  5
104A
330
1B
100
AcDbEntity
 67
     1
  8
0
100
AcDbLine
 10
242.8652149161683
 20
236.2344718556203
 30
0.0
 11
243.1574621651761
 21
235.7623266894598
 31
0.0
  0
LINE
  5
104B
330
1B
100
AcDbEntity
 67
     1
  8
0
100
AcDbLine
 10
243.4690241472682
 20
236.2344718556203
 30
0.0
 11
243.1598604793556
 21
235.6707387660347
 31
0.0
  0
LINE
  5
104C
330
1B
100
AcDbEntity
 67
     1
  8
0
100
AcDbLine
 10
244.6152149161683
 20
236.2344718556203
 30
0.0
 11
244.9074621651762
 21
235.7623266894598
 31
0.0
  0
LINE
  5
104D
330
1B
100
AcDbEntity
 67
     1
  8
0
100
AcDbLine
 10
245.2190241472682
 20
236.2344718556203
 30
0.0
 11
244.9098604793556
 21
235.6707387660347
 31
0.0
  0
LINE
  5
104E
330
1B
100
AcDbEntity
 67
     1
  8
0
100
AcDbLine
 10
246.3652149161683
 20
236.2344718556203
 30
0.0
 11
246.6574621651762
 21
235.7623266894598
 31
0.0
  0
LINE
  5
104F
330
1B
100
AcDbEntity
 67
     1
  8
0
100
AcDbLine
 10
246.6574621651762
 20
235.7623266894598
 30
0.0
 11
246.6574621651762
 21
226.8066170217808
 31
0.0
  0
LINE
  5
1056
330
1B
100
AcDbEntity
 67
     1
  8
0
100
AcDbLine
 10
206.6574621651761
 20
236.1222189295244
 30
0.0
 11
206.6574621651761
 21
227.1256784112534
 31
0.0
  0
LINE
  5
1057
330
1B
100
AcDbEntity
 67
     1
  8
0
100
AcDbLine
 10
206.8792093349423
 20
226.7150290983556
 30
0.0
 11
206.6574621651761
 21
227.1256784112534
 31
0.0
  0
LEADER
  5
1071
330
1B
100
AcDbEntity
 67
     1
  8
0
100
AcDbLeader
  3
ISO-25
 73
     0
 40
3.0
 76
     3
 10
138.8900841214526
 20
231.2844718556203
 30
0.0
 10
125.2327460541312
 20
207.1553583390303
 30
0.0
 10
123.9092642378352
 20
207.1553583390303
 30
0.0
340
1072
213
0.0
223
1.5
233
0.0
1001
ACAD
1000
DSTYLE
1002
{
1070
   147
1040
0.625
1070
    77
1070
     0
1002
}
  0
MTEXT
  5
1072
102
{ACAD_REACTORS
330
1071
102
}
330
1B
100
AcDbEntity
 67
     1
  8
0
100
AcDbMText
 10
123.2842642378352
 20
187.1240897126456
 30
0.0
 40
3.0
 41
22.13169999999999
 71
     9
 72
     1
  1

 73
     1
 44
1.0
  0
LINE
  5
1079
330
1B
100
AcDbEntity
 67
     1
  8
0
100
AcDbLine
 10
128.1653060064145
 20
186.1844718556203
 30
0.0
 11
132.1653060064145
 21
186.1844718556203
 31
0.0
  0
LINE
  5
107A
330
1B
100
AcDbEntity
 67
     1
  8
0
100
AcDbLine
 10
128.1653060064145
 20
171.1844718556203
 30
0.0
 11
135.0815367252309
 21
171.1844718556203
 31
0.0
  0
DIMENSION
  5
10D0
330
1B
100
AcDbEntity
 67
     1
  8
0
100
AcDbDimension
  2
*D7
 10
246.6574621651761
 20
246.838691901327
 30
0.0
 11
226.6574621651761
 21
248.9636919013269
 31
0.0
 70
    33
 71
     5
 42
39.99999999999997
  3
ISO-25
100
AcDbAlignedDimension
 13
206.6574621651761
 23
233.9456646932763
 33
0.0
 14
246.6574621651761
 24
233.9456646932764
 34
0.0
  0
LINE
  5
1184
330
1B
100
AcDbEntity
 67
     1
  8
0
 62
     0
 48
0.2
100
AcDbLine
 10
311.6262008563887
 20
81.13093242527725
 30
0.0
 11
107.0589883534996
 21
81.13093242527728
 31
0.0
  0
LINE
  5
1185
330
1B
100
AcDbEntity
 67
     1
  8
0
 62
     0
 48
0.2
100
AcDbLine
 10
311.6262008563887
 20
84.13093242527725
 30
0.0
 11
106.7292993207113
 21
84.13093242527727
 31
0.0
  0
LINE
  5
1186
330
1B
100
AcDbEntity
 67
     1
  8
0
 62
     0
 48
0.2
100
AcDbLine
 10
106.7620068782955
 20
113.5844718556203
 30
0.0
 11
314.1393874146645
 21
113.5844718556203
 31
0.0
  0
LINE
  5
1187
330
1B
100
AcDbEntity
 67
     1
  8
0
 62
     0
 48
0.2
100
AcDbLine
 10
106.7620068782955
 20
110.5844718556203
 30
0.0
 11
314.1393874146645
 21
110.5844718556203
 31
0.0
  0
LINE
  5
1188
330
1B
100
AcDbEntity
 67
     1
  8
0
 62
     0
 48
0.2
100
AcDbLine
 10
106.7620068782955
 20
143.5844718556203
 30
0.0
 11
314.1393874146645
 21
143.5844718556203
 31
0.0
  0
LINE
  5
1189
330
1B
100
AcDbEntity
 67
     1
  8
0
 62
     0
 48
0.2
100
AcDbLine
 10
106.7620068782955
 20
140.5844718556203
 30
0.0
 11
314.1393874146645
 21
140.5844718556203
 31
0.0
  0
DIMENSION
  5
118A
330
1B
100
AcDbEntity
 67
     1
  8
0
100
AcDbDimension
  2
*D8
 10
307.1238847350978
 20
135.125853970166
 30
0.0
 11
307.1238847350978
 21
155.2508539701661
 31
0.0
 70
   161
  1
%%c14
 71
     5
 42
13.99999999999994
  3
ISO-25
100
AcDbAlignedDimension
 13
315.3871768801909
 23
149.125853970166
 33
0.0
 14
315.3871768801909
 24
135.125853970166
 34
0.0
  0
LINE
  5
118B
330
1B
100
AcDbEntity
 67
     1
  8
0
100
AcDbLine
 10
348.319248134987
 20
147.1425760514322
 30
0.0
 11
348.319248134987
 21
137.1425760514322
 31
0.0
  0
LINE
  5
118C
330
1B
100
AcDbEntity
 67
     1
  8
0
100
AcDbLine
 10
347.712249045029
 20
146.625853970166
 30
0.0
 11
347.712249045029
 21
137.625853970166
 31
0.0
  0
LINE
  5
118D
330
1B
100
AcDbEntity
 67
     1
  8
0
 62
     0
 48
0.2
100
AcDbLine
 10
339.1393874146645
 20
142.125853970166
 30
0.0
 11
339.1393874146645
 21
147.125853970166
 31
0.0
  0
LINE
  5
118E
330
1B
100
AcDbEntity
 67
     1
  8
0
 62
     0
 48
0.2
100
AcDbLine
 10
339.1393874146645
 20
142.125853970166
 30
0.0
 11
339.1393874146645
 21
146.625853970166
 31
0.0
  0
LINE
  5
118F
330
1B
100
AcDbEntity
 67
     1
  8
0
 62
     0
100
AcDbLine
 10
362.712249045029
 20
151.8928934674625
 30
0.0
 11
362.712249045029
 21
132.3588144728693
 31
0.0
  0
LINE
  5
1190
330
1B
100
AcDbEntity
 67
     1
  8
0
 62
     0
100
AcDbLine
 10
371.655080255389
 20
149.6427431125008
 30
0.0
 11
371.6264178037497
 21
134.6417407460895
 31
0.0
  0
LINE
  5
1191
330
1B
100
AcDbEntity
 67
     1
  8
0
 62
     0
 48
0.2
100
AcDbLine
 10
339.1393874146645
 20
149.125853970166
 30
0.0
 11
339.1393874146645
 21
135.125853970166
 31
0.0
  0
LINE
  5
1192
330
1B
100
AcDbEntity
 67
     1
  8
0
 62
     0
 48
2.0
100
AcDbLine
 10
339.1393874146645
 20
136.625853970166
 30
0.0
 11
339.1393874146645
 21
149.125853970166
 31
0.0
  0
ARC
  5
1193
330
1B
100
AcDbEntity
 67
     1
  8
0
 62
     0
100
AcDbCircle
 10
358.7506193788766
 20
142.1422419292952
 30
0.0
 40
12.90787727772602
100
AcDbArc
 50
337.2080385520196
 51
22.79196144798038
  0
LINE
  5
1194
330
1B
100
AcDbEntity
 67
     1
  8
0
 62
     0
 48
0.2
100
AcDbLine
 10
314.1393874146645
 20
143.5844718556203
 30
0.0
 11
314.1393874146645
 21
140.5844718556203
 31
0.0
  0
LINE
  5
1195
330
1B
100
AcDbEntity
 67
     1
  8
0
 62
     0
 48
2.0
100
AcDbLine
 10
314.1393874146645
 20
142.125853970166
 30
0.0
 11
314.1393874146645
 21
147.125853970166
 31
0.0
  0
LINE
  5
1196
330
1B
100
AcDbEntity
 67
     1
  8
0
 62
     0
 48
0.2
100
AcDbLine
 10
314.1393874146645
 20
142.125853970166
 30
0.0
 11
314.1393874146645
 21
149.125853970166
 31
0.0
  0
LINE
  5
1197
330
1B
100
AcDbEntity
 67
     1
  8
0
 62
     0
 48
0.2
100
AcDbLine
 10
314.1393874146645
 20
142.125853970166
 30
0.0
 11
314.1393874146645
 21
145.625853970166
 31
0.0
  0
LINE
  5
1198
330
1B
100
AcDbEntity
 67
     1
  8
0
 62
     0
 48
2.0
100
AcDbLine
 10
314.1393874146645
 20
147.125853970166
 30
0.0
 11
314.1393874146645
 21
137.125853970166
 31
0.0
  0
LINE
  5
1199
330
1B
100
AcDbEntity
 67
     1
  8
0
 62
     0
 48
0.2
100
AcDbLine
 10
321.1393874146645
 20
145.625853970166
 30
0.0
 11
321.1393874146645
 21
138.625853970166
 31
0.0
  0
DIMENSION
  5
119A
330
1B
100
AcDbEntity
 67
     1
  8
0
100
AcDbDimension
  2
*D9
 10
332.3494806340334
 20
75.82839442081049
 30
0.0
 11
338.0278946409125
 21
72.42598988007106
 31
0.0
 70
    33
  1
11
 71
     5
 42
12.53875867737568
  3
ISO-25
100
AcDbAlignedDimension
 13
348.5759253891854
 23
73.16014472972745
 33
0.0
 14
340.4581976091312
 24
82.71644970908017
 34
0.0
  0
ARC
  5
119B
330
1B
100
AcDbEntity
 67
     1
  8
0
 62
     0
 48
0.3
100
AcDbCircle
 10
332.0418572156347
 20
92.62428571805799
 30
0.0
 40
13.0
100
AcDbArc
 50
268.1677373265008
 51
334.6255699255217
  0
ARC
  5
119C
330
1B
100
AcDbEntity
 67
     1
  8
0
 62
     0
 48
0.3
100
AcDbCircle
 10
351.6262008563888
 20
82.63093242527725
 30
0.0
 40
15.0
100
AcDbArc
 50
256.2437479056126
 51
150.5685435300299
  0
LINE
  5
119D
330
1B
100
AcDbEntity
 67
     1
  8
0
 62
     0
 48
0.3
100
AcDbLine
 10
331.6262008563887
 20
80.13093242527725
 30
0.0
 11
311.9262008563887
 21
80.13093242527725
 31
0.0
  0
LINE
  5
119E
330
1B
100
AcDbEntity
 67
     1
  8
0
 62
     0
 48
0.3
100
AcDbLine
 10
311.9262008563887
 20
85.13093242527725
 30
0.0
 11
331.6262008563887
 21
85.13093242527725
 31
0.0
  0
LINE
  5
119F
330
1B
100
AcDbEntity
 67
     1
  8
３
 62
     0
 48
0.2
100
AcDbLine
 10
328.8732000354941
 20
81.13093242527725
 30
0.0
 11
311.6262008563887
 21
81.13093242527725
 31
0.0
  0
LINE
  5
11A0
330
1B
100
AcDbEntity
 67
     1
  8
３
 62
     0
 48
0.2
100
AcDbLine
 10
328.8732000354941
 20
84.13093242527725
 30
0.0
 11
311.6262008563887
 21
84.13093242527725
 31
0.0
  0
LINE
  5
11A1
330
1B
100
AcDbEntity
 67
     1
  8
0
 62
     0
 48
0.3
100
AcDbLine
 10
311.6262008563887
 20
84.83093242527719
 30
0.0
 11
311.6262008563887
 21
80.43093242527721
 31
0.0
  0
LINE
  5
11A2
330
1B
100
AcDbEntity
 67
     1
  8
0
 62
     0
 48
0.3
100
AcDbLine
 10
311.9262008563887
 20
80.13093242527725
 30
0.0
 11
311.6262008563887
 21
80.43093242527721
 31
0.0
  0
LINE
  5
11A3
330
1B
100
AcDbEntity
 67
     1
  8
0
 62
     0
 48
0.2
100
AcDbLine
 10
311.6262008563887
 20
82.63093242527725
 30
0.0
 11
311.6262008563887
 21
83.63093242527725
 31
0.0
  0
LINE
  5
11A4
330
1B
100
AcDbEntity
 67
     1
  8
0
 62
     0
 48
0.3
100
AcDbLine
 10
311.9262008563887
 20
85.13093242527725
 30
0.0
 11
311.6262008563887
 21
84.83093242527719
 31
0.0
  0
LINE
  5
11A5
330
1B
100
AcDbEntity
 67
     1
  8
0
 62
     0
 48
0.3
100
AcDbLine
 10
331.6262008563887
 20
82.63093242527725
 30
0.0
 11
331.6262008563887
 21
85.63093242527726
 31
0.0
  0
LINE
  5
11A6
330
1B
100
AcDbEntity
 67
     1
  8
0
 62
     0
 48
0.3
100
AcDbLine
 10
331.6262008563887
 20
85.63093242527726
 30
0.0
 11
331.6262008563887
 21
79.63093242527725
 31
0.0
  0
LINE
  5
11A7
330
1B
100
AcDbEntity
 67
     1
  8
0
 62
     0
 48
0.3
100
AcDbLine
 10
331.6262008563887
 20
85.13093242527725
 30
0.0
 11
331.6262008563887
 21
80.13093242527725
 31
0.0
  0
LINE
  5
11A8
330
1B
100
AcDbEntity
 67
     1
  8
３
 62
     0
 48
0.2
100
AcDbLine
 10
328.8732000354941
 20
84.13093242527725
 30
0.0
 11
328.8732000354941
 21
81.13093242527725
 31
0.0
  0
ARC
  5
11A9
330
1B
100
AcDbEntity
 67
     1
  8
0
 62
     0
 48
0.3
100
AcDbCircle
 10
330.231217061671
 20
95.53315541875077
 30
0.0
 40
10.0
100
AcDbArc
 50
278.0188206779693
 51
326.4166617351178
  0
MTEXT
  5
11AA
330
1B
100
AcDbEntity
 67
     1
  8
0
100
AcDbMText
 10
323.0249496735802
 20
103.5888630553314
 30
0.0
 40
3.0
 41
16.7459
 71
     1
 72
     5
  1
M8用
 73
     1
 44
1.0
  0
LINE
  5
11AB
330
1B
100
AcDbEntity
 67
     1
  8
0
 62
     0
 48
2.0
100
AcDbLine
 10
339.1393874146645
 20
119.125853970166
 30
0.0
 11
321.1393874146645
 21
119.125853970166
 31
0.0
  0
LINE
  5
11AC
330
1B
100
AcDbEntity
 67
     1
  8
0
 62
     0
 48
2.0
100
AcDbLine
 10
321.1393874146645
 20
105.125853970166
 30
0.0
 11
339.1393874146645
 21
105.125853970166
 31
0.0
  0
LINE
  5
11AD
330
1B
100
AcDbEntity
 67
     1
  8
0
 62
     0
 48
2.0
100
AcDbLine
 10
314.1393874146645
 20
112.125853970166
 30
0.0
 11
314.1393874146645
 21
107.125853970166
 31
0.0
  0
LINE
  5
11AE
330
1B
100
AcDbEntity
 67
     1
  8
0
 62
     0
 48
2.0
100
AcDbLine
 10
314.1393874146645
 20
117.125853970166
 30
0.0
 11
314.1393874146645
 21
107.125853970166
 31
0.0
  0
LINE
  5
11AF
330
1B
100
AcDbEntity
 67
     1
  8
0
 62
     0
 48
0.2
100
AcDbLine
 10
321.1393874146645
 20
105.125853970166
 30
0.0
 11
314.1393874146645
 21
105.125853970166
 31
0.0
  0
LINE
  5
11B0
330
1B
100
AcDbEntity
 67
     1
  8
0
 62
     0
 48
0.2
100
AcDbLine
 10
314.1393874146645
 20
107.125853970166
 30
0.0
 11
314.1393874146645
 21
104.9703856343888
 31
0.0
  0
LINE
  5
11B1
330
1B
100
AcDbEntity
 67
     1
  8
0
 62
     0
 48
0.2
100
AcDbLine
 10
314.1393874146645
 20
115.625853970166
 30
0.0
 11
321.1393874146645
 21
115.625853970166
 31
0.0
  0
LINE
  5
11B2
330
1B
100
AcDbEntity
 67
     1
  8
0
 62
     0
 48
0.2
100
AcDbLine
 10
321.1393874146645
 20
119.125853970166
 30
0.0
 11
314.1393874146645
 21
119.125853970166
 31
0.0
  0
LINE
  5
11B3
330
1B
100
AcDbEntity
 67
     1
  8
0
 62
     0
 48
0.2
100
AcDbLine
 10
321.1393874146645
 20
108.625853970166
 30
0.0
 11
314.1393874146645
 21
108.625853970166
 31
0.0
  0
LINE
  5
11B4
330
1B
100
AcDbEntity
 67
     1
  8
0
 62
     0
 48
0.2
100
AcDbLine
 10
314.1393874146645
 20
117.125853970166
 30
0.0
 11
314.1393874146645
 21
119.125853970166
 31
0.0
  0
LINE
  5
11B5
330
1B
100
AcDbEntity
 67
     1
  8
0
 62
     0
 48
0.2
100
AcDbLine
 10
314.1393874146645
 20
113.5844718556203
 30
0.0
 11
314.1393874146645
 21
110.5844718556203
 31
0.0
  0
LINE
  5
11B6
330
1B
100
AcDbEntity
 67
     1
  8
0
 62
     0
 48
2.0
100
AcDbLine
 10
314.1393874146645
 20
112.125853970166
 30
0.0
 11
314.1393874146645
 21
117.125853970166
 31
0.0
  0
LINE
  5
11B7
330
1B
100
AcDbEntity
 67
     1
  8
0
 62
     0
 48
0.2
100
AcDbLine
 10
314.1393874146645
 20
112.125853970166
 30
0.0
 11
314.1393874146645
 21
119.125853970166
 31
0.0
  0
LINE
  5
11B8
330
1B
100
AcDbEntity
 67
     1
  8
0
 62
     0
 48
0.2
100
AcDbLine
 10
314.1393874146645
 20
112.125853970166
 30
0.0
 11
314.1393874146645
 21
115.625853970166
 31
0.0
  0
LINE
  5
11B9
330
1B
100
AcDbEntity
 67
     1
  8
0
 62
     0
 48
0.2
100
AcDbLine
 10
321.1393874146645
 20
115.625853970166
 30
0.0
 11
321.1393874146645
 21
108.625853970166
 31
0.0
  0
LINE
  5
11BA
330
1B
100
AcDbEntity
 67
     1
  8
0
 62
     0
 48
0.2
100
AcDbLine
 10
339.1393874146645
 20
112.125853970166
 30
0.0
 11
339.1393874146645
 21
107.625853970166
 31
0.0
  0
LINE
  5
11BB
330
1B
100
AcDbEntity
 67
     1
  8
0
 62
     0
 48
0.2
100
AcDbLine
 10
339.1393874146645
 20
119.125853970166
 30
0.0
 11
339.1393874146645
 21
105.125853970166
 31
0.0
  0
LINE
  5
11BC
330
1B
100
AcDbEntity
 67
     1
  8
0
 62
     0
 48
2.0
100
AcDbLine
 10
339.1393874146645
 20
106.625853970166
 30
0.0
 11
339.1393874146645
 21
119.125853970166
 31
0.0
  0
LINE
  5
11BD
330
1B
100
AcDbEntity
 67
     1
  8
0
 62
     0
 48
0.2
100
AcDbLine
 10
339.1393874146645
 20
112.125853970166
 30
0.0
 11
339.1393874146645
 21
117.125853970166
 31
0.0
  0
LINE
  5
11BE
330
1B
100
AcDbEntity
 67
     1
  8
0
 62
     0
 48
0.2
100
AcDbLine
 10
339.1393874146645
 20
112.125853970166
 30
0.0
 11
339.1393874146645
 21
116.625853970166
 31
0.0
  0
MTEXT
  5
11BF
330
1B
100
AcDbEntity
 67
     1
  8
0
100
AcDbMText
 10
322.3184666773399
 20
133.1153721434258
 30
0.0
 40
3.0
 41
16.7459
 71
     1
 72
     5
  1
M10用
 73
     1
 44
1.0
  0
LINE
  5
11C0
330
1B
100
AcDbEntity
 67
     1
  8
0
 62
     0
 48
2.0
100
AcDbLine
 10
321.1393874146645
 20
135.125853970166
 30
0.0
 11
339.1393874146645
 21
135.125853970166
 31
0.0
  0
LINE
  5
11C1
330
1B
100
AcDbEntity
 67
     1
  8
0
 62
     0
 48
0.2
100
AcDbLine
 10
321.1393874146645
 20
135.125853970166
 30
0.0
 11
314.1393874146645
 21
135.125853970166
 31
0.0
  0
LINE
  5
11C2
330
1B
100
AcDbEntity
 67
     1
  8
0
 62
     0
 48
0.2
100
AcDbLine
 10
321.1393874146645
 20
138.625853970166
 30
0.0
 11
314.1393874146645
 21
138.625853970166
 31
0.0
  0
LINE
  5
11C3
330
1B
100
AcDbEntity
 67
     1
  8
0
 62
     0
 48
0.2
100
AcDbLine
 10
314.1393874146645
 20
137.125853970166
 30
0.0
 11
314.1393874146645
 21
134.9703856343888
 31
0.0
  0
LINE
  5
11C4
330
1B
100
AcDbEntity
 67
     1
  8
0
 62
     0
 48
2.0
100
AcDbLine
 10
314.1393874146645
 20
142.125853970166
 30
0.0
 11
314.1393874146645
 21
137.125853970166
 31
0.0
  0
LINE
  5
11C5
330
1B
100
AcDbEntity
 67
     1
  8
0
 62
     0
 48
0.2
100
AcDbLine
 10
339.1393874146645
 20
142.125853970166
 30
0.0
 11
339.1393874146645
 21
137.625853970166
 31
0.0
  0
LEADER
  5
11C6
330
1B
100
AcDbEntity
 67
     1
  8
0
100
AcDbLeader
  3
ISO-25
 73
     0
 40
3.0
 41
5.0
 76
     2
 10
366.6262008563887
 20
82.63093242527725
 30
0.0
 10
375.7419784612975
 20
82.63093242527725
 30
0.0
340
11C7
213
0.0
223
-1.5
233
0.0
1001
ACAD
1000
DSTYLE
1002
{
1070
   147
1040
0.625
1070
    77
1070
     0
1002
}
  0
MTEXT
  5
11C7
102
{ACAD_REACTORS
330
11C6
102
}
330
1B
100
AcDbEntity
 67
     1
  8
0
100
AcDbMText
 10
376.3669784612975
 20
84.13093242527725
 30
0.0
 40
3.0
 41
22.13169999999999
 71
     1
 72
     1
  1
%%c6
 73
     1
 44
1.0
  0
LINE
  5
11C8
330
1B
100
AcDbEntity
 67
     1
  8
0
 62
     0
 48
0.3
100
AcDbLine
 10
348.5759253891854
 20
73.16014472972745
 30
0.0
 11
347.345264511352
 21
69.33907085476175
 31
0.0
  0
MTEXT
  5
11C9
330
1B
100
AcDbEntity
 67
     1
  8
0
100
AcDbMText
 10
341.9132075242366
 20
60.0678649195512
 30
0.0
 40
3.0
 41
0.0
 71
     1
 72
     5
  1
SUSフック
 73
     1
 44
1.0
  0
ARC
  5
11CA
330
1B
100
AcDbEntity
 67
     1
  8
0
 62
     0
 48
0.3
100
AcDbCircle
 10
348.2971144887837
 20
69.03250663561209
 30
0.0
 40
1.0
100
AcDbArc
 50
162.1477041474602
 51
256.2437479056126
  0
ARC
  5
11CB
330
1B
100
AcDbEntity
 67
     1
  8
0
 62
     0
 48
0.3
100
AcDbCircle
 10
351.6262008563888
 20
82.63093242527725
 30
0.0
 40
9.0
100
AcDbArc
 50
257.8868746247251
 51
150.5685435300269
  0
ARC
  5
11CC
330
1B
100
AcDbEntity
 67
     1
  8
0
 62
     0
 48
0.3
100
AcDbCircle
 10
349.5277753666173
 20
72.85358051057778
 30
0.0
 40
1.0
100
AcDbArc
 50
77.88687462472511
 51
162.1477041474602
  0
ARC
  5
11CD
330
1B
100
AcDbEntity
 67
     1
  8
Object
 62
     0
 48
0.3
100
AcDbCircle
 10
364.4585373311406
 20
117.7508540927509
 30
0.0
 40
4.299524777226425
100
AcDbArc
 50
334.145029525222
 51
25.85497047477791
  0
LINE
  5
11CE
330
1B
100
AcDbEntity
 67
     1
  8
Object
 62
     0
 48
0.3
100
AcDbLine
 10
363.1246249022515
 20
119.625853970166
 30
0.0
 11
363.1246249022515
 21
104.625853970166
 31
0.0
  0
LINE
  5
11CF
330
1B
100
AcDbEntity
 67
     1
  8
0
 62
     0
 48
0.3
100
AcDbLine
 10
348.1246249022515
 20
108.750853970166
 30
0.0
 11
363.1246249022515
 21
108.750853970166
 31
0.0
  0
LINE
  5
11D0
330
1B
100
AcDbEntity
 67
     1
  8
0
 62
     0
 48
0.3
100
AcDbLine
 10
348.1246249022515
 20
115.500853970166
 30
0.0
 11
363.1246249022515
 21
115.500853970166
 31
0.0
  0
LINE
  5
11D1
330
1B
100
AcDbEntity
 67
     1
  8
Object
 62
     0
 48
0.3
100
AcDbLine
 10
348.7496249022515
 20
116.125853970166
 30
0.0
 11
363.1246249022515
 21
116.125853970166
 31
0.0
  0
LINE
  5
11D2
330
1B
100
AcDbEntity
 67
     1
  8
Object
 62
     0
 48
0.3
100
AcDbLine
 10
363.1246249022515
 20
108.125853970166
 30
0.0
 11
348.7496249022515
 21
108.125853970166
 31
0.0
  0
LINE
  5
11D3
330
1B
100
AcDbEntity
 67
     1
  8
Object
 62
     0
 48
0.3
100
AcDbLine
 10
348.7496249022515
 20
108.125853970166
 30
0.0
 11
348.1246249022515
 21
108.750853970166
 31
0.0
  0
LINE
  5
11D4
330
1B
100
AcDbEntity
 67
     1
  8
Object
 62
     0
 48
0.3
100
AcDbLine
 10
348.7496249022515
 20
116.125853970166
 30
0.0
 11
348.1246249022515
 21
115.500853970166
 31
0.0
  0
LINE
  5
11D5
330
1B
100
AcDbEntity
 67
     1
  8
Object
 62
     0
 48
0.3
100
AcDbLine
 10
348.1246249022515
 20
108.750853970166
 30
0.0
 11
348.1246249022515
 21
115.500853970166
 31
0.0
  0
LINE
  5
11D6
330
1B
100
AcDbEntity
 67
     1
  8
Object
 62
     0
 48
0.3
100
AcDbLine
 10
348.7496249022515
 20
116.125853970166
 30
0.0
 11
348.7496249022515
 21
108.125853970166
 31
0.0
  0
ARC
  5
11D7
330
1B
100
AcDbEntity
 67
     1
  8
Object
 62
     0
 48
0.3
100
AcDbCircle
 10
364.6358374704025
 20
106.500853970166
 30
0.0
 40
4.140694259594969
100
AcDbArc
 50
333.075075309887
 51
26.92492469011298
  0
LINE
  5
11D8
330
1B
100
AcDbEntity
 67
     1
  8
Object
 62
     0
 48
0.3
100
AcDbLine
 10
368.7496249022515
 20
106.4220814149456
 30
0.0
 11
368.7496249022515
 21
117.7793117046769
 31
0.0
  0
LINE
  5
11D9
330
1B
100
AcDbEntity
 67
     1
  8
Object
 62
     0
 48
0.3
100
AcDbLine
 10
363.1246249022515
 20
104.625853970166
 30
0.0
 11
368.3276831286117
 21
104.625853970166
 31
0.0
  0
LINE
  5
11DA
330
1B
100
AcDbEntity
 67
     1
  8
Object
 62
     0
 48
0.3
100
AcDbLine
 10
368.3276831286117
 20
108.375853970166
 30
0.0
 11
363.1246249022515
 21
108.375853970166
 31
0.0
  0
LINE
  5
11DB
330
1B
100
AcDbEntity
 67
     1
  8
Object
 62
     0
 48
0.3
100
AcDbLine
 10
368.3276831286117
 20
115.875853970166
 30
0.0
 11
363.1246249022515
 21
115.875853970166
 31
0.0
  0
LINE
  5
11DC
330
1B
100
AcDbEntity
 67
     1
  8
Object
 62
     0
 48
0.3
100
AcDbLine
 10
363.1246249022515
 20
112.125853970166
 30
0.0
 11
363.1246249022515
 21
108.125853970166
 31
0.0
  0
LINE
  5
11DD
330
1B
100
AcDbEntity
 67
     1
  8
Object
 62
     0
 48
0.3
100
AcDbLine
 10
368.7496249022515
 20
112.125853970166
 30
0.0
 11
368.7496249022515
 21
108.375853970166
 31
0.0
  0
LINE
  5
11DE
330
1B
100
AcDbEntity
 67
     1
  8
Object
 62
     0
 48
0.3
100
AcDbLine
 10
368.7496249022515
 20
117.6768785845711
 30
0.0
 11
368.7496249022515
 21
115.875853970166
 31
0.0
  0
LINE
  5
11DF
330
1B
100
AcDbEntity
 67
     1
  8
Object
 62
     0
 48
0.3
100
AcDbLine
 10
368.7496249022515
 20
115.875853970166
 30
0.0
 11
368.7496249022515
 21
112.125853970166
 31
0.0
  0
ARC
  5
11E0
330
1B
100
AcDbEntity
 67
     1
  8
Object
 62
     0
 48
0.3
100
AcDbCircle
 10
351.8746249022515
 20
112.125853970166
 30
0.0
 40
16.875
100
AcDbArc
 50
347.160411228867
 51
12.83958840690442
  0
LINE
  5
11E1
330
1B
100
AcDbEntity
 67
     1
  8
0
100
AcDbLine
 10
347.712249045029
 20
137.8925760514322
 30
0.0
 11
362.712249045029
 21
137.8925760514322
 31
0.0
  0
LINE
  5
11E2
330
1B
100
AcDbEntity
 67
     1
  8
0
100
AcDbLine
 10
348.319248134987
 20
137.1425760514322
 30
0.0
 11
362.712249045029
 21
137.1425760514322
 31
0.0
  0
LINE
  5
11E3
330
1B
100
AcDbEntity
 67
     1
  8
0
100
AcDbLine
 10
352.0272333799002
 20
137.8925760514322
 30
0.0
 11
347.712249045029
 21
137.8925760514322
 31
0.0
  0
LINE
  5
11E4
330
1B
100
AcDbEntity
 67
     1
  8
0
100
AcDbLine
 10
348.319248134987
 20
137.1425760514322
 30
0.0
 11
347.712249045029
 21
137.625853970166
 31
0.0
  0
LINE
  5
11E5
330
1B
100
AcDbEntity
 67
     1
  8
Object
 62
     0
 48
0.3
100
AcDbLine
 10
368.3276831286117
 20
119.625853970166
 30
0.0
 11
363.1246249022515
 21
119.625853970166
 31
0.0
  0
LINE
  5
11E6
330
1B
100
AcDbEntity
 67
     1
  8
0
 62
     0
100
AcDbLine
 10
362.962263620149
 20
132.109830026396
 30
0.0
 11
370.6411330823591
 21
132.109830026396
 31
0.0
  0
LINE
  5
11E7
330
1B
100
AcDbEntity
 67
     1
  8
0
 62
     0
100
AcDbLine
 10
370.650617466432
 20
137.141907807158
 30
0.0
 11
364.1070854086408
 21
137.141907807158
 31
0.0
  0
LINE
  5
11E8
330
1B
100
AcDbEntity
 67
     1
  8
0
 62
     0
100
AcDbLine
 10
362.712249045029
 20
142.1258539701659
 30
0.0
 11
362.712249045029
 21
139.6256869090973
 31
0.0
  0
LINE
  5
11E9
330
1B
100
AcDbEntity
 67
     1
  8
0
 62
     0
100
AcDbLine
 10
362.962263620149
 20
132.109830026396
 30
0.0
 11
362.712249045029
 21
132.3588144728693
 31
0.0
  0
LINE
  5
11EA
330
1B
100
AcDbEntity
 67
     1
  8
0
 62
     0
100
AcDbLine
 10
364.1070854086408
 20
137.141907807158
 30
0.0
 11
362.712249045029
 21
137.141907807158
 31
0.0
  0
LINE
  5
11EB
330
1B
100
AcDbEntity
 67
     1
  8
0
 62
     0
100
AcDbLine
 10
362.712249045029
 20
142.1258539701659
 30
0.0
 11
362.712249045029
 21
137.1255198480288
 31
0.0
  0
ARC
  5
11EC
330
1B
100
AcDbEntity
 67
     1
  8
0
 62
     0
100
AcDbCircle
 10
367.9355902050626
 20
134.6417407460895
 30
0.0
 40
3.690827598687089
100
AcDbArc
 50
317.3591881474082
 51
42.64081185258838
  0
DIMENSION
  5
11ED
330
1B
100
AcDbEntity
 67
     1
  8
0
100
AcDbDimension
  2
*D10
 10
339.1393874146645
 20
156.4467235351627
 30
0.0
 11
326.6393874146645
 21
158.5717235351627
 31
0.0
 70
    33
 71
     5
 42
25.0
  3
ISO-25
100
AcDbAlignedDimension
 13
314.1393874146645
 23
149.125853970166
 33
0.0
 14
339.1393874146645
 24
149.125853970166
 34
0.0
  0
LINE
  5
11EE
330
1B
100
AcDbEntity
 67
     1
  8
0
 62
     0
 48
2.0
100
AcDbLine
 10
339.1393874146645
 20
149.125853970166
 30
0.0
 11
321.1393874146645
 21
149.125853970166
 31
0.0
  0
LINE
  5
11EF
330
1B
100
AcDbEntity
 67
     1
  8
0
 62
     0
 48
0.2
100
AcDbLine
 10
314.1393874146645
 20
145.625853970166
 30
0.0
 11
321.1393874146645
 21
145.625853970166
 31
0.0
  0
LINE
  5
11F0
330
1B
100
AcDbEntity
 67
     1
  8
0
 62
     0
 48
0.2
100
AcDbLine
 10
321.1393874146645
 20
149.125853970166
 30
0.0
 11
314.1393874146645
 21
149.125853970166
 31
0.0
  0
LINE
  5
11F1
330
1B
100
AcDbEntity
 67
     1
  8
0
 62
     0
 48
0.2
100
AcDbLine
 10
314.1393874146645
 20
147.125853970166
 30
0.0
 11
314.1393874146645
 21
149.125853970166
 31
0.0
  0
LINE
  5
11F2
330
1B
100
AcDbEntity
 67
     1
  8
0
100
AcDbLine
 10
347.712249045029
 20
146.3925760514322
 30
0.0
 11
362.712249045029
 21
146.3925760514322
 31
0.0
  0
LINE
  5
11F3
330
1B
100
AcDbEntity
 67
     1
  8
0
100
AcDbLine
 10
362.712249045029
 20
147.1425760514322
 30
0.0
 11
348.319248134987
 21
147.1425760514322
 31
0.0
  0
LINE
  5
11F4
330
1B
100
AcDbEntity
 67
     1
  8
0
100
AcDbLine
 10
355.515748590008
 20
146.3925760514322
 30
0.0
 11
347.712249045029
 21
146.3925760514322
 31
0.0
  0
LINE
  5
11F5
330
1B
100
AcDbEntity
 67
     1
  8
0
100
AcDbLine
 10
347.712249045029
 20
146.625853970166
 30
0.0
 11
348.319248134987
 21
147.1425760514322
 31
0.0
  0
LINE
  5
11F6
330
1B
100
AcDbEntity
 67
     1
  8
0
 62
     0
100
AcDbLine
 10
370.6506174664325
 20
152.1429101735694
 30
0.0
 11
362.9622657511361
 21
152.1429101735694
 31
0.0
  0
LINE
  5
11F7
330
1B
100
AcDbEntity
 67
     1
  8
0
 62
     0
100
AcDbLine
 10
370.6506174664325
 20
152.1429101735694
 30
0.0
 11
364.1070854086408
 21
152.1429101735694
 31
0.0
  0
LINE
  5
11F8
330
1B
100
AcDbEntity
 67
     1
  8
0
 62
     0
100
AcDbLine
 10
370.6506174664325
 20
147.1425760514322
 30
0.0
 11
364.1070854086408
 21
147.1425760514322
 31
0.0
  0
LINE
  5
11F9
330
1B
100
AcDbEntity
 67
     1
  8
0
 62
     0
100
AcDbLine
 10
364.1070854086408
 20
147.1425760514322
 30
0.0
 11
362.712249045029
 21
147.1425760514322
 31
0.0
  0
LINE
  5
11FA
330
1B
100
AcDbEntity
 67
     1
  8
0
 62
     0
100
AcDbLine
 10
362.9622657511361
 20
152.1429101735694
 30
0.0
 11
362.712249045029
 21
151.8928934674625
 31
0.0
  0
ARC
  5
11FB
330
1B
100
AcDbEntity
 67
     1
  8
0
 62
     0
100
AcDbCircle
 10
368.04131730296
 20
149.6427431125007
 30
0.0
 40
3.613762952429115
100
AcDbArc
 50
316.2235944163359
 51
43.77640558366406
  0
CIRCLE
  5
130E
330
1B
100
AcDbEntity
 67
     1
  8
0
100
AcDbCircle
 10
41.16530600641453
 20
178.6844718556203
 30
0.0
 40
7.5
  0
ARC
  5
130F
330
1B
100
AcDbEntity
 67
     1
  8
0
100
AcDbCircle
 10
41.16530600641453
 20
178.6844718556203
 30
0.0
 40
12.49999999999999
100
AcDbArc
 50
11.53695903281494
 51
336.8001568170939
  0
LINE
  5
1310
330
1B
100
AcDbEntity
 67
     1
  8
0
 48
0.5
100
AcDbLine
 10
58.16530600641454
 20
186.1844718556203
 30
0.0
 11
58.16530600641454
 21
178.6844718556203
 31
0.0
  0
LINE
  5
131F
330
1B
100
AcDbEntity
 67
     1
  8
0
 48
0.5
100
AcDbLine
 10
58.16530600641454
 20
176.1844718556203
 30
0.0
 11
56.33105689451759
 21
176.1844718556203
 31
0.0
  0
LINE
  5
1320
330
1B
100
AcDbEntity
 67
     1
  8
0
 48
0.5
100
AcDbLine
 10
56.33105689451759
 20
181.1844718556203
 30
0.0
 11
58.16530600641454
 21
181.1844718556203
 31
0.0
  0
LINE
  5
1321
330
1B
100
AcDbEntity
 67
     1
  8
0
 48
0.5
100
AcDbLine
 10
58.16530600641454
 20
178.6844718556203
 30
0.0
 11
58.16530600641454
 21
176.1844718556203
 31
0.0
  0
LINE
  5
1322
330
1B
100
AcDbEntity
 67
     1
  8
0
100
AcDbLine
 10
56.24815040124963
 20
176.1844718556203
 30
0.0
 11
56.33105689451759
 21
176.1844718556203
 31
0.0
  0
ARC
  5
1323
330
1B
100
AcDbEntity
 67
     1
  8
0
100
AcDbCircle
 10
56.33105689451759
 20
172.1844718556203
 30
0.0
 40
4.0
100
AcDbArc
 50
90.0
 51
156.8001568170939
  0
LINE
  5
1324
330
1B
100
AcDbEntity
 67
     1
  8
0
100
AcDbLine
 10
53.41275472033044
 20
181.1844718556203
 30
0.0
 11
48.61411374230238
 21
179.5592651533638
 31
0.0
  0
LINE
  5
1325
330
1B
100
AcDbEntity
 67
     1
  8
0
100
AcDbLine
 10
56.33105689451759
 20
181.1844718556203
 30
0.0
 11
53.41275472033044
 21
181.1844718556203
 31
0.0
  0
LINE
  5
132C
330
1B
100
AcDbEntity
 67
     1
  8
0
 48
0.5
100
AcDbLine
 10
58.16530600641454
 20
171.1844718556203
 30
0.0
 11
58.16530600641454
 21
176.1844718556203
 31
0.0
  0
LINE
  5
133E
330
1B
100
AcDbEntity
 67
     1
  8
0
 48
0.5
100
AcDbLine
 10
58.16530600641454
 20
186.1844718556203
 30
0.0
 11
58.16530600641454
 21
184.6844718556203
 31
0.0
  0
ARC
  5
1343
330
1B
100
AcDbEntity
 67
     1
  8
0
100
AcDbCircle
 10
101.393030398263
 20
231.2844718556203
 30
0.0
 40
12.49999999999999
100
AcDbArc
 50
11.53695903281494
 51
336.8001568170939
  0
CIRCLE
  5
1344
330
1B
100
AcDbEntity
 67
     1
  8
0
100
AcDbCircle
 10
101.393030398263
 20
231.2844718556203
 30
0.0
 40
7.5
  0
LINE
  5
1345
330
1B
100
AcDbEntity
 67
     1
  8
0
 48
0.5
100
AcDbLine
 10
118.393030398263
 20
228.7844718556203
 30
0.0
 11
116.558781286366
 21
228.7844718556203
 31
0.0
  0
LINE
  5
1346
330
1B
100
AcDbEntity
 67
     1
  8
0
 48
0.5
100
AcDbLine
 10
116.558781286366
 20
233.7844718556203
 30
0.0
 11
118.393030398263
 21
233.7844718556203
 31
0.0
  0
LINE
  5
1347
330
1B
100
AcDbEntity
 67
     1
  8
0
100
AcDbLine
 10
116.4758747930981
 20
228.7844718556203
 30
0.0
 11
116.558781286366
 21
228.7844718556203
 31
0.0
  0
ARC
  5
1348
330
1B
100
AcDbEntity
 67
     1
  8
0
100
AcDbCircle
 10
116.558781286366
 20
224.7844718556203
 30
0.0
 40
4.0
100
AcDbArc
 50
90.0
 51
156.8001568170939
  0
LINE
  5
1349
330
1B
100
AcDbEntity
 67
     1
  8
0
100
AcDbLine
 10
113.6404791121789
 20
233.7844718556203
 30
0.0
 11
108.8418381341508
 21
232.1592651533638
 31
0.0
  0
LINE
  5
134A
330
1B
100
AcDbEntity
 67
     1
  8
0
100
AcDbLine
 10
116.558781286366
 20
233.7844718556203
 30
0.0
 11
113.6404791121789
 21
233.7844718556203
 31
0.0
  0
LINE
  5
134B
330
1B
100
AcDbEntity
 67
     1
  8
0
 48
0.5
100
AcDbLine
 10
118.393030398263
 20
231.2844718556203
 30
0.0
 11
118.393030398263
 21
228.7844718556203
 31
0.0
  0
LINE
  5
134C
330
1B
100
AcDbEntity
 67
     1
  8
0
 48
0.5
100
AcDbLine
 10
118.393030398263
 20
223.7844718556203
 30
0.0
 11
118.393030398263
 21
228.7844718556203
 31
0.0
  0
LINE
  5
134D
330
1B
100
AcDbEntity
 67
     1
  8
0
 48
0.5
100
AcDbLine
 10
118.393030398263
 20
238.7844718556203
 30
0.0
 11
118.393030398263
 21
237.2844718556203
 31
0.0
  0
LINE
  5
134E
330
1B
100
AcDbEntity
 67
     1
  8
0
 48
0.5
100
AcDbLine
 10
118.393030398263
 20
238.7844718556203
 30
0.0
 11
118.393030398263
 21
231.2844718556203
 31
0.0
  0
LEADER
  5
1355
330
1B
100
AcDbEntity
 67
     1
  8
0
100
AcDbLeader
  3
ISO-25
 73
     0
 75
     1
 40
3.0
 41
5.0
 76
     3
 10
89.67431465197869
 20
235.6343800452017
 30
0.0
 10
82.65591793671047
 20
242.0855301551782
 30
0.0
 10
80.65591793671046
 20
242.0855301551782
 30
0.0
340
1356
213
0.0
223
1.5
233
0.0
1001
ACAD
1000
DSTYLE
1002
{
1070
   147
1040
0.625
1070
    77
1070
     0
1002
}
  0
MTEXT
  5
1356
102
{ACAD_REACTORS
330
1355
102
}
330
1B
100
AcDbEntity
 67
     1
  8
0
100
AcDbMText
 10
80.03091793671046
 20
240.5855301551782
 30
0.0
 40
3.0
 41
22.13169999999999
 71
     9
 72
     1
  1
%%c5
 73
     1
 44
1.0
  0
DIMENSION
  5
1357
330
1B
100
AcDbEntity
 67
     1
  8
0
100
AcDbDimension
  2
*D11
 10
106.8314638316911
 20
236.4491056074144
 30
0.0
 11
87.20212016103621
 21
217.8080075618095
 31
0.0
 70
   163
 71
     5
 42
14.99999999999994
  3
ISO-25
100
AcDbDiametricDimension
 15
95.95459696483485
 25
226.1198381038262
 35
0.0
 40
0.0
1001
ACAD
1000
DSTYLE
1002
{
1070
   288
1070
     1
1002
}
  0
DIMENSION
  5
1369
330
1B
100
AcDbEntity
 67
     1
  8
0
100
AcDbDimension
  2
*D12
 10
163.1653060064145
 20
195.000911811171
 30
0.0
 11
110.6653060064145
 21
197.125911811171
 31
0.0
 70
    33
 71
     5
 42
105.0
  3
ISO-25
100
AcDbAlignedDimension
 13
58.16530600641454
 23
186.1844718556203
 33
0.0
 14
163.1653060064145
 24
186.1844718556203
 34
0.0
  0
ENDSEC
  0
SECTION
  2
OBJECTS
  0
DICTIONARY
  5
C
330
0
100
AcDbDictionary
281
     1
  3
ACAD_GROUP
350
D
  3
ACAD_IMAGE_VARS
350
2B
  3
ACAD_LAYOUT
350
1A
  3
ACAD_MLINESTYLE
350
17
  3
ACAD_PLOTSETTINGS
350
19
  3
ACAD_PLOTSTYLENAME
350
E
  3
AcadDim
350
314
  0
DICTIONARY
  5
D
102
{ACAD_REACTORS
330
C
102
}
330
C
100
AcDbDictionary
281
     1
  0
RASTERVARIABLES
  5
2B
102
{ACAD_REACTORS
330
C
102
}
330
C
100
AcDbRasterVariables
 90
        0
 70
     1
 71
     1
 72
     1
  0
DICTIONARY
  5
1A
102
{ACAD_REACTORS
330
C
102
}
330
C
100
AcDbDictionary
281
     1
  3
Model
350
22
  3
ﾚｲｱｳﾄ1
350
1E
  3
ﾚｲｱｳﾄ2
350
26
  0
DICTIONARY
  5
17
102
{ACAD_REACTORS
330
C
102
}
330
C
100
AcDbDictionary
281
     1
  3
Standard
350
18
  0
DICTIONARY
  5
19
102
{ACAD_REACTORS
330
C
102
}
330
C
100
AcDbDictionary
281
     1
  0
ACDBDICTIONARYWDFLT
  5
E
102
{ACAD_REACTORS
330
C
102
}
330
C
100
AcDbDictionary
281
     1
  3
Normal
350
F
100
AcDbDictionaryWithDefault
340
F
  0
XRECORD
  5
314
102
{ACAD_REACTORS
330
C
102
}
330
C
100
AcDbXrecord
280
     1
 90
   990106
  3

 60
     0
 61
     0
 62
     1
 63
     3
 64
     0
 65
     0
 66
     0
 67
     3
 68
     1
 69
     0
 70
     0
 71
     0
 72
     0
 40
22.13170009420243
170
     0
340
1356
  0
LAYOUT
  5
22
102
{ACAD_REACTORS
330
1A
102
}
330
1A
100
AcDbPlotSettings
  1

  2
RICOH imagio Neo C380 RPCS
  4

  6

 40
0.0
 41
0.0
 42
0.0
 43
0.0
 44
0.0
 45
0.0
 46
0.0
 47
0.0
 48
0.0
 49
0.0
140
0.0
141
0.0
142
1.0
143
1.0
 70
  1712
 72
     0
 73
     0
 74
     0
  7

 75
     0
147
1.0
148
0.0
149
0.0
100
AcDbLayout
  1
Model
 70
     1
 71
     0
 10
0.0
 20
0.0
 11
12.0
 21
9.0
 12
0.0
 22
0.0
 32
0.0
 14
0.0
 24
0.0
 34
0.0
 15
0.0
 25
0.0
 35
0.0
146
0.0
 13
0.0
 23
0.0
 33
0.0
 16
1.0
 26
0.0
 36
0.0
 17
0.0
 27
1.0
 37
0.0
 76
     0
330
1F
  0
LAYOUT
  5
1E
102
{ACAD_REACTORS
330
1A
102
}
330
1A
100
AcDbPlotSettings
  1

  2
RICOH imagio MP C3500 RPCS
  4
A3
  6

 40
5.873749732971191
 41
5.873747825622558
 42
5.873748779296875
 43
5.873748779296875
 44
296.9259948730469
 45
419.9466552734374
 46
0.0
 47
0.0
 48
0.0
 49
0.0
140
0.0
141
0.0
142
1.0
143
1.0
 70
   688
 72
     1
 73
     1
 74
     5
  7

 75
    16
147
1.0
148
0.0
149
0.0
100
AcDbLayout
  1
ﾚｲｱｳﾄ1
 70
     1
 71
     1
 10
-5.873748779296875
 20
-5.873749732971191
 11
414.0729064941406
 21
291.0522451400757
 12
0.0
 22
0.0
 32
0.0
 14
1.033944076393936
 24
1.071861777917433
 34
-0.0015258207003583
 15
407.7739639505677
 25
284.1972496344207
 35
0.0000000349246037
146
0.0
 13
0.0
 23
0.0
 33
0.0
 16
1.0
 26
0.0
 36
0.0
 17
0.0
 27
1.0
 37
0.0
 76
     0
330
1B
331
2F
  0
LAYOUT
  5
26
102
{ACAD_REACTORS
330
1A
102
}
330
1A
100
AcDbPlotSettings
  1

  2
RICOH imagio Neo C380 RPCS
  4

  6

 40
0.0
 41
0.0
 42
0.0
 43
0.0
 44
0.0
 45
0.0
 46
0.0
 47
0.0
 48
0.0
 49
0.0
140
0.0
141
0.0
142
1.0
143
1.0
 70
   688
 72
     0
 73
     1
 74
     5
  7

 75
    16
147
1.0
148
0.0
149
0.0
100
AcDbLayout
  1
ﾚｲｱｳﾄ2
 70
     1
 71
     2
 10
0.0
 20
0.0
 11
0.0
 21
0.0
 12
0.0
 22
0.0
 32
0.0
 14
0.0
 24
0.0
 34
0.0
 15
0.0
 25
0.0
 35
0.0
146
0.0
 13
0.0
 23
0.0
 33
0.0
 16
1.0
 26
0.0
 36
0.0
 17
0.0
 27
1.0
 37
0.0
 76
     0
330
23
331
49D
  0
MLINESTYLE
  5
18
102
{ACAD_REACTORS
330
17
102
}
330
17
100
AcDbMlineStyle
  2
STANDARD
 70
     0
  3

 62
   256
 51
90.0
 52
90.0
 71
     2
 49
0.5
 62
   256
  6
BYLAYER
 49
-0.5
 62
   256
  6
BYLAYER
  0
ACDBPLACEHOLDER
  5
F
102
{ACAD_REACTORS
330
E
102
}
330
E
  0
ENDSEC
  0
EOF
