  0
SECTION
  2
HEADER
  9
$ACADVER
  1
AC1015
  9
$ACADMAINTVER
 70
     6
  9
$DWGCODEPAGE
  3
ANSI_932
  9
$INSBASE
 10
0.0
 20
0.0
 30
0.0
  9
$EXTMIN
 10
1.000000000000000E+20
 20
1.000000000000000E+20
 30
1.000000000000000E+20
  9
$EXTMAX
 10
-1.000000000000000E+20
 20
-1.000000000000000E+20
 30
-1.000000000000000E+20
  9
$LIMMIN
 10
0.0
 20
0.0
  9
$LIMMAX
 10
420.0
 20
297.0
  9
$ORTHOMODE
 70
     0
  9
$REGENMODE
 70
     1
  9
$FILLMODE
 70
     1
  9
$QTEXTMODE
 70
     0
  9
$MIRRTEXT
 70
     1
  9
$LTSCALE
 40
1.0
  9
$ATTMODE
 70
     1
  9
$TEXTSIZE
 40
3.0
  9
$TRACEWID
 40
1.0
  9
$TEXTSTYLE
  7
Standard
  9
$CLAYER
  8
0
  9
$CELTYPE
  6
ByLayer
  9
$CECOLOR
 62
   256
  9
$CELTSCALE
 40
0.3
  9
$DISPSILH
 70
     0
  9
$DIMSCALE
 40
1.0
  9
$DIMASZ
 40
2.5
  9
$DIMEXO
 40
0.625
  9
$DIMDLI
 40
3.75
  9
$DIMRND
 40
0.0
  9
$DIMDLE
 40
0.0
  9
$DIMEXE
 40
1.25
  9
$DIMTP
 40
0.0
  9
$DIMTM
 40
0.0
  9
$DIMTXT
 40
2.5
  9
$DIMCEN
 40
2.5
  9
$DIMTSZ
 40
0.0
  9
$DIMTOL
 70
     0
  9
$DIMLIM
 70
     0
  9
$DIMTIH
 70
     0
  9
$DIMTOH
 70
     0
  9
$DIMSE1
 70
     0
  9
$DIMSE2
 70
     0
  9
$DIMTAD
 70
     1
  9
$DIMZIN
 70
     8
  9
$DIMBLK
  1

  9
$DIMASO
 70
     1
  9
$DIMSHO
 70
     1
  9
$DIMPOST
  1

  9
$DIMAPOST
  1

  9
$DIMALT
 70
     0
  9
$DIMALTD
 70
     3
  9
$DIMALTF
 40
0.03937007874016
  9
$DIMLFAC
 40
1.0
  9
$DIMTOFL
 70
     1
  9
$DIMTVP
 40
0.0
  9
$DIMTIX
 70
     0
  9
$DIMSOXD
 70
     0
  9
$DIMSAH
 70
     0
  9
$DIMBLK1
  1

  9
$DIMBLK2
  1

  9
$DIMSTYLE
  2
ISO-25
  9
$DIMCLRD
 70
     0
  9
$DIMCLRE
 70
     0
  9
$DIMCLRT
 70
     0
  9
$DIMTFAC
 40
1.0
  9
$DIMGAP
 40
0.625
  9
$DIMJUST
 70
     0
  9
$DIMSD1
 70
     0
  9
$DIMSD2
 70
     0
  9
$DIMTOLJ
 70
     0
  9
$DIMTZIN
 70
     8
  9
$DIMALTZ
 70
     0
  9
$DIMALTTZ
 70
     0
  9
$DIMUPT
 70
     0
  9
$DIMDEC
 70
     2
  9
$DIMTDEC
 70
     2
  9
$DIMALTU
 70
     2
  9
$DIMALTTD
 70
     3
  9
$DIMTXSTY
  7
Standard
  9
$DIMAUNIT
 70
     0
  9
$DIMADEC
 70
     0
  9
$DIMALTRND
 40
0.0
  9
$DIMAZIN
 70
     0
  9
$DIMDSEP
 70
    44
  9
$DIMATFIT
 70
     3
  9
$DIMFRAC
 70
     0
  9
$DIMLDRBLK
  1

  9
$DIMLUNIT
 70
     2
  9
$DIMLWD
 70
    -2
  9
$DIMLWE
 70
    -2
  9
$DIMTMOVE
 70
     0
  9
$LUNITS
 70
     2
  9
$LUPREC
 70
     4
  9
$SKETCHINC
 40
1.0
  9
$FILLETRAD
 40
10.0
  9
$AUNITS
 70
     0
  9
$AUPREC
 70
     0
  9
$MENU
  1
.
  9
$ELEVATION
 40
0.0
  9
$PELEVATION
 40
0.0
  9
$THICKNESS
 40
0.0
  9
$LIMCHECK
 70
     0
  9
$CHAMFERA
 40
0.5
  9
$CHAMFERB
 40
0.75
  9
$CHAMFERC
 40
20.0
  9
$CHAMFERD
 40
0.0
  9
$SKPOLY
 70
     0
  9
$TDCREATE
 40
2453895.692694328
  9
$TDUCREATE
 40
2453895.317694328
  9
$TDUPDATE
 40
2459109.397898576
  9
$TDUUPDATE
 40
2459109.022898576
  9
$TDINDWG
 40
0.1570389120
  9
$TDUSRTIMER
 40
0.1570376389
  9
$USRTIMER
 70
     1
  9
$ANGBASE
 50
0.0
  9
$ANGDIR
 70
     0
  9
$PDMODE
 70
     0
  9
$PDSIZE
 40
0.0
  9
$PLINEWID
 40
0.0
  9
$SPLFRAME
 70
     0
  9
$SPLINETYPE
 70
     6
  9
$SPLINESEGS
 70
     8
  9
$HANDSEED
  5
86A
  9
$SURFTAB1
 70
     6
  9
$SURFTAB2
 70
     6
  9
$SURFTYPE
 70
     6
  9
$SURFU
 70
     6
  9
$SURFV
 70
     6
  9
$UCSBASE
  2

  9
$UCSNAME
  2

  9
$UCSORG
 10
0.0
 20
0.0
 30
0.0
  9
$UCSXDIR
 10
1.0
 20
0.0
 30
0.0
  9
$UCSYDIR
 10
0.0
 20
1.0
 30
0.0
  9
$UCSORTHOREF
  2

  9
$UCSORTHOVIEW
 70
     0
  9
$UCSORGTOP
 10
0.0
 20
0.0
 30
0.0
  9
$UCSORGBOTTOM
 10
0.0
 20
0.0
 30
0.0
  9
$UCSORGLEFT
 10
0.0
 20
0.0
 30
0.0
  9
$UCSORGRIGHT
 10
0.0
 20
0.0
 30
0.0
  9
$UCSORGFRONT
 10
0.0
 20
0.0
 30
0.0
  9
$UCSORGBACK
 10
0.0
 20
0.0
 30
0.0
  9
$PUCSBASE
  2

  9
$PUCSNAME
  2

  9
$PUCSORG
 10
0.0
 20
0.0
 30
0.0
  9
$PUCSXDIR
 10
1.0
 20
0.0
 30
0.0
  9
$PUCSYDIR
 10
0.0
 20
1.0
 30
0.0
  9
$PUCSORTHOREF
  2

  9
$PUCSORTHOVIEW
 70
     0
  9
$PUCSORGTOP
 10
0.0
 20
0.0
 30
0.0
  9
$PUCSORGBOTTOM
 10
0.0
 20
0.0
 30
0.0
  9
$PUCSORGLEFT
 10
0.0
 20
0.0
 30
0.0
  9
$PUCSORGRIGHT
 10
0.0
 20
0.0
 30
0.0
  9
$PUCSORGFRONT
 10
0.0
 20
0.0
 30
0.0
  9
$PUCSORGBACK
 10
0.0
 20
0.0
 30
0.0
  9
$USERI1
 70
     0
  9
$USERI2
 70
     0
  9
$USERI3
 70
     0
  9
$USERI4
 70
     0
  9
$USERI5
 70
     0
  9
$USERR1
 40
0.0
  9
$USERR2
 40
0.0
  9
$USERR3
 40
0.0
  9
$USERR4
 40
0.0
  9
$USERR5
 40
0.0
  9
$WORLDVIEW
 70
     1
  9
$SHADEDGE
 70
     3
  9
$SHADEDIF
 70
    70
  9
$TILEMODE
 70
     0
  9
$MAXACTVP
 70
    64
  9
$PINSBASE
 10
0.0
 20
0.0
 30
0.0
  9
$PLIMCHECK
 70
     0
  9
$PEXTMIN
 10
36.81730080418879
 20
5.225241024418323
 30
0.0
  9
$PEXTMAX
 10
298.8173008041887
 20
195.2252410244183
 30
0.0
  9
$PLIMMIN
 10
19.31982785548422
 20
-4.773546072597362
  9
$PLIMMAX
 10
316.3198278554842
 20
205.2264539274026
  9
$UNITMODE
 70
     0
  9
$VISRETAIN
 70
     1
  9
$PLINEGEN
 70
     0
  9
$PSLTSCALE
 70
     1
  9
$TREEDEPTH
 70
  3020
  9
$CMLSTYLE
  2
Standard
  9
$CMLJUST
 70
     0
  9
$CMLSCALE
 40
20.0
  9
$PROXYGRAPHICS
 70
     1
  9
$MEASUREMENT
 70
     1
  9
$CELWEIGHT
370
    -1
  9
$ENDCAPS
280
     0
  9
$JOINSTYLE
280
     0
  9
$LWDISPLAY
290
     0
  9
$INSUNITS
 70
     4
  9
$HYPERLINKBASE
  1

  9
$STYLESHEET
  1

  9
$XEDIT
290
     1
  9
$CEPSNTYPE
380
     0
  9
$PSTYLEMODE
290
     0
  9
$FINGERPRINTGUID
  2
{048D73A1-A980-11D2-9A39-0060089B3A3F}
  9
$VERSIONGUID
  2
{5EB559EB-19D8-4044-BEBD-A866E1570483}
  9
$EXTNAMES
290
     1
  9
$PSVPSCALE
 40
0.0
  9
$OLESTARTUP
290
     0
  0
ENDSEC
  0
SECTION
  2
CLASSES
  0
CLASS
  1
ACDBDICTIONARYWDFLT
  2
AcDbDictionaryWithDefault
  3
AutoCAD 2000
 90
        0
280
     0
281
     0
  0
CLASS
  1
ACDBPLACEHOLDER
  2
AcDbPlaceHolder
  3
AutoCAD 2000
 90
        0
280
     0
281
     0
  0
CLASS
  1
LAYOUT
  2
AcDbLayout
  3
AutoCAD 2000
 90
        0
280
     0
281
     0
  0
CLASS
  1
PLOTSETTINGS
  2
AcDbPlotSettings
  3
AutoCAD 2000
 90
        0
280
     0
281
     0
  0
CLASS
  1
DICTIONARYVAR
  2
AcDbDictionaryVar
  3
AutoCAD 2000
 90
        0
280
     0
281
     0
  0
ENDSEC
  0
SECTION
  2
TABLES
  0
TABLE
  2
VPORT
  5
8
330
0
100
AcDbSymbolTable
 70
     1
  0
VPORT
  5
FF
330
8
100
AcDbSymbolTableRecord
100
AcDbViewportTableRecord
  2
*Active
 70
     0
 10
0.0
 20
0.0
 11
1.0
 21
1.0
 12
456.8348989517673
 22
245.6023170182188
 13
0.0
 23
0.0
 14
10.0
 24
10.0
 15
10.0
 25
10.0
 16
0.0
 26
0.0
 36
1.0
 17
0.0
 27
0.0
 37
0.0
 40
536.6907785088731
 41
1.709923664122137
 42
50.0
 43
0.0
 44
0.0
 50
0.0
 51
0.0
 71
     0
 72
   100
 73
     1
 74
     3
 75
     0
 76
     0
 77
     0
 78
     0
281
     0
 65
     1
110
0.0
120
0.0
130
0.0
111
1.0
121
0.0
131
0.0
112
0.0
122
1.0
132
0.0
 79
     0
146
0.0
  0
ENDTAB
  0
TABLE
  2
LTYPE
  5
5
330
0
100
AcDbSymbolTable
 70
     4
  0
LTYPE
  5
14
330
5
100
AcDbSymbolTableRecord
100
AcDbLinetypeTableRecord
  2
ByBlock
 70
     0
  3

 72
    65
 73
     0
 40
0.0
  0
LTYPE
  5
15
330
5
100
AcDbSymbolTableRecord
100
AcDbLinetypeTableRecord
  2
ByLayer
 70
     0
  3

 72
    65
 73
     0
 40
0.0
  0
LTYPE
  5
16
330
5
100
AcDbSymbolTableRecord
100
AcDbLinetypeTableRecord
  2
Continuous
 70
     0
  3
Solid line
 72
    65
 73
     0
 40
0.0
  0
LTYPE
  5
139
330
5
100
AcDbSymbolTableRecord
100
AcDbLinetypeTableRecord
  2
CENTER
 70
     0
  3
Center ____ _ ____ _ ____ _ ____ _ ____ _ ____
 72
    65
 73
     4
 40
50.8
 49
31.75
 74
     0
 49
-6.349999999999999
 74
     0
 49
6.349999999999999
 74
     0
 49
-6.349999999999999
 74
     0
  0
LTYPE
  5
13A
330
5
100
AcDbSymbolTableRecord
100
AcDbLinetypeTableRecord
  2
HIDDEN
 70
     0
  3
Hidden __ __ __ __ __ __ __ __ __ __ __ __ __ _
 72
    65
 73
     2
 40
9.524999999999998
 49
6.349999999999999
 74
     0
 49
-3.174999999999999
 74
     0
  0
LTYPE
  5
13B
330
5
100
AcDbSymbolTableRecord
100
AcDbLinetypeTableRecord
  2
PHANTOM
 70
     0
  3
Phantom ______  __  __  ______  __  __  ______
 72
    65
 73
     6
 40
63.5
 49
31.75
 74
     0
 49
-6.349999999999999
 74
     0
 49
6.349999999999999
 74
     0
 49
-6.349999999999999
 74
     0
 49
6.349999999999999
 74
     0
 49
-6.349999999999999
 74
     0
  0
ENDTAB
  0
TABLE
  2
LAYER
  5
2
330
0
100
AcDbSymbolTable
 70
     9
  0
LAYER
  5
10
330
2
100
AcDbSymbolTableRecord
100
AcDbLayerTableRecord
  2
0
 70
     0
 62
     2
  6
Continuous
370
     9
390
F
  0
LAYER
  5
42
330
2
100
AcDbSymbolTableRecord
100
AcDbLayerTableRecord
  2
Object
 70
     0
 62
     3
  6
Continuous
370
    18
390
F
  0
LAYER
  5
C3
330
2
100
AcDbSymbolTableRecord
100
AcDbLayerTableRecord
  2
Defined Points
 70
     0
 62
     2
  6
Continuous
290
     0
370
    13
390
F
  0
LAYER
  5
C9
330
2
100
AcDbSymbolTableRecord
100
AcDbLayerTableRecord
  2
Title Block
 70
     0
 62
     2
  6
Continuous
370
    13
390
F
  0
LAYER
  5
CA
330
2
100
AcDbSymbolTableRecord
100
AcDbLayerTableRecord
  2
Viewport
 70
     0
 62
     2
  6
Continuous
370
    13
390
F
  0
LAYER
  5
146
330
2
100
AcDbSymbolTableRecord
100
AcDbLayerTableRecord
  2
Center
 70
     0
 62
     6
  6
CENTER
370
    13
390
F
  0
LAYER
  5
147
330
2
100
AcDbSymbolTableRecord
100
AcDbLayerTableRecord
  2
Hidden
 70
     0
 62
     4
  6
HIDDEN
370
    13
390
F
  0
LAYER
  5
148
330
2
100
AcDbSymbolTableRecord
100
AcDbLayerTableRecord
  2
Phantom
 70
     0
 62
     4
  6
PHANTOM
370
    13
390
F
  0
LAYER
  5
16C
330
2
100
AcDbSymbolTableRecord
100
AcDbLayerTableRecord
  2
Defpoints
 70
     0
 62
     7
  6
Continuous
290
     0
370
    -3
390
F
  0
ENDTAB
  0
TABLE
  2
STYLE
  5
3
330
0
100
AcDbSymbolTable
 70
     3
  0
STYLE
  5
11
330
3
100
AcDbSymbolTableRecord
100
AcDbTextStyleTableRecord
  2
Standard
 70
     0
 40
0.0
 41
1.0
 50
0.0
 71
     0
 42
3.0
  3
txt.shx
  4
bigfont.shx
  0
STYLE
  5
3B
330
3
100
AcDbSymbolTableRecord
100
AcDbTextStyleTableRecord
  2
Roman
 70
     0
 40
0.0
 41
1.0
 50
0.0
 71
     0
 42
5.0
  3
romans
  4
bigfont
  0
STYLE
  5
138
330
3
100
AcDbSymbolTableRecord
100
AcDbTextStyleTableRecord
  2

 70
     1
 40
0.0
 41
1.0
 50
0.0
 71
     0
 42
2.5
  3
ltypeshp.shx
  4

  0
ENDTAB
  0
TABLE
  2
VIEW
  5
6
330
0
100
AcDbSymbolTable
 70
     0
  0
ENDTAB
  0
TABLE
  2
UCS
  5
7
330
0
100
AcDbSymbolTable
 70
     0
  0
ENDTAB
  0
TABLE
  2
APPID
  5
9
330
0
100
AcDbSymbolTable
 70
     1
  0
APPID
  5
12
330
9
100
AcDbSymbolTableRecord
100
AcDbRegAppTableRecord
  2
ACAD
 70
     0
  0
ENDTAB
  0
TABLE
  2
DIMSTYLE
  5
A
330
0
100
AcDbSymbolTable
 70
     3
100
AcDbDimStyleTable
 71
     2
340
27
340
C2
  0
DIMSTYLE
105
27
102
{ACAD_REACTORS
330
764
330
782
102
}
330
A
100
AcDbSymbolTableRecord
100
AcDbDimStyleTableRecord
  2
ISO-25
 70
     0
 41
2.5
 42
0.625
 43
3.75
 44
1.25
 73
     0
 74
     0
 77
     1
 78
     8
140
2.5
141
2.5
143
0.03937007874016
147
0.625
171
     3
172
     1
271
     2
272
     2
274
     3
278
    44
283
     0
284
     8
340
11
  0
DIMSTYLE
105
C2
330
A
100
AcDbSymbolTableRecord
100
AcDbDimStyleTableRecord
  2
JIS
 70
     0
 41
2.5
 42
1.0
 43
7.0
 44
1.0
 73
     0
 74
     0
 77
     1
 78
     8
140
2.5
141
0.0
143
0.0394
147
0.0
172
     1
174
     1
175
     1
340
11
  0
DIMSTYLE
105
59D
330
A
100
AcDbSymbolTableRecord
100
AcDbDimStyleTableRecord
  2
ｺﾋﾟｰ - ISO-25
 70
     0
 41
2.5
 42
0.625
 43
3.75
 44
1.25
 73
     0
 74
     0
 77
     1
 78
     8
140
2.5
141
2.5
143
0.03937007874016
147
0.625
171
     3
172
     1
271
     2
272
     2
274
     3
283
     0
284
     8
340
11
343
567
  0
ENDTAB
  0
TABLE
  2
BLOCK_RECORD
  5
1
330
0
100
AcDbSymbolTable
 70
     4
  0
BLOCK_RECORD
  5
1F
330
1
100
AcDbSymbolTableRecord
100
AcDbBlockTableRecord
  2
*Model_Space
340
22
  0
BLOCK_RECORD
  5
1B
330
1
100
AcDbSymbolTableRecord
100
AcDbBlockTableRecord
  2
*Paper_Space
340
1E
  0
BLOCK_RECORD
  5
31
330
1
100
AcDbSymbolTableRecord
100
AcDbBlockTableRecord
  2
JIS A4 title block (landscape)
340
0
310
2800000020000000200000000100080000000000000400000000000000000000000000000000000000000000000080000080000000808000800000008000800080800000C0C0C000C0DCC000F0CAA6000020400000206000002080000020A0000020C0000020E00000400000004020000040400000406000004080000040A0
310
000040C0000040E00000600000006020000060400000606000006080000060A0000060C0000060E00000800000008020000080400000806000008080000080A0000080C0000080E00000A0000000A0200000A0400000A0600000A0800000A0A00000A0C00000A0E00000C0000000C0200000C0400000C0600000C0800000C0
310
A00000C0C00000C0E00000E0000000E0200000E0400000E0600000E0800000E0A00000E0C00000E0E00040000000400020004000400040006000400080004000A0004000C0004000E00040200000402020004020400040206000402080004020A0004020C0004020E000404000004040200040404000404060004040800040
310
40A0004040C0004040E00040600000406020004060400040606000406080004060A0004060C0004060E00040800000408020004080400040806000408080004080A0004080C0004080E00040A0000040A0200040A0400040A0600040A0800040A0A00040A0C00040A0E00040C0000040C0200040C0400040C0600040C08000
310
40C0A00040C0C00040C0E00040E0000040E0200040E0400040E0600040E0800040E0A00040E0C00040E0E00080000000800020008000400080006000800080008000A0008000C0008000E00080200000802020008020400080206000802080008020A0008020C0008020E00080400000804020008040400080406000804080
310
008040A0008040C0008040E00080600000806020008060400080606000806080008060A0008060C0008060E00080800000808020008080400080806000808080008080A0008080C0008080E00080A0000080A0200080A0400080A0600080A0800080A0A00080A0C00080A0E00080C0000080C0200080C0400080C0600080C0
310
800080C0A00080C0C00080C0E00080E0000080E0200080E0400080E0600080E0800080E0A00080E0C00080E0E000C0000000C0002000C0004000C0006000C0008000C000A000C000C000C000E000C0200000C0202000C0204000C0206000C0208000C020A000C020C000C020E000C0400000C0402000C0404000C0406000C0
310
408000C040A000C040C000C040E000C0600000C0602000C0604000C0606000C0608000C060A000C060C000C060E000C0800000C0802000C0804000C0806000C0808000C080A000C080C000C080E000C0A00000C0A02000C0A04000C0A06000C0A08000C0A0A000C0A0C000C0A0E000C0C00000C0C02000C0C04000C0C06000
310
C0C08000C0C0A000F0FBFF00A4A0A000808080000000FF0000FF000000FFFF00FF000000FF00FF00FFFF0000FFFFFF00FFFFFFFFFFFFFFFFFFFFFFFFFFFFFFFFFFFFFFFFFFFFFFFFFFFFFFFFFFFFFFFFFFFFFFFFFFFFFFFFFFFFFFFFFFFFFFFFFFFFFFFFFFFFFFFFFFFFFFFFFFFFFFFFFFFFFFFFFFFFFFFFFFFFFFFFFFFFFF
310
FFFFFFFFFFFFFFFFFFFFFFFFFFFFFFFFFFFFFFFFFFFFFFFFFFFFFFFFFFFFFFFFFFFFFFFFFFFFFFFFFFFFFFFFFFFFFFFFFFFFFFFFFFFFFFFFFFFFFFFFFFFFFFFFFFFFFFFFFFFFFFFFFFFFFFFFFFFFFFFFFFFFFFFFFFFFFFFFFFFFFFFFFFFFFFFFFFFFFFFFFFFFFFFFFFFFFFFFFFFFFFFFFFFF00000000000000000000000000
310
0000FFFF00FFFFFFFFFF00FF0000FFFF00FFFFFFFFFF0000000000000000000000FFFFFFFFFFFFFFFFFFFFFFFFFFFFFFFFFFFFFFFFFF0000000000000000000000FFFFFFFFFFFFFFFFFFFFFFFFFFFFFFFFFFFFFFFF000000000000000000000000FFFFFFFFFFFFFFFFFFFFFFFFFFFF00FFFFFFFFFFFF00FFFFFFFFFFFFFFFF
310
FFFFFFFFFFFFFFFFFFFFFFFFFFFFFFFFFFFFFFFFFFFF0000FFFFFFFFFFFFFFFFFFFFFFFFFFFFFFFFFFFFFFFFFFFFFFFF00FFFFFFFFFFFF00FFFFFFFFFFFFFFFFFFFFFFFFFFFFFFFFFFFFFFFFFFFFFFFF00FFFFFFFFFF0000FFFFFFFFFFFFFFFFFFFFFFFFFFFFFFFFFFFFFFFFFFFFFFFF00FFFFFFFFFFFF00FFFFFFFFFFFFFF
310
FFFFFFFFFFFFFFFFFFFFFFFFFFFFFFFFFF00FFFFFFFFFFFF00FFFFFFFFFFFFFFFFFFFFFFFFFFFFFFFFFFFFFFFFFFFFFFFF00FFFFFF00000000FFFFFFFFFFFFFFFFFFFFFFFFFFFFFFFFFFFFFFFFFFFFFFFF0000FFFFFFFFFF00FFFFFFFFFFFFFFFFFFFFFFFFFFFFFFFFFFFFFFFFFFFFFFFF00FFFFFFFFFF0000FFFFFFFFFFFF
310
FFFFFFFFFFFFFFFFFFFFFFFFFFFFFFFFFFFF00FFFFFFFFFFFF00FFFFFFFFFFFFFFFFFFFFFFFFFFFFFFFFFFFFFFFFFFFFFFFF00FFFFFFFFFF0000FFFFFFFFFFFFFFFFFFFFFFFFFFFFFFFFFFFFFFFFFFFFFFFF00FFFFFFFFFFFF00FFFFFFFFFFFFFFFFFFFFFFFFFFFFFFFFFFFFFFFFFFFFFFFF00FFFFFFFFFF0000FFFFFFFFFF
310
FFFFFFFFFFFFFFFFFFFFFFFFFFFFFFFFFFFFFF00FFFFFFFFFFFF00FFFFFFFFFFFFFFFFFFFFFFFFFFFFFFFFFFFFFFFFFFFFFFFF00FFFFFFFFFFFF00FFFFFFFFFFFFFFFFFFFFFFFFFFFFFFFFFFFFFFFFFFFFFFFF00FFFFFF000000000000000000000000000000000000000000000000000000000000FFFFFFFFFFFFFFFFFFFF
310
FFFFFFFFFFFFFFFFFFFFFFFFFFFFFFFFFFFFFFFFFFFFFFFFFFFFFFFFFFFFFFFFFFFFFFFFFFFFFFFFFFFFFFFFFFFFFFFFFFFFFFFFFFFFFFFFFFFFFFFFFFFFFFFFFFFFFFFFFFFFFFFFFFFFFFFFFFFFFFFFFFFFFFFFFFFFFFFFFFFFFFFFFFFFFFFFFFFFFFFFFFFFFFFFFFFFFFFFFFFFFFFFFFFFFFFFFFFFFFFFFFFFFFFFFFFFFF
310
FFFFFFFFFFFFFFFFFFFFFFFFFFFFFFFFFFFFFFFFFFFFFFFFFFFFFFFFFFFFFFFFFFFFFFFFFFFFFFFFFFFFFFFFFFFFFFFFFFFFFFFFFFFFFFFF
1001
ACAD
1000
DesignCenter Data
1002
{
1070
     1
1070
     4
1002
}
  0
BLOCK_RECORD
  5
567
330
1
100
AcDbSymbolTableRecord
100
AcDbBlockTableRecord
  2
_Dot
340
0
  0
BLOCK_RECORD
  5
789
330
1
100
AcDbSymbolTableRecord
100
AcDbBlockTableRecord
  2
*D2
340
0
  0
BLOCK_RECORD
  5
794
330
1
100
AcDbSymbolTableRecord
100
AcDbBlockTableRecord
  2
*D3
340
0
  0
ENDTAB
  0
ENDSEC
  0
SECTION
  2
BLOCKS
  0
BLOCK
  5
20
330
1F
100
AcDbEntity
  8
0
100
AcDbBlockBegin
  2
*Model_Space
 70
     0
 10
0.0
 20
0.0
 30
0.0
  3
*Model_Space
  1

  0
ENDBLK
  5
21
330
1F
100
AcDbEntity
  8
0
100
AcDbBlockEnd
  0
BLOCK
  5
1C
330
1B
100
AcDbEntity
 67
     1
  8
0
100
AcDbBlockBegin
  2
*Paper_Space
 70
     0
 10
0.0
 20
0.0
 30
0.0
  3
*Paper_Space
  1

  0
ENDBLK
  5
1D
330
1B
100
AcDbEntity
 67
     1
  8
0
100
AcDbBlockEnd
  0
BLOCK
  5
B0
330
31
100
AcDbEntity
  8
0
100
AcDbBlockBegin
  2
JIS A4 title block (landscape)
 70
     2
 10
0.0
 20
0.0
 30
0.0
  3
JIS A4 title block (landscape)
  1

  4
JIS A4 title block and attributes (landscape)
  0
LINE
  5
32
330
31
100
AcDbEntity
  8
0
100
AcDbLine
 10
287.0
 20
10.0
 30
0.0
 11
25.0
 21
10.0
 31
0.0
  0
LINE
  5
33
330
31
100
AcDbEntity
  8
0
100
AcDbLine
 10
25.0
 20
200.0
 30
0.0
 11
287.0
 21
200.0
 31
0.0
  0
LINE
  5
34
330
31
100
AcDbEntity
  8
0
 62
     0
100
AcDbLine
 10
157.2978723404242
 20
49.00000000000036
 30
0.0
 11
287.0
 21
49.00000000000036
 31
0.0
  0
LINE
  5
35
330
31
100
AcDbEntity
  8
0
 62
     0
100
AcDbLine
 10
157.2978723404242
 20
13.00000000000004
 30
0.0
 11
287.0
 21
13.00000000000004
 31
0.0
  0
LINE
  5
36
330
31
100
AcDbEntity
  8
0
 62
     0
100
AcDbLine
 10
157.2978723404242
 20
37.00000000000024
 30
0.0
 11
287.0
 21
37.00000000000024
 31
0.0
  0
LINE
  5
37
330
31
100
AcDbEntity
  8
0
 62
     0
100
AcDbLine
 10
195.1276595744673
 20
22.00000000000012
 30
0.0
 11
287.0
 21
22.00000000000012
 31
0.0
  0
LINE
  5
38
330
31
100
AcDbEntity
  8
0
 62
     0
100
AcDbLine
 10
157.2978723404242
 20
10.0
 30
0.0
 11
287.0
 21
10.0
 31
0.0
  0
LINE
  5
39
330
31
100
AcDbEntity
  8
0
 62
     0
100
AcDbLine
 10
287.0
 20
49.00000000000036
 30
0.0
 11
157.2978723404242
 21
49.00000000000036
 31
0.0
  0
TEXT
  5
3A
330
31
100
AcDbEntity
  8
0
 62
     0
100
AcDbText
 10
209.2960689314087
 20
10.48329012996929
 30
0.0
 40
1.791674070777747
  1
設計
  7
Roman
 72
     1
 11
211.2071879402383
 21
10.48329012996929
 31
0.0
100
AcDbText
  0
LINE
  5
3C
330
31
100
AcDbEntity
  8
0
 62
     0
100
AcDbLine
 10
157.2978723404242
 20
34.00000000000024
 30
0.0
 11
225.7517730496447
 21
34.00000000000024
 31
0.0
  0
LINE
  5
3D
330
31
100
AcDbEntity
  8
0
 62
     0
100
AcDbLine
 10
157.2978723404242
 20
31.0000000000002
 30
0.0
 11
225.7517730496447
 21
31.0000000000002
 31
0.0
  0
LINE
  5
3E
330
31
100
AcDbEntity
  8
0
 62
     0
100
AcDbLine
 10
157.2978723404242
 20
28.00000000000015
 30
0.0
 11
225.7517730496447
 21
28.00000000000015
 31
0.0
  0
LINE
  5
3F
330
31
100
AcDbEntity
  8
0
 62
     0
100
AcDbLine
 10
195.1276595744673
 20
25.00000000000012
 30
0.0
 11
225.7517730496447
 21
25.00000000000012
 31
0.0
  0
LINE
  5
40
330
31
100
AcDbEntity
  8
0
100
AcDbLine
 10
25.0
 20
10.0
 30
0.0
 11
25.0
 21
200.0
 31
0.0
  0
LINE
  5
41
330
31
100
AcDbEntity
  8
Object
100
AcDbLine
 10
130.0
 20
16.0
 30
0.0
 11
25.0
 21
16.0
 31
0.0
  0
LINE
  5
43
330
31
100
AcDbEntity
  8
Object
100
AcDbLine
 10
130.0
 20
22.0
 30
0.0
 11
25.0
 21
22.0
 31
0.0
  0
LINE
  5
44
330
31
100
AcDbEntity
  8
Object
100
AcDbLine
 10
130.0
 20
28.0
 30
0.0
 11
25.0
 21
28.0
 31
0.0
  0
LINE
  5
45
330
31
100
AcDbEntity
  8
Object
100
AcDbLine
 10
130.0
 20
34.0
 30
0.0
 11
25.0
 21
34.0
 31
0.0
  0
LINE
  5
46
330
31
100
AcDbEntity
  8
Object
100
AcDbLine
 10
130.0
 20
40.0
 30
0.0
 11
25.0
 21
40.0
 31
0.0
  0
TEXT
  5
47
330
31
100
AcDbEntity
  8
0
100
AcDbText
 10
1.0
 20
1.0
 30
0.0
 40
3.0
  1
この図枠はサンプルです。社内の規格やプロッタの出力範囲に合わせて適当に変更してご利用ください。
  7
Roman
100
AcDbText
  0
LINE
  5
48
330
31
100
AcDbEntity
  8
0
100
AcDbLine
 10
25.0
 20
0.0
 30
0.0
 11
0.0
 21
0.0
 31
0.0
  0
LINE
  5
49
330
31
100
AcDbEntity
  8
0
100
AcDbLine
 10
0.0
 20
0.0
 30
0.0
 11
0.0
 21
10.0
 31
0.0
  0
LINE
  5
4A
330
31
100
AcDbEntity
  8
0
100
AcDbLine
 10
68.66666666666668
 20
10.0
 30
0.0
 11
68.66666666666668
 21
5.0
 31
0.0
  0
TEXT
  5
4B
330
31
100
AcDbEntity
  8
0
100
AcDbText
 10
45.61904761904759
 20
6.230338100985607
 30
0.0
 40
3.0
  1
1
  7
Roman
 72
     1
 11
46.83333333333331
 21
6.230338100985607
 31
0.0
100
AcDbText
  0
LINE
  5
4C
330
31
100
AcDbEntity
  8
Object
100
AcDbLine
 10
35.0
 20
10.0
 30
0.0
 11
35.0
 21
40.0
 31
0.0
  0
LINE
  5
4D
330
31
100
AcDbEntity
  8
Object
100
AcDbLine
 10
32.0
 20
29.53589799999999
 30
0.0
 11
30.0
 21
33.0
 31
0.0
  0
LINE
  5
4E
330
31
100
AcDbEntity
  8
Object
100
AcDbLine
 10
28.0
 20
29.53589799999999
 30
0.0
 11
30.0
 21
33.0
 31
0.0
  0
LINE
  5
4F
330
31
100
AcDbEntity
  8
Object
100
AcDbLine
 10
28.0
 20
11.53589799999999
 30
0.0
 11
30.0
 21
15.0
 31
0.0
  0
LINE
  5
50
330
31
100
AcDbEntity
  8
Object
100
AcDbLine
 10
28.0
 20
11.53589799999999
 30
0.0
 11
32.0
 21
11.53589799999999
 31
0.0
  0
LINE
  5
51
330
31
100
AcDbEntity
  8
Object
100
AcDbLine
 10
28.0
 20
17.535898
 30
0.0
 11
32.0
 21
17.535898
 31
0.0
  0
LINE
  5
52
330
31
100
AcDbEntity
  8
Object
100
AcDbLine
 10
28.0
 20
17.535898
 30
0.0
 11
30.0
 21
20.99999999999999
 31
0.0
  0
LINE
  5
53
330
31
100
AcDbEntity
  8
Object
100
AcDbLine
 10
28.0
 20
23.53589799999999
 30
0.0
 11
32.0
 21
23.53589799999999
 31
0.0
  0
LINE
  5
54
330
31
100
AcDbEntity
  8
Object
100
AcDbLine
 10
28.0
 20
23.53589799999999
 30
0.0
 11
30.0
 21
26.99999999999999
 31
0.0
  0
LINE
  5
55
330
31
100
AcDbEntity
  8
Object
100
AcDbLine
 10
28.0
 20
29.53589799999999
 30
0.0
 11
32.0
 21
29.53589799999999
 31
0.0
  0
ATTDEF
  5
56
330
31
100
AcDbEntity
  8
0
 62
     0
100
AcDbText
 10
19.0
 20
10.0
 30
0.0
 40
3.0
  1

 50
90.0
  7
Roman
100
AcDbAttributeDefinition
  3
Author:
  2
USER
 70
     8
  0
LINE
  5
57
330
31
100
AcDbEntity
  8
Object
100
AcDbLine
 10
32.0
 20
17.535898
 30
0.0
 11
30.0
 21
20.99999999999999
 31
0.0
  0
LINE
  5
58
330
31
100
AcDbEntity
  8
Object
100
AcDbLine
 10
32.0
 20
11.53589799999999
 30
0.0
 11
30.0
 21
15.0
 31
0.0
  0
LINE
  5
59
330
31
100
AcDbEntity
  8
Object
100
AcDbLine
 10
39.5
 20
13.0
 30
0.0
 11
40.49999999999999
 21
13.0
 31
0.0
  0
LINE
  5
5A
330
31
100
AcDbEntity
  8
Object
100
AcDbLine
 10
44.5
 20
13.0
 30
0.0
 11
45.49999999999999
 21
13.0
 31
0.0
  0
LINE
  5
5B
330
31
100
AcDbEntity
  8
Object
100
AcDbLine
 10
39.5
 20
19.0
 30
0.0
 11
40.49999999999999
 21
19.0
 31
0.0
  0
LINE
  5
5C
330
31
100
AcDbEntity
  8
Object
100
AcDbLine
 10
44.5
 20
19.0
 30
0.0
 11
45.49999999999999
 21
19.0
 31
0.0
  0
LINE
  5
5D
330
31
100
AcDbEntity
  8
Object
100
AcDbLine
 10
32.0
 20
23.53589799999999
 30
0.0
 11
30.0
 21
26.99999999999999
 31
0.0
  0
LINE
  5
5E
330
31
100
AcDbEntity
  8
Object
100
AcDbLine
 10
39.5
 20
25.0
 30
0.0
 11
40.49999999999999
 21
25.0
 31
0.0
  0
LINE
  5
5F
330
31
100
AcDbEntity
  8
Object
100
AcDbLine
 10
44.5
 20
25.0
 30
0.0
 11
45.49999999999999
 21
25.0
 31
0.0
  0
LINE
  5
60
330
31
100
AcDbEntity
  8
Object
100
AcDbLine
 10
39.5
 20
31.0
 30
0.0
 11
40.49999999999999
 21
31.0
 31
0.0
  0
LINE
  5
61
330
31
100
AcDbEntity
  8
Object
100
AcDbLine
 10
44.5
 20
31.0
 30
0.0
 11
45.49999999999999
 21
31.0
 31
0.0
  0
LINE
  5
62
330
31
100
AcDbEntity
  8
Object
100
AcDbLine
 10
28.0
 20
35.53589799999999
 30
0.0
 11
30.0
 21
39.0
 31
0.0
  0
LINE
  5
63
330
31
100
AcDbEntity
  8
Object
100
AcDbLine
 10
28.0
 20
35.53589799999999
 30
0.0
 11
32.0
 21
35.53589799999999
 31
0.0
  0
TEXT
  5
64
330
31
100
AcDbEntity
  8
0
100
AcDbText
 10
21.37568307432492
 20
33.75
 30
0.0
 40
3.0
  1
D
  7
Roman
 72
     1
 11
22.94711164575349
 21
33.75
 31
0.0
100
AcDbText
  0
LINE
  5
65
330
31
100
AcDbEntity
  8
Object
100
AcDbLine
 10
32.0
 20
35.53589799999999
 30
0.0
 11
30.0
 21
39.0
 31
0.0
  0
LINE
  5
66
330
31
100
AcDbEntity
  8
Object
100
AcDbLine
 10
39.5
 20
37.0
 30
0.0
 11
40.49999999999999
 21
37.0
 31
0.0
  0
LINE
  5
67
330
31
100
AcDbEntity
  8
Object
100
AcDbLine
 10
44.5
 20
37.0
 30
0.0
 11
45.49999999999999
 21
37.0
 31
0.0
  0
LINE
  5
68
330
31
100
AcDbEntity
  8
Object
100
AcDbLine
 10
50.0
 20
10.0
 30
0.0
 11
50.0
 21
40.0
 31
0.0
  0
LINE
  5
69
330
31
100
AcDbEntity
  8
0
100
AcDbLine
 10
25.0
 20
105.0
 30
0.0
 11
0.0
 21
105.0
 31
0.0
  0
ATTDEF
  5
6A
330
31
100
AcDbEntity
  8
0
 62
     0
100
AcDbText
 10
19.0
 20
70.0
 30
0.0
 40
3.0
  1

 50
90.0
  7
Roman
100
AcDbAttributeDefinition
  3
Revision date:
  2
REVDATE
 70
     8
  0
LINE
  5
6B
330
31
100
AcDbEntity
  8
0
100
AcDbLine
 10
25.0
 20
57.5
 30
0.0
 11
20.0
 21
57.5
 31
0.0
  0
TEXT
  5
6C
330
31
100
AcDbEntity
  8
0
100
AcDbText
 10
21.44711164575349
 20
81.25
 30
0.0
 40
3.0
  1
C
  7
Roman
 72
     1
 11
22.94711164575349
 21
81.25
 31
0.0
100
AcDbText
  0
ATTDEF
  5
6D
330
31
100
AcDbEntity
  8
0
 62
     0
100
AcDbText
 10
19.0
 20
118.0
 30
0.0
 40
3.0
  1

 50
90.0
  7
Roman
100
AcDbAttributeDefinition
  3
File name:
  2
FNAME
 70
     8
  0
LINE
  5
6E
330
31
100
AcDbEntity
  8
0
100
AcDbLine
 10
25.0
 20
105.0
 30
0.0
 11
20.0
 21
105.0
 31
0.0
  0
TEXT
  5
6F
330
31
100
AcDbEntity
  8
0
100
AcDbText
 10
21.37568307432492
 20
128.75
 30
0.0
 40
3.0
  1
B
  7
Roman
 72
     1
 11
22.94711164575349
 21
128.75
 31
0.0
100
AcDbText
  0
LINE
  5
70
330
31
100
AcDbEntity
  8
0
100
AcDbLine
 10
112.3333333333333
 20
10.0
 30
0.0
 11
112.3333333333333
 21
5.0
 31
0.0
  0
TEXT
  5
71
330
31
100
AcDbEntity
  8
0
100
AcDbText
 10
89.07142857142856
 20
6.230338100985607
 30
0.0
 40
3.0
  1
2
  7
Roman
 72
     1
 11
90.5
 21
6.230338100985607
 31
0.0
100
AcDbText
  0
TEXT
  5
72
330
31
100
AcDbEntity
  8
0
100
AcDbText
 10
132.7380952380952
 20
6.230338100985607
 30
0.0
 40
3.0
  1
3
  7
Roman
 72
     1
 11
134.1666666666666
 21
6.230338100985607
 31
0.0
100
AcDbText
  0
LINE
  5
73
330
31
100
AcDbEntity
  8
Object
100
AcDbLine
 10
80.0
 20
10.0
 30
0.0
 11
80.0
 21
40.0
 31
0.0
  0
LINE
  5
74
330
31
100
AcDbEntity
  8
Object
100
AcDbLine
 10
120.0
 20
10.0
 30
0.0
 11
120.0
 21
40.0
 31
0.0
  0
LINE
  5
75
330
31
100
AcDbEntity
  8
Object
100
AcDbLine
 10
130.0
 20
40.0
 30
0.0
 11
130.0
 21
10.0
 31
0.0
  0
LINE
  5
76
330
31
100
AcDbEntity
  8
0
100
AcDbLine
 10
156.0
 20
10.0
 30
0.0
 11
156.0
 21
0.0
 31
0.0
  0
LINE
  5
77
330
31
100
AcDbEntity
  8
0
100
AcDbLine
 10
156.0
 20
10.0
 30
0.0
 11
156.0
 21
5.0
 31
0.0
  0
LINE
  5
78
330
31
100
AcDbEntity
  8
0
100
AcDbLine
 10
199.6666666666666
 20
10.0
 30
0.0
 11
199.6666666666666
 21
5.0
 31
0.0
  0
TEXT
  5
79
330
31
100
AcDbEntity
  8
0
100
AcDbText
 10
176.3333333333333
 20
6.230338100985607
 30
0.0
 40
3.0
  1
4
  7
Roman
 72
     1
 11
177.8333333333333
 21
6.230338100985607
 31
0.0
100
AcDbText
  0
LINE
  5
7A
330
31
100
AcDbEntity
  8
0
 62
     0
100
AcDbLine
 10
157.2978723404242
 20
16.00000000000008
 30
0.0
 11
195.1276595744673
 21
16.00000000000008
 31
0.0
  0
LINE
  5
7B
330
31
100
AcDbEntity
  8
0
 62
     0
100
AcDbLine
 10
157.2978723404242
 20
25.00000000000012
 30
0.0
 11
195.1276595744673
 21
25.00000000000012
 31
0.0
  0
LINE
  5
7C
330
31
100
AcDbEntity
  8
0
 62
     0
100
AcDbLine
 10
157.2978723404242
 20
22.00000000000007
 30
0.0
 11
195.1276595744673
 21
22.00000000000012
 31
0.0
  0
LINE
  5
7D
330
31
100
AcDbEntity
  8
0
 62
     0
100
AcDbLine
 10
157.2978723404242
 20
19.00000000000007
 30
0.0
 11
195.1276595744673
 21
19.00000000000012
 31
0.0
  0
LINE
  5
7E
330
31
100
AcDbEntity
  8
0
 62
     0
100
AcDbLine
 10
162.702127659573
 20
37.00000000000024
 30
0.0
 11
162.702127659573
 21
10.0
 31
0.0
  0
LINE
  5
7F
330
31
100
AcDbEntity
  8
0
 62
     0
100
AcDbLine
 10
157.2978723404242
 20
49.00000000000036
 30
0.0
 11
157.2978723404242
 21
10.0
 31
0.0
  0
LINE
  5
80
330
31
100
AcDbEntity
  8
0
 62
     0
100
AcDbLine
 10
157.2978723404242
 20
10.0
 30
0.0
 11
157.2978723404242
 21
13.00000000000004
 31
0.0
  0
LINE
  5
81
330
31
100
AcDbEntity
  8
0
 62
     0
100
AcDbLine
 10
180.7163120567365
 20
37.00000000000024
 30
0.0
 11
180.7163120567365
 21
10.0
 31
0.0
  0
LINE
  5
82
330
31
100
AcDbEntity
  8
0
 62
     0
100
AcDbLine
 10
189.7234042553184
 20
37.00000000000024
 30
0.0
 11
189.7234042553184
 21
10.0
 31
0.0
  0
LINE
  5
83
330
31
100
AcDbEntity
  8
0
 62
     0
100
AcDbLine
 10
195.1276595744673
 20
49.00000000000036
 30
0.0
 11
195.1276595744673
 21
25.00000000000012
 31
0.0
  0
LINE
  5
84
330
31
100
AcDbEntity
  8
0
 62
     0
100
AcDbLine
 10
202.3333333333325
 20
37.00000000000024
 30
0.0
 11
202.3333333333325
 21
25.00000000000012
 31
0.0
  0
LINE
  5
85
330
31
100
AcDbEntity
  8
0
 62
     0
100
AcDbLine
 10
195.1276595744673
 20
25.00000000000012
 30
0.0
 11
195.1276595744673
 21
10.0
 31
0.0
  0
LINE
  5
86
330
31
100
AcDbEntity
  8
0
 62
     0
100
AcDbLine
 10
205.7659574468077
 20
22.00000000000007
 30
0.0
 11
205.7659574468077
 21
10.0
 31
0.0
  0
TEXT
  5
87
330
31
100
AcDbEntity
  8
0
 62
     0
100
AcDbText
 10
198.7174935280942
 20
10.48329012996929
 30
0.0
 40
1.791674070777747
  1
製図
  7
Roman
 72
     1
 11
200.5688900678978
 21
10.48329012996929
 31
0.0
100
AcDbText
  0
LINE
  5
88
330
31
100
AcDbEntity
  8
0
100
AcDbLine
 10
0.0
 20
210.0
 30
0.0
 11
25.0
 21
210.0
 31
0.0
  0
LINE
  5
89
330
31
100
AcDbEntity
  8
0
100
AcDbLine
 10
0.0
 20
200.0
 30
0.0
 11
0.0
 21
210.0
 31
0.0
  0
LINE
  5
8A
330
31
100
AcDbEntity
  8
0
100
AcDbLine
 10
25.0
 20
152.5
 30
0.0
 11
20.0
 21
152.5
 31
0.0
  0
TEXT
  5
8B
330
31
100
AcDbEntity
  8
0
100
AcDbText
 10
21.66139736003921
 20
176.25
 30
0.0
 40
3.0
  1
A
  7
Roman
 72
     1
 11
22.94711164575349
 21
176.25
 31
0.0
100
AcDbText
  0
TEXT
  5
8C
330
31
100
AcDbEntity
  8
0
100
AcDbText
 10
45.61904761904761
 20
201.0
 30
0.0
 40
3.0
  1
1
  7
Roman
 72
     1
 11
46.83333333333332
 21
201.0
 31
0.0
100
AcDbText
  0
LINE
  5
8D
330
31
100
AcDbEntity
  8
0
100
AcDbLine
 10
68.66666666666666
 20
200.0
 30
0.0
 11
68.66666666666666
 21
205.0
 31
0.0
  0
TEXT
  5
8E
330
31
100
AcDbEntity
  8
0
100
AcDbText
 10
89.07142857142856
 20
201.0
 30
0.0
 40
3.0
  1
2
  7
Roman
 72
     1
 11
90.5
 21
201.0
 31
0.0
100
AcDbText
  0
LINE
  5
8F
330
31
100
AcDbEntity
  8
0
100
AcDbLine
 10
112.3333333333333
 20
200.0
 30
0.0
 11
112.3333333333333
 21
205.0
 31
0.0
  0
TEXT
  5
90
330
31
100
AcDbEntity
  8
0
100
AcDbText
 10
132.7380952380952
 20
201.0
 30
0.0
 40
3.0
  1
3
  7
Roman
 72
     1
 11
134.1666666666666
 21
201.0
 31
0.0
100
AcDbText
  0
TEXT
  5
91
330
31
100
AcDbEntity
  8
0
100
AcDbText
 10
176.3333333333333
 20
201.0
 30
0.0
 40
3.0
  1
4
  7
Roman
 72
     1
 11
177.8333333333333
 21
201.0
 31
0.0
100
AcDbText
  0
LINE
  5
92
330
31
100
AcDbEntity
  8
0
100
AcDbLine
 10
156.0
 20
200.0
 30
0.0
 11
156.0
 21
210.0
 31
0.0
  0
LINE
  5
93
330
31
100
AcDbEntity
  8
0
100
AcDbLine
 10
156.0
 20
200.0
 30
0.0
 11
156.0
 21
205.0
 31
0.0
  0
LINE
  5
94
330
31
100
AcDbEntity
  8
0
100
AcDbLine
 10
199.6666666666666
 20
200.0
 30
0.0
 11
199.6666666666666
 21
205.0
 31
0.0
  0
LINE
  5
95
330
31
100
AcDbEntity
  8
0
100
AcDbLine
 10
287.0
 20
200.0
 30
0.0
 11
287.0
 21
10.0
 31
0.0
  0
LINE
  5
96
330
31
100
AcDbEntity
  8
0
100
AcDbLine
 10
243.3333333333333
 20
10.0
 30
0.0
 11
243.3333333333333
 21
5.0
 31
0.0
  0
TEXT
  5
97
330
31
100
AcDbEntity
  8
0
100
AcDbText
 10
220.0714285714286
 20
6.230338100985607
 30
0.0
 40
3.0
  1
5
  7
Roman
 72
     1
 11
221.4999999999999
 21
6.230338100985607
 31
0.0
100
AcDbText
  0
TEXT
  5
98
330
31
100
AcDbEntity
  8
0
100
AcDbText
 10
263.6666666666666
 20
6.230338100985607
 30
0.0
 40
3.0
  1
6
  7
Roman
 72
     1
 11
265.1666666666666
 21
6.230338100985607
 31
0.0
100
AcDbText
  0
LINE
  5
99
330
31
100
AcDbEntity
  8
0
 62
     0
100
AcDbLine
 10
225.7517730496447
 20
49.00000000000036
 30
0.0
 11
225.7517730496447
 21
10.0
 31
0.0
  0
LINE
  5
9A
330
31
100
AcDbEntity
  8
0
 62
     0
100
AcDbLine
 10
213.1418439716305
 20
49.00000000000036
 30
0.0
 11
213.1418439716305
 21
22.00000000000012
 31
0.0
  0
LINE
  5
9B
330
31
100
AcDbEntity
  8
0
 62
     0
100
AcDbLine
 10
216.4042553191484
 20
22.00000000000007
 30
0.0
 11
216.4042553191484
 21
10.0
 31
0.0
  0
TEXT
  5
9C
330
31
100
AcDbEntity
  8
0
 62
     0
100
AcDbText
 10
219.2447163844405
 20
10.55220101068186
 30
0.0
 40
1.791674070777747
  1
照査
  7
Roman
 72
     1
 11
221.1558353932701
 21
10.55220101068186
 31
0.0
100
AcDbText
  0
LINE
  5
9D
330
31
100
AcDbEntity
  8
0
100
AcDbLine
 10
297.0
 20
10.0
 30
0.0
 11
297.0
 21
0.0
 31
0.0
  0
LINE
  5
9E
330
31
100
AcDbEntity
  8
0
100
AcDbLine
 10
297.0
 20
0.0
 30
0.0
 11
287.0
 21
0.0
 31
0.0
  0
LINE
  5
9F
330
31
100
AcDbEntity
  8
0
 62
     0
100
AcDbLine
 10
287.0
 20
49.00000000000036
 30
0.0
 11
287.0
 21
10.0
 31
0.0
  0
LINE
  5
A0
330
31
100
AcDbEntity
  8
0
 62
     0
100
AcDbLine
 10
287.0
 20
10.0
 30
0.0
 11
287.0
 21
49.00000000000036
 31
0.0
  0
LINE
  5
A1
330
31
100
AcDbEntity
  8
0
 62
     0
100
AcDbLine
 10
279.7943262411347
 20
22.00000000000012
 30
0.0
 11
279.7943262411347
 21
10.0
 31
0.0
  0
LINE
  5
A2
330
31
100
AcDbEntity
  8
0
 62
     0
100
AcDbLine
 10
279.7943262411347
 20
16.00000000000008
 30
0.0
 11
287.0
 21
16.00000000000008
 31
0.0
  0
TEXT
  5
A3
330
31
100
AcDbEntity
  8
0
100
AcDbText
 10
287.6673438822666
 20
33.75
 30
0.0
 40
3.0
  1
D
  7
Roman
 72
     1
 11
289.2387724536952
 21
33.75
 31
0.0
100
AcDbText
  0
LINE
  5
A4
330
31
100
AcDbEntity
  8
0
100
AcDbLine
 10
287.0
 20
57.5
 30
0.0
 11
292.0
 21
57.5
 31
0.0
  0
TEXT
  5
A5
330
31
100
AcDbEntity
  8
0
100
AcDbText
 10
287.7387724536952
 20
81.25
 30
0.0
 40
3.0
  1
C
  7
Roman
 72
     1
 11
289.2387724536952
 21
81.25
 31
0.0
100
AcDbText
  0
LINE
  5
A6
330
31
100
AcDbEntity
  8
0
100
AcDbLine
 10
287.0
 20
105.0
 30
0.0
 11
297.0
 21
105.0
 31
0.0
  0
LINE
  5
A7
330
31
100
AcDbEntity
  8
0
100
AcDbLine
 10
287.0
 20
105.0
 30
0.0
 11
292.0
 21
105.0
 31
0.0
  0
TEXT
  5
A8
330
31
100
AcDbEntity
  8
0
100
AcDbText
 10
287.6673438822666
 20
128.75
 30
0.0
 40
3.0
  1
B
  7
Roman
 72
     1
 11
289.2387724536952
 21
128.75
 31
0.0
100
AcDbText
  0
TEXT
  5
A9
330
31
100
AcDbEntity
  8
0
100
AcDbText
 10
220.0714285714286
 20
201.0
 30
0.0
 40
3.0
  1
5
  7
Roman
 72
     1
 11
221.4999999999999
 21
201.0
 31
0.0
100
AcDbText
  0
LINE
  5
AA
330
31
100
AcDbEntity
  8
0
100
AcDbLine
 10
243.3333333333333
 20
200.0
 30
0.0
 11
243.3333333333333
 21
205.0
 31
0.0
  0
TEXT
  5
AB
330
31
100
AcDbEntity
  8
0
100
AcDbText
 10
263.6666666666666
 20
201.0
 30
0.0
 40
3.0
  1
6
  7
Roman
 72
     1
 11
265.1666666666666
 21
201.0
 31
0.0
100
AcDbText
  0
LINE
  5
AC
330
31
100
AcDbEntity
  8
0
100
AcDbLine
 10
287.0
 20
152.5
 30
0.0
 11
292.0
 21
152.5
 31
0.0
  0
TEXT
  5
AD
330
31
100
AcDbEntity
  8
0
100
AcDbText
 10
287.9530581679809
 20
176.25
 30
0.0
 40
3.0
  1
A
  7
Roman
 72
     1
 11
289.2387724536952
 21
176.25
 31
0.0
100
AcDbText
  0
LINE
  5
AE
330
31
100
AcDbEntity
  8
0
100
AcDbLine
 10
287.0
 20
210.0
 30
0.0
 11
297.0
 21
210.0
 31
0.0
  0
LINE
  5
AF
330
31
100
AcDbEntity
  8
0
100
AcDbLine
 10
297.0
 20
210.0
 30
0.0
 11
297.0
 21
200.0
 31
0.0
  0
ENDBLK
  5
B1
330
31
100
AcDbEntity
  8
0
100
AcDbBlockEnd
  0
BLOCK
  5
56A
330
567
100
AcDbEntity
  8
0
100
AcDbBlockBegin
  2
_Dot
 70
     0
 10
0.0
 20
0.0
 30
0.0
  3
_Dot
  1

  0
LWPOLYLINE
  5
568
330
567
100
AcDbEntity
  8
0
 62
     0
100
AcDbPolyline
 90
        2
 70
     1
 43
0.5
 10
-0.25
 20
0.0
 42
1.0
 10
0.25
 20
0.0
 42
1.0
  0
LINE
  5
569
330
567
100
AcDbEntity
  8
0
 62
     0
370
    -2
100
AcDbLine
 10
-0.5
 20
0.0
 30
0.0
 11
-1.0
 21
0.0
 31
0.0
  0
ENDBLK
  5
56B
330
567
100
AcDbEntity
  8
0
100
AcDbBlockEnd
  0
BLOCK
  5
792
330
789
100
AcDbEntity
  8
0
 48
0.3
100
AcDbBlockBegin
  2
*D2
 70
     1
 10
0.0
 20
0.0
 30
0.0
  3
*D2
  1

  0
LINE
  5
85A
330
789
100
AcDbEntity
  8
0
 62
     0
 48
0.3
370
    -2
100
AcDbLine
 10
132.3930623563721
 20
122.9796749307654
 30
0.0
 11
145.5380411429064
 21
135.3451367159719
 31
0.0
  0
LINE
  5
85B
330
789
100
AcDbEntity
  8
0
 62
     0
 48
0.3
370
    -2
100
AcDbLine
 10
157.1920206894748
 20
146.3080177573847
 30
0.0
 11
159.0129549936261
 21
148.0209679201054
 31
0.0
  0
MTEXT
  5
85C
330
789
100
AcDbEntity
  8
0
 62
     0
 48
0.3
100
AcDbMText
 10
133.3845176145207
 20
126.4865633622799
 30
0.0
 40
2.5
 41
0.0
 71
     5
 72
     1
  1
\U+220511
 11
0.728373721660523
 21
0.6851800650882942
 31
0.0
 73
     1
 44
1.0
  0
LINE
  5
85D
330
789
100
AcDbEntity
  8
0
 62
     0
 48
0.3
370
    -2
100
AcDbLine
 10
155.3710863853235
 20
144.5950675946639
 30
0.0
 11
147.3589754470577
 21
137.0580868786927
 31
0.0
  0
SOLID
  5
85E
330
789
100
AcDbEntity
  8
0
 62
     0
 48
0.3
100
AcDbTrace
 10
156.906528995688
 20
146.6115068080766
 30
0.0
 11
157.4775123832616
 21
146.0045287066928
 31
0.0
 12
155.3710863853235
 22
144.5950675946639
 32
0.0
 13
155.3710863853235
 23
144.5950675946639
 33
0.0
  0
SOLID
  5
85F
330
789
100
AcDbEntity
  8
0
 62
     0
 48
0.3
100
AcDbTrace
 10
145.2525494491196
 20
135.6486257666638
 30
0.0
 11
145.8235328366932
 21
135.0416476652801
 31
0.0
 12
147.3589754470577
 22
137.0580868786927
 32
0.0
 13
147.3589754470577
 23
137.0580868786927
 33
0.0
  0
POINT
  5
860
330
789
100
AcDbEntity
  8
Defpoints
 62
     0
 48
0.3
100
AcDbPoint
 10
147.3589754470577
 20
137.0580868786927
 30
0.0
  0
POINT
  5
861
330
789
100
AcDbEntity
  8
Defpoints
 62
     0
 48
0.3
100
AcDbPoint
 10
155.3710863853235
 20
144.5950675946639
 30
0.0
  0
ENDBLK
  5
793
330
789
100
AcDbEntity
  8
0
 48
0.3
100
AcDbBlockEnd
  0
BLOCK
  5
79D
330
794
100
AcDbEntity
  8
0
 48
0.3
100
AcDbBlockBegin
  2
*D3
 70
     1
 10
0.0
 20
0.0
 30
0.0
  3
*D3
  1

  0
LINE
  5
84A
330
794
100
AcDbEntity
  8
0
 62
     0
 48
0.3
370
    -2
100
AcDbLine
 10
188.7738998035761
 20
158.5366081718652
 30
0.0
 11
177.3236772259429
 21
146.8883042311309
 31
0.0
  0
LINE
  5
84B
330
794
100
AcDbEntity
  8
0
 62
     0
 48
0.3
370
    -2
100
AcDbLine
 10
165.4063846064383
 20
134.7648502422257
 30
0.0
 11
163.6538415741583
 21
132.9819893615044
 31
0.0
  0
MTEXT
  5
84C
330
794
100
AcDbEntity
  8
0
 62
     0
 48
0.3
100
AcDbMText
 10
184.9539848473049
 20
157.3252958650533
 30
0.0
 40
2.5
 41
0.0
 71
     5
 72
     1
  1
\U+220512
 11
0.7010172129120356
 21
0.7131443522885406
 31
0.0
 73
     1
 44
1.0
  0
LINE
  5
84D
330
794
100
AcDbEntity
  8
0
 62
     0
 48
0.3
370
    -2
100
AcDbLine
 10
167.1589276387185
 20
136.5477111229471
 30
0.0
 11
175.5711341936628
 21
145.1054433504095
 31
0.0
  0
SOLID
  5
84E
330
794
100
AcDbEntity
  8
0
 62
     0
 48
0.3
100
AcDbTrace
 10
165.1092411263181
 20
135.0569407476058
 30
0.0
 11
165.7035280865586
 21
134.4727597368458
 31
0.0
 12
167.1589276387185
 22
136.5477111229471
 32
0.0
 13
167.1589276387185
 23
136.5477111229471
 33
0.0
  0
SOLID
  5
84F
330
794
100
AcDbEntity
  8
0
 62
     0
 48
0.3
100
AcDbTrace
 10
177.0265337458227
 20
147.1803947365109
 30
0.0
 11
177.6208207060632
 21
146.5962137257509
 31
0.0
 12
175.5711341936628
 22
145.1054433504095
 32
0.0
 13
175.5711341936628
 23
145.1054433504095
 33
0.0
  0
POINT
  5
850
330
794
100
AcDbEntity
  8
Defpoints
 62
     0
 48
0.3
100
AcDbPoint
 10
175.5711341936628
 20
145.1054433504095
 30
0.0
  0
POINT
  5
851
330
794
100
AcDbEntity
  8
Defpoints
 62
     0
 48
0.3
100
AcDbPoint
 10
167.1589276387185
 20
136.5477111229471
 30
0.0
  0
ENDBLK
  5
79E
330
794
100
AcDbEntity
  8
0
 48
0.3
100
AcDbBlockEnd
  0
ENDSEC
  0
SECTION
  2
ENTITIES
  0
VIEWPORT
  5
2E
330
1B
100
AcDbEntity
 67
     1
  8
0
100
AcDbViewport
 10
168.1325462980137
 20
90.34509767551421
 30
0.0
 40
392.1790677442497
 41
259.6473925357949
 68
     1
 69
     1
 12
168.1325462980137
 22
90.34509767551421
 13
0.0
 23
0.0
 14
10.0
 24
10.0
 15
10.0
 25
10.0
 16
0.0
 26
0.0
 36
1.0
 17
0.0
 27
0.0
 37
0.0
 42
50.0
 43
0.0
 44
0.0
 45
259.6473925357949
 50
0.0
 51
0.0
 72
   100
 90
    32800
  1

281
     0
 71
     1
 74
     0
110
0.0
120
0.0
130
0.0
111
1.0
121
0.0
131
0.0
112
0.0
122
1.0
132
0.0
 79
     0
146
0.0
  0
VIEWPORT
  5
BD
330
1B
100
AcDbEntity
 67
     1
  8
Viewport
 62
     0
100
AcDbViewport
 10
167.8173008041888
 20
100.2252410244183
 30
0.0
 40
262.0
 41
190.0
 68
     2
 69
     2
 12
228.7576356847359
 22
99.89668345898424
 13
0.0
 23
0.0
 14
10.0
 24
10.0
 15
10.0
 25
10.0
 16
0.0
 26
0.0
 36
1.0
 17
0.0
 27
0.0
 37
0.0
 42
50.0
 43
0.0
 44
0.0
 45
449.7694477808607
 50
0.0
 51
0.0
 72
   100
 90
    32832
  1

281
     0
 71
     1
 74
     0
110
0.0
120
0.0
130
0.0
111
1.0
121
0.0
131
0.0
112
0.0
122
1.0
132
0.0
 79
     0
146
0.0
  0
LINE
  5
35D
330
1B
100
AcDbEntity
 67
     1
  8
0
 62
     0
 48
0.3
100
AcDbLine
 10
239.121248056363
 20
188.2277108478298
 30
0.0
 11
298.8173008041887
 21
188.2277108478298
 31
0.0
  0
LINE
  5
35E
330
1B
100
AcDbEntity
 67
     1
  8
0
 62
     0
 48
0.3
100
AcDbLine
 10
239.121248056363
 20
188.2277108478298
 30
0.0
 11
239.121248056363
 21
195.2252410244183
 31
0.0
  0
LINE
  5
35F
330
1B
100
AcDbEntity
 67
     1
  8
0
 62
     0
 48
0.3
100
AcDbLine
 10
249.9748503825176
 20
195.2252410244183
 30
0.0
 11
249.9748503825176
 21
188.2277108478298
 31
0.0
  0
MTEXT
  5
360
330
1B
100
AcDbEntity
 67
     1
  8
0
 62
     0
 48
0.3
100
AcDbMText
 10
244.548048056363
 20
191.726475936124
 30
0.0
 40
2.5
 41
10.8536
 71
     5
 72
     5
  1
日付
 73
     1
 44
1.0
  0
MTEXT
  5
74D
330
1B
100
AcDbEntity
 67
     1
  8
0
 62
     0
 48
0.5
100
AcDbMText
 10
161.4826339156114
 20
163.2013788021803
 30
0.0
 40
2.5
 41
49.9322
 71
     5
 72
     5
  1
UIA-SC
 73
     1
 44
1.0
  0
LINE
  5
750
330
1B
100
AcDbEntity
 67
     1
  8
0
 62
     0
100
AcDbLine
 10
161.0957554608082
 20
72.07837488148854
 30
0.0
 11
141.6015974360701
 21
72.07837488148854
 31
0.0
  0
ARC
  5
751
330
1B
100
AcDbEntity
 67
     1
  8
0
 62
     0
100
AcDbCircle
 10
158.8502036428195
 20
66.76019741463827
 30
0.0
 40
3.606377658147927
100
AcDbArc
 50
226.223594416331
 51
313.7764055836689
  0
ARC
  5
752
330
1B
100
AcDbEntity
 67
     1
  8
0
 62
     0
100
AcDbCircle
 10
158.8655320993961
 20
106.3307034477876
 30
0.0
 40
3.690827598687089
100
AcDbArc
 50
47.35918814740876
 51
132.6408118525912
  0
LINE
  5
753
330
1B
100
AcDbEntity
 67
     1
  8
0
 62
     0
100
AcDbLine
 10
141.6143793780232
 20
101.1073622877537
 30
0.0
 11
161.1484583726164
 21
101.1073622877537
 31
0.0
  0
LINE
  5
754
330
1B
100
AcDbEntity
 67
     1
  8
0
 62
     0
 48
0.5
100
AcDbLine
 10
136.3650309161905
 20
77.05921521675671
 30
0.0
 11
161.3650309161905
 21
77.05921521675671
 31
0.0
  0
LINE
  5
755
330
1B
100
AcDbEntity
 67
     1
  8
0
 62
     0
 48
0.5
100
AcDbLine
 10
186.3650309161905
 20
79.05921521675671
 30
0.0
 11
136.3650309161905
 21
79.05921521675671
 31
0.0
  0
LINE
  5
756
330
1B
100
AcDbEntity
 67
     1
  8
0
 62
     0
 48
0.2
100
AcDbLine
 10
185.8650309161905
 20
130.8265772366782
 30
0.0
 11
136.8650309161905
 21
130.8265772366782
 31
0.0
  0
LINE
  5
757
330
1B
100
AcDbEntity
 67
     1
  8
0
 62
     0
 48
0.2
100
AcDbLine
 10
136.8650309161905
 20
150.8265772366782
 30
0.0
 11
185.8650309161905
 21
150.8265772366782
 31
0.0
  0
ARC
  5
758
330
1B
100
AcDbEntity
 67
     1
  8
0
 62
     0
100
AcDbCircle
 10
143.8798581895615
 20
66.86570844254337
 30
0.0
 40
3.683284810652498
100
AcDbArc
 50
227.3591881474087
 51
312.6408118525912
  0
LINE
  5
759
330
1B
100
AcDbEntity
 67
     1
  8
0
 62
     0
100
AcDbLine
 10
141.353121828564
 20
71.82887125056581
 30
0.0
 11
141.353121828564
 21
64.16569476862915
 31
0.0
  0
LINE
  5
75A
330
1B
100
AcDbEntity
 67
     1
  8
0
 62
     0
100
AcDbLine
 10
141.353121828564
 20
71.82887125056581
 30
0.0
 11
141.6015974360701
 21
72.07837488148854
 31
0.0
  0
LINE
  5
75B
330
1B
100
AcDbEntity
 67
     1
  8
0
 62
     0
 48
0.5
100
AcDbLine
 10
136.3650309161905
 20
79.05921521675671
 30
0.0
 11
136.3650309161905
 21
77.05921521675671
 31
0.0
  0
LINE
  5
75C
330
1B
100
AcDbEntity
 67
     1
  8
0
 62
     0
100
AcDbLine
 10
156.3551460672765
 20
64.15622976739033
 30
0.0
 11
156.3551460672765
 21
70.68638908587323
 31
0.0
  0
LINE
  5
75D
330
1B
100
AcDbEntity
 67
     1
  8
0
 62
     0
100
AcDbLine
 10
146.3749157651044
 20
64.15622976739033
 30
0.0
 11
146.3749157651044
 21
70.68638908587323
 31
0.0
  0
LINE
  5
75E
330
1B
100
AcDbEntity
 67
     1
  8
0
 62
     0
100
AcDbLine
 10
158.8502036428195
 20
63.15381975649033
 30
0.0
 11
143.8798581895615
 21
63.18242363189083
 31
0.0
  0
ARC
  5
75F
330
1B
100
AcDbEntity
 67
     1
  8
0
 62
     0
100
AcDbCircle
 10
151.3650309161905
 20
76.03190833289125
 30
0.0
 40
12.88149799566011
100
AcDbArc
 50
247.2080385520247
 51
292.7919614479752
  0
LINE
  5
760
330
1B
100
AcDbEntity
 67
     1
  8
0
 62
     0
100
AcDbLine
 10
151.3486764484392
 20
72.07837488148854
 30
0.0
 11
146.3585612973531
 21
72.07837488148854
 31
0.0
  0
LINE
  5
761
330
1B
100
AcDbEntity
 67
     1
  8
0
 62
     0
100
AcDbLine
 10
151.3486764484392
 20
72.07837488148854
 30
0.0
 11
148.8536188728961
 21
72.07837488148854
 31
0.0
  0
LINE
  5
762
330
1B
100
AcDbEntity
 67
     1
  8
0
 62
     0
100
AcDbLine
 10
146.3749157651044
 20
70.68638908587323
 30
0.0
 11
146.3749157651044
 21
72.07837488148854
 31
0.0
  0
LINE
  5
763
330
1B
100
AcDbEntity
 67
     1
  8
0
 62
     0
100
AcDbLine
 10
156.3551460672765
 20
70.68638908587323
 30
0.0
 11
156.3551460672765
 21
72.07837488148854
 31
0.0
  0
DIMENSION
  5
764
330
1B
100
AcDbEntity
 67
     1
  8
0
 62
     0
 48
0.5
100
AcDbDimension
  2
*D2
 10
155.3710863853235
 20
144.5950675946639
 30
0.0
 11
134.6692302365612
 21
125.1208626341664
 31
0.0
 70
   163
 71
     5
 42
11.0
  3
ISO-25
100
AcDbDiametricDimension
 15
147.3589754470577
 25
137.0580868786927
 35
0.0
 40
0.0
1001
ACAD
1000
DSTYLE
1002
{
1070
   288
1070
     1
1002
}
  0
LINE
  5
765
330
1B
100
AcDbEntity
 67
     1
  8
0
 62
     0
 48
0.2
100
AcDbLine
 10
136.3650309161905
 20
131.3265772366782
 30
0.0
 11
136.3650309161905
 21
150.3265772366782
 31
0.0
  0
CIRCLE
  5
766
330
1B
100
AcDbEntity
 67
     1
  8
0
 62
     0
 48
0.2
100
AcDbCircle
 10
151.3650309161905
 20
140.8265772366782
 30
0.0
 40
5.5
  0
LINE
  5
767
330
1B
100
AcDbEntity
 67
     1
  8
0
 62
     0
100
AcDbLine
 10
156.3653650383276
 20
102.5021986513655
 30
0.0
 11
156.3653650383276
 21
101.1073622877537
 31
0.0
  0
LINE
  5
768
330
1B
100
AcDbEntity
 67
     1
  8
0
 62
     0
100
AcDbLine
 10
146.3646967940534
 20
102.5021986513655
 30
0.0
 11
146.3646967940534
 21
101.1073622877537
 31
0.0
  0
LINE
  5
769
330
1B
100
AcDbEntity
 67
     1
  8
0
 62
     0
100
AcDbLine
 10
141.3643626719164
 20
109.0457307091569
 30
0.0
 11
141.3643626719164
 21
101.3573789938605
 31
0.0
  0
LINE
  5
76A
330
1B
100
AcDbEntity
 67
     1
  8
0
 62
     0
100
AcDbLine
 10
141.3643626719164
 20
101.3573789938605
 30
0.0
 11
141.6143793780232
 21
101.1073622877537
 31
0.0
  0
LINE
  5
76B
330
1B
100
AcDbEntity
 67
     1
  8
0
 62
     0
100
AcDbLine
 10
156.3817529974569
 20
101.1073622877537
 30
0.0
 11
156.3817529974569
 21
81.25058943127347
 31
0.0
  0
LINE
  5
76C
330
1B
100
AcDbEntity
 67
     1
  8
0
 62
     0
100
AcDbLine
 10
146.3810847531827
 20
81.25058943127347
 30
0.0
 11
146.3810847531827
 21
101.1073622877537
 31
0.0
  0
LINE
  5
76D
330
1B
100
AcDbEntity
 67
     1
  8
0
 62
     0
100
AcDbLine
 10
146.8811181653964
 20
80.75055601905978
 30
0.0
 11
146.8811181653964
 21
101.1073622877537
 31
0.0
  0
LINE
  5
76E
330
1B
100
AcDbEntity
 67
     1
  8
0
 62
     0
100
AcDbLine
 10
155.8817195852432
 20
80.75055601905978
 30
0.0
 11
155.8817195852432
 21
101.1073622877537
 31
0.0
  0
LINE
  5
76F
330
1B
100
AcDbEntity
 67
     1
  8
0
 62
     0
100
AcDbLine
 10
155.8817195852432
 20
80.75055601905978
 30
0.0
 11
146.8811181653964
 21
80.75055601905978
 31
0.0
  0
LINE
  5
770
330
1B
100
AcDbEntity
 67
     1
  8
0
 62
     0
100
AcDbLine
 10
146.3810847531827
 20
81.25058943127347
 30
0.0
 11
156.3817529974569
 21
81.25058943127347
 31
0.0
  0
LINE
  5
771
330
1B
100
AcDbEntity
 67
     1
  8
0
 62
     0
100
AcDbLine
 10
146.3810847531827
 20
81.25058943127347
 30
0.0
 11
146.8811181653964
 21
80.75055601905978
 31
0.0
  0
LINE
  5
772
330
1B
100
AcDbEntity
 67
     1
  8
0
 62
     0
100
AcDbLine
 10
156.3817529974569
 20
81.25058943127347
 30
0.0
 11
155.8817195852432
 21
80.75055601905978
 31
0.0
  0
LINE
  5
773
330
1B
100
AcDbEntity
 67
     1
  8
0
 62
     0
100
AcDbLine
 10
151.3814188753198
 20
101.1073622877537
 30
0.0
 11
153.8815859363883
 21
101.1073622877537
 31
0.0
  0
LINE
  5
774
330
1B
100
AcDbEntity
 67
     1
  8
0
 62
     0
100
AcDbLine
 10
151.3814188753198
 20
101.1073622877537
 30
0.0
 11
156.3817529974569
 21
101.1073622877537
 31
0.0
  0
ARC
  5
775
330
1B
100
AcDbEntity
 67
     1
  8
0
 62
     0
100
AcDbCircle
 10
143.8645297329849
 20
106.4364305456844
 30
0.0
 40
3.613762952429115
100
AcDbArc
 50
46.22359441633105
 51
133.7764055836689
  0
LINE
  5
776
330
1B
100
AcDbEntity
 67
     1
  8
0
 62
     0
100
AcDbLine
 10
141.3643626719164
 20
109.0457307091569
 30
0.0
 11
141.3643626719164
 21
102.5021986513655
 31
0.0
  0
LINE
  5
777
330
1B
100
AcDbEntity
 67
     1
  8
0
 62
     0
 48
0.2
100
AcDbLine
 10
136.3650309161905
 20
131.3265772366782
 30
0.0
 11
136.8650309161905
 21
130.8265772366782
 31
0.0
  0
ARC
  5
778
330
1B
100
AcDbEntity
 67
     1
  8
0
 62
     0
100
AcDbCircle
 10
151.3650309161905
 20
97.14573262160124
 30
0.0
 40
12.90787727772602
100
AcDbArc
 50
67.20803855202475
 51
112.7919614479752
  0
LINE
  5
779
330
1B
100
AcDbEntity
 67
     1
  8
0
 62
     0
100
AcDbLine
 10
143.8645297329849
 20
110.0501934981135
 30
0.0
 11
158.8655320993961
 21
110.0215310464746
 31
0.0
  0
LINE
  5
77A
330
1B
100
AcDbEntity
 67
     1
  8
0
 62
     0
100
AcDbLine
 10
146.3646967940534
 20
109.0457307091569
 30
0.0
 11
146.3646967940534
 21
102.5021986513655
 31
0.0
  0
LINE
  5
77B
330
1B
100
AcDbEntity
 67
     1
  8
0
 62
     0
100
AcDbLine
 10
156.3653650383277
 20
109.0457307091567
 30
0.0
 11
156.3653650383276
 21
102.5021986513655
 31
0.0
  0
LINE
  5
77C
330
1B
100
AcDbEntity
 67
     1
  8
0
 62
     0
 48
0.2
100
AcDbLine
 10
136.8650309161905
 20
150.8265772366782
 30
0.0
 11
136.3650309161905
 21
150.3265772366782
 31
0.0
  0
LINE
  5
77D
330
1B
100
AcDbEntity
 67
     1
  8
0
 62
     0
 48
0.5
100
AcDbLine
 10
161.3650309161905
 20
77.05921521675671
 30
0.0
 11
186.3650309161905
 21
77.05921521675671
 31
0.0
  0
LINE
  5
77E
330
1B
100
AcDbEntity
 67
     1
  8
0
 62
     0
100
AcDbLine
 10
161.3452612183625
 20
64.15622976739033
 30
0.0
 11
161.3452612183625
 21
70.68638908587323
 31
0.0
  0
LINE
  5
77F
330
1B
100
AcDbEntity
 67
     1
  8
0
 62
     0
100
AcDbLine
 10
161.3452612183625
 20
64.15622976739033
 30
0.0
 11
161.3452612183625
 21
71.82886912393422
 31
0.0
  0
LINE
  5
780
330
1B
100
AcDbEntity
 67
     1
  8
0
 62
     0
100
AcDbLine
 10
161.3452612183625
 20
71.82886912393422
 30
0.0
 11
161.0957554608082
 21
72.07837488148854
 31
0.0
  0
LINE
  5
781
330
1B
100
AcDbEntity
 67
     1
  8
0
 62
     0
 48
0.5
100
AcDbLine
 10
186.3650309161905
 20
77.05921521675671
 30
0.0
 11
186.3650309161905
 21
79.05921521675671
 31
0.0
  0
DIMENSION
  5
782
330
1B
100
AcDbEntity
 67
     1
  8
0
 62
     0
 48
0.5
100
AcDbDimension
  2
*D3
 10
167.1589276387185
 20
136.5477111229471
 30
0.0
 11
186.2911305078459
 21
156.0108885908433
 31
0.0
 70
   163
 71
     5
 42
11.99999999999994
  3
ISO-25
100
AcDbDiametricDimension
 15
175.5711341936628
 25
145.1054433504095
 35
0.0
 40
0.0
1001
ACAD
1000
DSTYLE
1002
{
1070
   288
1070
     1
1002
}
  0
LINE
  5
783
330
1B
100
AcDbEntity
 67
     1
  8
0
 62
     0
 48
0.2
100
AcDbLine
 10
186.3650309161905
 20
150.3265772366782
 30
0.0
 11
186.3650309161905
 21
131.3265772366782
 31
0.0
  0
CIRCLE
  5
784
330
1B
100
AcDbEntity
 67
     1
  8
0
 62
     0
 48
0.2
100
AcDbCircle
 10
171.3650309161905
 20
140.8265772366782
 30
0.0
 40
6.0
  0
LINE
  5
785
330
1B
100
AcDbEntity
 67
     1
  8
0
 62
     0
100
AcDbLine
 10
161.3974428190897
 20
101.3573768628739
 30
0.0
 11
161.3974428190897
 21
109.036246325084
 31
0.0
  0
LINE
  5
786
330
1B
100
AcDbEntity
 67
     1
  8
0
 62
     0
100
AcDbLine
 10
161.3974428190897
 20
101.3573768628739
 30
0.0
 11
161.1484583726164
 21
101.1073622877537
 31
0.0
  0
LINE
  5
787
330
1B
100
AcDbEntity
 67
     1
  8
0
 62
     0
 48
0.2
100
AcDbLine
 10
186.3650309161905
 20
131.3265772366782
 30
0.0
 11
185.8650309161905
 21
130.8265772366782
 31
0.0
  0
LINE
  5
788
330
1B
100
AcDbEntity
 67
     1
  8
0
 62
     0
 48
0.2
100
AcDbLine
 10
185.8650309161905
 20
150.8265772366782
 30
0.0
 11
186.3650309161905
 21
150.3265772366782
 31
0.0
  0
LWPOLYLINE
  5
7C6
330
1B
100
AcDbEntity
 67
     1
  8
0
 62
     0
 48
0.3
100
AcDbPolyline
 90
        4
 70
     1
 43
0.0
 10
151.0819396462032
 20
166.4940849182209
 10
170.9194730228244
 20
166.4940849182209
 10
170.9194730228244
 20
159.5969308536257
 10
151.0819396462032
 20
159.5969308536257
  0
LINE
  5
820
330
1B
100
AcDbEntity
 67
     1
  8
Object
 62
     0
 48
0.5
100
AcDbLine
 10
253.8809098102372
 20
140.2325238359496
 30
0.0
 11
202.9126795592021
 21
110.2444343536907
 31
0.0
  0
LINE
  5
822
330
1B
100
AcDbEntity
 67
     1
  8
Object
 62
     0
 48
0.5
100
AcDbLine
 10
203.6881788770166
 20
108.9678434048668
 30
0.0
 11
254.5620221413472
 21
138.896078553714
 31
0.0
  0
LINE
  5
823
330
1B
100
AcDbEntity
 67
     1
  8
Object
 62
     0
 48
0.5
100
AcDbLine
 10
197.106317727156
 20
104.3013480539235
 30
0.0
 11
204.0345209574314
 21
108.3013480539235
 31
0.0
  0
LINE
  5
82C
330
1B
100
AcDbEntity
 67
     1
  8
Object
 62
     0
 48
0.5
100
AcDbLine
 10
198.706317727156
 20
101.5300667618132
 30
0.0
 11
198.5965101060206
 21
101.1202591406779
 31
0.0
  0
LINE
  5
82D
330
1B
100
AcDbEntity
 67
     1
  8
Object
 62
     0
 48
0.5
100
AcDbLine
 10
185.0800382855271
 20
103.1314750728456
 30
0.0
 11
188.5800382855271
 21
97.06929724635465
 31
0.0
  0
LINE
  5
82E
330
1B
100
AcDbEntity
 67
     1
  8
Object
 62
     0
 48
0.2
100
AcDbLine
 10
184.3300382855271
 20
104.4305131785223
 30
0.0
 11
169.1745937192994
 21
95.68051317852237
 31
0.0
  0
LINE
  5
82F
330
1B
100
AcDbEntity
 67
     1
  8
Object
 62
     0
 48
0.2
100
AcDbLine
 10
175.6575789602375
 20
87.87646106873788
 30
0.0
 11
189.3300382855271
 21
95.77025914067801
 31
0.0
  0
LINE
  5
830
330
1B
100
AcDbEntity
 67
     1
  8
Object
 62
     0
 48
0.5
100
AcDbLine
 10
165.3650309161905
 20
85.05921521675672
 30
0.0
 11
165.3650309161905
 21
79.05921521675671
 31
0.0
  0
LINE
  5
831
330
1B
100
AcDbEntity
 67
     1
  8
Object
 62
     0
 48
0.5
100
AcDbLine
 10
177.3650309161905
 20
79.05921521675671
 30
0.0
 11
177.3650309161905
 21
85.05921521675672
 31
0.0
  0
LINE
  5
832
330
1B
100
AcDbEntity
 67
     1
  8
Object
 62
     0
 48
0.5
100
AcDbLine
 10
171.3650309161905
 20
79.05921521675671
 30
0.0
 11
177.3650309161905
 21
79.05921521675671
 31
0.0
  0
LINE
  5
833
330
1B
100
AcDbEntity
 67
     1
  8
Object
 62
     0
 48
0.2
100
AcDbLine
 10
168.2720023195505
 20
92.24384734136211
 30
0.0
 11
170.6880008031511
 21
88.05921521675671
 31
0.0
  0
LINE
  5
834
330
1B
100
AcDbEntity
 67
     1
  8
Object
 62
     0
 48
0.5
100
AcDbLine
 10
175.3650309161905
 20
88.05921521675671
 30
0.0
 11
167.3650309161905
 21
88.05921521675671
 31
0.0
  0
ARC
  5
835
330
1B
100
AcDbEntity
 67
     1
  8
Object
 62
     0
 48
0.2
100
AcDbCircle
 10
172.1895503791552
 20
93.05181838087262
 30
0.0
 40
4.0
100
AcDbArc
 50
138.9153224140984
 51
191.6535144503769
  0
ARC
  5
836
330
1B
100
AcDbEntity
 67
     1
  8
Object
 62
     0
 48
0.5
100
AcDbCircle
 10
169.3360447291713
 20
84.57853934143614
 30
0.0
 40
4.0
100
AcDbArc
 50
119.521719295185
 51
173.0981456528545
  0
LINE
  5
837
330
1B
100
AcDbEntity
 67
     1
  8
Object
 62
     0
 48
0.5
100
AcDbLine
 10
169.3650309161905
 20
90.35066627785594
 30
0.0
 11
169.3650309161905
 21
88.05921521675671
 31
0.0
  0
ARC
  5
838
330
1B
100
AcDbEntity
 67
     1
  8
Object
 62
     0
 48
0.5
100
AcDbCircle
 10
173.3940171032097
 20
84.57853934143614
 30
0.0
 40
4.0
100
AcDbArc
 50
6.901854347145428
 51
60.47828070481496
  0
LINE
  5
83A
330
1B
100
AcDbEntity
 67
     1
  8
Object
 62
     0
 48
0.5
100
AcDbLine
 10
189.3300382855271
 20
95.77025914067801
 30
0.0
 11
198.5965101060206
 21
101.1202591406779
 31
0.0
  0
LINE
  5
83B
330
1B
100
AcDbEntity
 67
     1
  8
Object
 62
     0
 48
0.5
100
AcDbLine
 10
188.5800382855271
 20
97.06929724635465
 30
0.0
 11
189.3300382855271
 21
95.77025914067801
 31
0.0
  0
LINE
  5
83C
330
1B
100
AcDbEntity
 67
     1
  8
Object
 62
     0
 48
0.5
100
AcDbLine
 10
193.5965101060206
 20
109.7805131785223
 30
0.0
 11
184.3300382855271
 21
104.4305131785223
 31
0.0
  0
LINE
  5
83D
330
1B
100
AcDbEntity
 67
     1
  8
Object
 62
     0
 48
0.5
100
AcDbLine
 10
184.3300382855271
 20
104.4305131785223
 30
0.0
 11
185.0800382855271
 21
103.1314750728456
 31
0.0
  0
LINE
  5
83F
330
1B
100
AcDbEntity
 67
     1
  8
Object
 62
     0
 48
0.5
100
AcDbLine
 10
194.0063177271559
 20
109.670705557387
 30
0.0
 11
193.5965101060206
 21
109.7805131785223
 31
0.0
  0
LINE
  5
840
330
1B
100
AcDbEntity
 67
     1
  8
Object
 62
     0
 48
0.5
100
AcDbLine
 10
195.606317727156
 20
106.8994242652768
 30
0.0
 11
197.106317727156
 21
104.3013480539235
 31
0.0
  0
LINE
  5
841
330
1B
100
AcDbEntity
 67
     1
  8
Object
 62
     0
 48
0.5
100
AcDbLine
 10
198.706317727156
 20
101.5300667618132
 30
0.0
 11
197.106317727156
 21
104.3013480539235
 31
0.0
  0
LINE
  5
842
330
1B
100
AcDbEntity
 67
     1
  8
Object
 62
     0
 48
0.5
100
AcDbLine
 10
202.5345209574314
 20
110.8994242652768
 30
0.0
 11
195.606317727156
 21
106.8994242652768
 31
0.0
  0
LINE
  5
843
330
1B
100
AcDbEntity
 67
     1
  8
Object
 62
     0
 48
0.5
100
AcDbLine
 10
195.606317727156
 20
106.8994242652768
 30
0.0
 11
194.0063177271559
 21
109.670705557387
 31
0.0
  0
LEADER
  5
846
330
1B
100
AcDbEntity
 67
     1
  8
0
 62
     0
 48
0.3
100
AcDbLeader
  3
ISO-25
 73
     0
 40
2.5
 41
14.41666666666666
 76
     3
 10
141.3643626719164
 20
105.2015548515087
 30
0.0
 10
133.4691209816517
 20
97.26195820289483
 30
0.0
 10
132.0519291474552
 20
97.26195820289483
 30
0.0
340
847
213
0.0
223
1.25
233
0.0
1001
ACAD
1000
DSTYLE
1002
{
1070
   147
1040
0.625
1070
    77
1070
     0
1002
}
  0
MTEXT
  5
847
102
{ACAD_REACTORS
330
846
102
}
330
1B
100
AcDbEntity
 67
     1
  8
0
 62
     0
 48
0.3
100
AcDbMText
 10
131.4269291474552
 20
96.01195820289483
 30
0.0
 40
2.5
 41
0.0
 71
     9
 72
     1
  1
M10ボルト
 73
     1
 44
1.0
  0
LINE
  5
848
330
1B
100
AcDbEntity
 67
     1
  8
0
 62
     0
 48
0.3
100
AcDbLine
 10
165.3650309161905
 20
79.05921521675671
 30
0.0
 11
177.3650309161905
 21
79.05921521675671
 31
0.0
  0
LINE
  5
849
330
1B
100
AcDbEntity
 67
     1
  8
0
 62
     0
 48
0.3
100
AcDbLine
 10
202.5345209574314
 20
110.8994242652768
 30
0.0
 11
204.0345209574314
 21
108.3013480539235
 31
0.0
  0
LEADER
  5
862
330
1B
100
AcDbEntity
 67
     1
  8
0
 62
     0
 48
0.3
100
AcDbLeader
  3
ISO-25
 73
     0
 40
2.5
 41
27.66666666666667
 76
     3
 10
221.0197217884491
 20
119.1637015996293
 30
0.0
 10
224.9733546434071
 20
112.7328751684781
 30
0.0
 10
227.8533133095665
 20
112.7328751684781
 30
0.0
340
863
213
0.0
223
-1.25
233
0.0
1001
ACAD
1000
DSTYLE
1002
{
1070
   147
1040
0.625
1070
    77
1070
     0
1002
}
  0
MTEXT
  5
863
102
{ACAD_REACTORS
330
862
102
}
330
1B
100
AcDbEntity
 67
     1
  8
0
 62
     0
 48
0.3
100
AcDbMText
 10
228.4783133095664
 20
113.9828751684781
 30
0.0
 40
2.5
 41
0.0
 71
     1
 72
     1
  1
%%c1.5 SUSワイヤー
 73
     1
 44
1.0
  0
ENDSEC
  0
SECTION
  2
OBJECTS
  0
DICTIONARY
  5
C
330
0
100
AcDbDictionary
281
     1
  3
ACAD_GROUP
350
D
  3
ACAD_LAYOUT
350
1A
  3
ACAD_MLINESTYLE
350
17
  3
ACAD_PLOTSETTINGS
350
19
  3
ACAD_PLOTSTYLENAME
350
E
  3
AcadDim
350
2B0
  3
AcDbVariableDictionary
350
3B9
  0
DICTIONARY
  5
D
102
{ACAD_REACTORS
330
C
102
}
330
C
100
AcDbDictionary
281
     1
  0
DICTIONARY
  5
1A
102
{ACAD_REACTORS
330
C
102
}
330
C
100
AcDbDictionary
281
     1
  3
JIS A4 Title Block (landscape)
350
1E
  3
Model
350
22
  0
DICTIONARY
  5
17
102
{ACAD_REACTORS
330
C
102
}
330
C
100
AcDbDictionary
281
     1
  3
Standard
350
18
  0
DICTIONARY
  5
19
102
{ACAD_REACTORS
330
C
102
}
330
C
100
AcDbDictionary
281
     1
  3
JIS A4 title block (landscape) - no output device
350
B9
  0
ACDBDICTIONARYWDFLT
  5
E
102
{ACAD_REACTORS
330
C
102
}
330
C
100
AcDbDictionary
281
     1
  3
Normal
350
F
100
AcDbDictionaryWithDefault
340
F
  0
XRECORD
  5
2B0
102
{ACAD_REACTORS
330
C
102
}
330
C
100
AcDbXrecord
280
     1
 90
   990106
  3

 60
     0
 61
     0
 62
     1
 63
     3
 64
     0
 65
     0
 66
     0
 67
     3
 68
     1
 69
     0
 70
     0
 71
     0
 72
     0
 40
0.0
170
     0
340
863
  0
DICTIONARY
  5
3B9
102
{ACAD_REACTORS
330
C
102
}
330
C
100
AcDbDictionary
281
     1
  3
SORTENTS
350
3BA
  0
LAYOUT
  5
1E
102
{ACAD_REACTORS
330
1A
102
}
330
1A
100
AcDbPlotSettings
  1

  2
EPSON PM-870C
  4
A4
  6

 40
3.174999952316284
 41
3.174999952316284
 42
3.175003051757812
 43
3.17498779296875
 44
210.0
 45
297.0
 46
6.82
 47
14.31
 48
0.0
 49
0.0
140
0.0
141
0.0
142
1.0
143
1.0
 70
   660
 72
     1
 73
     1
 74
     1
  7

 75
    16
147
1.0
148
-36.80481564845297
149
-5.221453879718922
100
AcDbLayout
  1
JIS A4 Title Block (landscape)
 70
     1
 71
     1
 10
19.31982785548422
 20
-4.773546072597362
 11
316.3198278554842
 21
205.2264539274026
 12
0.0
 22
0.0
 32
0.0
 14
36.81730080418879
 24
5.225241024418323
 34
0.0
 15
298.8173008041887
 25
195.2252410244183
 35
0.0
146
0.0
 13
0.0
 23
0.0
 33
0.0
 16
1.0
 26
0.0
 36
0.0
 17
0.0
 27
1.0
 37
0.0
 76
     0
330
1B
331
2E
  0
LAYOUT
  5
22
102
{ACAD_REACTORS
330
1A
102
}
330
1A
100
AcDbPlotSettings
  1

  2
none_device
  4
Letter_(8.50_x_11.00_Inches)
  6

 40
6.349999904632568
 41
6.349999904632568
 42
6.350006103515625
 43
6.350006103515625
 44
215.8999938964843
 45
279.3999938964843
 46
0.0
 47
0.0
 48
0.0
 49
0.0
140
0.0
141
0.0
142
1.0
143
80.51211718508412
 70
 11920
 72
     0
 73
     1
 74
     0
  7

 75
     0
147
0.0124204906660344
148
51.18690022848504
149
577.6740347999296
100
AcDbLayout
  1
Model
 70
     1
 71
     0
 10
0.0
 20
0.0
 11
12.0
 21
9.0
 12
0.0
 22
0.0
 32
0.0
 14
0.0
 24
0.0
 34
0.0
 15
0.0
 25
0.0
 35
0.0
146
0.0
 13
0.0
 23
0.0
 33
0.0
 16
1.0
 26
0.0
 36
0.0
 17
0.0
 27
1.0
 37
0.0
 76
     0
330
1F
  0
MLINESTYLE
  5
18
102
{ACAD_REACTORS
330
17
102
}
330
17
100
AcDbMlineStyle
  2
STANDARD
 70
     0
  3

 62
   256
 51
90.0
 52
90.0
 71
     2
 49
0.5
 62
   256
  6
BYLAYER
 49
-0.5
 62
   256
  6
BYLAYER
  0
PLOTSETTINGS
  5
B9
102
{ACAD_REACTORS
330
19
102
}
330
19
100
AcDbPlotSettings
  1
JIS A4 title block (landscape) - no output device
  2
None
  4
ISO_A4_(210.00_x_297.00_MM)
  6

 40
7.549999999999999
 41
20.05
 42
7.549999999999999
 43
20.05
 44
210.0
 45
297.0
 46
-7.559999999999999
 47
-20.07
 48
0.0
 49
0.0
140
0.0
141
0.0
142
1.0
143
1.0
 70
   692
 72
     1
 73
     1
 74
     1
  7

 75
    16
147
1.0
148
0.0128164049386896
149
0.0090630292066862
  0
ACDBPLACEHOLDER
  5
F
102
{ACAD_REACTORS
330
E
102
}
330
E
  0
DICTIONARYVAR
  5
3BA
102
{ACAD_REACTORS
330
3B9
102
}
330
3B9
100
DictionaryVariables
280
     0
  1
96
  0
ENDSEC
  0
EOF
