  0
SECTION
  2
HEADER
  9
$ACADVER
  1
AC1015
  9
$ACADMAINTVER
 70
     6
  9
$DWGCODEPAGE
  3
ANSI_932
  9
$INSBASE
 10
0.0
 20
0.0
 30
0.0
  9
$EXTMIN
 10
1.000000000000000E+20
 20
1.000000000000000E+20
 30
1.000000000000000E+20
  9
$EXTMAX
 10
-1.000000000000000E+20
 20
-1.000000000000000E+20
 30
-1.000000000000000E+20
  9
$LIMMIN
 10
0.0
 20
0.0
  9
$LIMMAX
 10
420.0
 20
297.0
  9
$ORTHOMODE
 70
     0
  9
$REGENMODE
 70
     1
  9
$FILLMODE
 70
     1
  9
$QTEXTMODE
 70
     0
  9
$MIRRTEXT
 70
     1
  9
$LTSCALE
 40
1.0
  9
$ATTMODE
 70
     1
  9
$TEXTSIZE
 40
2.5
  9
$TRACEWID
 40
1.0
  9
$TEXTSTYLE
  7
Standard
  9
$CLAYER
  8
0
  9
$CELTYPE
  6
ByLayer
  9
$CECOLOR
 62
   256
  9
$CELTSCALE
 40
0.15
  9
$DISPSILH
 70
     0
  9
$DIMSCALE
 40
1.0
  9
$DIMASZ
 40
2.0
  9
$DIMEXO
 40
0.625
  9
$DIMDLI
 40
3.75
  9
$DIMRND
 40
0.0
  9
$DIMDLE
 40
0.0
  9
$DIMEXE
 40
1.25
  9
$DIMTP
 40
0.0
  9
$DIMTM
 40
0.0
  9
$DIMTXT
 40
3.0
  9
$DIMCEN
 40
2.5
  9
$DIMTSZ
 40
0.0
  9
$DIMTOL
 70
     0
  9
$DIMLIM
 70
     0
  9
$DIMTIH
 70
     0
  9
$DIMTOH
 70
     0
  9
$DIMSE1
 70
     0
  9
$DIMSE2
 70
     0
  9
$DIMTAD
 70
     1
  9
$DIMZIN
 70
     8
  9
$DIMBLK
  1

  9
$DIMASO
 70
     1
  9
$DIMSHO
 70
     1
  9
$DIMPOST
  1

  9
$DIMAPOST
  1

  9
$DIMALT
 70
     0
  9
$DIMALTD
 70
     3
  9
$DIMALTF
 40
0.03937007874016
  9
$DIMLFAC
 40
1.0
  9
$DIMTOFL
 70
     1
  9
$DIMTVP
 40
0.0
  9
$DIMTIX
 70
     0
  9
$DIMSOXD
 70
     0
  9
$DIMSAH
 70
     0
  9
$DIMBLK1
  1

  9
$DIMBLK2
  1

  9
$DIMSTYLE
  2
ISO-25
  9
$DIMCLRD
 70
     0
  9
$DIMCLRE
 70
     7
  9
$DIMCLRT
 70
     0
  9
$DIMTFAC
 40
1.0
  9
$DIMGAP
 40
0.625
  9
$DIMJUST
 70
     0
  9
$DIMSD1
 70
     0
  9
$DIMSD2
 70
     0
  9
$DIMTOLJ
 70
     0
  9
$DIMTZIN
 70
     8
  9
$DIMALTZ
 70
     0
  9
$DIMALTTZ
 70
     0
  9
$DIMUPT
 70
     0
  9
$DIMDEC
 70
     2
  9
$DIMTDEC
 70
     2
  9
$DIMALTU
 70
     2
  9
$DIMALTTD
 70
     3
  9
$DIMTXSTY
  7
Standard
  9
$DIMAUNIT
 70
     0
  9
$DIMADEC
 70
     0
  9
$DIMALTRND
 40
0.0
  9
$DIMAZIN
 70
     0
  9
$DIMDSEP
 70
    46
  9
$DIMATFIT
 70
     3
  9
$DIMFRAC
 70
     0
  9
$DIMLDRBLK
  1

  9
$DIMLUNIT
 70
     2
  9
$DIMLWD
 70
    -2
  9
$DIMLWE
 70
     9
  9
$DIMTMOVE
 70
     0
  9
$LUNITS
 70
     2
  9
$LUPREC
 70
     4
  9
$SKETCHINC
 40
1.0
  9
$FILLETRAD
 40
10.0
  9
$AUNITS
 70
     0
  9
$AUPREC
 70
     0
  9
$MENU
  1
.
  9
$ELEVATION
 40
0.0
  9
$PELEVATION
 40
0.0
  9
$THICKNESS
 40
0.0
  9
$LIMCHECK
 70
     0
  9
$CHAMFERA
 40
0.1
  9
$CHAMFERB
 40
0.1
  9
$CHAMFERC
 40
20.0
  9
$CHAMFERD
 40
0.0
  9
$SKPOLY
 70
     0
  9
$TDCREATE
 40
2454873.622250069
  9
$TDUCREATE
 40
2454873.247250069
  9
$TDUPDATE
 40
2458745.406542604
  9
$TDUUPDATE
 40
2458745.031542604
  9
$TDINDWG
 40
0.4003950810
  9
$TDUSRTIMER
 40
0.4003950810
  9
$USRTIMER
 70
     1
  9
$ANGBASE
 50
0.0
  9
$ANGDIR
 70
     0
  9
$PDMODE
 70
     0
  9
$PDSIZE
 40
0.0
  9
$PLINEWID
 40
0.0
  9
$SPLFRAME
 70
     0
  9
$SPLINETYPE
 70
     6
  9
$SPLINESEGS
 70
     8
  9
$HANDSEED
  5
1578
  9
$SURFTAB1
 70
     6
  9
$SURFTAB2
 70
     6
  9
$SURFTYPE
 70
     6
  9
$SURFU
 70
     6
  9
$SURFV
 70
     6
  9
$UCSBASE
  2

  9
$UCSNAME
  2

  9
$UCSORG
 10
0.0
 20
0.0
 30
0.0
  9
$UCSXDIR
 10
1.0
 20
0.0
 30
0.0
  9
$UCSYDIR
 10
0.0
 20
1.0
 30
0.0
  9
$UCSORTHOREF
  2

  9
$UCSORTHOVIEW
 70
     0
  9
$UCSORGTOP
 10
0.0
 20
0.0
 30
0.0
  9
$UCSORGBOTTOM
 10
0.0
 20
0.0
 30
0.0
  9
$UCSORGLEFT
 10
0.0
 20
0.0
 30
0.0
  9
$UCSORGRIGHT
 10
0.0
 20
0.0
 30
0.0
  9
$UCSORGFRONT
 10
0.0
 20
0.0
 30
0.0
  9
$UCSORGBACK
 10
0.0
 20
0.0
 30
0.0
  9
$PUCSBASE
  2

  9
$PUCSNAME
  2

  9
$PUCSORG
 10
0.0
 20
0.0
 30
0.0
  9
$PUCSXDIR
 10
1.0
 20
0.0
 30
0.0
  9
$PUCSYDIR
 10
0.0
 20
1.0
 30
0.0
  9
$PUCSORTHOREF
  2

  9
$PUCSORTHOVIEW
 70
     0
  9
$PUCSORGTOP
 10
0.0
 20
0.0
 30
0.0
  9
$PUCSORGBOTTOM
 10
0.0
 20
0.0
 30
0.0
  9
$PUCSORGLEFT
 10
0.0
 20
0.0
 30
0.0
  9
$PUCSORGRIGHT
 10
0.0
 20
0.0
 30
0.0
  9
$PUCSORGFRONT
 10
0.0
 20
0.0
 30
0.0
  9
$PUCSORGBACK
 10
0.0
 20
0.0
 30
0.0
  9
$USERI1
 70
     0
  9
$USERI2
 70
     0
  9
$USERI3
 70
     0
  9
$USERI4
 70
     0
  9
$USERI5
 70
     0
  9
$USERR1
 40
0.0
  9
$USERR2
 40
0.0
  9
$USERR3
 40
0.0
  9
$USERR4
 40
0.0
  9
$USERR5
 40
0.0
  9
$WORLDVIEW
 70
     1
  9
$SHADEDGE
 70
     3
  9
$SHADEDIF
 70
    70
  9
$TILEMODE
 70
     0
  9
$MAXACTVP
 70
    64
  9
$PINSBASE
 10
0.0
 20
0.0
 30
0.0
  9
$PLIMCHECK
 70
     0
  9
$PEXTMIN
 10
1.033944076393936
 20
1.071861777917433
 30
-0.0000000100019834
  9
$PEXTMAX
 10
407.7739639505677
 20
284.1972496344207
 30
0.0000000100019837
  9
$PLIMMIN
 10
-5.873748779296875
 20
-5.873749732971191
  9
$PLIMMAX
 10
414.0729064941406
 20
291.0522451400757
  9
$UNITMODE
 70
     0
  9
$VISRETAIN
 70
     1
  9
$PLINEGEN
 70
     0
  9
$PSLTSCALE
 70
     1
  9
$TREEDEPTH
 70
  3020
  9
$CMLSTYLE
  2
Standard
  9
$CMLJUST
 70
     0
  9
$CMLSCALE
 40
20.0
  9
$PROXYGRAPHICS
 70
     1
  9
$MEASUREMENT
 70
     1
  9
$CELWEIGHT
370
    -1
  9
$ENDCAPS
280
     0
  9
$JOINSTYLE
280
     0
  9
$LWDISPLAY
290
     0
  9
$INSUNITS
 70
     4
  9
$HYPERLINKBASE
  1

  9
$STYLESHEET
  1

  9
$XEDIT
290
     1
  9
$CEPSNTYPE
380
     0
  9
$PSTYLEMODE
290
     1
  9
$FINGERPRINTGUID
  2
{951E45A9-2098-449B-99F4-687C375CF490}
  9
$VERSIONGUID
  2
{A0F0B94A-6BAC-4332-B581-27FDF9BD6456}
  9
$EXTNAMES
290
     1
  9
$PSVPSCALE
 40
0.0
  9
$OLESTARTUP
290
     0
  0
ENDSEC
  0
SECTION
  2
CLASSES
  0
CLASS
  1
ACDBDICTIONARYWDFLT
  2
AcDbDictionaryWithDefault
  3
AutoCAD 2000
 90
        0
280
     0
281
     0
  0
CLASS
  1
ACDBPLACEHOLDER
  2
AcDbPlaceHolder
  3
AutoCAD 2000
 90
        0
280
     0
281
     0
  0
CLASS
  1
LAYOUT
  2
AcDbLayout
  3
AutoCAD 2000
 90
        0
280
     0
281
     0
  0
CLASS
  1
RASTERVARIABLES
  2
AcDbRasterVariables
  3
ISM
 90
        0
280
     0
281
     0
  0
CLASS
  1
DICTIONARYVAR
  2
AcDbDictionaryVar
  3
AutoCAD 2000
 90
        0
280
     0
281
     0
  0
ENDSEC
  0
SECTION
  2
TABLES
  0
TABLE
  2
VPORT
  5
8
330
0
100
AcDbSymbolTable
 70
     1
  0
VPORT
  5
499
330
8
100
AcDbSymbolTableRecord
100
AcDbViewportTableRecord
  2
*Active
 70
     0
 10
0.0
 20
0.0
 11
1.0
 21
1.0
 12
220.9969276907449
 22
172.7619420735345
 13
0.0
 23
0.0
 14
10.0
 24
10.0
 15
10.0
 25
10.0
 16
0.0
 26
0.0
 36
1.0
 17
0.0
 27
0.0
 37
0.0
 40
274.9023805563505
 41
1.478908188585607
 42
50.0
 43
0.0
 44
0.0
 50
0.0
 51
0.0
 71
     0
 72
   100
 73
     1
 74
     3
 75
     0
 76
     0
 77
     0
 78
     0
281
     0
 65
     1
110
0.0
120
0.0
130
0.0
111
1.0
121
0.0
131
0.0
112
0.0
122
1.0
132
0.0
 79
     0
146
0.0
  0
ENDTAB
  0
TABLE
  2
LTYPE
  5
5
330
0
100
AcDbSymbolTable
 70
     5
  0
LTYPE
  5
14
330
5
100
AcDbSymbolTableRecord
100
AcDbLinetypeTableRecord
  2
ByBlock
 70
     0
  3

 72
    65
 73
     0
 40
0.0
  0
LTYPE
  5
15
330
5
100
AcDbSymbolTableRecord
100
AcDbLinetypeTableRecord
  2
ByLayer
 70
     0
  3

 72
    65
 73
     0
 40
0.0
  0
LTYPE
  5
16
330
5
100
AcDbSymbolTableRecord
100
AcDbLinetypeTableRecord
  2
Continuous
 70
     0
  3
Solid line
 72
    65
 73
     0
 40
0.0
  0
LTYPE
  5
35
330
5
100
AcDbSymbolTableRecord
100
AcDbLinetypeTableRecord
  2
HIDDEN
 70
     0
  3
Hidden __ __ __ __ __ __ __ __ __ __ __ __ __ _
 72
    65
 73
     2
 40
9.524999999999998
 49
6.349999999999999
 74
     0
 49
-3.174999999999999
 74
     0
  0
LTYPE
  5
36
330
5
100
AcDbSymbolTableRecord
100
AcDbLinetypeTableRecord
  2
HIDDEN2
 70
     0
  3
Hidden (.5x) _ _ _ _ _ _ _ _ _ _ _ _ _ _ _ _ _
 72
    65
 73
     2
 40
4.762499999999999
 49
3.174999999999999
 74
     0
 49
-1.587499999999999
 74
     0
  0
LTYPE
  5
37
330
5
100
AcDbSymbolTableRecord
100
AcDbLinetypeTableRecord
  2
CENTER
 70
     0
  3
Center ____ _ ____ _ ____ _ ____ _ ____ _ ____
 72
    65
 73
     4
 40
50.8
 49
31.75
 74
     0
 49
-6.349999999999999
 74
     0
 49
6.349999999999999
 74
     0
 49
-6.349999999999999
 74
     0
  0
LTYPE
  5
38
330
5
100
AcDbSymbolTableRecord
100
AcDbLinetypeTableRecord
  2
PHANTOM2
 70
     0
  3
Phantom (.5x) ___ _ _ ___ _ _ ___ _ _ ___ _ _
 72
    65
 73
     6
 40
31.75
 49
15.875
 74
     0
 49
-3.174999999999999
 74
     0
 49
3.174999999999999
 74
     0
 49
-3.174999999999999
 74
     0
 49
3.174999999999999
 74
     0
 49
-3.174999999999999
 74
     0
  0
ENDTAB
  0
TABLE
  2
LAYER
  5
2
330
0
100
AcDbSymbolTable
 70
    12
  0
LAYER
  5
10
330
2
100
AcDbSymbolTableRecord
100
AcDbLayerTableRecord
  2
0
 70
     0
 62
     7
  6
Continuous
370
     9
390
F
  0
LAYER
  5
39
330
2
100
AcDbSymbolTableRecord
100
AcDbLayerTableRecord
  2
１
 70
     0
 62
     2
  6
Continuous
370
     9
390
F
  0
LAYER
  5
3A
330
2
100
AcDbSymbolTableRecord
100
AcDbLayerTableRecord
  2
２
 70
     0
 62
     3
  6
Continuous
370
    20
390
F
  0
LAYER
  5
3B
330
2
100
AcDbSymbolTableRecord
100
AcDbLayerTableRecord
  2
３
 70
     0
 62
     4
  6
HIDDEN
370
    15
390
F
  0
LAYER
  5
3C
330
2
100
AcDbSymbolTableRecord
100
AcDbLayerTableRecord
  2
４
 70
     0
 62
     4
  6
HIDDEN2
370
    15
390
F
  0
LAYER
  5
3D
330
2
100
AcDbSymbolTableRecord
100
AcDbLayerTableRecord
  2
５
 70
     0
 62
     6
  6
CENTER
370
    15
390
F
  0
LAYER
  5
3E
330
2
100
AcDbSymbolTableRecord
100
AcDbLayerTableRecord
  2
６
 70
     0
 62
     5
  6
PHANTOM2
370
    15
390
F
  0
LAYER
  5
46
330
2
100
AcDbSymbolTableRecord
100
AcDbLayerTableRecord
  2
Defpoints
 70
     0
 62
     7
  6
Continuous
290
     0
370
    -3
390
F
  0
LAYER
  5
AB
330
2
100
AcDbSymbolTableRecord
100
AcDbLayerTableRecord
  2
Object
 70
     0
 62
     3
  6
Continuous
370
    20
390
F
  0
LAYER
  5
3B8
330
2
100
AcDbSymbolTableRecord
100
AcDbLayerTableRecord
  2
1
 70
     0
 62
     7
  6
Continuous
370
     9
390
F
  0
LAYER
  5
3B9
330
2
100
AcDbSymbolTableRecord
100
AcDbLayerTableRecord
  2
2
 70
     0
 62
     3
  6
Continuous
370
    20
390
F
  0
LAYER
  5
EBF
330
2
100
AcDbSymbolTableRecord
100
AcDbLayerTableRecord
  2
CENTER
 70
     0
 62
     7
  6
CENTER
370
     5
390
F
  0
ENDTAB
  0
TABLE
  2
STYLE
  5
3
330
0
100
AcDbSymbolTable
 70
     3
  0
STYLE
  5
11
330
3
100
AcDbSymbolTableRecord
100
AcDbTextStyleTableRecord
  2
Standard
 70
     0
 40
0.0
 41
1.0
 50
0.0
 71
     0
 42
2.5
  3
txt.shx
  4
bigfont.shx
  0
STYLE
  5
34
330
3
100
AcDbSymbolTableRecord
100
AcDbTextStyleTableRecord
  2

 70
     1
 40
0.0
 41
1.0
 50
0.0
 71
     0
 42
2.5
  3
ltypeshp.shx
  4

  0
STYLE
  5
12E
330
3
100
AcDbSymbolTableRecord
100
AcDbTextStyleTableRecord
  2
ｽﾀｲﾙ1
 70
     0
 40
2.5
 41
1.0
 50
0.0
 71
     0
 42
2.5
  3
txt.shx
  4

  0
ENDTAB
  0
TABLE
  2
VIEW
  5
6
330
0
100
AcDbSymbolTable
 70
     0
  0
ENDTAB
  0
TABLE
  2
UCS
  5
7
330
0
100
AcDbSymbolTable
 70
     0
  0
ENDTAB
  0
TABLE
  2
APPID
  5
9
330
0
100
AcDbSymbolTable
 70
     1
  0
APPID
  5
12
330
9
100
AcDbSymbolTableRecord
100
AcDbRegAppTableRecord
  2
ACAD
 70
     0
  0
ENDTAB
  0
TABLE
  2
DIMSTYLE
  5
A
330
0
100
AcDbSymbolTable
 70
     3
100
AcDbDimStyleTable
 71
     1
340
27
  0
DIMSTYLE
105
27
102
{ACAD_REACTORS
330
B89
330
BA0
330
CCD
330
7CA
330
EA4
330
122B
330
1238
330
124E
330
139B
330
139C
330
1544
330
1567
102
}
330
A
100
AcDbSymbolTableRecord
100
AcDbDimStyleTableRecord
  2
ISO-25
 70
     0
 41
2.0
 42
0.625
 43
3.75
 44
1.25
 73
     0
 74
     0
 77
     1
 78
     8
140
3.0
141
2.5
143
0.03937007874016
147
0.625
171
     3
172
     1
177
     7
271
     2
272
     2
274
     3
283
     0
284
     8
340
11
372
     9
  0
DIMSTYLE
105
AC
330
A
100
AcDbSymbolTableRecord
100
AcDbDimStyleTableRecord
  2
JIS
 70
     0
 41
2.5
 42
1.0
 43
7.0
 44
1.0
 73
     0
 74
     0
 77
     1
 78
     8
140
2.5
141
0.0
143
0.0394
147
0.0
172
     1
174
     1
175
     1
340
11
  0
DIMSTYLE
105
EC0
330
A
100
AcDbSymbolTableRecord
100
AcDbDimStyleTableRecord
  2
ｺﾋﾟｰ - ISO-25
 70
     0
 41
2.5
 42
0.625
 43
3.75
 44
1.25
 73
     0
 74
     0
 77
     1
 78
     8
140
2.5
141
2.5
143
0.03937007874016
147
0.625
171
     3
172
     1
271
     2
272
     2
274
     3
283
     0
284
     8
340
11
343
EBA
  0
ENDTAB
  0
TABLE
  2
BLOCK_RECORD
  5
1
330
0
100
AcDbSymbolTable
 70
    17
  0
BLOCK_RECORD
  5
1F
330
1
100
AcDbSymbolTableRecord
100
AcDbBlockTableRecord
  2
*Model_Space
340
22
  0
BLOCK_RECORD
  5
1B
330
1
100
AcDbSymbolTableRecord
100
AcDbBlockTableRecord
  2
*Paper_Space
340
1E
  0
BLOCK_RECORD
  5
23
330
1
100
AcDbSymbolTableRecord
100
AcDbBlockTableRecord
  2
*Paper_Space0
340
26
  0
BLOCK_RECORD
  5
815
330
1
100
AcDbSymbolTableRecord
100
AcDbBlockTableRecord
  2
*D1
340
0
  0
BLOCK_RECORD
  5
B8A
330
1
100
AcDbSymbolTableRecord
100
AcDbBlockTableRecord
  2
*D2
340
0
  0
BLOCK_RECORD
  5
BA1
330
1
100
AcDbSymbolTableRecord
100
AcDbBlockTableRecord
  2
*D3
340
0
  0
BLOCK_RECORD
  5
CCE
330
1
100
AcDbSymbolTableRecord
100
AcDbBlockTableRecord
  2
*D4
340
0
  0
BLOCK_RECORD
  5
EA5
330
1
100
AcDbSymbolTableRecord
100
AcDbBlockTableRecord
  2
*D5
340
0
  0
BLOCK_RECORD
  5
EBA
330
1
100
AcDbSymbolTableRecord
100
AcDbBlockTableRecord
  2
_Dot
340
0
  0
BLOCK_RECORD
  5
122C
330
1
100
AcDbSymbolTableRecord
100
AcDbBlockTableRecord
  2
*D7
340
0
  0
BLOCK_RECORD
  5
1239
330
1
100
AcDbSymbolTableRecord
100
AcDbBlockTableRecord
  2
*D8
340
0
  0
BLOCK_RECORD
  5
124F
330
1
100
AcDbSymbolTableRecord
100
AcDbBlockTableRecord
  2
*D9
340
0
  0
BLOCK_RECORD
  5
12EF
330
1
100
AcDbSymbolTableRecord
100
AcDbBlockTableRecord
  2
*D10
340
0
  0
BLOCK_RECORD
  5
12FD
330
1
100
AcDbSymbolTableRecord
100
AcDbBlockTableRecord
  2
*D11
340
0
  0
BLOCK_RECORD
  5
13BB
330
1
100
AcDbSymbolTableRecord
100
AcDbBlockTableRecord
  2
*D13
340
0
  0
BLOCK_RECORD
  5
13C9
330
1
100
AcDbSymbolTableRecord
100
AcDbBlockTableRecord
  2
*D14
340
0
  0
BLOCK_RECORD
  5
1545
330
1
100
AcDbSymbolTableRecord
100
AcDbBlockTableRecord
  2
*D15
340
0
  0
BLOCK_RECORD
  5
1568
330
1
100
AcDbSymbolTableRecord
100
AcDbBlockTableRecord
  2
*D16
340
0
  0
ENDTAB
  0
ENDSEC
  0
SECTION
  2
BLOCKS
  0
BLOCK
  5
20
330
1F
100
AcDbEntity
  8
0
100
AcDbBlockBegin
  2
*Model_Space
 70
     0
 10
0.0
 20
0.0
 30
0.0
  3
*Model_Space
  1

  0
ENDBLK
  5
21
330
1F
100
AcDbEntity
  8
0
100
AcDbBlockEnd
  0
BLOCK
  5
1C
330
1B
100
AcDbEntity
 67
     1
  8
0
100
AcDbBlockBegin
  2
*Paper_Space
 70
     0
 10
0.0
 20
0.0
 30
0.0
  3
*Paper_Space
  1

  0
ENDBLK
  5
1D
330
1B
100
AcDbEntity
 67
     1
  8
0
100
AcDbBlockEnd
  0
BLOCK
  5
24
330
23
100
AcDbEntity
  8
0
100
AcDbBlockBegin
  2
*Paper_Space0
 70
     0
 10
0.0
 20
0.0
 30
0.0
  3
*Paper_Space0
  1

  0
VIEWPORT
  5
49D
330
23
100
AcDbEntity
  8
0
100
AcDbViewport
 10
0.0
 20
0.0
 30
0.0
 40
0.0
 41
0.0
 69
     0
 12
0.0
 22
0.0
 13
0.0
 23
0.0
 14
10.0
 24
10.0
 15
10.0
 25
10.0
 16
0.0
 26
0.0
 36
1.0
 17
0.0
 27
0.0
 37
0.0
 42
50.0
 43
0.0
 44
0.0
 45
0.0
 50
0.0
 51
0.0
 72
   100
 90
    32800
  1

281
     0
 71
     1
 74
     0
110
0.0
120
0.0
130
0.0
111
1.0
121
0.0
131
0.0
112
0.0
122
1.0
132
0.0
 79
     0
146
0.0
  0
VIEWPORT
  5
49F
330
23
100
AcDbEntity
  8
1
100
AcDbViewport
 10
0.0
 20
0.0
 30
0.0
 40
0.0
 41
0.0
 69
     0
 12
220.9969276907449
 22
172.7619420735345
 13
0.0
 23
0.0
 14
10.0
 24
10.0
 15
10.0
 25
10.0
 16
0.0
 26
0.0
 36
1.0
 17
0.0
 27
0.0
 37
0.0
 42
50.0
 43
0.0
 44
0.0
 45
274.9023805563505
 50
0.0
 51
0.0
 72
   100
 90
    32864
  1

281
     0
 71
     1
 74
     0
110
0.0
120
0.0
130
0.0
111
1.0
121
0.0
131
0.0
112
0.0
122
1.0
132
0.0
 79
     0
146
0.0
  0
ENDBLK
  5
25
330
23
100
AcDbEntity
  8
0
100
AcDbBlockEnd
  0
BLOCK
  5
81F
330
815
100
AcDbEntity
  8
0
100
AcDbBlockBegin
  2
*D1
 70
     1
 10
0.0
 20
0.0
 30
0.0
  3
*D1
  1

  0
LINE
  5
14F4
330
815
100
AcDbEntity
  8
0
 62
     7
 48
0.15
370
     9
100
AcDbLine
 10
78.47956582972244
 20
127.1665544404119
 30
0.0
 11
115.720888724555
 21
127.1665544404118
 31
0.0
  0
LINE
  5
14F5
330
815
100
AcDbEntity
  8
0
 62
     7
 48
0.15
370
     9
100
AcDbLine
 10
78.47956582972244
 20
146.1665544404119
 30
0.0
 11
115.720888724555
 21
146.1665544404119
 31
0.0
  0
LINE
  5
14F6
330
815
100
AcDbEntity
  8
0
 62
     0
 48
0.15
370
    -2
100
AcDbLine
 10
114.470888724555
 20
129.1665544404118
 30
0.0
 11
114.470888724555
 21
144.1665544404119
 31
0.0
  0
MTEXT
  5
14F7
330
815
100
AcDbEntity
  8
0
 62
     0
 48
0.15
100
AcDbMText
 10
114.5375373292242
 20
152.3657550326267
 30
0.0
 40
3.0
 41
0.0
 71
     5
 72
     1
  1
%%c19
 11
0.0000000000000001
 21
1.0
 31
0.0
 73
     1
 44
1.0
  0
SOLID
  5
14F8
330
815
100
AcDbEntity
  8
0
 62
     0
 48
0.15
100
AcDbTrace
 10
114.1375553912217
 20
129.1665544404118
 30
0.0
 11
114.8042220578883
 21
129.1665544404118
 31
0.0
 12
114.470888724555
 22
127.1665544404118
 32
0.0
 13
114.470888724555
 23
127.1665544404118
 33
0.0
  0
SOLID
  5
14F9
330
815
100
AcDbEntity
  8
0
 62
     0
 48
0.15
100
AcDbTrace
 10
114.1375553912217
 20
144.1665544404119
 30
0.0
 11
114.8042220578883
 21
144.1665544404119
 31
0.0
 12
114.470888724555
 22
146.1665544404119
 32
0.0
 13
114.470888724555
 23
146.1665544404119
 33
0.0
  0
POINT
  5
14FA
330
815
100
AcDbEntity
  8
Defpoints
 62
     0
 48
0.15
100
AcDbPoint
 10
77.85456582972244
 20
127.1665544404119
 30
0.0
  0
POINT
  5
14FB
330
815
100
AcDbEntity
  8
Defpoints
 62
     0
 48
0.15
100
AcDbPoint
 10
77.85456582972244
 20
146.1665544404119
 30
0.0
  0
POINT
  5
14FC
330
815
100
AcDbEntity
  8
Defpoints
 62
     0
 48
0.15
100
AcDbPoint
 10
114.470888724555
 20
146.1665544404119
 30
0.0
  0
ENDBLK
  5
820
330
815
100
AcDbEntity
  8
0
100
AcDbBlockEnd
  0
BLOCK
  5
B95
330
B8A
100
AcDbEntity
  8
0
100
AcDbBlockBegin
  2
*D2
 70
     1
 10
0.0
 20
0.0
 30
0.0
  3
*D2
  1

  0
LINE
  5
1524
330
B8A
100
AcDbEntity
  8
0
 62
     7
 48
0.15
370
     9
100
AcDbLine
 10
76.18536758857761
 20
145.6369540085294
 30
0.0
 11
76.18536758857761
 21
156.1019050366881
 31
0.0
  0
LINE
  5
1525
330
B8A
100
AcDbEntity
  8
0
 62
     7
 48
0.15
370
     9
100
AcDbLine
 10
67.72110164240086
 20
145.6369540085294
 30
0.0
 11
67.72110164240086
 21
156.1019050366881
 31
0.0
  0
LINE
  5
1526
330
B8A
100
AcDbEntity
  8
0
 62
     0
 48
0.15
370
    -2
100
AcDbLine
 10
74.18536758857761
 20
154.8519050366881
 30
0.0
 11
69.72110164240087
 21
154.8519050366881
 31
0.0
  0
SOLID
  5
1527
330
B8A
100
AcDbEntity
  8
0
 62
     0
 48
0.15
100
AcDbTrace
 10
74.18536758857761
 20
155.1852383700214
 30
0.0
 11
74.18536758857761
 21
154.5185717033547
 31
0.0
 12
76.18536758857761
 22
154.8519050366881
 32
0.0
 13
76.18536758857761
 23
154.8519050366881
 33
0.0
  0
SOLID
  5
1528
330
B8A
100
AcDbEntity
  8
0
 62
     0
 48
0.15
100
AcDbTrace
 10
69.72110164240087
 20
155.1852383700214
 30
0.0
 11
69.72110164240087
 21
154.5185717033547
 31
0.0
 12
67.72110164240086
 22
154.8519050366881
 32
0.0
 13
67.72110164240086
 23
154.8519050366881
 33
0.0
  0
MTEXT
  5
1529
330
B8A
100
AcDbEntity
  8
0
 62
     0
 48
0.15
100
AcDbMText
 10
71.95323461548923
 20
156.9769050366881
 30
0.0
 40
3.0
 41
0.0
 71
     5
 72
     1
  1
8
 73
     1
 44
1.0
  0
POINT
  5
152A
330
B8A
100
AcDbEntity
  8
Defpoints
 62
     0
 48
0.15
100
AcDbPoint
 10
76.18536758857761
 20
145.0119540085294
 30
0.0
  0
POINT
  5
152B
330
B8A
100
AcDbEntity
  8
Defpoints
 62
     0
 48
0.15
100
AcDbPoint
 10
67.72110164240086
 20
145.0119540085294
 30
0.0
  0
POINT
  5
152C
330
B8A
100
AcDbEntity
  8
Defpoints
 62
     0
 48
0.15
100
AcDbPoint
 10
67.72110164240086
 20
154.8519050366881
 30
0.0
  0
ENDBLK
  5
B96
330
B8A
100
AcDbEntity
  8
0
100
AcDbBlockEnd
  0
BLOCK
  5
BAC
330
BA1
100
AcDbEntity
  8
0
100
AcDbBlockBegin
  2
*D3
 70
     1
 10
0.0
 20
0.0
 30
0.0
  3
*D3
  1

  0
LINE
  5
1506
330
BA1
100
AcDbEntity
  8
0
 62
     7
 48
0.15
370
     9
100
AcDbLine
 10
66.04435643751947
 20
139.5439396083188
 30
0.0
 11
42.42305245693001
 21
139.5439396083188
 31
0.0
  0
LINE
  5
1507
330
BA1
100
AcDbEntity
  8
0
 62
     7
 48
0.15
370
     9
100
AcDbLine
 10
66.04435643751947
 20
129.1665544404119
 30
0.0
 11
42.42305245693001
 21
129.1665544404119
 31
0.0
  0
LINE
  5
1508
330
BA1
100
AcDbEntity
  8
0
 62
     0
 48
0.15
370
    -2
100
AcDbLine
 10
43.67305245693001
 20
137.5439396083188
 30
0.0
 11
43.67305245693001
 21
131.1665544404119
 31
0.0
  0
SOLID
  5
1509
330
BA1
100
AcDbEntity
  8
0
 62
     0
 48
0.15
100
AcDbTrace
 10
43.33971912359667
 20
137.5439396083188
 30
0.0
 11
44.00638579026334
 21
137.5439396083188
 31
0.0
 12
43.67305245693001
 22
139.5439396083188
 32
0.0
 13
43.67305245693001
 23
139.5439396083188
 33
0.0
  0
SOLID
  5
150A
330
BA1
100
AcDbEntity
  8
0
 62
     0
 48
0.15
100
AcDbTrace
 10
43.33971912359667
 20
131.1665544404119
 30
0.0
 11
44.00638579026334
 21
131.1665544404119
 31
0.0
 12
43.67305245693001
 22
129.1665544404119
 32
0.0
 13
43.67305245693001
 23
129.1665544404119
 33
0.0
  0
MTEXT
  5
150B
330
BA1
100
AcDbEntity
  8
0
 62
     0
 48
0.15
100
AcDbMText
 10
41.54805245692998
 20
134.3552470243654
 30
0.0
 40
3.0
 41
0.0
 71
     5
 72
     1
  1
10
 11
0.0000000000000001
 21
1.0
 31
0.0
 73
     1
 44
1.0
  0
POINT
  5
150C
330
BA1
100
AcDbEntity
  8
Defpoints
 62
     0
 48
0.15
100
AcDbPoint
 10
66.66935643751947
 20
139.5439396083188
 30
0.0
  0
POINT
  5
150D
330
BA1
100
AcDbEntity
  8
Defpoints
 62
     0
 48
0.15
100
AcDbPoint
 10
66.66935643751947
 20
129.1665544404119
 30
0.0
  0
POINT
  5
150E
330
BA1
100
AcDbEntity
  8
Defpoints
 62
     0
 48
0.15
100
AcDbPoint
 10
43.67305245693001
 20
129.1665544404119
 30
0.0
  0
ENDBLK
  5
BAD
330
BA1
100
AcDbEntity
  8
0
100
AcDbBlockEnd
  0
BLOCK
  5
CDA
330
CCE
100
AcDbEntity
  8
0
100
AcDbBlockBegin
  2
*D4
 70
     1
 10
0.0
 20
0.0
 30
0.0
  3
*D4
  1

  0
LINE
  5
150F
330
CCE
100
AcDbEntity
  8
0
 62
     7
 48
0.15
370
     9
100
AcDbLine
 10
67.62777517384893
 20
129.1665544404119
 30
0.0
 11
67.00277517384893
 21
129.1665544404119
 31
0.0
  0
LINE
  5
1510
330
CCE
100
AcDbEntity
  8
0
 62
     7
 48
0.15
370
     9
100
AcDbLine
 10
67.62777517384893
 20
127.1665544404119
 30
0.0
 11
67.00277517384893
 21
127.1665544404119
 31
0.0
  0
LINE
  5
1511
330
CCE
100
AcDbEntity
  8
0
 62
     0
 48
0.15
370
    -2
100
AcDbLine
 10
68.25277517384893
 20
131.1665544404119
 30
0.0
 11
68.25277517384893
 21
133.1665544404119
 31
0.0
  0
LINE
  5
1512
330
CCE
100
AcDbEntity
  8
0
 62
     0
 48
0.15
370
    -2
100
AcDbLine
 10
68.25277517384893
 20
125.1665544404119
 30
0.0
 11
68.25277517384893
 21
116.9165544404119
 31
0.0
  0
LINE
  5
1513
330
CCE
100
AcDbEntity
  8
0
 62
     0
 48
0.15
370
    -2
100
AcDbLine
 10
68.25277517384893
 20
129.1665544404119
 30
0.0
 11
68.25277517384893
 21
127.1665544404119
 31
0.0
  0
SOLID
  5
1514
330
CCE
100
AcDbEntity
  8
0
 62
     0
 48
0.15
100
AcDbTrace
 10
67.9194418405156
 20
131.1665544404119
 30
0.0
 11
68.58610850718226
 21
131.1665544404119
 31
0.0
 12
68.25277517384893
 22
129.1665544404119
 32
0.0
 13
68.25277517384893
 23
129.1665544404119
 33
0.0
  0
SOLID
  5
1515
330
CCE
100
AcDbEntity
  8
0
 62
     0
 48
0.15
100
AcDbTrace
 10
67.9194418405156
 20
125.1665544404119
 30
0.0
 11
68.58610850718226
 21
125.1665544404119
 31
0.0
 12
68.25277517384893
 22
127.1665544404119
 32
0.0
 13
68.25277517384893
 23
127.1665544404119
 33
0.0
  0
MTEXT
  5
1516
330
CCE
100
AcDbEntity
  8
0
 62
     0
 48
0.15
100
AcDbMText
 10
66.12777517384891
 20
120.0415544404119
 30
0.0
 40
3.0
 41
0.0
 71
     5
 72
     1
  1
%%c2
 11
0.0000000000000001
 21
1.0
 31
0.0
 73
     1
 44
1.0
  0
POINT
  5
1517
330
CCE
100
AcDbEntity
  8
Defpoints
 62
     0
 48
0.15
100
AcDbPoint
 10
68.25277517384893
 20
129.1665544404119
 30
0.0
  0
POINT
  5
1518
330
CCE
100
AcDbEntity
  8
Defpoints
 62
     0
 48
0.15
100
AcDbPoint
 10
68.25277517384893
 20
127.1665544404119
 30
0.0
  0
POINT
  5
1519
330
CCE
100
AcDbEntity
  8
Defpoints
 62
     0
 48
0.15
100
AcDbPoint
 10
68.25277517384893
 20
127.1665544404119
 30
0.0
  0
ENDBLK
  5
CDB
330
CCE
100
AcDbEntity
  8
0
100
AcDbBlockEnd
  0
BLOCK
  5
EAF
330
EA5
100
AcDbEntity
  8
0
100
AcDbBlockBegin
  2
*D5
 70
     1
 10
0.0
 20
0.0
 30
0.0
  3
*D5
  1

  0
LINE
  5
14FD
330
EA5
100
AcDbEntity
  8
0
 62
     7
 48
0.15
370
     9
100
AcDbLine
 10
50.90754960054603
 20
137.3060610976321
 30
0.0
 11
50.90754960054603
 21
165.474264009007
 31
0.0
  0
LINE
  5
14FE
330
EA5
100
AcDbEntity
  8
0
 62
     7
 48
0.15
370
     9
100
AcDbLine
 10
106.5015997919579
 20
137.3060610976321
 30
0.0
 11
106.5015997919579
 21
165.474264009007
 31
0.0
  0
LINE
  5
14FF
330
EA5
100
AcDbEntity
  8
0
 62
     0
 48
0.15
370
    -2
100
AcDbLine
 10
52.90754960054603
 20
164.224264009007
 30
0.0
 11
104.5015997919579
 21
164.224264009007
 31
0.0
  0
SOLID
  5
1500
330
EA5
100
AcDbEntity
  8
0
 62
     0
 48
0.15
100
AcDbTrace
 10
52.90754960054603
 20
164.5575973423403
 30
0.0
 11
52.90754960054603
 21
163.8909306756736
 31
0.0
 12
50.90754960054603
 22
164.224264009007
 32
0.0
 13
50.90754960054603
 23
164.224264009007
 33
0.0
  0
SOLID
  5
1501
330
EA5
100
AcDbEntity
  8
0
 62
     0
 48
0.15
100
AcDbTrace
 10
104.5015997919579
 20
164.5575973423403
 30
0.0
 11
104.5015997919579
 21
163.8909306756736
 31
0.0
 12
106.5015997919579
 22
164.224264009007
 32
0.0
 13
106.5015997919579
 23
164.224264009007
 33
0.0
  0
MTEXT
  5
1502
330
EA5
100
AcDbEntity
  8
0
 62
     0
 48
0.15
100
AcDbMText
 10
78.70457469625198
 20
166.349264009007
 30
0.0
 40
3.0
 41
0.0
 71
     5
 72
     1
  1
57
 73
     1
 44
1.0
  0
POINT
  5
1503
330
EA5
100
AcDbEntity
  8
Defpoints
 62
     0
 48
0.15
100
AcDbPoint
 10
50.90754960054603
 20
136.6810610976321
 30
0.0
  0
POINT
  5
1504
330
EA5
100
AcDbEntity
  8
Defpoints
 62
     0
 48
0.15
100
AcDbPoint
 10
106.5015997919579
 20
136.6810610976321
 30
0.0
  0
POINT
  5
1505
330
EA5
100
AcDbEntity
  8
Defpoints
 62
     0
 48
0.15
100
AcDbPoint
 10
106.5015997919579
 20
164.224264009007
 30
0.0
  0
ENDBLK
  5
EB0
330
EA5
100
AcDbEntity
  8
0
100
AcDbBlockEnd
  0
BLOCK
  5
EBD
330
EBA
100
AcDbEntity
  8
0
100
AcDbBlockBegin
  2
_Dot
 70
     0
 10
0.0
 20
0.0
 30
0.0
  3
_Dot
  1

  0
LWPOLYLINE
  5
EBB
330
EBA
100
AcDbEntity
  8
0
 62
     0
100
AcDbPolyline
 90
        2
 70
     1
 43
0.5
 10
-0.25
 20
0.0
 42
1.0
 10
0.25
 20
0.0
 42
1.0
  0
LINE
  5
EBC
330
EBA
100
AcDbEntity
  8
0
 62
     0
370
    -2
100
AcDbLine
 10
-0.5
 20
0.0
 30
0.0
 11
-1.0
 21
0.0
 31
0.0
  0
ENDBLK
  5
EBE
330
EBA
100
AcDbEntity
  8
0
100
AcDbBlockEnd
  0
BLOCK
  5
1236
330
122C
100
AcDbEntity
  8
0
100
AcDbBlockBegin
  2
*D7
 70
     1
 10
0.0
 20
0.0
 30
0.0
  3
*D7
  1

  0
LINE
  5
152D
330
122C
100
AcDbEntity
  8
0
 62
     7
 48
0.15
370
     9
100
AcDbLine
 10
79.57769046782809
 20
63.72224529606908
 30
0.0
 11
72.42585768892104
 21
63.72224529606908
 31
0.0
  0
LINE
  5
152E
330
122C
100
AcDbEntity
  8
0
 62
     7
 48
0.15
370
     9
100
AcDbLine
 10
79.57769046782809
 20
56.72224529606908
 30
0.0
 11
72.42585768892104
 21
56.72224529606908
 31
0.0
  0
LINE
  5
152F
330
122C
100
AcDbEntity
  8
0
 62
     0
 48
0.15
370
    -2
100
AcDbLine
 10
73.67585768892104
 20
61.72224529606908
 30
0.0
 11
73.67585768892104
 21
58.72224529606908
 31
0.0
  0
SOLID
  5
1530
330
122C
100
AcDbEntity
  8
0
 62
     0
 48
0.15
100
AcDbTrace
 10
73.34252435558771
 20
61.72224529606908
 30
0.0
 11
74.00919102225437
 21
61.72224529606908
 31
0.0
 12
73.67585768892104
 22
63.72224529606908
 32
0.0
 13
73.67585768892104
 23
63.72224529606908
 33
0.0
  0
SOLID
  5
1531
330
122C
100
AcDbEntity
  8
0
 62
     0
 48
0.15
100
AcDbTrace
 10
73.34252435558771
 20
58.72224529606908
 30
0.0
 11
74.00919102225437
 21
58.72224529606908
 31
0.0
 12
73.67585768892104
 22
56.72224529606908
 32
0.0
 13
73.67585768892104
 23
56.72224529606908
 33
0.0
  0
MTEXT
  5
1532
330
122C
100
AcDbEntity
  8
0
 62
     0
 48
0.15
100
AcDbMText
 10
71.55085768892103
 20
60.22224529606909
 30
0.0
 40
3.0
 41
0.0
 71
     5
 72
     1
  1
7
 11
0.0000000000000001
 21
1.0
 31
0.0
 73
     1
 44
1.0
  0
POINT
  5
1533
330
122C
100
AcDbEntity
  8
Defpoints
 62
     0
 48
0.15
100
AcDbPoint
 10
80.20269046782809
 20
63.72224529606907
 30
0.0
  0
POINT
  5
1534
330
122C
100
AcDbEntity
  8
Defpoints
 62
     0
 48
0.15
100
AcDbPoint
 10
80.20269046782809
 20
56.72224529606907
 30
0.0
  0
POINT
  5
1535
330
122C
100
AcDbEntity
  8
Defpoints
 62
     0
 48
0.15
100
AcDbPoint
 10
73.67585768892104
 20
56.72224529606908
 30
0.0
  0
ENDBLK
  5
1237
330
122C
100
AcDbEntity
  8
0
100
AcDbBlockEnd
  0
BLOCK
  5
1245
330
1239
100
AcDbEntity
  8
0
100
AcDbBlockBegin
  2
*D8
 70
     1
 10
0.0
 20
0.0
 30
0.0
  3
*D8
  1

  0
LINE
  5
1536
330
1239
100
AcDbEntity
  8
0
 62
     7
 48
0.15
370
     9
100
AcDbLine
 10
78.0526904678281
 20
60.84724529606908
 30
0.0
 11
78.0526904678281
 21
69.84060709567462
 31
0.0
  0
LINE
  5
1537
330
1239
100
AcDbEntity
  8
0
 62
     7
 48
0.15
370
     9
100
AcDbLine
 10
82.35269046782809
 20
60.84724529606908
 30
0.0
 11
82.35269046782809
 21
69.84060709567462
 31
0.0
  0
LINE
  5
1538
330
1239
100
AcDbEntity
  8
0
 62
     0
 48
0.15
370
    -2
100
AcDbLine
 10
76.0526904678281
 20
68.59060709567462
 30
0.0
 11
74.0526904678281
 21
68.59060709567462
 31
0.0
  0
LINE
  5
1539
330
1239
100
AcDbEntity
  8
0
 62
     0
 48
0.15
370
    -2
100
AcDbLine
 10
84.35269046782808
 20
68.59060709567462
 30
0.0
 11
93.60269046782809
 21
68.59060709567462
 31
0.0
  0
LINE
  5
153A
330
1239
100
AcDbEntity
  8
0
 62
     0
 48
0.15
370
    -2
100
AcDbLine
 10
78.0526904678281
 20
68.59060709567462
 30
0.0
 11
82.35269046782809
 21
68.59060709567462
 31
0.0
  0
SOLID
  5
153B
330
1239
100
AcDbEntity
  8
0
 62
     0
 48
0.15
100
AcDbTrace
 10
76.0526904678281
 20
68.92394042900794
 30
0.0
 11
76.0526904678281
 21
68.25727376234128
 31
0.0
 12
78.0526904678281
 22
68.59060709567462
 32
0.0
 13
78.0526904678281
 23
68.59060709567462
 33
0.0
  0
SOLID
  5
153C
330
1239
100
AcDbEntity
  8
0
 62
     0
 48
0.15
100
AcDbTrace
 10
84.35269046782808
 20
68.92394042900794
 30
0.0
 11
84.35269046782808
 21
68.25727376234128
 31
0.0
 12
82.35269046782809
 22
68.59060709567462
 32
0.0
 13
82.35269046782809
 23
68.59060709567462
 33
0.0
  0
MTEXT
  5
153D
330
1239
100
AcDbEntity
  8
0
 62
     0
 48
0.15
100
AcDbMText
 10
89.97769046782808
 20
70.71560709567461
 30
0.0
 40
3.0
 41
0.0
 71
     5
 72
     1
  1
4.3
 73
     1
 44
1.0
  0
POINT
  5
153E
330
1239
100
AcDbEntity
  8
Defpoints
 62
     0
 48
0.15
100
AcDbPoint
 10
78.0526904678281
 20
60.22224529606908
 30
0.0
  0
POINT
  5
153F
330
1239
100
AcDbEntity
  8
Defpoints
 62
     0
 48
0.15
100
AcDbPoint
 10
82.35269046782809
 20
60.22224529606908
 30
0.0
  0
POINT
  5
1540
330
1239
100
AcDbEntity
  8
Defpoints
 62
     0
 48
0.15
100
AcDbPoint
 10
82.35269046782809
 20
68.59060709567462
 30
0.0
  0
ENDBLK
  5
1246
330
1239
100
AcDbEntity
  8
0
100
AcDbBlockEnd
  0
BLOCK
  5
1259
330
124F
100
AcDbEntity
  8
0
 48
0.15
100
AcDbBlockBegin
  2
*D9
 70
     1
 10
0.0
 20
0.0
 30
0.0
  3
*D9
  1

  0
LINE
  5
151A
330
124F
100
AcDbEntity
  8
0
 62
     7
 48
0.15
370
     9
100
AcDbLine
 10
106.2638016708159
 20
133.979381621775
 30
0.0
 11
110.9831652938785
 21
133.979381621775
 31
0.0
  0
LINE
  5
151B
330
124F
100
AcDbEntity
  8
0
 62
     7
 48
0.15
370
     9
100
AcDbLine
 10
106.2638016708159
 20
139.979381621775
 30
0.0
 11
110.9831652938785
 21
139.979381621775
 31
0.0
  0
LINE
  5
151C
330
124F
100
AcDbEntity
  8
0
 62
     0
 48
0.15
370
    -2
100
AcDbLine
 10
109.7331652938785
 20
137.979381621775
 30
0.0
 11
109.7331652938785
 21
135.979381621775
 31
0.0
  0
LINE
  5
151D
330
124F
100
AcDbEntity
  8
0
 62
     0
 48
0.15
370
    -2
100
AcDbLine
 10
109.7331652938785
 20
133.979381621775
 30
0.0
 11
109.7331652938785
 21
119.5719990402929
 31
0.0
  0
SOLID
  5
151E
330
124F
100
AcDbEntity
  8
0
 62
     0
 48
0.15
100
AcDbTrace
 10
109.3998319605452
 20
137.979381621775
 30
0.0
 11
110.0664986272118
 21
137.979381621775
 31
0.0
 12
109.7331652938785
 22
139.979381621775
 32
0.0
 13
109.7331652938785
 23
139.979381621775
 33
0.0
  0
SOLID
  5
151F
330
124F
100
AcDbEntity
  8
0
 62
     0
 48
0.15
100
AcDbTrace
 10
109.3998319605452
 20
135.979381621775
 30
0.0
 11
110.0664986272118
 21
135.979381621775
 31
0.0
 12
109.7331652938785
 22
133.979381621775
 32
0.0
 13
109.7331652938785
 23
133.979381621775
 33
0.0
  0
MTEXT
  5
1520
330
124F
100
AcDbEntity
  8
0
 62
     0
 48
0.15
100
AcDbMText
 10
107.6081652938785
 20
122.696999040293
 30
0.0
 40
3.0
 41
0.0
 71
     5
 72
     1
  1
%%c6
 11
0.0000000000000001
 21
1.0
 31
0.0
 73
     1
 44
1.0
  0
POINT
  5
1521
330
124F
100
AcDbEntity
  8
Defpoints
 62
     0
 48
0.15
100
AcDbPoint
 10
105.6388016708159
 20
133.979381621775
 30
0.0
  0
POINT
  5
1522
330
124F
100
AcDbEntity
  8
Defpoints
 62
     0
 48
0.15
100
AcDbPoint
 10
105.6388016708159
 20
139.979381621775
 30
0.0
  0
POINT
  5
1523
330
124F
100
AcDbEntity
  8
Defpoints
 62
     0
 48
0.15
100
AcDbPoint
 10
109.7331652938785
 20
139.979381621775
 30
0.0
  0
ENDBLK
  5
125A
330
124F
100
AcDbEntity
  8
0
 48
0.15
100
AcDbBlockEnd
  0
BLOCK
  5
12FB
330
12EF
100
AcDbEntity
  8
0
 48
0.5
100
AcDbBlockBegin
  2
*D10
 70
     1
 10
0.0
 20
0.0
 30
0.0
  3
*D10
  1

  0
LINE
  5
12F0
330
12EF
100
AcDbEntity
  8
1
 62
     7
 48
0.5
370
     9
100
AcDbLine
 10
596.5743415100488
 20
1158.745373184962
 30
0.0
 11
596.5743415100488
 21
1154.01242296846
 31
0.0
  0
LINE
  5
12F1
330
12EF
100
AcDbEntity
  8
1
 62
     7
 48
0.5
370
     9
100
AcDbLine
 10
602.2743415100489
 20
1158.745373184962
 30
0.0
 11
602.2743415100489
 21
1154.01242296846
 31
0.0
  0
LINE
  5
12F2
330
12EF
100
AcDbEntity
  8
1
 62
     7
 48
0.5
370
     9
100
AcDbLine
 10
591.5743415100488
 20
1159.012422968459
 30
0.0
 11
586.5743415100488
 21
1159.012422968459
 31
0.0
  0
LINE
  5
12F3
330
12EF
100
AcDbEntity
  8
1
 62
     7
 48
0.5
370
     9
100
AcDbLine
 10
607.2743415100489
 20
1159.012422968459
 30
0.0
 11
627.2743415100489
 21
1159.012422968459
 31
0.0
  0
LINE
  5
12F4
330
12EF
100
AcDbEntity
  8
1
 62
     7
 48
0.5
370
     9
100
AcDbLine
 10
596.5743415100488
 20
1159.012422968459
 30
0.0
 11
602.2743415100489
 21
1159.012422968459
 31
0.0
  0
SOLID
  5
12F5
330
12EF
100
AcDbEntity
  8
1
 62
     7
 48
0.5
100
AcDbTrace
 10
591.5743415100488
 20
1159.845756301793
 30
0.0
 11
591.5743415100488
 21
1158.179089635126
 31
0.0
 12
596.5743415100488
 22
1159.012422968459
 32
0.0
 13
596.5743415100488
 23
1159.012422968459
 33
0.0
  0
SOLID
  5
12F6
330
12EF
100
AcDbEntity
  8
1
 62
     7
 48
0.5
100
AcDbTrace
 10
607.2743415100489
 20
1159.845756301793
 30
0.0
 11
607.2743415100489
 21
1158.179089635126
 31
0.0
 12
602.2743415100489
 22
1159.012422968459
 32
0.0
 13
602.2743415100489
 23
1159.012422968459
 33
0.0
  0
MTEXT
  5
12F7
330
12EF
100
AcDbEntity
  8
1
 62
     0
 48
0.5
100
AcDbMText
 10
619.7743415100489
 20
1163.512422968459
 30
0.0
 40
3.0
 41
0.0
 71
     5
 72
     1
  1
%%c5.7
 73
     1
 44
1.0
  0
POINT
  5
12F8
330
12EF
100
AcDbEntity
  8
Defpoints
 62
     0
 48
0.5
100
AcDbPoint
 10
596.5743415100488
 20
1160.745373184962
 30
0.0
  0
POINT
  5
12F9
330
12EF
100
AcDbEntity
  8
Defpoints
 62
     0
 48
0.5
100
AcDbPoint
 10
602.2743415100489
 20
1160.745373184962
 30
0.0
  0
POINT
  5
12FA
330
12EF
100
AcDbEntity
  8
Defpoints
 62
     0
 48
0.5
100
AcDbPoint
 10
602.2743415100489
 20
1159.012422968459
 30
0.0
  0
ENDBLK
  5
12FC
330
12EF
100
AcDbEntity
  8
0
 48
0.5
100
AcDbBlockEnd
  0
BLOCK
  5
1309
330
12FD
100
AcDbEntity
  8
0
 48
0.5
100
AcDbBlockBegin
  2
*D11
 70
     1
 10
0.0
 20
0.0
 30
0.0
  3
*D11
  1

  0
LINE
  5
12FE
330
12FD
100
AcDbEntity
  8
1
 62
     7
 48
0.5
370
     9
100
AcDbLine
 10
598.3290599971128
 20
1142.419761859295
 30
0.0
 11
598.3290599971128
 21
1145.662293815683
 31
0.0
  0
LINE
  5
12FF
330
12FD
100
AcDbEntity
  8
1
 62
     7
 48
0.5
370
     9
100
AcDbLine
 10
600.7290599971129
 20
1142.419761859295
 30
0.0
 11
600.7290599971129
 21
1145.662293815683
 31
0.0
  0
LINE
  5
1300
330
12FD
100
AcDbEntity
  8
1
 62
     7
 48
0.5
370
     9
100
AcDbLine
 10
593.3290599971128
 20
1140.662293815683
 30
0.0
 11
588.3290599971128
 21
1140.662293815683
 31
0.0
  0
LINE
  5
1301
330
12FD
100
AcDbEntity
  8
1
 62
     7
 48
0.5
370
     9
100
AcDbLine
 10
605.7290599971129
 20
1140.662293815683
 30
0.0
 11
625.87191713997
 21
1140.662293815683
 31
0.0
  0
LINE
  5
1302
330
12FD
100
AcDbEntity
  8
1
 62
     7
 48
0.5
370
     9
100
AcDbLine
 10
598.3290599971128
 20
1140.662293815683
 30
0.0
 11
600.7290599971129
 21
1140.662293815683
 31
0.0
  0
SOLID
  5
1303
330
12FD
100
AcDbEntity
  8
1
 62
     7
 48
0.5
100
AcDbTrace
 10
593.3290599971128
 20
1141.495627149017
 30
0.0
 11
593.3290599971128
 21
1139.82896048235
 31
0.0
 12
598.3290599971128
 22
1140.662293815683
 32
0.0
 13
598.3290599971128
 23
1140.662293815683
 33
0.0
  0
SOLID
  5
1304
330
12FD
100
AcDbEntity
  8
1
 62
     7
 48
0.5
100
AcDbTrace
 10
605.7290599971129
 20
1141.495627149017
 30
0.0
 11
605.7290599971129
 21
1139.82896048235
 31
0.0
 12
600.7290599971129
 22
1140.662293815683
 32
0.0
 13
600.7290599971129
 23
1140.662293815683
 33
0.0
  0
MTEXT
  5
1305
330
12FD
100
AcDbEntity
  8
1
 62
     0
 48
0.5
100
AcDbMText
 10
618.3004885685415
 20
1145.162293815683
 30
0.0
 40
3.0
 41
0.0
 71
     5
 72
     1
  1
%%c2.4
 73
     1
 44
1.0
  0
POINT
  5
1306
330
12FD
100
AcDbEntity
  8
Defpoints
 62
     0
 48
0.5
100
AcDbPoint
 10
598.3290599971128
 20
1140.419761859295
 30
0.0
  0
POINT
  5
1307
330
12FD
100
AcDbEntity
  8
Defpoints
 62
     0
 48
0.5
100
AcDbPoint
 10
600.7290599971129
 20
1140.419761859295
 30
0.0
  0
POINT
  5
1308
330
12FD
100
AcDbEntity
  8
Defpoints
 62
     0
 48
0.5
100
AcDbPoint
 10
600.7290599971129
 20
1140.662293815683
 30
0.0
  0
ENDBLK
  5
130A
330
12FD
100
AcDbEntity
  8
0
 48
0.5
100
AcDbBlockEnd
  0
BLOCK
  5
13C7
330
13BB
100
AcDbEntity
  8
0
 48
0.15
100
AcDbBlockBegin
  2
*D13
 70
     1
 10
0.0
 20
0.0
 30
0.0
  3
*D13
  1

  0
LINE
  5
13D6
330
13BB
100
AcDbEntity
  8
1
 62
     7
 48
0.15
370
     9
100
AcDbLine
 10
495.7578593119349
 20
272.321915595883
 30
0.0
 11
495.7578593119349
 21
273.1894475522716
 31
0.0
  0
LINE
  5
13D7
330
13BB
100
AcDbEntity
  8
1
 62
     7
 48
0.15
370
     9
100
AcDbLine
 10
498.1578593119349
 20
272.321915595883
 30
0.0
 11
498.1578593119349
 21
273.1894475522716
 31
0.0
  0
LINE
  5
13D8
330
13BB
100
AcDbEntity
  8
1
 62
     0
 48
0.15
370
    -2
100
AcDbLine
 10
493.7578593119349
 20
271.9394475522716
 30
0.0
 11
491.7578593119348
 21
271.9394475522716
 31
0.0
  0
LINE
  5
13D9
330
13BB
100
AcDbEntity
  8
1
 62
     0
 48
0.15
370
    -2
100
AcDbLine
 10
500.157859311935
 20
271.9394475522716
 30
0.0
 11
512.4078593119349
 21
271.9394475522716
 31
0.0
  0
LINE
  5
13DA
330
13BB
100
AcDbEntity
  8
1
 62
     0
 48
0.15
370
    -2
100
AcDbLine
 10
495.7578593119349
 20
271.9394475522716
 30
0.0
 11
498.1578593119349
 21
271.9394475522716
 31
0.0
  0
SOLID
  5
13DB
330
13BB
100
AcDbEntity
  8
1
 62
     0
 48
0.15
100
AcDbTrace
 10
493.7578593119349
 20
272.2727808856049
 30
0.0
 11
493.7578593119349
 21
271.6061142189383
 31
0.0
 12
495.7578593119349
 22
271.9394475522716
 32
0.0
 13
495.7578593119349
 23
271.9394475522716
 33
0.0
  0
SOLID
  5
13DC
330
13BB
100
AcDbEntity
  8
1
 62
     0
 48
0.15
100
AcDbTrace
 10
500.157859311935
 20
272.2727808856049
 30
0.0
 11
500.157859311935
 21
271.6061142189383
 31
0.0
 12
498.1578593119349
 22
271.9394475522716
 32
0.0
 13
498.1578593119349
 23
271.9394475522716
 33
0.0
  0
MTEXT
  5
13DD
330
13BB
100
AcDbEntity
  8
1
 62
     0
 48
0.15
100
AcDbMText
 10
507.282859311935
 20
274.0644475522716
 30
0.0
 40
3.0
 41
0.0
 71
     5
 72
     1
  1
%%c2.4
 73
     1
 44
1.0
  0
POINT
  5
13DE
330
13BB
100
AcDbEntity
  8
Defpoints
 62
     0
 48
0.15
100
AcDbPoint
 10
495.7578593119349
 20
271.696915595883
 30
0.0
  0
POINT
  5
13DF
330
13BB
100
AcDbEntity
  8
Defpoints
 62
     0
 48
0.15
100
AcDbPoint
 10
498.1578593119349
 20
271.696915595883
 30
0.0
  0
POINT
  5
13E0
330
13BB
100
AcDbEntity
  8
Defpoints
 62
     0
 48
0.15
100
AcDbPoint
 10
498.1578593119349
 20
271.9394475522716
 30
0.0
  0
ENDBLK
  5
13C8
330
13BB
100
AcDbEntity
  8
0
 48
0.15
100
AcDbBlockEnd
  0
BLOCK
  5
13D4
330
13C9
100
AcDbEntity
  8
0
 48
0.15
100
AcDbBlockBegin
  2
*D14
 70
     1
 10
0.0
 20
0.0
 30
0.0
  3
*D14
  1

  0
LINE
  5
13E1
330
13C9
100
AcDbEntity
  8
1
 62
     7
 48
0.15
370
     9
100
AcDbLine
 10
494.0031408248708
 20
291.3975269215506
 30
0.0
 11
494.0031408248708
 21
289.0395767050478
 31
0.0
  0
LINE
  5
13E2
330
13C9
100
AcDbEntity
  8
1
 62
     7
 48
0.15
370
     9
100
AcDbLine
 10
499.7031408248709
 20
291.3975269215506
 30
0.0
 11
499.7031408248709
 21
289.0395767050478
 31
0.0
  0
LINE
  5
13E3
330
13C9
100
AcDbEntity
  8
1
 62
     0
 48
0.15
370
    -2
100
AcDbLine
 10
496.0031408248709
 20
290.2895767050478
 30
0.0
 11
497.7031408248709
 21
290.2895767050478
 31
0.0
  0
LINE
  5
13E4
330
13C9
100
AcDbEntity
  8
1
 62
     0
 48
0.15
370
    -2
100
AcDbLine
 10
499.7031408248709
 20
290.2895767050478
 30
0.0
 11
511.9531408248709
 21
290.2895767050478
 31
0.0
  0
SOLID
  5
13E5
330
13C9
100
AcDbEntity
  8
1
 62
     0
 48
0.15
100
AcDbTrace
 10
496.0031408248709
 20
290.6229100383811
 30
0.0
 11
496.0031408248709
 21
289.9562433717144
 31
0.0
 12
494.0031408248708
 22
290.2895767050478
 32
0.0
 13
494.0031408248708
 23
290.2895767050478
 33
0.0
  0
SOLID
  5
13E6
330
13C9
100
AcDbEntity
  8
1
 62
     0
 48
0.15
100
AcDbTrace
 10
497.7031408248709
 20
290.6229100383811
 30
0.0
 11
497.7031408248709
 21
289.9562433717144
 31
0.0
 12
499.7031408248709
 22
290.2895767050478
 32
0.0
 13
499.7031408248709
 23
290.2895767050478
 33
0.0
  0
MTEXT
  5
13E7
330
13C9
100
AcDbEntity
  8
1
 62
     0
 48
0.15
100
AcDbMText
 10
506.8281408248709
 20
292.4145767050477
 30
0.0
 40
3.0
 41
0.0
 71
     5
 72
     1
  1
%%c5.7
 73
     1
 44
1.0
  0
POINT
  5
13E8
330
13C9
100
AcDbEntity
  8
Defpoints
 62
     0
 48
0.15
100
AcDbPoint
 10
494.0031408248708
 20
292.0225269215506
 30
0.0
  0
POINT
  5
13E9
330
13C9
100
AcDbEntity
  8
Defpoints
 62
     0
 48
0.15
100
AcDbPoint
 10
499.7031408248709
 20
292.0225269215506
 30
0.0
  0
POINT
  5
13EA
330
13C9
100
AcDbEntity
  8
Defpoints
 62
     0
 48
0.15
100
AcDbPoint
 10
499.7031408248709
 20
290.2895767050478
 30
0.0
  0
ENDBLK
  5
13D5
330
13C9
100
AcDbEntity
  8
0
 48
0.15
100
AcDbBlockEnd
  0
BLOCK
  5
154F
330
1545
100
AcDbEntity
  8
0
 48
0.15
100
AcDbBlockBegin
  2
*D15
 70
     1
 10
0.0
 20
0.0
 30
0.0
  3
*D15
  1

  0
LINE
  5
155B
330
1545
100
AcDbEntity
  8
0
 62
     7
 48
0.15
370
     9
100
AcDbLine
 10
230.0560074011412
 20
140.3979636051799
 30
0.0
 11
224.6878083461247
 21
140.3979636051799
 31
0.0
  0
LINE
  5
155C
330
1545
100
AcDbEntity
  8
0
 62
     7
 48
0.15
370
     9
100
AcDbLine
 10
230.0560074011412
 20
134.3979636051799
 30
0.0
 11
224.6878083461247
 21
134.3979636051799
 31
0.0
  0
LINE
  5
155D
330
1545
100
AcDbEntity
  8
0
 62
     0
 48
0.15
370
    -2
100
AcDbLine
 10
225.9378083461247
 20
136.3979636051799
 30
0.0
 11
225.9378083461247
 21
138.3979636051799
 31
0.0
  0
LINE
  5
155E
330
1545
100
AcDbEntity
  8
0
 62
     0
 48
0.15
370
    -2
100
AcDbLine
 10
225.9378083461247
 20
140.3979636051799
 30
0.0
 11
225.9378083461247
 21
148.6479636051799
 31
0.0
  0
SOLID
  5
155F
330
1545
100
AcDbEntity
  8
0
 62
     0
 48
0.15
100
AcDbTrace
 10
225.6044750127914
 20
136.3979636051799
 30
0.0
 11
226.271141679458
 21
136.3979636051799
 31
0.0
 12
225.9378083461247
 22
134.3979636051799
 32
0.0
 13
225.9378083461247
 23
134.3979636051799
 33
0.0
  0
SOLID
  5
1560
330
1545
100
AcDbEntity
  8
0
 62
     0
 48
0.15
100
AcDbTrace
 10
225.6044750127914
 20
138.3979636051799
 30
0.0
 11
226.271141679458
 21
138.3979636051799
 31
0.0
 12
225.9378083461247
 22
140.3979636051799
 32
0.0
 13
225.9378083461247
 23
140.3979636051799
 33
0.0
  0
MTEXT
  5
1561
330
1545
100
AcDbEntity
  8
0
 62
     0
 48
0.15
100
AcDbMText
 10
223.8128083461247
 20
145.5229636051799
 30
0.0
 40
3.0
 41
0.0
 71
     5
 72
     1
  1
%%c6
 11
0.0000000000000001
 21
1.0
 31
0.0
 73
     1
 44
1.0
  0
POINT
  5
1562
330
1545
100
AcDbEntity
  8
Defpoints
 62
     0
 48
0.15
100
AcDbPoint
 10
230.6810074011412
 20
140.3979636051799
 30
0.0
  0
POINT
  5
1563
330
1545
100
AcDbEntity
  8
Defpoints
 62
     0
 48
0.15
100
AcDbPoint
 10
230.6810074011412
 20
134.3979636051799
 30
0.0
  0
POINT
  5
1564
330
1545
100
AcDbEntity
  8
Defpoints
 62
     0
 48
0.15
100
AcDbPoint
 10
225.9378083461247
 20
134.3979636051799
 30
0.0
  0
ENDBLK
  5
1550
330
1545
100
AcDbEntity
  8
0
 48
0.15
100
AcDbBlockEnd
  0
BLOCK
  5
1574
330
1568
100
AcDbEntity
  8
0
 48
0.15
100
AcDbBlockBegin
  2
*D16
 70
     1
 10
0.0
 20
0.0
 30
0.0
  3
*D16
  1

  0
LINE
  5
1569
330
1568
100
AcDbEntity
  8
0
 62
     7
 48
0.15
370
     9
100
AcDbLine
 10
360.1675658643362
 20
138.2614058761542
 30
0.0
 11
372.3132142784011
 21
138.2614058761542
 31
0.0
  0
LINE
  5
156A
330
1568
100
AcDbEntity
  8
0
 62
     7
 48
0.15
370
     9
100
AcDbLine
 10
360.1675658643362
 20
135.7614058761542
 30
0.0
 11
372.3132142784011
 21
135.7614058761542
 31
0.0
  0
LINE
  5
156B
330
1568
100
AcDbEntity
  8
0
 62
     0
 48
0.15
370
    -2
100
AcDbLine
 10
371.0632142784011
 20
140.2614058761542
 30
0.0
 11
371.0632142784011
 21
142.2614058761542
 31
0.0
  0
LINE
  5
156C
330
1568
100
AcDbEntity
  8
0
 62
     0
 48
0.15
370
    -2
100
AcDbLine
 10
371.0632142784011
 20
133.7614058761542
 30
0.0
 11
371.063214278401
 21
124.5114058761542
 31
0.0
  0
LINE
  5
156D
330
1568
100
AcDbEntity
  8
0
 62
     0
 48
0.15
370
    -2
100
AcDbLine
 10
371.0632142784011
 20
138.2614058761542
 30
0.0
 11
371.0632142784011
 21
135.7614058761542
 31
0.0
  0
SOLID
  5
156E
330
1568
100
AcDbEntity
  8
0
 62
     0
 48
0.15
100
AcDbTrace
 10
370.7298809450678
 20
140.2614058761542
 30
0.0
 11
371.3965476117344
 21
140.2614058761542
 31
0.0
 12
371.0632142784011
 22
138.2614058761542
 32
0.0
 13
371.0632142784011
 23
138.2614058761542
 33
0.0
  0
SOLID
  5
156F
330
1568
100
AcDbEntity
  8
0
 62
     0
 48
0.15
100
AcDbTrace
 10
370.7298809450678
 20
133.7614058761542
 30
0.0
 11
371.3965476117344
 21
133.7614058761542
 31
0.0
 12
371.0632142784011
 22
135.7614058761542
 32
0.0
 13
371.0632142784011
 23
135.7614058761542
 33
0.0
  0
MTEXT
  5
1570
330
1568
100
AcDbEntity
  8
0
 62
     0
 48
0.15
100
AcDbMText
 10
368.938214278401
 20
128.1364058761542
 30
0.0
 40
3.0
 41
0.0
 71
     5
 72
     1
  1
2.5
 11
0.0000000000000001
 21
1.0
 31
0.0
 73
     1
 44
1.0
  0
POINT
  5
1571
330
1568
100
AcDbEntity
  8
Defpoints
 62
     0
 48
0.15
100
AcDbPoint
 10
359.5425658643362
 20
138.2614058761542
 30
0.0
  0
POINT
  5
1572
330
1568
100
AcDbEntity
  8
Defpoints
 62
     0
 48
0.15
100
AcDbPoint
 10
359.5425658643362
 20
135.7614058761542
 30
0.0
  0
POINT
  5
1573
330
1568
100
AcDbEntity
  8
Defpoints
 62
     0
 48
0.15
100
AcDbPoint
 10
371.0632142784011
 20
135.7614058761542
 30
0.0
  0
ENDBLK
  5
1575
330
1568
100
AcDbEntity
  8
0
 48
0.15
100
AcDbBlockEnd
  0
ENDSEC
  0
SECTION
  2
ENTITIES
  0
VIEWPORT
  5
2F
330
1B
100
AcDbEntity
 67
     1
  8
0
100
AcDbViewport
 10
218.2943358336856
 20
98.20490660418029
 30
0.0
 40
924.410200221906
 41
658.0141632295707
 68
     1
 69
     1
 12
218.2943358336856
 22
98.20490660418029
 13
0.0
 23
0.0
 14
10.0
 24
10.0
 15
10.0
 25
10.0
 16
0.0
 26
0.0
 36
1.0
 17
0.0
 27
0.0
 37
0.0
 42
50.0
 43
0.0
 44
0.0
 45
658.0141632295707
 50
0.0
 51
0.0
 72
   100
 90
    32800
  1

281
     0
 71
     1
 74
     0
110
0.0
120
0.0
130
0.0
111
1.0
121
0.0
131
0.0
112
0.0
122
1.0
132
0.0
 79
     0
146
0.0
  0
LWPOLYLINE
  5
AA
330
1B
100
AcDbEntity
 67
     1
  8
２
 62
     0
100
AcDbPolyline
 90
        4
 70
     1
 43
0.0
 10
1.042221639059562
 20
284.1844718556203
 10
407.757958684845
 20
284.1844718556203
 10
407.757958684845
 20
1.08829855961801
 10
1.042221639059562
 20
1.08829855961801
  0
MTEXT
  5
1DD
330
1B
100
AcDbEntity
 67
     1
  8
１
100
AcDbMText
 10
187.6389970102438
 20
148.8327383458293
 30
0.0
 40
2.5
 41
0.0
 71
     9
 72
     1
  1

  7
ｽﾀｲﾙ1
 73
     1
 44
1.0
  0
MTEXT
  5
1DF
330
1B
100
AcDbEntity
 67
     1
  8
１
100
AcDbMText
 10
125.9251163363451
 20
100.1557259194321
 30
0.0
 40
2.5
 41
0.0
 71
     9
 72
     1
  1

  7
ｽﾀｲﾙ1
 73
     1
 44
1.0
  0
MTEXT
  5
1F5
330
1B
100
AcDbEntity
 67
     1
  8
１
100
AcDbMText
 10
95.93852678293661
 20
241.1781167614512
 30
0.0
 40
2.5
 41
0.0
 71
     1
 72
     1
  1

  7
ｽﾀｲﾙ1
 73
     1
 44
1.0
  0
MTEXT
  5
1F7
330
1B
100
AcDbEntity
 67
     1
  8
１
100
AcDbMText
 10
103.8845037960281
 20
221.796204377297
 30
0.0
 40
2.5
 41
0.0
 71
     1
 72
     1
  1

  7
ｽﾀｲﾙ1
 73
     1
 44
1.0
  0
LINE
  5
408
330
1B
100
AcDbEntity
 67
     1
  8
１
 62
     0
 48
25.0
100
AcDbLine
 10
6.993853619318826
 20
6.288298559618009
 30
0.0
 11
143.2187496312075
 21
6.288298559617537
 31
0.0
  0
LINE
  5
409
330
1B
100
AcDbEntity
 67
     1
  8
１
 62
     0
 48
25.0
100
AcDbLine
 10
143.2187496312075
 20
8.888298559618011
 30
0.0
 11
6.993853619318826
 21
8.888298559618011
 31
0.0
  0
LINE
  5
40A
330
1B
100
AcDbEntity
 67
     1
  8
１
 62
     0
 48
25.0
100
AcDbLine
 10
143.2187496312075
 20
3.68829855961801
 30
0.0
 11
6.993853619318826
 21
3.68829855961801
 31
0.0
  0
LINE
  5
40B
330
1B
100
AcDbEntity
 67
     1
  8
２
 62
     0
370
    20
100
AcDbLine
 10
2.157958684845141
 20
1.08829855961801
 30
0.0
 11
407.757958684845
 21
1.08829855961801
 31
0.0
  0
LINE
  5
40C
330
1B
100
AcDbEntity
 67
     1
  8
2
 62
     0
 48
25.0
100
AcDbLine
 10
2.157958684845141
 20
11.488298559618
 30
0.0
 11
407.757958684845
 21
11.488298559618
 31
0.0
  0
LINE
  5
40D
330
1B
100
AcDbEntity
 67
     1
  8
２
 62
     0
370
    20
100
AcDbLine
 10
407.757958684845
 20
1.08829855961801
 30
0.0
 11
17.7579586848451
 21
1.08829855961801
 31
0.0
  0
LINE
  5
40E
330
1B
100
AcDbEntity
 67
     1
  8
0
 62
     0
100
AcDbLine
 10
2.157958684845141
 20
1.08829855961801
 30
0.0
 11
407.757958684845
 21
1.08829855961801
 31
0.0
  0
LINE
  5
40F
330
1B
100
AcDbEntity
 67
     1
  8
0
 62
     0
100
AcDbLine
 10
17.7579586848451
 20
1.08829855961801
 30
0.0
 11
2.157958684845141
 21
1.08829855961801
 31
0.0
  0
MTEXT
  5
410
330
1B
100
AcDbEntity
 67
     1
  8
１
 62
     0
 48
20.0
100
AcDbMText
 10
4.575906684845307
 20
6.288298559618013
 30
0.0
 40
2.339999999999999
 41
4.835895999999999
 71
     5
 72
     5
  1
{\fMS UI Gothic|b0|i0|c128|p17;記\P事}
 73
     1
 44
1.0
  0
LINE
  5
411
330
1B
100
AcDbEntity
 67
     1
  8
２
 62
     0
 48
25.0
100
AcDbLine
 10
6.993853619318826
 20
11.488298559618
 30
0.0
 11
6.993853619318826
 21
1.08829855961801
 31
0.0
  0
MTEXT
  5
412
330
1B
100
AcDbEntity
 67
     1
  8
１
 62
     0
 48
25.0
100
AcDbMText
 10
380.922486627896
 20
6.288298559618013
 30
0.0
 40
3.9
 41
53.67094199999999
 71
     5
 72
     5
  1
{\fMS UI Gothic|b0|i0|c128|p17;株式会社 アルティマ}
 73
     1
 44
1.0
  0
LINE
  5
413
330
1B
100
AcDbEntity
 67
     1
  8
0
 62
     0
 48
25.0
100
AcDbLine
 10
198.0567989931067
 20
11.488298559618
 30
0.0
 11
218.4927989931064
 21
11.488298559618
 31
0.0
  0
MTEXT
  5
414
330
1B
100
AcDbEntity
 67
     1
  8
１
 62
     0
 48
25.0
100
AcDbMText
 10
208.006976893107
 20
6.288298559618013
 30
0.0
 40
2.339999999999999
 41
16.6764
 71
     5
 72
     5
  1
{\fMS UI Gothic|b0|i0|c128|p17;S=1/１}
 73
     1
 44
1.0
  0
LINE
  5
415
330
1B
100
AcDbEntity
 67
     1
  8
２
 62
     0
 48
25.0
100
AcDbLine
 10
198.0567989931067
 20
11.488298559618
 30
0.0
 11
198.0567989931067
 21
1.08829855961801
 31
0.0
  0
MTEXT
  5
416
330
1B
100
AcDbEntity
 67
     1
  8
１
 62
     0
 48
25.0
100
AcDbMText
 10
180.854726059599
 20
8.888298559618007
 30
0.0
 40
1.82
 41
34.40409999999999
 71
     5
 72
     5
  1
2019-9-18
 73
     1
 44
1.0
  0
LINE
  5
417
330
1B
100
AcDbEntity
 67
     1
  8
0
 62
     0
 48
25.0
100
AcDbLine
 10
143.2187496312075
 20
11.488298559618
 30
0.0
 11
143.2187496312075
 21
6.288298559618009
 31
0.0
  0
MTEXT
  5
418
330
1B
100
AcDbEntity
 67
     1
  8
１
 62
     0
 48
25.0
100
AcDbMText
 10
153.8116670312071
 20
8.888298559618007
 30
0.0
 40
2.339999999999999
 41
21.1858348
 71
     5
 72
     5
  1
{\fMS UI Gothic|b0|i0|c128|p17;作図日}
 73
     1
 44
1.0
  0
MTEXT
  5
419
330
1B
100
AcDbEntity
 67
     1
  8
１
 62
     0
 48
25.0
100
AcDbMText
 10
180.854726059599
 20
3.688298559618004
 30
0.0
 40
1.82
 41
34.4041464
 71
     5
 72
     5
  1
E.Nomura
 73
     1
 44
1.0
  0
MTEXT
  5
41A
330
1B
100
AcDbEntity
 67
     1
  8
１
 62
     0
 48
25.0
100
AcDbMText
 10
153.4357018312073
 20
3.688298559618004
 30
0.0
 40
2.339999999999999
 41
20.4339044
 71
     5
 72
     5
  1
{\fMS UI Gothic|b0|i0|c128|p17;作図者}
 73
     1
 44
1.0
  0
LINE
  5
41B
330
1B
100
AcDbEntity
 67
     1
  8
２
 62
     0
 48
25.0
100
AcDbLine
 10
143.2187496312075
 20
11.488298559618
 30
0.0
 11
143.2187496312075
 21
1.08829855961801
 31
0.0
  0
LINE
  5
41C
330
1B
100
AcDbEntity
 67
     1
  8
２
 62
     0
 48
25.0
100
AcDbLine
 10
143.2187496312075
 20
6.288298559617537
 30
0.0
 11
143.2187496312075
 21
1.08829855961801
 31
0.0
  0
LINE
  5
41D
330
1B
100
AcDbEntity
 67
     1
  8
２
 62
     0
 48
25.0
100
AcDbLine
 10
163.6526528595987
 20
11.488298559618
 30
0.0
 11
163.6526528595987
 21
1.08829855961801
 31
0.0
  0
LINE
  5
41E
330
1B
100
AcDbEntity
 67
     1
  8
１
 62
     0
 48
25.0
100
AcDbLine
 10
143.2187496312075
 20
6.288298559618009
 30
0.0
 11
198.0567989931067
 21
6.288298559618009
 31
0.0
  0
LINE
  5
41F
330
1B
100
AcDbEntity
 67
     1
  8
２
 62
     0
 48
25.0
100
AcDbLine
 10
143.2187496312075
 20
11.488298559618
 30
0.0
 11
198.0567989931067
 21
11.488298559618
 31
0.0
  0
LINE
  5
420
330
1B
100
AcDbEntity
 67
     1
  8
１
 62
     0
 48
25.0
100
AcDbLine
 10
218.4927989931064
 20
6.288298559618009
 30
0.0
 11
333.27521464208
 21
6.288298559618009
 31
0.0
  0
LINE
  5
421
330
1B
100
AcDbEntity
 67
     1
  8
0
 62
     0
 48
25.0
100
AcDbLine
 10
218.4927989931064
 20
11.488298559618
 30
0.0
 11
238.9287989931069
 21
11.488298559618
 31
0.0
  0
MTEXT
  5
422
330
1B
100
AcDbEntity
 67
     1
  8
１
 62
     0
 48
25.0
100
AcDbMText
 10
228.7107989931072
 20
8.888298559618007
 30
0.0
 40
2.339999999999999
 41
20.436
 71
     5
 72
     5
  1
{\fMS UI Gothic|b0|i0|c128|p17;物件名称}
 73
     1
 44
1.0
  0
MTEXT
  5
423
330
1B
100
AcDbEntity
 67
     1
  8
１
 62
     0
 48
25.0
100
AcDbMText
 10
228.7107989931072
 20
3.688298559618004
 30
0.0
 40
2.339999999999999
 41
20.436
 71
     5
 72
     5
  1
{\fMS UI Gothic|b0|i0|c128|p17;図　　　名}
 73
     1
 44
1.0
  0
LINE
  5
424
330
1B
100
AcDbEntity
 67
     1
  8
0
 62
     0
 48
25.0
100
AcDbLine
 10
218.4927989931064
 20
11.488298559618
 30
0.0
 11
218.4927989931064
 21
1.08829855961801
 31
0.0
  0
LINE
  5
425
330
1B
100
AcDbEntity
 67
     1
  8
２
 62
     0
 48
25.0
100
AcDbLine
 10
218.4927989931064
 20
11.488298559618
 30
0.0
 11
218.4927989931064
 21
1.08829855961801
 31
0.0
  0
LINE
  5
426
330
1B
100
AcDbEntity
 67
     1
  8
２
 62
     0
 48
25.0
100
AcDbLine
 10
238.9287989931069
 20
11.488298559618
 30
0.0
 11
238.9287989931069
 21
1.08829855961801
 31
0.0
  0
LINE
  5
427
330
1B
100
AcDbEntity
 67
     1
  8
0
 62
     0
 48
25.0
100
AcDbLine
 10
230.4397987437844
 20
11.488298559618
 30
0.0
 11
292.2633787437843
 21
11.488298559618
 31
0.0
  0
HATCH
  5
428
330
1B
100
AcDbEntity
 67
     1
  8
Object
 62
     0
 48
0.3
100
AcDbHatch
 10
0.0
 20
0.0
 30
0.0
210
0.0
220
0.0
230
1.0
  2
ANSI31
 70
     0
 71
     1
 91
        1
 92
        1
 93
        6
 72
     1
 10
345.7559450982395
 20
9.347503649218374
 11
346.8791450982394
 21
9.347503649218374
 72
     1
 10
346.8791450982394
 20
9.347503649218374
 11
346.8791450982394
 21
4.405423649218423
 72
     1
 10
346.8791450982394
 20
4.405423649218423
 11
349.1255450982392
 21
4.405423649218423
 72
     1
 10
349.1255450982392
 20
4.405423649218423
 11
349.1255450982392
 21
3.282223649218499
 72
     1
 10
349.1255450982392
 20
3.282223649218499
 11
345.7559450982395
 21
3.282223649218499
 72
     1
 10
345.7559450982395
 20
3.282223649218499
 11
345.7559450982395
 21
9.347503649218374
 97
        6
330
42F
330
44F
330
43F
330
43D
330
440
330
44D
 75
     0
 76
     1
 52
0.0
 41
0.00468
 77
     0
 78
     1
 53
45.0
 43
277.0586179603783
 44
-39.40296006486493
 45
-0.0105068996616509
 46
0.0105068996616509
 79
     0
 98
        1
 10
277.0586179603783
 20
-39.40296006486493
  0
HATCH
  5
429
330
1B
100
AcDbEntity
 67
     1
  8
Object
 62
     0
 48
0.3
100
AcDbHatch
 10
0.0
 20
0.0
 30
0.0
210
0.0
220
0.0
230
1.0
  2
ANSI31
 70
     0
 71
     0
 91
        1
 92
        7
 72
     1
 73
     1
 93
       17
 10
351.2469538682474
 20
4.973920343988897
 42
0.0
 10
351.2469538682474
 20
7.662703649218489
 42
-1.0
 10
352.3701538682473
 20
7.662703649218489
 42
0.0
 10
352.3701538682473
 20
7.013858581380404
 42
0.0
 10
353.4933538682472
 20
7.013858581380404
 42
0.0
 10
353.4933538682472
 20
7.662703649218489
 42
1.0
 10
350.1237538682474
 20
7.662703649218489
 42
0.0
 10
350.1237538682474
 20
4.973920343988897
 42
0.3509045778194451
 10
351.4394428629414
 20
3.330050487290604
 42
0.407199901548665
 10
352.3701538682473
 20
3.877388708773791
 42
0.0
 10
352.3701538682473
 20
3.282223649218497
 42
0.0
 10
353.4933538682472
 20
3.282223649218497
 42
0.0
 10
353.4933538682472
 20
6.33880114490555
 42
0.0
 10
351.8101362509458
 20
6.33880114490555
 42
0.0
 10
351.8101362509458
 20
5.215601144905626
 42
0.0
 10
352.3701538682473
 20
5.215601144905626
 42
0.0
 10
352.3701538682473
 20
4.973920343988897
 42
-1.0
 97
        0
 75
     0
 76
     1
 52
0.0
 41
0.00468
 77
     0
 78
     1
 53
45.0
 43
277.0586179603783
 44
-39.40296006486493
 45
-0.0105068996616509
 46
0.0105068996616509
 79
     0
 47
0.0407053698821989
 98
        1
 10
351.694642141981
 20
4.056669519006494
  0
HATCH
  5
42A
330
1B
100
AcDbEntity
 67
     1
  8
Object
 62
     0
 48
0.3
100
AcDbHatch
 10
0.0
 20
0.0
 30
0.0
210
0.0
220
0.0
230
1.0
  2
ANSI31
 70
     0
 71
     1
 91
        1
 92
        1
 93
        8
 72
     1
 10
341.6375450982394
 20
9.347503649218374
 11
340.5143450982395
 21
9.347503649218374
 72
     1
 10
340.5143450982395
 20
9.347503649218374
 11
340.5143450982395
 21
4.967023649218386
 72
     2
 10
342.1991450982394
 20
4.967023649218386
 40
1.6848
 50
180.0
 51
360.0
 73
     1
 72
     1
 10
343.8839450982393
 20
4.967023649218386
 11
343.8839450982393
 21
9.347503649218374
 72
     1
 10
343.8839450982393
 20
9.347503649218374
 11
342.7607450982394
 21
9.347503649218374
 72
     1
 10
342.7607450982394
 20
9.347503649218374
 11
342.7607450982394
 21
4.967023649218386
 72
     2
 10
342.1991450982394
 20
4.967023649218386
 40
0.5616000000000002
 50
360.0
 51
540.0
 73
     0
 72
     1
 10
341.6375450982394
 20
4.967023649218386
 11
341.6375450982394
 21
9.347503649218374
 97
        8
330
432
330
447
330
444
330
44E
330
434
330
445
330
443
330
446
 75
     0
 76
     1
 52
0.0
 41
0.00468
 77
     0
 78
     1
 53
45.0
 43
277.0586179603783
 44
-39.40296006486493
 45
-0.0105068996616509
 46
0.0105068996616509
 79
     0
 98
        1
 10
277.0586179603783
 20
-39.40296006486493
  0
LINE
  5
42B
330
1B
100
AcDbEntity
 67
     1
  8
Object
 62
     0
 48
0.3
100
AcDbLine
 10
353.4933538682472
 20
6.338801144905552
 30
0.0
 11
351.8101362509458
 21
6.338801144905552
 31
0.0
  0
LINE
  5
42C
330
1B
100
AcDbEntity
 67
     1
  8
Object
 62
     0
 48
0.3
100
AcDbLine
 10
352.3701538682472
 20
7.013858581380404
 30
0.0
 11
353.4933538682472
 21
7.013858581380404
 31
0.0
  0
LINE
  5
42D
330
1B
100
AcDbEntity
 67
     1
  8
Object
 62
     0
 48
0.3
100
AcDbLine
 10
352.3701538682472
 20
7.013858581380404
 30
0.0
 11
352.3701538682472
 21
7.662703649218489
 31
0.0
  0
LINE
  5
42E
330
1B
100
AcDbEntity
 67
     1
  8
Object
 62
     0
 48
0.3
100
AcDbLine
 10
353.4933538682472
 20
7.662703649218489
 30
0.0
 11
353.4933538682472
 21
7.013858581380404
 31
0.0
  0
LINE
  5
42F
102
{ACAD_REACTORS
330
428
102
}
330
1B
100
AcDbEntity
 67
     1
  8
Object
 62
     0
 48
0.3
100
AcDbLine
 10
345.7559450982395
 20
9.347503649218374
 30
0.0
 11
346.8791450982394
 21
9.347503649218374
 31
0.0
  0
ARC
  5
430
330
1B
100
AcDbEntity
 67
     1
  8
Object
 62
     0
 48
0.3
100
AcDbCircle
 10
351.8085538682473
 20
7.662703649218489
 30
0.0
 40
0.5616000000000002
100
AcDbArc
 50
0.0
 51
180.0
  0
ARC
  5
431
330
1B
100
AcDbEntity
 67
     1
  8
Object
 62
     0
 48
0.3
100
AcDbCircle
 10
351.8085538682473
 20
7.662703649218489
 30
0.0
 40
1.6848
100
AcDbArc
 50
0.0
 51
180.0
  0
LINE
  5
432
102
{ACAD_REACTORS
330
42A
102
}
330
1B
100
AcDbEntity
 67
     1
  8
Object
 62
     0
 48
0.3
100
AcDbLine
 10
341.6375450982394
 20
9.347503649218374
 30
0.0
 11
340.5143450982395
 21
9.347503649218374
 31
0.0
  0
LINE
  5
433
330
1B
100
AcDbEntity
 67
     1
  8
Object
 62
     0
 48
0.3
100
AcDbLine
 10
340.5143450982395
 20
9.347503649218374
 30
0.0
 11
341.6375450982394
 21
9.347503649218374
 31
0.0
  0
LINE
  5
434
102
{ACAD_REACTORS
330
42A
102
}
330
1B
100
AcDbEntity
 67
     1
  8
Object
 62
     0
 48
0.3
100
AcDbLine
 10
342.7607450982394
 20
9.347503649218374
 30
0.0
 11
343.8839450982393
 21
9.347503649218374
 31
0.0
  0
LINE
  5
435
330
1B
100
AcDbEntity
 67
     1
  8
Object
 62
     0
 48
0.3
100
AcDbLine
 10
352.3701538682472
 20
3.877388708771899
 30
0.0
 11
352.3701538682472
 21
3.282223649218499
 31
0.0
  0
LINE
  5
436
330
1B
100
AcDbEntity
 67
     1
  8
Object
 62
     0
 48
0.3
100
AcDbLine
 10
352.3701538682472
 20
5.215601144905626
 30
0.0
 11
352.3701538682472
 21
4.973920343988897
 31
0.0
  0
LINE
  5
437
330
1B
100
AcDbEntity
 67
     1
  8
Object
 62
     0
 48
0.3
100
AcDbLine
 10
351.8101362509458
 20
5.215601144905626
 30
0.0
 11
352.3701538682472
 21
5.215601144905626
 31
0.0
  0
LINE
  5
438
330
1B
100
AcDbEntity
 67
     1
  8
Object
 62
     0
 48
0.3
100
AcDbLine
 10
352.3701538682472
 20
5.215601144905626
 30
0.0
 11
352.3701538682472
 21
4.955799910284218
 31
0.0
  0
LINE
  5
439
330
1B
100
AcDbEntity
 67
     1
  8
Object
 62
     0
 48
0.3
100
AcDbLine
 10
352.3701538682472
 20
4.973920343988897
 30
0.0
 11
352.3701538682472
 21
5.215601144905626
 31
0.0
  0
LINE
  5
43A
330
1B
100
AcDbEntity
 67
     1
  8
Object
 62
     0
 48
0.3
100
AcDbLine
 10
351.8101362509458
 20
5.215601144905626
 30
0.0
 11
352.3701538682472
 21
5.215601144905626
 31
0.0
  0
LINE
  5
43B
330
1B
100
AcDbEntity
 67
     1
  8
Object
 62
     0
 48
0.3
100
AcDbLine
 10
353.4933538682472
 20
3.282223649218499
 30
0.0
 11
352.3701538682472
 21
3.282223649218499
 31
0.0
  0
LINE
  5
43C
330
1B
100
AcDbEntity
 67
     1
  8
Object
 62
     0
 48
0.3
100
AcDbLine
 10
352.3701538682472
 20
3.282223649218499
 30
0.0
 11
353.4933538682472
 21
3.282223649218499
 31
0.0
  0
LINE
  5
43D
102
{ACAD_REACTORS
330
428
102
}
330
1B
100
AcDbEntity
 67
     1
  8
Object
 62
     0
 48
0.3
100
AcDbLine
 10
349.1255450982392
 20
3.282223649218499
 30
0.0
 11
349.1255450982392
 21
4.405423649218423
 31
0.0
  0
ARC
  5
43E
330
1B
100
AcDbEntity
 67
     1
  8
Object
 62
     0
 48
0.3
100
AcDbCircle
 10
351.8085538682473
 20
4.973920343988897
 30
0.0
 40
1.6848
100
AcDbArc
 50
180.0
 51
257.3448222610501
  0
LINE
  5
43F
102
{ACAD_REACTORS
330
428
102
}
330
1B
100
AcDbEntity
 67
     1
  8
Object
 62
     0
 48
0.3
100
AcDbLine
 10
349.1255450982392
 20
4.405423649218423
 30
0.0
 11
346.8791450982394
 21
4.405423649218423
 31
0.0
  0
LINE
  5
440
102
{ACAD_REACTORS
330
428
102
}
330
1B
100
AcDbEntity
 67
     1
  8
Object
 62
     0
 48
0.3
100
AcDbLine
 10
345.7559450982395
 20
3.282223649218499
 30
0.0
 11
349.1255450982392
 21
3.282223649218499
 31
0.0
  0
ARC
  5
441
330
1B
100
AcDbEntity
 67
     1
  8
Object
 62
     0
 48
0.3
100
AcDbCircle
 10
351.6244795921702
 20
4.080382394780059
 30
0.0
 40
0.7728108193866524
100
AcDbArc
 50
256.1468978562146
 51
344.7714912032799
  0
ARC
  5
442
330
1B
100
AcDbEntity
 67
     1
  8
Object
 62
     0
 48
0.3
100
AcDbCircle
 10
351.8085538682473
 20
4.973920343988897
 30
0.0
 40
0.5616000000000002
100
AcDbArc
 50
180.0
 51
0.0
  0
ARC
  5
443
102
{ACAD_REACTORS
330
42A
102
}
330
1B
100
AcDbEntity
 67
     1
  8
Object
 62
     0
 48
0.3
100
AcDbCircle
 10
342.1991450982394
 20
4.967023649218386
 30
0.0
 40
0.5616000000000002
100
AcDbArc
 50
180.0
 51
0.0
  0
ARC
  5
444
102
{ACAD_REACTORS
330
42A
102
}
330
1B
100
AcDbEntity
 67
     1
  8
Object
 62
     0
 48
0.3
100
AcDbCircle
 10
342.1991450982394
 20
4.967023649218386
 30
0.0
 40
1.6848
100
AcDbArc
 50
180.0
 51
0.0
  0
LINE
  5
445
102
{ACAD_REACTORS
330
42A
102
}
330
1B
100
AcDbEntity
 67
     1
  8
Object
 62
     0
 48
0.3
100
AcDbLine
 10
342.7607450982394
 20
9.347503649218374
 30
0.0
 11
342.7607450982394
 21
4.967023649218386
 31
0.0
  0
LINE
  5
446
102
{ACAD_REACTORS
330
42A
102
}
330
1B
100
AcDbEntity
 67
     1
  8
Object
 62
     0
 48
0.3
100
AcDbLine
 10
341.6375450982394
 20
9.347503649218374
 30
0.0
 11
341.6375450982394
 21
4.967023649218386
 31
0.0
  0
LINE
  5
447
102
{ACAD_REACTORS
330
42A
102
}
330
1B
100
AcDbEntity
 67
     1
  8
Object
 62
     0
 48
0.3
100
AcDbLine
 10
340.5143450982395
 20
4.967023649218386
 30
0.0
 11
340.5143450982395
 21
9.347503649218374
 31
0.0
  0
LINE
  5
448
330
1B
100
AcDbEntity
 67
     1
  8
２
 62
     0
 48
20.0
100
AcDbLine
 10
333.27521464208
 20
11.488298559618
 30
0.0
 11
333.27521464208
 21
1.08829855961801
 31
0.0
  0
LINE
  5
449
330
1B
100
AcDbEntity
 67
     1
  8
1
 62
     0
 48
20.0
100
AcDbLine
 10
333.27521464208
 20
11.488298559618
 30
0.0
 11
333.27521464208
 21
1.08829855961801
 31
0.0
  0
LINE
  5
44A
330
1B
100
AcDbEntity
 67
     1
  8
Object
 62
     0
 48
0.3
100
AcDbLine
 10
351.2469538682474
 20
4.973920343988897
 30
0.0
 11
351.2469538682474
 21
7.662703649218489
 31
0.0
  0
LINE
  5
44B
330
1B
100
AcDbEntity
 67
     1
  8
Object
 62
     0
 48
0.3
100
AcDbLine
 10
350.1237538682464
 20
4.909468561639801
 30
0.0
 11
350.1237538682464
 21
7.662703649218489
 31
0.0
  0
LINE
  5
44C
330
1B
100
AcDbEntity
 67
     1
  8
Object
 62
     0
 48
0.3
100
AcDbLine
 10
351.2469538682474
 20
4.973920343988897
 30
0.0
 11
351.2469538682474
 21
7.662703649218489
 31
0.0
  0
LINE
  5
44D
102
{ACAD_REACTORS
330
428
102
}
330
1B
100
AcDbEntity
 67
     1
  8
Object
 62
     0
 48
0.3
100
AcDbLine
 10
345.7559450982395
 20
9.347503649218374
 30
0.0
 11
345.7559450982395
 21
3.282223649218499
 31
0.0
  0
LINE
  5
44E
102
{ACAD_REACTORS
330
42A
102
}
330
1B
100
AcDbEntity
 67
     1
  8
Object
 62
     0
 48
0.3
100
AcDbLine
 10
343.8839450982393
 20
9.347503649218374
 30
0.0
 11
343.8839450982393
 21
4.967023649218386
 31
0.0
  0
LINE
  5
44F
102
{ACAD_REACTORS
330
428
102
}
330
1B
100
AcDbEntity
 67
     1
  8
Object
 62
     0
 48
0.3
100
AcDbLine
 10
346.8791450982394
 20
9.347503649218374
 30
0.0
 11
346.8791450982394
 21
4.405423649218423
 31
0.0
  0
LINE
  5
450
330
1B
100
AcDbEntity
 67
     1
  8
Object
 62
     0
 48
0.3
100
AcDbLine
 10
353.4933538682472
 20
6.338801144905078
 30
0.0
 11
353.4933538682472
 21
3.282223649218499
 31
0.0
  0
LINE
  5
451
330
1B
100
AcDbEntity
 67
     1
  8
Object
 62
     0
 48
0.3
100
AcDbLine
 10
351.8101362509458
 20
6.338801144905552
 30
0.0
 11
351.8101362509458
 21
5.215601144905626
 31
0.0
  0
LINE
  5
452
330
1B
100
AcDbEntity
 67
     1
  8
2
 62
     0
100
AcDbLine
 10
2.157958684845141
 20
11.488298559618
 30
0.0
 11
1.042221639059562
 21
11.488298559618
 31
0.0
  0
LINE
  5
453
330
1B
100
AcDbEntity
 67
     1
  8
2
 62
     0
100
AcDbLine
 10
1.042221639059562
 20
11.488298559618
 30
0.0
 11
407.757958684845
 21
11.48829855961798
 31
0.0
  0
LINE
  5
454
330
1B
100
AcDbEntity
 67
     1
  8
2
 62
     0
100
AcDbLine
 10
143.2187496312075
 20
11.488298559618
 30
0.0
 11
143.2187496312075
 21
1.08829855961801
 31
0.0
  0
LINE
  5
455
330
1B
100
AcDbEntity
 67
     1
  8
2
 62
     0
100
AcDbLine
 10
163.6526528595987
 20
11.48829855961799
 30
0.0
 11
163.6526528595987
 21
1.08829855961801
 31
0.0
  0
LINE
  5
456
330
1B
100
AcDbEntity
 67
     1
  8
2
 62
     0
100
AcDbLine
 10
198.0567989931067
 20
11.48829855961799
 30
0.0
 11
198.0567989931068
 21
1.08829855961801
 31
0.0
  0
LINE
  5
457
330
1B
100
AcDbEntity
 67
     1
  8
2
 62
     0
100
AcDbLine
 10
218.4927989931064
 20
11.48829855961799
 30
0.0
 11
218.4927989931064
 21
1.08829855961801
 31
0.0
  0
LINE
  5
458
330
1B
100
AcDbEntity
 67
     1
  8
2
 62
     0
100
AcDbLine
 10
238.9287989931069
 20
11.48829855961799
 30
0.0
 11
238.9287989931069
 21
1.08829855961801
 31
0.0
  0
LINE
  5
459
330
1B
100
AcDbEntity
 67
     1
  8
2
 62
     0
100
AcDbLine
 10
333.27521464208
 20
11.48829855961799
 30
0.0
 11
333.27521464208
 21
1.08829855961801
 31
0.0
  0
LINE
  5
45A
330
1B
100
AcDbEntity
 67
     1
  8
2
 62
     0
100
AcDbLine
 10
143.2187496312075
 20
6.288298559617537
 30
0.0
 11
198.0567989931067
 21
6.288298559617536
 31
0.0
  0
LINE
  5
45B
330
1B
100
AcDbEntity
 67
     1
  8
2
 62
     0
100
AcDbLine
 10
218.4927989931064
 20
6.288298559618004
 30
0.0
 11
333.27521464208
 21
6.288298559618009
 31
0.0
  0
LINE
  5
45C
330
1B
100
AcDbEntity
 67
     1
  8
2
 62
     0
100
AcDbLine
 10
6.993853619318826
 20
11.488298559618
 30
0.0
 11
6.993853619318826
 21
1.08829855961801
 31
0.0
  0
MTEXT
  5
492
330
1B
100
AcDbEntity
 67
     1
  8
1
 62
     1
100
AcDbMText
 10
141.076492619535
 20
2.388298559618007
 30
0.0
 40
0.8
 41
4.2845
 71
     5
 72
     5
  1
2.34
 73
     1
 44
1.0
  0
LINE
  5
7C2
330
1B
100
AcDbEntity
 67
     1
  8
0
 62
     0
 48
0.2
100
AcDbLine
 10
84.72490647047186
 20
130.6119212050723
 30
0.0
 11
84.27768059741003
 21
142.6359132642789
 31
0.0
  0
LINE
  5
7C3
330
1B
100
AcDbEntity
 67
     1
  8
0
 62
     0
 48
0.2
100
AcDbLine
 10
82.80745902498313
 20
129.6125854324798
 30
0.0
 11
82.27754524049293
 21
142.6393896170202
 31
0.0
  0
LINE
  5
7C4
330
1B
100
AcDbEntity
 67
     1
  8
0
 62
     0
 48
0.2
100
AcDbLine
 10
86.72490647047187
 20
130.6119212050723
 30
0.0
 11
86.27768059741004
 21
142.6359132642789
 31
0.0
  0
LINE
  5
7C5
330
1B
100
AcDbEntity
 67
     1
  8
0
 62
     0
 48
0.2
100
AcDbLine
 10
78.80162874283121
 20
128.4876024720432
 30
0.0
 11
78.18467301115799
 21
145.0492189035583
 31
0.0
  0
LINE
  5
7C6
330
1B
100
AcDbEntity
 67
     1
  8
0
 62
     0
 48
0.2
100
AcDbLine
 10
76.81727120131938
 20
128.0666572011322
 30
0.0
 11
76.18536758857761
 21
145.0119540085295
 31
0.0
  0
LINE
  5
7C7
330
1B
100
AcDbEntity
 67
     1
  8
0
 62
     0
 48
0.2
100
AcDbLine
 10
80.78585949167347
 20
128.9109137011608
 30
0.0
 11
80.21281156904604
 21
144.3285452830959
 31
0.0
  0
ARC
  5
7C8
330
1B
100
AcDbEntity
 67
     1
  8
0
 62
     0
 48
0.2
100
AcDbCircle
 10
60.88749735257954
 20
137.1578866719852
 30
0.0
 40
7.991332231573323
100
AcDbArc
 50
96.90874086239707
 51
270.0
  0
ARC
  5
7C9
330
1B
100
AcDbEntity
 67
     1
  8
0
 62
     0
 48
0.2
100
AcDbCircle
 10
60.88749735257954
 20
137.1578866719852
 30
0.0
 40
9.991332231573323
100
AcDbArc
 50
95.47083683496024
 51
270.0
  0
DIMENSION
  5
7CA
330
1B
100
AcDbEntity
 67
     1
  8
0
 62
     0
 48
0.2
100
AcDbDimension
  2
*D1
 10
114.470888724555
 20
146.1665544404119
 30
0.0
 11
114.5375373292242
 21
152.3657550326267
 31
0.0
 70
   161
  1
%%c19
 71
     5
 42
19.00000000000001
  3
ISO-25
100
AcDbAlignedDimension
 13
77.85456582972244
 23
127.1665544404119
 33
0.0
 14
77.85456582972244
 24
146.1665544404119
 34
0.0
1001
ACAD
1000
DSTYLE
1002
{
1070
   279
1070
     2
1002
}
  0
ARC
  5
7CC
330
1B
100
AcDbEntity
 67
     1
  8
0
 62
     0
 48
0.2
100
AcDbCircle
 10
91.72088101271276
 20
130.7015577556985
 30
0.0
 40
1.0
100
AcDbArc
 50
175.763184449436
 51
4.260207142359458
  0
ARC
  5
7CD
330
1B
100
AcDbEntity
 67
     1
  8
0
 62
     0
 48
0.2
100
AcDbCircle
 10
87.72088101271277
 20
130.7015577556985
 30
0.0
 40
1.0
100
AcDbArc
 50
185.1426984664482
 51
4.260207142359458
  0
ARC
  5
7CE
330
1B
100
AcDbEntity
 67
     1
  8
0
 62
     0
 48
0.2
100
AcDbCircle
 10
89.72088101271276
 20
130.7015577556985
 30
0.0
 40
1.0
100
AcDbArc
 50
175.763184449436
 51
4.260207142359458
  0
ARC
  5
7CF
330
1B
100
AcDbEntity
 67
     1
  8
0
 62
     0
 48
0.2
100
AcDbCircle
 10
103.6822684093407
 20
131.7753172633856
 30
0.0
 40
1.0
100
AcDbArc
 50
180.0
 51
4.26680835240621
  0
ARC
  5
7D0
330
1B
100
AcDbEntity
 67
     1
  8
0
 62
     0
 48
0.2
100
AcDbCircle
 10
99.72088101271276
 20
130.7015577556985
 30
0.0
 40
1.0
100
AcDbArc
 50
180.0000000000032
 51
4.260207142359458
  0
ARC
  5
7D1
330
1B
100
AcDbEntity
 67
     1
  8
0
 62
     0
 48
0.2
100
AcDbCircle
 10
101.7208810127127
 20
130.7015577556985
 30
0.0
 40
1.0
100
AcDbArc
 50
175.763184449436
 51
4.260207142359458
  0
ARC
  5
7D2
330
1B
100
AcDbEntity
 67
     1
  8
0
 62
     0
 48
0.2
100
AcDbCircle
 10
95.72088101271276
 20
130.7015577556985
 30
0.0
 40
1.0
100
AcDbArc
 50
175.763184449436
 51
0.0
  0
ARC
  5
7D3
330
1B
100
AcDbEntity
 67
     1
  8
0
 62
     0
 48
0.2
100
AcDbCircle
 10
97.72088101271277
 20
130.7015577556985
 30
0.0
 40
1.0
100
AcDbArc
 50
175.763184449436
 51
4.260207142359458
  0
ARC
  5
7D4
330
1B
100
AcDbEntity
 67
     1
  8
0
 62
     0
 48
0.2
100
AcDbCircle
 10
93.72088101271277
 20
130.7015577556985
 30
0.0
 40
1.0
100
AcDbArc
 50
180.0000000000032
 51
4.260207142359458
  0
LINE
  5
7D5
330
1B
100
AcDbEntity
 67
     1
  8
0
 62
     0
 48
0.2
100
AcDbLine
 10
100.7208810127127
 20
130.7015577556984
 30
0.0
 11
100.2736551396509
 21
142.7255498149051
 31
0.0
  0
LINE
  5
7D6
330
1B
100
AcDbEntity
 67
     1
  8
0
 62
     0
 48
0.2
100
AcDbLine
 10
102.7208810127127
 20
130.7015577556984
 30
0.0
 11
102.2736551396509
 21
142.7255498149051
 31
0.0
  0
LINE
  5
7D7
330
1B
100
AcDbEntity
 67
     1
  8
0
 62
     0
 48
0.2
100
AcDbLine
 10
96.72088101271278
 20
130.7015577556984
 30
0.0
 11
96.27365513965095
 21
142.7255498149051
 31
0.0
  0
LINE
  5
7D8
330
1B
100
AcDbEntity
 67
     1
  8
0
 62
     0
 48
0.2
100
AcDbLine
 10
98.72088101271277
 20
130.7015577556984
 30
0.0
 11
98.27365513965094
 21
142.7255498149051
 31
0.0
  0
LINE
  5
7D9
330
1B
100
AcDbEntity
 67
     1
  8
0
 62
     0
 48
0.2
100
AcDbLine
 10
92.72088101271277
 20
130.7015577556984
 30
0.0
 11
92.27365513965095
 21
142.7255498149051
 31
0.0
  0
LINE
  5
7DA
330
1B
100
AcDbEntity
 67
     1
  8
0
 62
     0
 48
0.2
100
AcDbLine
 10
94.72088101271276
 20
130.7015577556984
 30
0.0
 11
94.27365513965094
 21
142.7255498149051
 31
0.0
  0
LINE
  5
7DB
330
1B
100
AcDbEntity
 67
     1
  8
0
 62
     0
 48
0.2
100
AcDbLine
 10
88.72088101271277
 20
130.7015577556984
 30
0.0
 11
88.27365513965094
 21
142.7255498149051
 31
0.0
  0
LINE
  5
7DC
330
1B
100
AcDbEntity
 67
     1
  8
0
 62
     0
 48
0.2
100
AcDbLine
 10
90.72088101271276
 20
130.7015577556984
 30
0.0
 11
90.27365513965094
 21
142.7255498149051
 31
0.0
  0
LINE
  5
7DD
330
1B
100
AcDbEntity
 67
     1
  8
0
 62
     0
 48
0.2
100
AcDbLine
 10
86.72088101271276
 20
130.7015577556984
 30
0.0
 11
86.27365513965093
 21
142.7255498149051
 31
0.0
  0
LINE
  5
7DE
330
1B
100
AcDbEntity
 67
     1
  8
0
 62
     0
 48
0.2
100
AcDbLine
 10
77.85456582972244
 20
129.1665544404119
 30
0.0
 11
62.88749735257955
 21
129.1665544404119
 31
0.0
  0
LINE
  5
7DF
330
1B
100
AcDbEntity
 67
     1
  8
0
 62
     0
 48
0.2
100
AcDbLine
 10
77.85456582972244
 20
127.1665544404119
 30
0.0
 11
62.88749735257955
 21
127.1665544404119
 31
0.0
  0
ARC
  5
7E0
330
1B
100
AcDbEntity
 67
     1
  8
0
 62
     0
 48
0.2
100
AcDbCircle
 10
77.85456582972244
 20
128.1665544404119
 30
0.0
 40
1.0
100
AcDbArc
 50
180.0
 51
19.02901600423707
  0
ARC
  5
7E1
330
1B
100
AcDbEntity
 67
     1
  8
0
 62
     0
 48
0.2
100
AcDbCircle
 10
83.80799754094288
 20
130.1188736678023
 30
0.0
 40
1.0
100
AcDbArc
 50
180.0
 51
6.174175209270644
  0
ARC
  5
7E2
330
1B
100
AcDbEntity
 67
     1
  8
0
 62
     0
 48
0.2
100
AcDbCircle
 10
81.80745902498314
 20
129.6125854324798
 30
0.0
 40
1.0
100
AcDbArc
 50
180.0
 51
4.658869876553793
  0
ARC
  5
7E3
330
1B
100
AcDbEntity
 67
     1
  8
0
 62
     0
 48
0.2
100
AcDbCircle
 10
79.78585949167348
 20
128.9109137011608
 30
0.0
 40
1.0
100
AcDbArc
 50
203.2722249375599
 51
4.257219433552106
  0
ARC
  5
7E4
330
1B
100
AcDbEntity
 67
     1
  8
0
 62
     0
 48
0.2
100
AcDbCircle
 10
85.72490647047187
 20
130.6119212050723
 30
0.0
 40
1.0
100
AcDbArc
 50
186.1741752100979
 51
5.142698466443373
  0
LINE
  5
7E5
330
1B
100
AcDbEntity
 67
     1
  8
0
 62
     0
 48
0.2
100
AcDbLine
 10
62.88749735257955
 20
127.1665544404119
 30
0.0
 11
60.4561580350429
 21
127.1758695334093
 31
0.0
  0
LINE
  5
7E6
330
1B
100
AcDbEntity
 67
     1
  8
0
 62
     0
 48
0.2
100
AcDbLine
 10
62.88749735257955
 20
129.1665544404119
 30
0.0
 11
60.88749735257954
 21
129.1665544404119
 31
0.0
  0
ARC
  5
7EC
330
1B
100
AcDbEntity
 67
     1
  8
0
 62
     0
 48
0.2
100
AcDbCircle
 10
97.27434613664479
 20
142.688381057713
 30
0.0
 40
1.0
100
AcDbArc
 50
2.130103571179942
 51
185.1426984664469
  0
LINE
  5
7EF
330
1B
100
AcDbEntity
 67
     1
  8
0
 62
     0
 48
0.2
100
AcDbLine
 10
104.6822684093407
 20
131.7753172633856
 30
0.0
 11
104.3101861807716
 21
141.7635268450228
 31
0.0
  0
LINE
  5
7F2
330
1B
100
AcDbEntity
 67
     1
  8
0
 62
     0
 48
0.2
100
AcDbLine
 10
106.6381085310046
 20
133.0166079455243
 30
0.0
 11
106.3404789499344
 21
141.0062038067841
 31
0.0
  0
ARC
  5
7FD
330
1B
100
AcDbEntity
 67
     1
  8
0
 62
     0
 48
0.2
100
AcDbCircle
 10
101.2743461366447
 20
142.688381057713
 30
0.0
 40
1.0
100
AcDbArc
 50
0.0
 51
177.872835482119
  0
ARC
  5
7FE
330
1B
100
AcDbEntity
 67
     1
  8
0
 62
     0
 48
0.2
100
AcDbCircle
 10
103.3101861807716
 20
141.7635268450228
 30
0.0
 40
1.0
100
AcDbArc
 50
359.9999999999967
 51
180.0
  0
ARC
  5
7FF
330
1B
100
AcDbEntity
 67
     1
  8
0
 62
     0
 48
0.2
100
AcDbCircle
 10
99.2743461366448
 20
142.688381057713
 30
0.0
 40
1.0
100
AcDbArc
 50
354.8983204758624
 51
177.8728354821173
  0
ARC
  5
801
330
1B
100
AcDbEntity
 67
     1
  8
0
 62
     0
 48
0.2
100
AcDbCircle
 10
79.2135015972907
 20
144.2914025805783
 30
0.0
 40
1.0
100
AcDbArc
 50
0.0
 51
180.0
  0
ARC
  5
802
330
1B
100
AcDbEntity
 67
     1
  8
0
 62
     0
 48
0.2
100
AcDbCircle
 10
83.25804903943719
 20
143.0983313301313
 30
0.0
 40
1.0
100
AcDbArc
 50
0.0
 51
180.0
  0
ARC
  5
803
330
1B
100
AcDbEntity
 67
     1
  8
0
 62
     0
 48
0.2
100
AcDbCircle
 10
81.24068547123476
 20
143.5980341328313
 30
0.0
 40
1.0
100
AcDbArc
 50
0.0
 51
180.0
  0
ARC
  5
804
330
1B
100
AcDbEntity
 67
     1
  8
0
 62
     0
 48
0.2
100
AcDbCircle
 10
85.27837159440389
 20
142.5987445070868
 30
0.0
 40
1.0
100
AcDbArc
 50
359.3266143939447
 51
177.8728354821157
  0
ARC
  5
805
330
1B
100
AcDbEntity
 67
     1
  8
0
 62
     0
 48
0.2
100
AcDbCircle
 10
91.2743461366448
 20
142.688381057713
 30
0.0
 40
1.0
100
AcDbArc
 50
354.8983204758624
 51
177.8728354821173
  0
ARC
  5
806
330
1B
100
AcDbEntity
 67
     1
  8
0
 62
     0
 48
0.2
100
AcDbCircle
 10
87.27434613664479
 20
142.688381057713
 30
0.0
 40
1.0
100
AcDbArc
 50
354.8983204758624
 51
177.8728354821173
  0
ARC
  5
807
330
1B
100
AcDbEntity
 67
     1
  8
0
 62
     0
 48
0.2
100
AcDbCircle
 10
89.27434613664479
 20
142.688381057713
 30
0.0
 40
1.0
100
AcDbArc
 50
0.0
 51
177.872835482119
  0
ARC
  5
808
330
1B
100
AcDbEntity
 67
     1
  8
0
 62
     0
 48
0.2
100
AcDbCircle
 10
95.2743461366448
 20
142.688381057713
 30
0.0
 40
1.0
100
AcDbArc
 50
354.8983204758624
 51
185.142698466447
  0
ARC
  5
809
330
1B
100
AcDbEntity
 67
     1
  8
0
 62
     0
 48
0.2
100
AcDbCircle
 10
93.27434613664479
 20
142.688381057713
 30
0.0
 40
1.0
100
AcDbArc
 50
2.130103571179942
 51
185.1426984664469
  0
ARC
  5
80A
330
1B
100
AcDbEntity
 67
     1
  8
0
 62
     0
 48
0.2
100
AcDbCircle
 10
77.18467301115777
 20
145.0492189035583
 30
0.0
 40
1.0
100
AcDbArc
 50
359.9999999999983
 51
182.1356156821969
  0
ARC
  5
80B
330
1B
100
AcDbEntity
 67
     1
  8
0
 62
     0
 48
0.2
100
AcDbCircle
 10
63.66935643751947
 20
143.0911938616571
 30
0.0
 40
4.0
100
AcDbArc
 50
0.0
 51
88.10457252193783
  0
ARC
  5
80C
330
1B
100
AcDbEntity
 67
     1
  8
0
 62
     0
 48
0.2
100
AcDbCircle
 10
63.66935643751947
 20
143.0911938616571
 30
0.0
 40
2.0
100
AcDbArc
 50
0.0
 51
90.0
  0
LINE
  5
80D
330
1B
100
AcDbEntity
 67
     1
  8
0
 62
     0
 48
0.2
100
AcDbLine
 10
67.66935643751947
 20
140.1539396083188
 30
0.0
 11
67.66935643751947
 21
143.1635138416995
 31
0.0
  0
LINE
  5
80E
330
1B
100
AcDbEntity
 67
     1
  8
0
 62
     0
 48
0.2
100
AcDbLine
 10
65.66935643751946
 20
140.1539396083188
 30
0.0
 11
65.66935643751946
 21
143.0911938616571
 31
0.0
  0
LINE
  5
80F
330
1B
100
AcDbEntity
 67
     1
  8
0
 62
     0
 48
0.2
100
AcDbLine
 10
67.66935643751947
 20
141.2103297705612
 30
0.0
 11
67.66935643751947
 21
139.5439396083188
 31
0.0
  0
LINE
  5
810
330
1B
100
AcDbEntity
 67
     1
  8
0
 62
     0
 48
0.2
100
AcDbLine
 10
65.66935643751946
 20
141.2103297705612
 30
0.0
 11
65.66935643751946
 21
139.5439396083188
 31
0.0
  0
LINE
  5
811
330
1B
100
AcDbEntity
 67
     1
  8
0
 62
     0
 48
0.2
100
AcDbLine
 10
67.66935643751947
 20
139.5439396083188
 30
0.0
 11
65.66935643751946
 21
139.5439396083188
 31
0.0
  0
ARC
  5
812
330
1B
100
AcDbEntity
 67
     1
  8
0
 62
     0
 48
0.2
100
AcDbCircle
 10
62.66935643751947
 20
141.2103297705612
 30
0.0
 40
5.006296784784291
100
AcDbArc
 50
0.0
 51
2.873983629581102
  0
LINE
  5
813
330
1B
100
AcDbEntity
 67
     1
  8
0
 62
     0
 48
0.2
100
AcDbLine
 10
59.9349328279319
 20
147.1037069291616
 30
0.0
 11
63.80214463272557
 21
147.1037069291616
 31
0.0
  0
LINE
  5
814
330
1B
100
AcDbEntity
 67
     1
  8
0
 62
     0
 48
0.2
100
AcDbLine
 10
59.92623366883583
 20
145.0911938616571
 30
0.0
 11
63.66935643751947
 21
145.0911938616571
 31
0.0
  0
MTEXT
  5
919
330
1B
100
AcDbEntity
 67
     1
  8
0
100
AcDbMText
 10
238.4618807167487
 20
3.922790991076401
 30
0.0
 40
2.5
 41
0.0
 71
     4
 72
     5
  1
　{\H1.16x;スパイラルワイヤーセット}
 73
     1
 44
1.0
  0
DIMENSION
  5
B89
330
1B
100
AcDbEntity
 67
     1
  8
0
100
AcDbDimension
  2
*D2
 10
67.72110164240086
 20
154.8519050366881
 30
0.0
 11
71.95323461548923
 21
156.9769050366881
 31
0.0
 70
    33
  1
8
 71
     5
 42
8.464265946176737
  3
ISO-25
100
AcDbAlignedDimension
 13
76.18536758857761
 23
145.0119540085294
 33
0.0
 14
67.72110164240086
 24
145.0119540085294
 34
0.0
  0
DIMENSION
  5
BA0
330
1B
100
AcDbEntity
 67
     1
  8
0
100
AcDbDimension
  2
*D3
 10
43.67305245693001
 20
129.1665544404119
 30
0.0
 11
41.54805245692998
 21
134.3552470243654
 31
0.0
 70
    33
  1
10
 71
     5
 42
10.37738516790693
  3
ISO-25
100
AcDbAlignedDimension
 13
66.66935643751947
 23
139.5439396083188
 33
0.0
 14
66.66935643751947
 24
129.1665544404119
 34
0.0
  0
DIMENSION
  5
CCD
330
1B
100
AcDbEntity
 67
     1
  8
0
100
AcDbDimension
  2
*D4
 10
68.25277517384893
 20
127.1665544404119
 30
0.0
 11
66.12777517384891
 21
120.0415544404119
 31
0.0
 70
    33
  1
%%c2
 71
     5
 42
2.000000000000014
  3
ISO-25
100
AcDbAlignedDimension
 13
68.25277517384893
 23
129.1665544404119
 33
0.0
 14
68.25277517384893
 24
127.1665544404119
 34
0.0
  0
ARC
  5
DA1
330
1B
100
AcDbEntity
 67
     1
  8
0
 62
     0
 48
0.2
100
AcDbCircle
 10
303.181717265228
 20
130.7015577556985
 30
0.0
 40
1.0
100
AcDbArc
 50
175.7397928576405
 51
4.236815550563963
  0
ARC
  5
DA2
330
1B
100
AcDbEntity
 67
     1
  8
0
 62
     0
 48
0.2
100
AcDbCircle
 10
305.181717265228
 20
130.7015577556985
 30
0.0
 40
1.0
100
AcDbArc
 50
175.7397928576405
 51
359.9999999999968
  0
ARC
  5
DA3
330
1B
100
AcDbEntity
 67
     1
  8
0
 62
     0
 48
0.2
100
AcDbCircle
 10
307.181717265228
 20
130.7015577556985
 30
0.0
 40
1.0
100
AcDbArc
 50
175.7397928576405
 51
4.236815550563963
  0
ARC
  5
DA4
330
1B
100
AcDbEntity
 67
     1
  8
0
 62
     0
 48
0.2
100
AcDbCircle
 10
309.181717265228
 20
130.7015577556985
 30
0.0
 40
1.0
100
AcDbArc
 50
180.0
 51
4.236815550563963
  0
ARC
  5
DA5
330
1B
100
AcDbEntity
 67
     1
  8
0
 62
     0
 48
0.2
100
AcDbCircle
 10
311.181717265228
 20
130.7015577556985
 30
0.0
 40
1.0
100
AcDbArc
 50
175.7397928576405
 51
359.9999999999968
  0
ARC
  5
DA6
330
1B
100
AcDbEntity
 67
     1
  8
0
 62
     0
 48
0.2
100
AcDbCircle
 10
313.181717265228
 20
130.7015577556985
 30
0.0
 40
1.0
100
AcDbArc
 50
175.7397928576405
 51
4.236815550563963
  0
ARC
  5
DA7
330
1B
100
AcDbEntity
 67
     1
  8
0
 62
     0
 48
0.2
100
AcDbCircle
 10
315.181717265228
 20
130.7015577556985
 30
0.0
 40
1.0
100
AcDbArc
 50
175.7397928576405
 51
4.236815550563963
  0
ARC
  5
DA8
330
1B
100
AcDbEntity
 67
     1
  8
0
 62
     0
 48
0.2
100
AcDbCircle
 10
317.181717265228
 20
130.7015577556985
 30
0.0
 40
1.0
100
AcDbArc
 50
175.7397928576405
 51
354.8573015335517
  0
ARC
  5
DA9
330
1B
100
AcDbEntity
 67
     1
  8
0
 62
     0
 48
0.2
100
AcDbCircle
 10
321.0946007369979
 20
130.1188736678023
 30
0.0
 40
1.0
100
AcDbArc
 50
173.8258247907293
 51
0.000000000000007
  0
LINE
  5
DAA
330
1B
100
AcDbEntity
 67
     1
  8
0
 62
     0
 48
0.2
100
AcDbLine
 10
310.181717265228
 20
130.7015577556984
 30
0.0
 11
310.6289431382898
 21
142.7255498149051
 31
0.0
  0
LINE
  5
DAB
330
1B
100
AcDbEntity
 67
     1
  8
0
 62
     0
 48
0.2
100
AcDbLine
 10
312.181717265228
 20
130.7015577556984
 30
0.0
 11
312.6289431382898
 21
142.7255498149051
 31
0.0
  0
LINE
  5
DAC
330
1B
100
AcDbEntity
 67
     1
  8
0
 62
     0
 48
0.2
100
AcDbLine
 10
306.181717265228
 20
130.7015577556984
 30
0.0
 11
306.6289431382898
 21
142.7255498149051
 31
0.0
  0
LINE
  5
DAD
330
1B
100
AcDbEntity
 67
     1
  8
0
 62
     0
 48
0.2
100
AcDbLine
 10
308.181717265228
 20
130.7015577556984
 30
0.0
 11
308.6289431382898
 21
142.7255498149051
 31
0.0
  0
LINE
  5
DAE
330
1B
100
AcDbEntity
 67
     1
  8
0
 62
     0
 48
0.2
100
AcDbLine
 10
302.181717265228
 20
130.7015577556984
 30
0.0
 11
302.6289431382898
 21
142.7255498149051
 31
0.0
  0
LINE
  5
DAF
330
1B
100
AcDbEntity
 67
     1
  8
0
 62
     0
 48
0.2
100
AcDbLine
 10
304.181717265228
 20
130.7015577556984
 30
0.0
 11
304.6289431382898
 21
142.7255498149051
 31
0.0
  0
LINE
  5
DB0
330
1B
100
AcDbEntity
 67
     1
  8
0
 62
     0
 48
0.2
100
AcDbLine
 10
318.181717265228
 20
130.7015577556984
 30
0.0
 11
318.6289431382898
 21
142.7255498149051
 31
0.0
  0
LINE
  5
DB1
330
1B
100
AcDbEntity
 67
     1
  8
0
 62
     0
 48
0.2
100
AcDbLine
 10
314.181717265228
 20
130.7015577556984
 30
0.0
 11
314.6289431382898
 21
142.7255498149051
 31
0.0
  0
LINE
  5
DB2
330
1B
100
AcDbEntity
 67
     1
  8
0
 62
     0
 48
0.2
100
AcDbLine
 10
316.181717265228
 20
130.7015577556984
 30
0.0
 11
316.6289431382898
 21
142.7255498149051
 31
0.0
  0
LINE
  5
DB3
330
1B
100
AcDbEntity
 67
     1
  8
0
 62
     0
 48
0.2
100
AcDbLine
 10
318.1776918074689
 20
130.6119212050723
 30
0.0
 11
318.6249176805307
 21
142.6359132642789
 31
0.0
  0
LINE
  5
DB4
330
1B
100
AcDbEntity
 67
     1
  8
0
 62
     0
 48
0.2
100
AcDbLine
 10
324.1167387862673
 20
128.9109137011608
 30
0.0
 11
324.6897867088947
 21
144.3285452830959
 31
0.0
  0
LINE
  5
DB5
330
1B
100
AcDbEntity
 67
     1
  8
0
 62
     0
 48
0.2
100
AcDbLine
 10
328.0853270766214
 20
128.0666572011322
 30
0.0
 11
328.7172306893631
 21
145.0119540085295
 31
0.0
  0
LINE
  5
DB6
330
1B
100
AcDbEntity
 67
     1
  8
0
 62
     0
 48
0.2
100
AcDbLine
 10
326.1009695351095
 20
128.4876024720432
 30
0.0
 11
326.7179252667828
 21
145.0492189035583
 31
0.0
  0
LINE
  5
DB7
330
1B
100
AcDbEntity
 67
     1
  8
0
 62
     0
 48
0.2
100
AcDbLine
 10
322.0951392529576
 20
129.6125854324798
 30
0.0
 11
322.6250530374478
 21
142.6393896170202
 31
0.0
  0
ARC
  5
DB8
330
1B
100
AcDbEntity
 67
     1
  8
0
 62
     0
 48
0.2
100
AcDbCircle
 10
344.0151009253612
 20
137.1578866719852
 30
0.0
 40
7.991332231573323
100
AcDbArc
 50
270.0
 51
83.09125913760295
  0
LINE
  5
DBA
330
1B
100
AcDbEntity
 67
     1
  8
0
 62
     0
 48
0.2
100
AcDbLine
 10
320.1776918074689
 20
130.6119212050723
 30
0.0
 11
320.6249176805307
 21
142.6359132642789
 31
0.0
  0
ARC
  5
DBB
330
1B
100
AcDbEntity
 67
     1
  8
0
 62
     0
 48
0.2
100
AcDbCircle
 10
344.0151009253612
 20
137.1578866719852
 30
0.0
 40
9.991332231573323
100
AcDbArc
 50
270.0
 51
84.52916316503978
  0
LINE
  5
DBC
330
1B
100
AcDbEntity
 67
     1
  8
0
 62
     0
 48
0.2
100
AcDbLine
 10
327.0480324482183
 20
127.1665544404119
 30
0.0
 11
342.0151009253612
 21
127.1665544404119
 31
0.0
  0
LINE
  5
DBD
330
1B
100
AcDbEntity
 67
     1
  8
0
 62
     0
 48
0.2
100
AcDbLine
 10
328.1263431206037
 20
129.1665544404119
 30
0.0
 11
342.0151009253612
 21
129.1665544404119
 31
0.0
  0
LINE
  5
DBE
330
1B
100
AcDbEntity
 67
     1
  8
0
 62
     0
 48
0.2
100
AcDbLine
 10
342.0151009253612
 20
129.1665544404119
 30
0.0
 11
344.0151009253612
 21
129.1665544404119
 31
0.0
  0
LINE
  5
DBF
330
1B
100
AcDbEntity
 67
     1
  8
0
 62
     0
 48
0.2
100
AcDbLine
 10
342.0151009253612
 20
127.1665544404119
 30
0.0
 11
344.4464402428978
 21
127.1758695334093
 31
0.0
  0
ARC
  5
DC0
330
1B
100
AcDbEntity
 67
     1
  8
0
 62
     0
 48
0.2
100
AcDbCircle
 10
325.1167387862673
 20
128.9109137011608
 30
0.0
 40
1.0
100
AcDbArc
 50
175.7427805664478
 51
336.72777506244
  0
ARC
  5
DC1
330
1B
100
AcDbEntity
 67
     1
  8
0
 62
     0
 48
0.2
100
AcDbCircle
 10
327.0480324482183
 20
128.1665544404119
 30
0.0
 40
1.0
100
AcDbArc
 50
160.9709839957629
 51
0.000000000000007
  0
ARC
  5
DC2
330
1B
100
AcDbEntity
 67
     1
  8
0
 62
     0
 48
0.2
100
AcDbCircle
 10
319.1776918074689
 20
130.6119212050723
 30
0.0
 40
1.0
100
AcDbArc
 50
174.8573015335566
 51
353.8258247899021
  0
ARC
  5
DC3
330
1B
100
AcDbEntity
 67
     1
  8
0
 62
     0
 48
0.2
100
AcDbCircle
 10
323.0951392529576
 20
129.6125854324798
 30
0.0
 40
1.0
100
AcDbArc
 50
175.3411301234462
 51
0.000000000000007
  0
ARC
  5
DC4
330
1B
100
AcDbEntity
 67
     1
  8
0
 62
     0
 48
0.2
100
AcDbCircle
 10
317.6282521412959
 20
142.688381057713
 30
0.0
 40
1.0
100
AcDbArc
 50
2.127164517882654
 51
185.1016795241375
  0
LINE
  5
DC6
330
1B
100
AcDbEntity
 67
     1
  8
0
 62
     0
 48
0.2
100
AcDbLine
 10
339.2332418404213
 20
140.1539396083188
 30
0.0
 11
339.2332418404213
 21
143.0911938616571
 31
0.0
  0
LINE
  5
DC7
330
1B
100
AcDbEntity
 67
     1
  8
0
 62
     0
 48
0.2
100
AcDbLine
 10
337.2332418404213
 20
140.1539396083188
 30
0.0
 11
337.2332418404213
 21
143.1635138416995
 31
0.0
  0
LINE
  5
DC8
330
1B
100
AcDbEntity
 67
     1
  8
0
 62
     0
 48
0.2
100
AcDbLine
 10
339.2332418404213
 20
141.2103297705612
 30
0.0
 11
339.2332418404213
 21
139.5439396083188
 31
0.0
  0
LINE
  5
DC9
330
1B
100
AcDbEntity
 67
     1
  8
0
 62
     0
 48
0.2
100
AcDbLine
 10
337.2332418404213
 20
141.2103297705612
 30
0.0
 11
337.2332418404213
 21
139.5439396083188
 31
0.0
  0
LINE
  5
DCA
330
1B
100
AcDbEntity
 67
     1
  8
0
 62
     0
 48
0.2
100
AcDbLine
 10
337.2332418404213
 20
139.5439396083188
 30
0.0
 11
339.2332418404213
 21
139.5439396083188
 31
0.0
  0
ARC
  5
DCB
330
1B
100
AcDbEntity
 67
     1
  8
0
 62
     0
 48
0.2
100
AcDbCircle
 10
342.2332418404213
 20
141.2103297705612
 30
0.0
 40
5.006296784784291
100
AcDbArc
 50
177.1260163704189
 51
180.0
  0
LINE
  5
DCC
330
1B
100
AcDbEntity
 67
     1
  8
0
 62
     0
 48
0.2
100
AcDbLine
 10
344.9763646091049
 20
145.0911938616571
 30
0.0
 11
341.2332418404213
 21
145.0911938616571
 31
0.0
  0
LINE
  5
DCD
330
1B
100
AcDbEntity
 67
     1
  8
0
 62
     0
 48
0.2
100
AcDbLine
 10
344.9676654500088
 20
147.1037069291616
 30
0.0
 11
341.1004536452152
 21
147.1037069291616
 31
0.0
  0
ARC
  5
DCE
330
1B
100
AcDbEntity
 67
     1
  8
0
 62
     0
 48
0.2
100
AcDbCircle
 10
341.2332418404213
 20
143.0911938616571
 30
0.0
 40
2.0
100
AcDbArc
 50
90.0
 51
180.0
  0
ARC
  5
DCF
330
1B
100
AcDbEntity
 67
     1
  8
0
 62
     0
 48
0.2
100
AcDbCircle
 10
341.2332418404213
 20
143.0911938616571
 30
0.0
 40
4.0
100
AcDbArc
 50
91.89542747806218
 51
180.0
  0
ARC
  5
DD0
330
1B
100
AcDbEntity
 67
     1
  8
0
 62
     0
 48
0.2
100
AcDbCircle
 10
325.68909668065
 20
144.2914025805783
 30
0.0
 40
1.0
100
AcDbArc
 50
0.000000000000007
 51
180.0
  0
ARC
  5
DD1
330
1B
100
AcDbEntity
 67
     1
  8
0
 62
     0
 48
0.2
100
AcDbCircle
 10
327.717925266783
 20
145.0492189035583
 30
0.0
 40
1.0
100
AcDbArc
 50
357.864384317803
 51
180.0000000000016
  0
ARC
  5
DD2
330
1B
100
AcDbEntity
 67
     1
  8
0
 62
     0
 48
0.2
100
AcDbCircle
 10
323.661912806706
 20
143.5980341328313
 30
0.0
 40
1.0
100
AcDbArc
 50
0.000000000000007
 51
180.0
  0
ARC
  5
DD3
330
1B
100
AcDbEntity
 67
     1
  8
0
 62
     0
 48
0.2
100
AcDbCircle
 10
321.6445492385036
 20
143.0983313301313
 30
0.0
 40
1.0
100
AcDbArc
 50
0.000000000000007
 51
180.0
  0
ARC
  5
DD4
330
1B
100
AcDbEntity
 67
     1
  8
0
 62
     0
 48
0.2
100
AcDbCircle
 10
319.6242266835369
 20
142.5987445070868
 30
0.0
 40
1.0
100
AcDbArc
 50
2.127164517884282
 51
180.6733856060552
  0
ARC
  5
DD5
330
1B
100
AcDbEntity
 67
     1
  8
0
 62
     0
 48
0.2
100
AcDbCircle
 10
301.5924120971691
 20
141.7635268450228
 30
0.0
 40
1.0
100
AcDbArc
 50
0.000000000000007
 51
180.0000000000032
  0
ARC
  5
DD6
330
1B
100
AcDbEntity
 67
     1
  8
0
 62
     0
 48
0.2
100
AcDbCircle
 10
301.2203298686
 20
131.7753172633856
 30
0.0
 40
1.0
100
AcDbArc
 50
175.7331916475938
 51
0.000000000000007
  0
ARC
  5
DD7
330
1B
100
AcDbEntity
 67
     1
  8
0
 62
     0
 48
0.2
100
AcDbCircle
 10
313.6282521412959
 20
142.688381057713
 30
0.0
 40
1.0
100
AcDbArc
 50
2.127164517882654
 51
185.1016795241375
  0
ARC
  5
DD8
330
1B
100
AcDbEntity
 67
     1
  8
0
 62
     0
 48
0.2
100
AcDbCircle
 10
311.6282521412959
 20
142.688381057713
 30
0.0
 40
1.0
100
AcDbArc
 50
354.857301533553
 51
177.86989642882
  0
ARC
  5
DD9
330
1B
100
AcDbEntity
 67
     1
  8
0
 62
     0
 48
0.2
100
AcDbCircle
 10
309.6282521412959
 20
142.688381057713
 30
0.0
 40
1.0
100
AcDbArc
 50
354.8573015335529
 51
185.1016795241375
  0
ARC
  5
DDA
330
1B
100
AcDbEntity
 67
     1
  8
0
 62
     0
 48
0.2
100
AcDbCircle
 10
307.6282521412959
 20
142.688381057713
 30
0.0
 40
1.0
100
AcDbArc
 50
354.857301533553
 51
177.86989642882
  0
ARC
  5
DDB
330
1B
100
AcDbEntity
 67
     1
  8
0
 62
     0
 48
0.2
100
AcDbCircle
 10
305.628252141296
 20
142.688381057713
 30
0.0
 40
1.0
100
AcDbArc
 50
2.127164517882654
 51
185.1016795241375
  0
ARC
  5
DDC
330
1B
100
AcDbEntity
 67
     1
  8
0
 62
     0
 48
0.2
100
AcDbCircle
 10
315.6282521412959
 20
142.688381057713
 30
0.0
 40
1.0
100
AcDbArc
 50
2.127164517881
 51
180.0
  0
ARC
  5
DDD
330
1B
100
AcDbEntity
 67
     1
  8
0
 62
     0
 48
0.2
100
AcDbCircle
 10
303.628252141296
 20
142.688381057713
 30
0.0
 40
1.0
100
AcDbArc
 50
2.127164517881
 51
180.0
  0
ARC
  5
DDE
330
1B
100
AcDbEntity
 67
     1
  8
0
 62
     0
 48
0.2
100
AcDbCircle
 10
299.561426188195
 20
140.9689774830349
 30
0.0
 40
1.0
100
AcDbArc
 50
0.000000000000007
 51
177.8665958237983
  0
ARC
  5
DDF
330
1B
100
AcDbEntity
 67
     1
  8
0
 62
     0
 48
0.2
100
AcDbCircle
 10
299.2637966071248
 20
132.979381621775
 30
0.0
 40
1.0
100
AcDbArc
 50
177.8665958237983
 51
350.4374159917257
  0
LINE
  5
DE0
330
1B
100
AcDbEntity
 67
     1
  8
0
 62
     0
 48
0.2
100
AcDbLine
 10
298.2644897469361
 20
133.0166079455243
 30
0.0
 11
298.5621193280063
 21
141.0062038067841
 31
0.0
  0
LINE
  5
DE1
330
1B
100
AcDbEntity
 67
     1
  8
0
 62
     0
 48
0.2
100
AcDbLine
 10
300.2203298686
 20
131.7753172633856
 30
0.0
 11
300.5924120971691
 21
141.7635268450228
 31
0.0
  0
LINE
  5
E5B
330
1B
100
AcDbEntity
 67
     1
  8
0
100
AcDbLine
 10
290.4187612612724
 20
137.3979636051799
 30
0.0
 11
290.4187612612724
 21
138.9114058761542
 31
0.0
  0
LINE
  5
E5C
330
1B
100
AcDbEntity
 67
     1
  8
0
100
AcDbLine
 10
290.5187612612725
 20
139.0114058761542
 30
0.0
 11
298.4932655506604
 21
139.0114058761542
 31
0.0
  0
LINE
  5
E5E
330
1B
100
AcDbEntity
 67
     1
  8
0
100
AcDbLine
 10
298.3442569718845
 20
135.0114058761542
 30
0.0
 11
290.5187612612725
 21
135.0114058761542
 31
0.0
  0
LINE
  5
E5F
330
1B
100
AcDbEntity
 67
     1
  8
0
100
AcDbLine
 10
290.4187612612724
 20
137.0114058761542
 30
0.0
 11
290.4187612612724
 21
135.1114058761542
 31
0.0
  0
LINE
  5
E61
330
1B
100
AcDbEntity
 67
     1
  8
0
100
AcDbLine
 10
290.5187612612725
 20
139.0114058761542
 30
0.0
 11
290.4187612612724
 21
138.9114058761542
 31
0.0
  0
LINE
  5
E62
330
1B
100
AcDbEntity
 67
     1
  8
0
100
AcDbLine
 10
290.4187612612724
 20
135.1114058761542
 30
0.0
 11
290.5187612612725
 21
135.0114058761542
 31
0.0
  0
LINE
  5
E64
330
1B
100
AcDbEntity
 67
     1
  8
0
100
AcDbLine
 10
362.3034552307749
 20
138.2614058761542
 30
0.0
 11
353.9453056124614
 21
138.2614058761542
 31
0.0
  0
LINE
  5
E65
330
1B
100
AcDbEntity
 67
     1
  8
0
100
AcDbLine
 10
362.3034552307749
 20
135.7614058761542
 30
0.0
 11
353.9083592939955
 21
135.7614058761542
 31
0.0
  0
LINE
  5
E6A
330
1B
100
AcDbEntity
 67
     1
  8
0
100
AcDbLine
 10
362.3034552307749
 20
138.2614058761542
 30
0.0
 11
362.3034552307749
 21
135.7614058761542
 31
0.0
  0
LINE
  5
E6C
330
1B
100
AcDbEntity
 67
     1
  8
0
100
AcDbLine
 10
351.9298742134228
 20
138.2614058761542
 30
0.0
 11
328.4654973735458
 21
138.2614058761542
 31
0.0
  0
LINE
  5
E6D
330
1B
100
AcDbEntity
 67
     1
  8
0
100
AcDbLine
 10
351.8834700208128
 20
135.7614058761542
 30
0.0
 11
328.3722703826108
 21
135.7614058761542
 31
0.0
  0
LINE
  5
E70
330
1B
100
AcDbEntity
 67
     1
  8
0
100
AcDbLine
 10
290.4187612612724
 20
136.0614058761542
 30
0.0
 11
290.4187612612724
 21
138.1546847406671
 31
0.0
  0
LEADER
  5
E97
330
1B
100
AcDbEntity
 67
     1
  8
0
100
AcDbLeader
  3
ISO-25
 73
     0
 40
3.000000000000001
 41
35.60000000000001
 76
     3
 10
309.6282521412959
 20
143.688381057713
 30
0.0
 10
297.4685581168691
 20
153.9297970942503
 30
0.0
 10
296.0963579615895
 20
153.9297970942503
 30
0.0
340
E98
213
0.0
223
1.5
233
0.0
1001
ACAD
1000
DSTYLE
1002
{
1070
   147
1040
0.625
1070
    77
1070
     0
1002
}
  0
MTEXT
  5
E98
102
{ACAD_REACTORS
330
E97
102
}
330
1B
100
AcDbEntity
 67
     1
  8
0
100
AcDbMText
 10
295.4713579615895
 20
152.4297970942503
 30
0.0
 40
3.0
 41
0.0
 71
     9
 72
     1
  1
ワイヤーグリップ内蔵
 73
     1
 44
1.0
  0
LEADER
  5
E99
330
1B
100
AcDbEntity
 67
     1
  8
0
100
AcDbLeader
  3
ISO-25
 73
     0
 40
3.0
 41
28.39999999999999
 76
     3
 10
294.4315091165785
 20
135.0114058761542
 30
0.0
 10
285.2782654558655
 20
122.688871057089
 30
0.0
 10
283.9927660460225
 20
122.688871057089
 30
0.0
340
E9A
213
0.0
223
1.5
233
0.0
1001
ACAD
1000
DSTYLE
1002
{
1070
   147
1040
0.625
1070
    77
1070
     0
1002
}
  0
MTEXT
  5
E9A
102
{ACAD_REACTORS
330
E99
102
}
330
1B
100
AcDbEntity
 67
     1
  8
0
100
AcDbMText
 10
283.3677660460225
 20
121.188871057089
 30
0.0
 40
3.0
 41
0.0
 71
     9
 72
     1
  1
グリップ解除ピン
 73
     1
 44
1.0
  0
DIMENSION
  5
EA4
330
1B
100
AcDbEntity
 67
     1
  8
0
100
AcDbDimension
  2
*D5
 10
106.5015997919579
 20
164.224264009007
 30
0.0
 11
78.70457469625198
 21
166.349264009007
 31
0.0
 70
    33
  1
57
 71
     5
 42
55.59405019141189
  3
ISO-25
100
AcDbAlignedDimension
 13
50.90754960054603
 23
136.6810610976321
 33
0.0
 14
106.5015997919579
 24
136.6810610976321
 34
0.0
  0
ARC
  5
EC9
330
1B
100
AcDbEntity
 67
     1
  8
0
 62
     0
 48
0.3
100
AcDbCircle
 10
200.5643428293986
 20
131.0803728024958
 30
0.0
 40
7.5
100
AcDbArc
 50
312.6309559887631
 51
49.51965464344056
  0
ARC
  5
ECA
330
1B
100
AcDbEntity
 67
     1
  8
0
 62
     0
 48
0.3
100
AcDbCircle
 10
200.5643428293986
 20
131.0803728024958
 30
0.0
 40
5.700884709057666
100
AcDbArc
 50
310.4408583681891
 51
49.51965464344056
  0
ARC
  5
ECB
330
1B
100
AcDbEntity
 67
     1
  8
0
 62
     0
 48
0.3
100
AcDbCircle
 10
209.1341877068968
 20
141.1213446617059
 30
0.0
 40
5.700884709057666
100
AcDbArc
 50
130.440858368189
 51
229.5196546434405
  0
ARC
  5
ECC
330
1B
100
AcDbEntity
 67
     1
  8
0
 62
     0
 48
0.3
100
AcDbCircle
 10
209.1341877068968
 20
141.1213446617059
 30
0.0
 40
7.5
100
AcDbArc
 50
132.3994095739885
 51
229.5196546434405
  0
ARC
  5
F04
330
1B
100
AcDbEntity
 67
     1
  8
0
 62
     0
 48
0.2
100
AcDbCircle
 10
65.4902148451807
 20
212.3484668242937
 30
0.0
 40
4.0
100
AcDbArc
 50
0.0
 51
88.10457252193783
  0
LINE
  5
F06
330
1B
100
AcDbEntity
 67
     1
  8
0
 62
     0
 48
0.2
100
AcDbLine
 10
79.67542423738368
 20
198.4238274030485
 30
0.0
 11
64.70835576024078
 21
198.4238274030485
 31
0.0
  0
LINE
  5
F07
330
1B
100
AcDbEntity
 67
     1
  8
0
 62
     0
 48
0.2
100
AcDbLine
 10
79.67542423738368
 20
196.4238274030485
 30
0.0
 11
64.70835576024078
 21
196.4238274030485
 31
0.0
  0
ARC
  5
F09
330
1B
100
AcDbEntity
 67
     1
  8
0
 62
     0
 48
0.2
100
AcDbCircle
 10
62.70835576024078
 20
206.4151596346219
 30
0.0
 40
9.991332231573323
100
AcDbArc
 50
95.47083683496024
 51
270.0
  0
ARC
  5
F0B
330
1B
100
AcDbEntity
 67
     1
  8
0
 62
     0
 48
0.2
100
AcDbCircle
 10
62.70835576024078
 20
206.4151596346219
 30
0.0
 40
7.991332231573323
100
AcDbArc
 50
96.90874086239707
 51
270.0
  0
LINE
  5
F0C
330
1B
100
AcDbEntity
 67
     1
  8
0
 62
     0
 48
0.2
100
AcDbLine
 10
64.70835576024078
 20
196.4238274030485
 30
0.0
 11
62.27701644270414
 21
196.433142496046
 31
0.0
  0
LINE
  5
F0D
330
1B
100
AcDbEntity
 67
     1
  8
0
 62
     0
 48
0.2
100
AcDbLine
 10
64.70835576024078
 20
198.4238274030485
 30
0.0
 11
62.70835576024078
 21
198.4238274030485
 31
0.0
  0
LINE
  5
F0E
330
1B
100
AcDbEntity
 67
     1
  8
0
 62
     0
 48
0.2
100
AcDbLine
 10
61.74709207649707
 20
214.3484668242937
 30
0.0
 11
65.4902148451807
 21
214.3484668242937
 31
0.0
  0
ARC
  5
F0F
330
1B
100
AcDbEntity
 67
     1
  8
0
 62
     0
 48
0.2
100
AcDbCircle
 10
65.4902148451807
 20
212.3484668242937
 30
0.0
 40
2.0
100
AcDbArc
 50
0.0
 51
90.0
  0
ARC
  5
F10
330
1B
100
AcDbEntity
 67
     1
  8
0
 62
     0
 48
0.2
100
AcDbCircle
 10
64.4902148451807
 20
210.4676027331978
 30
0.0
 40
5.006296784784291
100
AcDbArc
 50
0.0
 51
2.873983629581102
  0
LINE
  5
F11
330
1B
100
AcDbEntity
 67
     1
  8
0
 62
     0
 48
0.2
100
AcDbLine
 10
69.4902148451807
 20
208.8012125709555
 30
0.0
 11
67.4902148451807
 21
208.8012125709555
 31
0.0
  0
LINE
  5
F12
330
1B
100
AcDbEntity
 67
     1
  8
0
 62
     0
 48
0.2
100
AcDbLine
 10
69.4902148451807
 20
210.4676027331978
 30
0.0
 11
69.4902148451807
 21
208.8012125709555
 31
0.0
  0
LINE
  5
F13
330
1B
100
AcDbEntity
 67
     1
  8
0
 62
     0
 48
0.2
100
AcDbLine
 10
67.4902148451807
 20
210.4676027331978
 30
0.0
 11
67.4902148451807
 21
208.8012125709555
 31
0.0
  0
LINE
  5
F14
330
1B
100
AcDbEntity
 67
     1
  8
0
 62
     0
 48
0.2
100
AcDbLine
 10
69.4902148451807
 20
209.4112125709555
 30
0.0
 11
69.4902148451807
 21
212.4207868043362
 31
0.0
  0
LINE
  5
F15
330
1B
100
AcDbEntity
 67
     1
  8
0
 62
     0
 48
0.2
100
AcDbLine
 10
67.4902148451807
 20
209.4112125709555
 30
0.0
 11
67.4902148451807
 21
212.3484668242937
 31
0.0
  0
LINE
  5
F16
330
1B
100
AcDbEntity
 67
     1
  8
0
 62
     0
 48
0.2
100
AcDbLine
 10
61.75579123559313
 20
216.3609798917982
 30
0.0
 11
65.6230030403868
 21
216.3609798917982
 31
0.0
  0
ARC
  5
F17
330
1B
100
AcDbEntity
 67
     1
  8
0
 62
     0
 48
0.2
100
AcDbCircle
 10
79.005531418819
 20
214.3064918661949
 30
0.0
 40
1.0
100
AcDbArc
 50
359.9999999999983
 51
182.1356156821969
  0
ARC
  5
F19
330
1B
100
AcDbEntity
 67
     1
  8
0
 62
     0
 48
0.2
100
AcDbCircle
 10
103.095204544306
 20
211.9456540203497
 30
0.0
 40
1.0
100
AcDbArc
 50
0.0
 51
177.872835482119
  0
ARC
  5
F1A
330
1B
100
AcDbEntity
 67
     1
  8
0
 62
     0
 48
0.2
100
AcDbCircle
 10
103.541739420374
 20
199.9588307183351
 30
0.0
 40
1.0
100
AcDbArc
 50
175.763184449436
 51
4.260207142359458
  0
ARC
  5
F1B
330
1B
100
AcDbEntity
 67
     1
  8
0
 62
     0
 48
0.2
100
AcDbCircle
 10
87.09923000206513
 20
211.8560174697234
 30
0.0
 40
1.0
100
AcDbArc
 50
359.3266143939447
 51
177.8728354821157
  0
ARC
  5
F1C
330
1B
100
AcDbEntity
 67
     1
  8
0
 62
     0
 48
0.2
100
AcDbCircle
 10
87.54576487813309
 20
199.869194167709
 30
0.0
 40
1.0
100
AcDbArc
 50
186.1741752100979
 51
5.142698466443373
  0
ARC
  5
F1D
330
1B
100
AcDbEntity
 67
     1
  8
0
 62
     0
 48
0.2
100
AcDbCircle
 10
85.62885594860413
 20
199.3761466304389
 30
0.0
 40
1.0
100
AcDbArc
 50
180.0
 51
6.174175209270644
  0
LINE
  5
F1E
330
1B
100
AcDbEntity
 67
     1
  8
0
 62
     0
 48
0.2
100
AcDbLine
 10
86.5457648781331
 20
199.869194167709
 30
0.0
 11
86.09853900507127
 21
211.8931862269156
 31
0.0
  0
LINE
  5
F1F
330
1B
100
AcDbEntity
 67
     1
  8
0
 62
     0
 48
0.2
100
AcDbLine
 10
84.62831743264436
 20
198.8698583951164
 30
0.0
 11
84.09840364815417
 21
211.8966625796569
 31
0.0
  0
LINE
  5
F20
330
1B
100
AcDbEntity
 67
     1
  8
0
 62
     0
 48
0.2
100
AcDbLine
 10
80.62248715049245
 20
197.7448754346798
 30
0.0
 11
80.00553141881923
 21
214.3064918661949
 31
0.0
  0
LINE
  5
F21
330
1B
100
AcDbEntity
 67
     1
  8
0
 62
     0
 48
0.2
100
AcDbLine
 10
78.63812960898062
 20
197.3239301637688
 30
0.0
 11
78.00622599623884
 21
214.2692269711661
 31
0.0
  0
LINE
  5
F22
330
1B
100
AcDbEntity
 67
     1
  8
0
 62
     0
 48
0.2
100
AcDbLine
 10
82.60671789933471
 20
198.1681866637974
 30
0.0
 11
82.03366997670727
 21
213.5858182457326
 31
0.0
  0
ARC
  5
F23
330
1B
100
AcDbEntity
 67
     1
  8
0
 62
     0
 48
0.2
100
AcDbCircle
 10
79.67542423738368
 20
197.4238274030485
 30
0.0
 40
1.0
100
AcDbArc
 50
180.0
 51
19.02901600423707
  0
ARC
  5
F24
330
1B
100
AcDbEntity
 67
     1
  8
0
 62
     0
 48
0.2
100
AcDbCircle
 10
83.62831743264436
 20
198.8698583951165
 30
0.0
 40
1.0
100
AcDbArc
 50
180.0
 51
4.658869876553793
  0
ARC
  5
F25
330
1B
100
AcDbEntity
 67
     1
  8
0
 62
     0
 48
0.2
100
AcDbCircle
 10
81.60671789933472
 20
198.1681866637974
 30
0.0
 40
1.0
100
AcDbArc
 50
203.2722249375599
 51
4.257219433552106
  0
ARC
  5
F26
330
1B
100
AcDbEntity
 67
     1
  8
0
 62
     0
 48
0.2
100
AcDbCircle
 10
81.03436000495193
 20
213.5486755432149
 30
0.0
 40
1.0
100
AcDbArc
 50
0.0
 51
180.0
  0
ARC
  5
F27
330
1B
100
AcDbEntity
 67
     1
  8
0
 62
     0
 48
0.2
100
AcDbCircle
 10
85.07890744709843
 20
212.3556042927678
 30
0.0
 40
1.0
100
AcDbArc
 50
0.0
 51
180.0
  0
ARC
  5
F28
330
1B
100
AcDbEntity
 67
     1
  8
0
 62
     0
 48
0.2
100
AcDbCircle
 10
83.061543878896
 20
212.855307095468
 30
0.0
 40
1.0
100
AcDbArc
 50
0.0
 51
180.0
  0
LINE
  5
F29
330
1B
100
AcDbEntity
 67
     1
  8
0
 62
     0
 48
0.2
100
AcDbLine
 10
98.541739420374
 20
199.9588307183351
 30
0.0
 11
98.09451354731217
 21
211.9828227775418
 31
0.0
  0
LINE
  5
F2A
330
1B
100
AcDbEntity
 67
     1
  8
0
 62
     0
 48
0.2
100
AcDbLine
 10
88.54576487813309
 20
199.869194167709
 30
0.0
 11
88.09853900507127
 21
211.8931862269156
 31
0.0
  0
LINE
  5
F2B
330
1B
100
AcDbEntity
 67
     1
  8
0
 62
     0
 48
0.2
100
AcDbLine
 10
90.54173942037399
 20
199.9588307183351
 30
0.0
 11
90.09451354731217
 21
211.9828227775418
 31
0.0
  0
LINE
  5
F2C
330
1B
100
AcDbEntity
 67
     1
  8
0
 62
     0
 48
0.2
100
AcDbLine
 10
92.541739420374
 20
199.9588307183351
 30
0.0
 11
92.09451354731218
 21
211.9828227775418
 31
0.0
  0
LINE
  5
F2D
330
1B
100
AcDbEntity
 67
     1
  8
0
 62
     0
 48
0.2
100
AcDbLine
 10
88.541739420374
 20
199.9588307183351
 30
0.0
 11
88.09451354731217
 21
211.9828227775418
 31
0.0
  0
LINE
  5
F2E
330
1B
100
AcDbEntity
 67
     1
  8
0
 62
     0
 48
0.2
100
AcDbLine
 10
102.541739420374
 20
199.9588307183351
 30
0.0
 11
102.0945135473121
 21
211.9828227775418
 31
0.0
  0
LINE
  5
F2F
330
1B
100
AcDbEntity
 67
     1
  8
0
 62
     0
 48
0.2
100
AcDbLine
 10
100.541739420374
 20
199.9588307183351
 30
0.0
 11
100.0945135473121
 21
211.9828227775418
 31
0.0
  0
LINE
  5
F30
330
1B
100
AcDbEntity
 67
     1
  8
0
 62
     0
 48
0.2
100
AcDbLine
 10
94.541739420374
 20
199.9588307183351
 30
0.0
 11
94.09451354731217
 21
211.9828227775418
 31
0.0
  0
LINE
  5
F31
330
1B
100
AcDbEntity
 67
     1
  8
0
 62
     0
 48
0.2
100
AcDbLine
 10
96.54173942037401
 20
199.9588307183351
 30
0.0
 11
96.09451354731218
 21
211.9828227775418
 31
0.0
  0
ARC
  5
F32
330
1B
100
AcDbEntity
 67
     1
  8
0
 62
     0
 48
0.2
100
AcDbCircle
 10
95.54173942037399
 20
199.9588307183351
 30
0.0
 40
1.0
100
AcDbArc
 50
180.0000000000032
 51
4.260207142359458
  0
ARC
  5
F33
330
1B
100
AcDbEntity
 67
     1
  8
0
 62
     0
 48
0.2
100
AcDbCircle
 10
89.541739420374
 20
199.9588307183351
 30
0.0
 40
1.0
100
AcDbArc
 50
185.1426984664482
 51
4.260207142359458
  0
ARC
  5
F34
330
1B
100
AcDbEntity
 67
     1
  8
0
 62
     0
 48
0.2
100
AcDbCircle
 10
91.54173942037401
 20
199.9588307183351
 30
0.0
 40
1.0
100
AcDbArc
 50
175.763184449436
 51
4.260207142359458
  0
ARC
  5
F35
330
1B
100
AcDbEntity
 67
     1
  8
0
 62
     0
 48
0.2
100
AcDbCircle
 10
93.541739420374
 20
199.9588307183351
 30
0.0
 40
1.0
100
AcDbArc
 50
175.763184449436
 51
4.260207142359458
  0
ARC
  5
F36
330
1B
100
AcDbEntity
 67
     1
  8
0
 62
     0
 48
0.2
100
AcDbCircle
 10
97.541739420374
 20
199.9588307183351
 30
0.0
 40
1.0
100
AcDbArc
 50
175.763184449436
 51
0.0
  0
ARC
  5
F37
330
1B
100
AcDbEntity
 67
     1
  8
0
 62
     0
 48
0.2
100
AcDbCircle
 10
99.541739420374
 20
199.9588307183351
 30
0.0
 40
1.0
100
AcDbArc
 50
175.763184449436
 51
4.260207142359458
  0
ARC
  5
F38
330
1B
100
AcDbEntity
 67
     1
  8
0
 62
     0
 48
0.2
100
AcDbCircle
 10
101.541739420374
 20
199.9588307183351
 30
0.0
 40
1.0
100
AcDbArc
 50
180.0000000000032
 51
4.260207142359458
  0
ARC
  5
F39
330
1B
100
AcDbEntity
 67
     1
  8
0
 62
     0
 48
0.2
100
AcDbCircle
 10
95.09520454430603
 20
211.9456540203497
 30
0.0
 40
1.0
100
AcDbArc
 50
2.130103571179942
 51
185.1426984664469
  0
ARC
  5
F3A
330
1B
100
AcDbEntity
 67
     1
  8
0
 62
     0
 48
0.2
100
AcDbCircle
 10
91.09520454430603
 20
211.9456540203497
 30
0.0
 40
1.0
100
AcDbArc
 50
0.0
 51
177.872835482119
  0
ARC
  5
F3B
330
1B
100
AcDbEntity
 67
     1
  8
0
 62
     0
 48
0.2
100
AcDbCircle
 10
93.09520454430602
 20
211.9456540203497
 30
0.0
 40
1.0
100
AcDbArc
 50
354.8983204758624
 51
177.8728354821173
  0
ARC
  5
F3C
330
1B
100
AcDbEntity
 67
     1
  8
0
 62
     0
 48
0.2
100
AcDbCircle
 10
89.09520454430603
 20
211.9456540203497
 30
0.0
 40
1.0
100
AcDbArc
 50
354.8983204758624
 51
177.8728354821173
  0
ARC
  5
F3D
330
1B
100
AcDbEntity
 67
     1
  8
0
 62
     0
 48
0.2
100
AcDbCircle
 10
97.09520454430602
 20
211.9456540203497
 30
0.0
 40
1.0
100
AcDbArc
 50
354.8983204758624
 51
185.142698466447
  0
ARC
  5
F3E
330
1B
100
AcDbEntity
 67
     1
  8
0
 62
     0
 48
0.2
100
AcDbCircle
 10
101.095204544306
 20
211.9456540203497
 30
0.0
 40
1.0
100
AcDbArc
 50
354.8983204758624
 51
177.8728354821173
  0
ARC
  5
F3F
330
1B
100
AcDbEntity
 67
     1
  8
0
 62
     0
 48
0.2
100
AcDbCircle
 10
99.09520454430603
 20
211.9456540203497
 30
0.0
 40
1.0
100
AcDbArc
 50
2.130103571179942
 51
185.1426984664469
  0
LINE
  5
F40
330
1B
100
AcDbEntity
 67
     1
  8
0
 62
     0
 48
0.2
100
AcDbLine
 10
106.5031268170019
 20
201.0325902260222
 30
0.0
 11
106.1310445884328
 21
211.0207998076594
 31
0.0
  0
LINE
  5
F41
330
1B
100
AcDbEntity
 67
     1
  8
0
 62
     0
 48
0.2
100
AcDbLine
 10
108.4589669386658
 20
202.2738809081609
 30
0.0
 11
108.1613373575956
 21
210.2634767694208
 31
0.0
  0
LINE
  5
F42
330
1B
100
AcDbEntity
 67
     1
  8
0
 62
     0
 48
0.2
100
AcDbLine
 10
104.5417394203739
 20
199.9588307183351
 30
0.0
 11
104.0945135473121
 21
211.9828227775418
 31
0.0
  0
ARC
  5
F43
330
1B
100
AcDbEntity
 67
     1
  8
0
 62
     0
 48
0.2
100
AcDbCircle
 10
105.5031268170019
 20
201.0325902260222
 30
0.0
 40
1.0
100
AcDbArc
 50
180.0
 51
4.26680835240621
  0
ARC
  5
F44
330
1B
100
AcDbEntity
 67
     1
  8
0
 62
     0
 48
0.2
100
AcDbCircle
 10
107.4596600784771
 20
202.2366545844116
 30
0.0
 40
1.0
100
AcDbArc
 50
189.5625840082743
 51
2.133404176201654
  0
ARC
  5
F45
330
1B
100
AcDbEntity
 67
     1
  8
0
 62
     0
 48
0.2
100
AcDbCircle
 10
107.162030497407
 20
210.2262504456715
 30
0.0
 40
1.0
100
AcDbArc
 50
2.133404176201619
 51
180.0
  0
ARC
  5
F46
330
1B
100
AcDbEntity
 67
     1
  8
0
 62
     0
 48
0.2
100
AcDbCircle
 10
105.1310445884328
 20
211.0207998076595
 30
0.0
 40
1.0
100
AcDbArc
 50
359.9999999999967
 51
180.0
  0
LINE
  5
F4A
330
1B
100
AcDbEntity
 67
     1
  8
0
 62
     0
 48
0.2
100
AcDbLine
 10
329.9472015282649
 20
180.3830253545229
 30
0.0
 11
343.8359593330225
 21
180.3830253545229
 31
0.0
  0
LINE
  5
F4B
330
1B
100
AcDbEntity
 67
     1
  8
0
 62
     0
 48
0.2
100
AcDbLine
 10
328.8688908558796
 20
178.3830253545229
 30
0.0
 11
343.8359593330225
 21
178.3830253545229
 31
0.0
  0
ARC
  5
F50
330
1B
100
AcDbEntity
 67
     1
  8
0
 62
     0
 48
0.3
100
AcDbCircle
 10
210.9550461145581
 20
210.3786176243426
 30
0.0
 40
7.5
100
AcDbArc
 50
132.3994095739885
 51
229.5196546434405
  0
ARC
  5
F51
330
1B
100
AcDbEntity
 67
     1
  8
0
 62
     0
 48
0.3
100
AcDbCircle
 10
202.3852012370598
 20
200.3376457651324
 30
0.0
 40
5.700884709057666
100
AcDbArc
 50
310.4408583681891
 51
49.51965464344056
  0
ARC
  5
F52
330
1B
100
AcDbEntity
 67
     1
  8
0
 62
     0
 48
0.3
100
AcDbCircle
 10
202.3852012370598
 20
200.3376457651324
 30
0.0
 40
7.5
100
AcDbArc
 50
312.6309559887631
 51
49.51965464344056
  0
ARC
  5
F53
330
1B
100
AcDbEntity
 67
     1
  8
0
 62
     0
 48
0.3
100
AcDbCircle
 10
210.9550461145581
 20
210.3786176243426
 30
0.0
 40
5.700884709057666
100
AcDbArc
 50
130.440858368189
 51
229.5196546434405
  0
ARC
  5
F55
330
1B
100
AcDbEntity
 67
     1
  8
0
 62
     0
 48
0.2
100
AcDbCircle
 10
329.5387836744442
 20
196.2656898176693
 30
0.0
 40
1.0
100
AcDbArc
 50
357.864384317803
 51
180.0000000000016
  0
LINE
  5
F56
330
1B
100
AcDbEntity
 67
     1
  8
0
100
AcDbLine
 10
292.3396196689338
 20
190.2278767902652
 30
0.0
 11
300.3141239583217
 21
190.2278767902652
 31
0.0
  0
LINE
  5
F57
330
1B
100
AcDbEntity
 67
     1
  8
0
100
AcDbLine
 10
300.1651153795457
 20
186.2278767902652
 30
0.0
 11
292.3396196689338
 21
186.2278767902652
 31
0.0
  0
LINE
  5
F59
330
1B
100
AcDbEntity
 67
     1
  8
0
100
AcDbLine
 10
292.2396196689337
 20
187.2778767902652
 30
0.0
 11
292.2396196689337
 21
189.3711556547781
 31
0.0
  0
LINE
  5
F5A
330
1B
100
AcDbEntity
 67
     1
  8
0
100
AcDbLine
 10
292.2396196689337
 20
188.614434519291
 30
0.0
 11
292.2396196689337
 21
190.1278767902652
 31
0.0
  0
LINE
  5
F5B
330
1B
100
AcDbEntity
 67
     1
  8
0
100
AcDbLine
 10
292.3396196689338
 20
190.2278767902652
 30
0.0
 11
292.2396196689337
 21
190.1278767902652
 31
0.0
  0
LINE
  5
F5C
330
1B
100
AcDbEntity
 67
     1
  8
0
100
AcDbLine
 10
292.2396196689337
 20
186.3278767902652
 30
0.0
 11
292.3396196689338
 21
186.2278767902652
 31
0.0
  0
LINE
  5
F5D
330
1B
100
AcDbEntity
 67
     1
  8
0
100
AcDbLine
 10
292.2396196689337
 20
188.2278767902652
 30
0.0
 11
292.2396196689337
 21
186.3278767902652
 31
0.0
  0
ARC
  5
F5E
330
1B
100
AcDbEntity
 67
     1
  8
0
 62
     0
 48
0.2
100
AcDbCircle
 10
315.4491105489572
 20
193.9048519718241
 30
0.0
 40
1.0
100
AcDbArc
 50
2.127164517882654
 51
185.1016795241375
  0
LINE
  5
F5F
330
1B
100
AcDbEntity
 67
     1
  8
0
 62
     0
 48
0.2
100
AcDbLine
 10
316.0025756728892
 20
181.9180286698095
 30
0.0
 11
316.4498015459511
 21
193.9420207290161
 31
0.0
  0
ARC
  5
F60
330
1B
100
AcDbEntity
 67
     1
  8
0
 62
     0
 48
0.2
100
AcDbCircle
 10
317.0025756728893
 20
181.9180286698095
 30
0.0
 40
1.0
100
AcDbArc
 50
175.7397928576405
 51
4.236815550563963
  0
LINE
  5
F61
330
1B
100
AcDbEntity
 67
     1
  8
0
 62
     0
 48
0.2
100
AcDbLine
 10
300.0853481545974
 20
184.2330788596353
 30
0.0
 11
300.3829777356676
 21
192.2226747208952
 31
0.0
  0
LINE
  5
F62
330
1B
100
AcDbEntity
 67
     1
  8
0
 62
     0
 48
0.2
100
AcDbLine
 10
302.0411882762613
 20
182.9917881774966
 30
0.0
 11
302.4132705048304
 21
192.9799977591338
 31
0.0
  0
LINE
  5
F63
330
1B
100
AcDbEntity
 67
     1
  8
0
 62
     0
 48
0.2
100
AcDbLine
 10
306.0025756728892
 20
181.9180286698095
 30
0.0
 11
306.4498015459511
 21
193.9420207290161
 31
0.0
  0
LINE
  5
F64
330
1B
100
AcDbEntity
 67
     1
  8
0
 62
     0
 48
0.2
100
AcDbLine
 10
304.0025756728892
 20
181.9180286698095
 30
0.0
 11
304.4498015459511
 21
193.9420207290161
 31
0.0
  0
LINE
  5
F65
330
1B
100
AcDbEntity
 67
     1
  8
0
 62
     0
 48
0.2
100
AcDbLine
 10
310.0025756728892
 20
181.9180286698095
 30
0.0
 11
310.4498015459511
 21
193.9420207290161
 31
0.0
  0
LINE
  5
F66
330
1B
100
AcDbEntity
 67
     1
  8
0
 62
     0
 48
0.2
100
AcDbLine
 10
308.0025756728892
 20
181.9180286698095
 30
0.0
 11
308.4498015459511
 21
193.9420207290161
 31
0.0
  0
LINE
  5
F67
330
1B
100
AcDbEntity
 67
     1
  8
0
 62
     0
 48
0.2
100
AcDbLine
 10
314.0025756728892
 20
181.9180286698095
 30
0.0
 11
314.4498015459511
 21
193.9420207290161
 31
0.0
  0
LINE
  5
F68
330
1B
100
AcDbEntity
 67
     1
  8
0
 62
     0
 48
0.2
100
AcDbLine
 10
312.0025756728892
 20
181.9180286698095
 30
0.0
 11
312.4498015459511
 21
193.9420207290161
 31
0.0
  0
ARC
  5
F69
330
1B
100
AcDbEntity
 67
     1
  8
0
 62
     0
 48
0.2
100
AcDbCircle
 10
309.0025756728893
 20
181.9180286698095
 30
0.0
 40
1.0
100
AcDbArc
 50
175.7397928576405
 51
4.236815550563963
  0
ARC
  5
F6A
330
1B
100
AcDbEntity
 67
     1
  8
0
 62
     0
 48
0.2
100
AcDbCircle
 10
301.084655014786
 20
184.195852535886
 30
0.0
 40
1.0
100
AcDbArc
 50
177.8665958237983
 51
350.4374159917257
  0
ARC
  5
F6B
330
1B
100
AcDbEntity
 67
     1
  8
0
 62
     0
 48
0.2
100
AcDbCircle
 10
303.0411882762613
 20
182.9917881774966
 30
0.0
 40
1.0
100
AcDbArc
 50
175.7331916475938
 51
0.000000000000007
  0
ARC
  5
F6C
330
1B
100
AcDbEntity
 67
     1
  8
0
 62
     0
 48
0.2
100
AcDbCircle
 10
307.0025756728893
 20
181.9180286698095
 30
0.0
 40
1.0
100
AcDbArc
 50
175.7397928576405
 51
359.9999999999968
  0
ARC
  5
F6D
330
1B
100
AcDbEntity
 67
     1
  8
0
 62
     0
 48
0.2
100
AcDbCircle
 10
305.0025756728893
 20
181.9180286698095
 30
0.0
 40
1.0
100
AcDbArc
 50
175.7397928576405
 51
4.236815550563963
  0
ARC
  5
F6E
330
1B
100
AcDbEntity
 67
     1
  8
0
 62
     0
 48
0.2
100
AcDbCircle
 10
315.0025756728893
 20
181.9180286698095
 30
0.0
 40
1.0
100
AcDbArc
 50
175.7397928576405
 51
4.236815550563963
  0
ARC
  5
F6F
330
1B
100
AcDbEntity
 67
     1
  8
0
 62
     0
 48
0.2
100
AcDbCircle
 10
313.0025756728893
 20
181.9180286698095
 30
0.0
 40
1.0
100
AcDbArc
 50
175.7397928576405
 51
359.9999999999968
  0
ARC
  5
F70
330
1B
100
AcDbEntity
 67
     1
  8
0
 62
     0
 48
0.2
100
AcDbCircle
 10
311.0025756728893
 20
181.9180286698095
 30
0.0
 40
1.0
100
AcDbArc
 50
180.0
 51
4.236815550563963
  0
ARC
  5
F71
330
1B
100
AcDbEntity
 67
     1
  8
0
 62
     0
 48
0.2
100
AcDbCircle
 10
307.4491105489572
 20
193.9048519718241
 30
0.0
 40
1.0
100
AcDbArc
 50
2.127164517882654
 51
185.1016795241375
  0
ARC
  5
F72
330
1B
100
AcDbEntity
 67
     1
  8
0
 62
     0
 48
0.2
100
AcDbCircle
 10
305.4491105489572
 20
193.9048519718241
 30
0.0
 40
1.0
100
AcDbArc
 50
2.127164517881
 51
180.0
  0
ARC
  5
F73
330
1B
100
AcDbEntity
 67
     1
  8
0
 62
     0
 48
0.2
100
AcDbCircle
 10
301.3822845958562
 20
192.1854483971459
 30
0.0
 40
1.0
100
AcDbArc
 50
0.000000000000007
 51
177.8665958237983
  0
ARC
  5
F74
330
1B
100
AcDbEntity
 67
     1
  8
0
 62
     0
 48
0.2
100
AcDbCircle
 10
303.4132705048303
 20
192.9799977591338
 30
0.0
 40
1.0
100
AcDbArc
 50
0.000000000000007
 51
180.0000000000032
  0
ARC
  5
F75
330
1B
100
AcDbEntity
 67
     1
  8
0
 62
     0
 48
0.2
100
AcDbCircle
 10
309.4491105489572
 20
193.9048519718241
 30
0.0
 40
1.0
100
AcDbArc
 50
354.857301533553
 51
177.86989642882
  0
ARC
  5
F76
330
1B
100
AcDbEntity
 67
     1
  8
0
 62
     0
 48
0.2
100
AcDbCircle
 10
311.4491105489572
 20
193.9048519718241
 30
0.0
 40
1.0
100
AcDbArc
 50
354.8573015335529
 51
185.1016795241375
  0
ARC
  5
F77
330
1B
100
AcDbEntity
 67
     1
  8
0
 62
     0
 48
0.2
100
AcDbCircle
 10
313.4491105489572
 20
193.9048519718241
 30
0.0
 40
1.0
100
AcDbArc
 50
354.857301533553
 51
177.86989642882
  0
LINE
  5
F78
330
1B
100
AcDbEntity
 67
     1
  8
0
 62
     0
 48
0.2
100
AcDbLine
 10
321.9985502151302
 20
181.8283921191833
 30
0.0
 11
322.445776088192
 21
193.85238417839
 31
0.0
  0
LINE
  5
F79
330
1B
100
AcDbEntity
 67
     1
  8
0
 62
     0
 48
0.2
100
AcDbLine
 10
323.9159976606189
 20
180.8290563465908
 30
0.0
 11
324.4459114451091
 21
193.8558605311312
 31
0.0
  0
LINE
  5
F7A
330
1B
100
AcDbEntity
 67
     1
  8
0
 62
     0
 48
0.2
100
AcDbLine
 10
327.9218279427708
 20
179.7040733861542
 30
0.0
 11
328.538783674444
 21
196.2656898176693
 31
0.0
  0
LINE
  5
F7B
330
1B
100
AcDbEntity
 67
     1
  8
0
 62
     0
 48
0.2
100
AcDbLine
 10
329.9061854842826
 20
179.2831281152432
 30
0.0
 11
330.5380890970244
 21
196.2284249226405
 31
0.0
  0
LINE
  5
F7C
330
1B
100
AcDbEntity
 67
     1
  8
0
 62
     0
 48
0.2
100
AcDbLine
 10
325.9375971939285
 20
180.1273846152718
 30
0.0
 11
326.510645116556
 21
195.545016197207
 31
0.0
  0
LINE
  5
F7D
330
1B
100
AcDbEntity
 67
     1
  8
0
 62
     0
 48
0.2
100
AcDbLine
 10
319.9985502151302
 20
181.8283921191833
 30
0.0
 11
320.445776088192
 21
193.85238417839
 31
0.0
  0
LINE
  5
F7E
330
1B
100
AcDbEntity
 67
     1
  8
0
 62
     0
 48
0.2
100
AcDbLine
 10
318.0025756728892
 20
181.9180286698095
 30
0.0
 11
318.4498015459511
 21
193.9420207290161
 31
0.0
  0
LINE
  5
F7F
330
1B
100
AcDbEntity
 67
     1
  8
0
 62
     0
 48
0.2
100
AcDbLine
 10
320.0025756728893
 20
181.9180286698095
 30
0.0
 11
320.4498015459511
 21
193.9420207290161
 31
0.0
  0
ARC
  5
F80
330
1B
100
AcDbEntity
 67
     1
  8
0
 62
     0
 48
0.2
100
AcDbCircle
 10
324.9159976606189
 20
180.8290563465908
 30
0.0
 40
1.0
100
AcDbArc
 50
175.3411301234462
 51
0.000000000000007
  0
ARC
  5
F81
330
1B
100
AcDbEntity
 67
     1
  8
0
 62
     0
 48
0.2
100
AcDbCircle
 10
320.9985502151301
 20
181.8283921191834
 30
0.0
 40
1.0
100
AcDbArc
 50
174.8573015335566
 51
353.8258247899021
  0
ARC
  5
F82
330
1B
100
AcDbEntity
 67
     1
  8
0
 62
     0
 48
0.2
100
AcDbCircle
 10
322.9154591446591
 20
181.3353445819133
 30
0.0
 40
1.0
100
AcDbArc
 50
173.8258247907293
 51
0.000000000000007
  0
ARC
  5
F83
330
1B
100
AcDbEntity
 67
     1
  8
0
 62
     0
 48
0.2
100
AcDbCircle
 10
319.0025756728893
 20
181.9180286698095
 30
0.0
 40
1.0
100
AcDbArc
 50
175.7397928576405
 51
354.8573015335517
  0
ARC
  5
F84
330
1B
100
AcDbEntity
 67
     1
  8
0
 62
     0
 48
0.2
100
AcDbCircle
 10
326.9375971939286
 20
180.1273846152718
 30
0.0
 40
1.0
100
AcDbArc
 50
175.7427805664478
 51
336.72777506244
  0
ARC
  5
F85
330
1B
100
AcDbEntity
 67
     1
  8
0
 62
     0
 48
0.2
100
AcDbCircle
 10
328.8688908558796
 20
179.3830253545229
 30
0.0
 40
1.0
100
AcDbArc
 50
160.9709839957629
 51
0.000000000000007
  0
ARC
  5
F86
330
1B
100
AcDbEntity
 67
     1
  8
0
 62
     0
 48
0.2
100
AcDbCircle
 10
317.4491105489572
 20
193.9048519718241
 30
0.0
 40
1.0
100
AcDbArc
 50
2.127164517881
 51
180.0
  0
ARC
  5
F87
330
1B
100
AcDbEntity
 67
     1
  8
0
 62
     0
 48
0.2
100
AcDbCircle
 10
323.4654076461648
 20
194.3148022442423
 30
0.0
 40
1.0
100
AcDbArc
 50
0.000000000000007
 51
180.0
  0
ARC
  5
F88
330
1B
100
AcDbEntity
 67
     1
  8
0
 62
     0
 48
0.2
100
AcDbCircle
 10
321.4450850911981
 20
193.8152154211979
 30
0.0
 40
1.0
100
AcDbArc
 50
2.127164517884282
 51
180.6733856060552
  0
ARC
  5
F89
330
1B
100
AcDbEntity
 67
     1
  8
0
 62
     0
 48
0.2
100
AcDbCircle
 10
319.4491105489572
 20
193.9048519718241
 30
0.0
 40
1.0
100
AcDbArc
 50
2.127164517882654
 51
185.1016795241375
  0
ARC
  5
F8A
330
1B
100
AcDbEntity
 67
     1
  8
0
 62
     0
 48
0.2
100
AcDbCircle
 10
325.4827712143673
 20
194.8145050469424
 30
0.0
 40
1.0
100
AcDbArc
 50
0.000000000000007
 51
180.0
  0
ARC
  5
F8B
330
1B
100
AcDbEntity
 67
     1
  8
0
 62
     0
 48
0.2
100
AcDbCircle
 10
327.5099550883113
 20
195.5078734946893
 30
0.0
 40
1.0
100
AcDbArc
 50
0.000000000000007
 51
180.0
  0
ARC
  5
F8C
330
1B
100
AcDbEntity
 67
     1
  8
0
 62
     0
 48
0.2
100
AcDbCircle
 10
343.0541002480826
 20
194.3076647757681
 30
0.0
 40
4.0
100
AcDbArc
 50
91.89542747806218
 51
180.0
  0
ARC
  5
F8D
330
1B
100
AcDbEntity
 67
     1
  8
0
 62
     0
 48
0.2
100
AcDbCircle
 10
345.8359593330225
 20
188.3743575860963
 30
0.0
 40
9.991332231573323
100
AcDbArc
 50
270.0
 51
84.52916316503978
  0
ARC
  5
F8E
330
1B
100
AcDbEntity
 67
     1
  8
0
 62
     0
 48
0.2
100
AcDbCircle
 10
345.8359593330225
 20
188.3743575860963
 30
0.0
 40
7.991332231573323
100
AcDbArc
 50
270.0
 51
83.09125913760295
  0
LINE
  5
F8F
330
1B
100
AcDbEntity
 67
     1
  8
0
 62
     0
 48
0.2
100
AcDbLine
 10
343.8359593330225
 20
178.3830253545229
 30
0.0
 11
346.2672986505591
 21
178.3923404475203
 31
0.0
  0
LINE
  5
F90
330
1B
100
AcDbEntity
 67
     1
  8
0
 62
     0
 48
0.2
100
AcDbLine
 10
343.8359593330225
 20
180.3830253545229
 30
0.0
 11
345.8359593330225
 21
180.3830253545229
 31
0.0
  0
ARC
  5
F91
330
1B
100
AcDbEntity
 67
     1
  8
0
 62
     0
 48
0.2
100
AcDbCircle
 10
343.0541002480826
 20
194.3076647757681
 30
0.0
 40
2.0
100
AcDbArc
 50
90.0
 51
180.0
  0
LINE
  5
F92
330
1B
100
AcDbEntity
 67
     1
  8
0
 62
     0
 48
0.2
100
AcDbLine
 10
339.0541002480826
 20
190.7604105224298
 30
0.0
 11
341.0541002480826
 21
190.7604105224298
 31
0.0
  0
ARC
  5
F93
330
1B
100
AcDbEntity
 67
     1
  8
0
 62
     0
 48
0.2
100
AcDbCircle
 10
344.0541002480825
 20
192.4268006846722
 30
0.0
 40
5.006296784784291
100
AcDbArc
 50
177.1260163704189
 51
180.0
  0
LINE
  5
F94
330
1B
100
AcDbEntity
 67
     1
  8
0
 62
     0
 48
0.2
100
AcDbLine
 10
339.0541002480826
 20
192.4268006846722
 30
0.0
 11
339.0541002480826
 21
190.7604105224298
 31
0.0
  0
LINE
  5
F95
330
1B
100
AcDbEntity
 67
     1
  8
0
 62
     0
 48
0.2
100
AcDbLine
 10
339.0541002480826
 20
191.3704105224298
 30
0.0
 11
339.0541002480826
 21
194.3799847558105
 31
0.0
  0
LINE
  5
F96
330
1B
100
AcDbEntity
 67
     1
  8
0
 62
     0
 48
0.2
100
AcDbLine
 10
346.7972230167662
 20
196.3076647757681
 30
0.0
 11
343.0541002480826
 21
196.3076647757681
 31
0.0
  0
LINE
  5
F97
330
1B
100
AcDbEntity
 67
     1
  8
0
 62
     0
 48
0.2
100
AcDbLine
 10
341.0541002480826
 20
192.4268006846722
 30
0.0
 11
341.0541002480826
 21
190.7604105224298
 31
0.0
  0
LINE
  5
F98
330
1B
100
AcDbEntity
 67
     1
  8
0
 62
     0
 48
0.2
100
AcDbLine
 10
341.0541002480826
 20
191.3704105224298
 30
0.0
 11
341.0541002480826
 21
194.3076647757681
 31
0.0
  0
LINE
  5
F9B
330
1B
100
AcDbEntity
 67
     1
  8
0
100
AcDbLine
 10
364.1243136384362
 20
207.5186788387909
 30
0.0
 11
364.1243136384362
 21
205.2094406168116
 31
0.0
  0
LINE
  5
F9C
330
1B
100
AcDbEntity
 67
     1
  8
0
 62
     0
 48
0.2
100
AcDbLine
 10
346.7885238576701
 20
198.3201778432726
 30
0.0
 11
342.9213120528765
 21
198.3201778432726
 31
0.0
  0
LINE
  5
10D8
330
1B
100
AcDbEntity
 67
     1
  8
0
 62
     0
 48
0.2
100
AcDbLine
 10
307.0202665712561
 20
55.47230501972726
 30
0.0
 11
320.2202665712561
 21
55.47230501972726
 31
0.0
  0
LINE
  5
10DB
330
1B
100
AcDbEntity
 67
     1
  8
0
 62
     0
 48
0.2
100
AcDbLine
 10
320.2202665712561
 20
64.97230501972726
 30
0.0
 11
307.0202665712561
 21
64.97230501972726
 31
0.0
  0
LINE
  5
10E1
330
1B
100
AcDbEntity
 67
     1
  8
0
100
AcDbLine
 10
307.0202665712561
 20
55.47230501972726
 30
0.0
 11
303.2202665712561
 21
55.47230501972729
 31
0.0
  0
LINE
  5
10E2
330
1B
100
AcDbEntity
 67
     1
  8
0
100
AcDbLine
 10
307.0202665712561
 20
64.97230501972726
 30
0.0
 11
303.2202665712561
 21
64.97230501972729
 31
0.0
  0
LINE
  5
10E9
330
1B
100
AcDbEntity
 67
     1
  8
0
 62
     0
 48
0.2
100
AcDbLine
 10
295.2202665712561
 20
63.72230501972729
 30
0.0
 11
295.2202665712561
 21
62.29724529606909
 31
0.0
  0
LINE
  5
10EA
330
1B
100
AcDbEntity
 67
     1
  8
0
100
AcDbLine
 10
295.2202665712561
 20
63.72230501972729
 30
0.0
 11
295.2202665712561
 21
62.29724529606909
 31
0.0
  0
LINE
  5
10EB
330
1B
100
AcDbEntity
 67
     1
  8
0
100
AcDbLine
 10
303.2202665712561
 20
65.22230501972728
 30
0.0
 11
303.2202665712561
 21
64.97230501972729
 31
0.0
  0
LINE
  5
10EE
330
1B
100
AcDbEntity
 67
     1
  8
0
100
AcDbLine
 10
295.2202665712561
 20
58.14724529606903
 30
0.0
 11
295.2202665712561
 21
56.72230501972729
 31
0.0
  0
LINE
  5
10EF
330
1B
100
AcDbEntity
 67
     1
  8
0
 62
     0
 48
0.2
100
AcDbLine
 10
295.2202665712561
 20
58.14724529606903
 30
0.0
 11
295.2202665712561
 21
56.72230501972729
 31
0.0
  0
LINE
  5
10F4
330
1B
100
AcDbEntity
 67
     1
  8
0
100
AcDbLine
 10
303.2202665712561
 20
55.47230501972729
 30
0.0
 11
303.2202665712561
 21
55.22230501972728
 31
0.0
  0
LINE
  5
1109
330
1B
100
AcDbEntity
 67
     1
  8
0
 62
     0
 48
0.2
100
AcDbLine
 10
320.2202665712561
 20
63.73480501972725
 30
0.0
 11
320.2202665712561
 21
64.97230501972726
 31
0.0
  0
LINE
  5
110A
330
1B
100
AcDbEntity
 67
     1
  8
0
 62
     0
 48
0.2
100
AcDbLine
 10
320.2202665712561
 20
55.47230501972726
 30
0.0
 11
320.2202665712561
 21
56.70980501972724
 31
0.0
  0
LINE
  5
118C
330
1B
100
AcDbEntity
 67
     1
  8
0
 62
     0
100
AcDbLine
 10
295.2202665712561
 20
58.22224529606907
 30
0.0
 11
284.8202665712562
 21
58.22224529606905
 31
0.0
  0
LINE
  5
118D
330
1B
100
AcDbEntity
 67
     1
  8
0
 62
     0
100
AcDbLine
 10
284.8202665712562
 20
62.22224529606908
 30
0.0
 11
295.2202665712561
 21
62.22224529606908
 31
0.0
  0
LINE
  5
118E
330
1B
100
AcDbEntity
 67
     1
  8
0
 62
     0
 48
0.2
100
AcDbLine
 10
295.2202665712561
 20
62.22224529606908
 30
0.0
 11
287.2202665712561
 21
62.22224529606908
 31
0.0
  0
LINE
  5
118F
330
1B
100
AcDbEntity
 67
     1
  8
0
 62
     0
 48
0.2
100
AcDbLine
 10
287.2202665712561
 20
58.22224529606907
 30
0.0
 11
295.2202665712561
 21
58.22224529606907
 31
0.0
  0
LINE
  5
1190
330
1B
100
AcDbEntity
 67
     1
  8
0
 62
     0
 48
0.2
100
AcDbLine
 10
284.8202665712562
 20
58.22224529606907
 30
0.0
 11
287.2202665712561
 21
58.22224529606907
 31
0.0
  0
LINE
  5
1191
330
1B
100
AcDbEntity
 67
     1
  8
0
 62
     0
 48
0.2
100
AcDbLine
 10
284.8202665712562
 20
62.22224529606908
 30
0.0
 11
287.2202665712561
 21
62.22224529606908
 31
0.0
  0
LINE
  5
1194
330
1B
100
AcDbEntity
 67
     1
  8
0
 62
     0
 48
0.2
100
AcDbLine
 10
284.7202665712561
 20
62.12224529606908
 30
0.0
 11
284.7202665712561
 21
58.32224529606904
 31
0.0
  0
LINE
  5
119C
330
1B
100
AcDbEntity
 67
     1
  8
0
100
AcDbLine
 10
320.2202665712561
 20
63.73480501972725
 30
0.0
 11
320.2202665712561
 21
56.70980501972727
 31
0.0
  0
LINE
  5
119D
330
1B
100
AcDbEntity
 67
     1
  8
0
100
AcDbLine
 10
295.2202665712561
 20
62.29724529606909
 30
0.0
 11
295.2202665712561
 21
58.22224529606907
 31
0.0
  0
LINE
  5
119E
330
1B
100
AcDbEntity
 67
     1
  8
0
 48
0.2
100
AcDbLine
 10
284.8202665712562
 20
62.22224529606908
 30
0.0
 11
284.7202665712561
 21
62.12224529606908
 31
0.0
  0
LINE
  5
119F
330
1B
100
AcDbEntity
 67
     1
  8
0
 48
0.2
100
AcDbLine
 10
284.8202665712562
 20
58.22224529606905
 30
0.0
 11
284.7202665712561
 21
58.32224529606904
 31
0.0
  0
LINE
  5
11E6
330
1B
100
AcDbEntity
 67
     1
  8
0
100
AcDbLine
 10
295.2202665712561
 20
63.72230501972729
 30
0.0
 11
303.2202665712561
 21
65.22230501972728
 31
0.0
  0
LINE
  5
11E7
330
1B
100
AcDbEntity
 67
     1
  8
0
100
AcDbLine
 10
295.2202665712561
 20
56.72230501972729
 30
0.0
 11
303.2202665712561
 21
55.22230501972728
 31
0.0
  0
LINE
  5
11EB
330
1B
100
AcDbEntity
 67
     1
  8
0
100
AcDbLine
 10
97.58716807182098
 20
58.97224529606908
 30
0.0
 11
97.58716807182098
 21
61.47224529606908
 31
0.0
  0
LINE
  5
11EC
330
1B
100
AcDbEntity
 67
     1
  8
0
100
AcDbLine
 10
97.58716807182098
 20
60.22224529606908
 30
0.0
 11
97.58716807182098
 21
63.72224529606907
 31
0.0
  0
LINE
  5
11ED
330
1B
100
AcDbEntity
 67
     1
  8
0
100
AcDbLine
 10
97.58716807182098
 20
63.72224529606907
 30
0.0
 11
91.58716807182099
 21
63.72224529606907
 31
0.0
  0
LINE
  5
11EE
330
1B
100
AcDbEntity
 67
     1
  8
0
100
AcDbLine
 10
91.58716807182099
 20
63.72224529606907
 30
0.0
 11
91.58716807182099
 21
56.72224529606907
 31
0.0
  0
LINE
  5
11EF
330
1B
100
AcDbEntity
 67
     1
  8
0
100
AcDbLine
 10
91.58716807182099
 20
56.72224529606907
 30
0.0
 11
97.58716807182098
 21
56.72224529606907
 31
0.0
  0
LINE
  5
11F0
330
1B
100
AcDbEntity
 67
     1
  8
0
100
AcDbLine
 10
97.58716807182098
 20
56.72224529606907
 30
0.0
 11
97.58716807182098
 21
58.97224529606908
 31
0.0
  0
LINE
  5
11F2
330
1B
100
AcDbEntity
 67
     1
  8
0
100
AcDbLine
 10
90.19233904009775
 20
61.47224529606908
 30
0.0
 11
90.19233904009775
 21
58.97224529606908
 31
0.0
  0
LINE
  5
11F3
330
1B
100
AcDbEntity
 67
     1
  8
0
100
AcDbLine
 10
90.19233904009775
 20
58.97224529606908
 30
0.0
 11
91.58716807182099
 21
58.97224529606908
 31
0.0
  0
LINE
  5
11F4
330
1B
100
AcDbEntity
 67
     1
  8
0
100
AcDbLine
 10
90.19233904009775
 20
61.47224529606908
 30
0.0
 11
91.58716807182099
 21
61.47224529606908
 31
0.0
  0
LINE
  5
11F8
330
1B
100
AcDbEntity
 67
     1
  8
0
100
AcDbLine
 10
356.6049605407586
 20
61.47230501972726
 30
0.0
 11
348.2468109224451
 21
61.47230501972726
 31
0.0
  0
LINE
  5
11F9
330
1B
100
AcDbEntity
 67
     1
  8
0
100
AcDbLine
 10
356.6049605407586
 20
58.97230501972726
 30
0.0
 11
348.2098646039791
 21
58.97230501972726
 31
0.0
  0
LINE
  5
11FA
330
1B
100
AcDbEntity
 67
     1
  8
0
100
AcDbLine
 10
356.6049605407586
 20
61.47230501972726
 30
0.0
 11
356.6049605407586
 21
58.97230501972726
 31
0.0
  0
LINE
  5
11FB
330
1B
100
AcDbEntity
 67
     1
  8
0
100
AcDbLine
 10
346.1849753307965
 20
58.97230501972726
 30
0.0
 11
322.6737756925945
 21
58.97230501972728
 31
0.0
  0
LINE
  5
11FC
330
1B
100
AcDbEntity
 67
     1
  8
0
100
AcDbLine
 10
346.2313795234064
 20
61.47230501972726
 30
0.0
 11
322.7670026835295
 21
61.47230501972726
 31
0.0
  0
LINE
  5
11FE
330
1B
100
AcDbEntity
 67
     1
  8
0
100
AcDbLine
 10
324.4669879368332
 20
61.47230501972726
 30
0.0
 11
320.2202665712561
 21
61.47230501972727
 31
0.0
  0
LINE
  5
11FF
330
1B
100
AcDbEntity
 67
     1
  8
0
100
AcDbLine
 10
320.2202665712561
 20
61.47230501972727
 30
0.0
 11
322.3436272540447
 21
61.47230501972726
 31
0.0
  0
LINE
  5
1200
330
1B
100
AcDbEntity
 67
     1
  8
0
100
AcDbLine
 10
356.6049605407586
 20
58.97230501972726
 30
0.0
 11
320.2202665712561
 21
58.97230501972726
 31
0.0
  0
LINE
  5
1201
330
1B
100
AcDbEntity
 67
     1
  8
0
100
AcDbLine
 10
356.6049605407586
 20
61.47230501972726
 30
0.0
 11
320.2202665712561
 21
61.47230501972727
 31
0.0
  0
LINE
  5
1202
330
1B
100
AcDbEntity
 67
     1
  8
0
100
AcDbLine
 10
108.3622990618803
 20
45.68139574345991
 30
0.0
 11
165.0907381822487
 21
45.68139574345991
 31
0.0
  0
LINE
  5
1203
330
1B
100
AcDbEntity
 67
     1
  8
0
100
AcDbLine
 10
165.0907381822487
 20
45.68139574345991
 30
0.0
 11
156.0657603305019
 21
49.11825198767655
 31
0.0
  0
LINE
  5
1204
330
1B
100
AcDbEntity
 67
     1
  8
0
100
AcDbLine
 10
156.0657603305019
 20
49.11825198767655
 30
0.0
 11
156.0657603305019
 21
45.68139574345991
 31
0.0
  0
LINE
  5
1205
330
1B
100
AcDbEntity
 67
     1
  8
0
100
AcDbLine
 10
282.8452244973118
 20
45.68139574345991
 30
0.0
 11
226.1167853769434
 21
45.68139574345991
 31
0.0
  0
LINE
  5
1206
330
1B
100
AcDbEntity
 67
     1
  8
0
100
AcDbLine
 10
235.1417632286902
 20
49.11825198767655
 30
0.0
 11
235.1417632286902
 21
45.68139574345991
 31
0.0
  0
LINE
  5
1207
330
1B
100
AcDbEntity
 67
     1
  8
0
100
AcDbLine
 10
226.1167853769434
 20
45.68139574345991
 30
0.0
 11
235.1417632286902
 21
49.11825198767655
 31
0.0
  0
MTEXT
  5
1208
330
1B
100
AcDbEntity
 67
     1
  8
0
100
AcDbMText
 10
110.9954455218669
 20
39.77382565328594
 30
0.0
 40
3.5
 41
0.0
 71
     1
 72
     5
  1
引張り静荷重　1500N以上
 73
     1
 44
1.0
  0
MTEXT
  5
1209
330
1B
100
AcDbEntity
 67
     1
  8
0
100
AcDbMText
 10
230.5684347001147
 20
39.77382565328594
 30
0.0
 40
3.5
 41
0.0
 71
     1
 72
     5
  1
引張り静荷重　700N以上
 73
     1
 44
1.0
  0
ELLIPSE
  5
121D
330
1B
100
AcDbEntity
 67
     1
  8
0
100
AcDbEllipse
 10
80.20269046782809
 20
60.22224529606908
 30
0.0
 11
0.0
 21
3.5
 31
0.0
210
0.0
220
0.0
230
1.0
 40
0.614285714285712
 41
0.0
 42
6.283185307179586
  0
CIRCLE
  5
121E
102
{ACAD_REACTORS
330
122A
102
}
330
1B
100
AcDbEntity
 67
     1
  8
0
100
AcDbCircle
 10
80.20269046782809
 20
60.22224529606908
 30
0.0
 40
1.25
  0
HATCH
  5
122A
330
1B
100
AcDbEntity
 67
     1
  8
0
100
AcDbHatch
 10
0.0
 20
0.0
 30
0.0
210
0.0
220
0.0
230
1.0
  2
ANSI31
 70
     0
 71
     1
 91
        1
 92
        7
 72
     1
 73
     1
 93
        2
 10
81.45269046782809
 20
60.22224529606908
 42
1.0
 10
78.95269046782809
 20
60.22224529606908
 42
1.0
 97
        1
330
121E
 75
     0
 76
     1
 52
0.0
 41
0.2
 77
     0
 78
     1
 53
45.0
 43
-5.698494690016332
 44
-26.92893836784696
 45
-0.4490128060534576
 46
0.4490128060534577
 79
     0
 47
0.0512655861979074
 98
        1
 10
79.80652012928999
 20
60.10190143449904
  0
DIMENSION
  5
122B
330
1B
100
AcDbEntity
 67
     1
  8
0
100
AcDbDimension
  2
*D7
 10
73.67585768892104
 20
56.72224529606908
 30
0.0
 11
71.55085768892103
 21
60.22224529606909
 31
0.0
 70
    33
 71
     5
 42
7.0
  3
ISO-25
100
AcDbAlignedDimension
 13
80.20269046782809
 23
63.72224529606907
 33
0.0
 14
80.20269046782809
 24
56.72224529606907
 34
0.0
  0
DIMENSION
  5
1238
330
1B
100
AcDbEntity
 67
     1
  8
0
100
AcDbDimension
  2
*D8
 10
82.35269046782809
 20
68.59060709567462
 30
0.0
 11
89.97769046782808
 21
70.71560709567461
 31
0.0
 70
    33
 71
     5
 42
4.299999999999982
  3
ISO-25
100
AcDbAlignedDimension
 13
78.0526904678281
 23
60.22224529606908
 33
0.0
 14
82.35269046782809
 24
60.22224529606908
 34
0.0
  0
ARC
  5
1247
330
1B
100
AcDbEntity
 67
     1
  8
0
100
AcDbCircle
 10
105.3411720897457
 20
140.9689774830349
 30
0.0
 40
1.0
100
AcDbArc
 50
0.0
 51
180.0
  0
ARC
  5
1248
330
1B
100
AcDbEntity
 67
     1
  8
0
100
AcDbCircle
 10
105.6388016708159
 20
132.979381621775
 30
0.0
 40
0.9999999999999914
100
AcDbArc
 50
180.0
 51
4.482898581698754
  0
ARC
  5
124C
330
1B
100
AcDbEntity
 67
     1
  8
0
 62
     0
 48
0.15
100
AcDbCircle
 10
105.3411720897457
 20
140.9689774830349
 30
0.0
 40
1.0
100
AcDbArc
 50
180.0
 51
0.0
  0
ARC
  5
124D
330
1B
100
AcDbEntity
 67
     1
  8
0
 62
     0
 48
0.15
100
AcDbCircle
 10
105.6388016708159
 20
132.979381621775
 30
0.0
 40
0.9999999999999857
100
AcDbArc
 50
0.0
 51
180.0
  0
DIMENSION
  5
124E
330
1B
100
AcDbEntity
 67
     1
  8
0
 62
     0
 48
0.15
100
AcDbDimension
  2
*D9
 10
109.7331652938785
 20
139.979381621775
 30
0.0
 11
109.7331652938785
 21
122.696999040293
 31
0.0
 70
   161
  1
%%c6
 71
     5
 42
6.0
  3
ISO-25
100
AcDbAlignedDimension
 13
105.6388016708159
 23
133.979381621775
 33
0.0
 14
105.6388016708159
 24
139.979381621775
 34
0.0
  0
CIRCLE
  5
128A
330
1B
100
AcDbEntity
 67
     1
  8
0
 48
0.15
100
AcDbCircle
 10
103.6749993319676
 20
37.31530231214696
 30
0.0
 40
3.017763593292556
  0
MTEXT
  5
128B
330
1B
100
AcDbEntity
 67
     1
  8
0
 48
0.15
100
AcDbMText
 10
103.2698335126169
 20
37.28892645599586
 30
0.0
 40
3.0
 41
8.300599999999999
 71
     5
 72
     5
  1
１
 73
     1
 44
1.0
  0
CIRCLE
  5
128C
330
1B
100
AcDbEntity
 67
     1
  8
0
 48
0.15
100
AcDbCircle
 10
224.2857361429089
 20
38.18171636177692
 30
0.0
 40
3.017763593292556
  0
MTEXT
  5
128D
330
1B
100
AcDbEntity
 67
     1
  8
0
 48
0.15
100
AcDbMText
 10
223.8805703235582
 20
38.15534050562581
 30
0.0
 40
3.0
 41
8.300599999999999
 71
     5
 72
     5
  1
２
 73
     1
 44
1.0
  0
ARC
  5
1365
330
1B
100
AcDbEntity
 67
     1
  8
0
 62
     0
100
AcDbCircle
 10
213.881007401141
 20
134.0979636051799
 30
0.0
 40
4.5
100
AcDbArc
 50
47.6554563558141
 51
90.24444221093082
  0
ARC
  5
1366
330
1B
100
AcDbEntity
 67
     1
  8
0
 62
     0
100
AcDbCircle
 10
213.881007401141
 20
134.0979636051799
 30
0.0
 40
6.299999999999999
100
AcDbArc
 50
31.837363712227
 51
134.4153085971882
  0
LINE
  5
1367
330
1B
100
AcDbEntity
 67
     1
  8
0
 62
     0
100
AcDbLine
 10
206.047067004139
 20
136.1979636051799
 30
0.0
 11
217.8459510099758
 21
136.1979636051799
 31
0.0
  0
LINE
  5
1368
330
1B
100
AcDbEntity
 67
     1
  8
0
 62
     0
100
AcDbLine
 10
124.0691887170268
 20
136.1979636051799
 30
0.0
 11
136.460107180017
 21
136.1979636051799
 31
0.0
  0
LINE
  5
1369
330
1B
100
AcDbEntity
 67
     1
  8
0
 62
     0
100
AcDbLine
 10
132.4951635711819
 20
138.59796360518
 30
0.0
 11
120.1042451081916
 21
138.59796360518
 31
0.0
  0
ARC
  5
136A
330
1B
100
AcDbEntity
 67
     1
  8
0
 62
     0
100
AcDbCircle
 10
132.495163571182
 20
134.0979636051798
 30
0.0
 40
6.299999999999999
100
AcDbArc
 50
31.837363712227
 51
134.4153085971882
  0
ARC
  5
136B
330
1B
100
AcDbEntity
 67
     1
  8
0
 62
     0
100
AcDbCircle
 10
124.0691887170269
 20
140.6979636051798
 30
0.0
 40
6.299999999999999
100
AcDbArc
 50
211.5881355052006
 51
314.4153085971882
  0
ARC
  5
136C
330
1B
100
AcDbEntity
 67
     1
  8
0
 62
     0
100
AcDbCircle
 10
107.2691887170267
 20
140.3614058761541
 30
0.0
 40
6.299999999999999
100
AcDbArc
 50
263.0017220512028
 51
314.4153085971882
  0
ARC
  5
136D
330
1B
100
AcDbEntity
 67
     1
  8
0
 62
     0
100
AcDbCircle
 10
124.0691887170269
 20
140.6979636051798
 30
0.0
 40
4.5
100
AcDbArc
 50
227.1665719339339
 51
270.0
  0
LINE
  5
136F
330
1B
100
AcDbEntity
 67
     1
  8
0
 62
     0
100
AcDbLine
 10
115.695163571182
 20
138.59796360518
 30
0.0
 11
106.5015997919578
 21
138.59796360518
 31
0.0
  0
ARC
  5
1370
330
1B
100
AcDbEntity
 67
     1
  8
0
 62
     0
100
AcDbCircle
 10
115.6951635711821
 20
134.0979636051798
 30
0.0
 40
4.5
100
AcDbArc
 50
47.6554563558141
 51
90.24444221093082
  0
ARC
  5
1371
330
1B
100
AcDbEntity
 67
     1
  8
0
 62
     0
100
AcDbCircle
 10
115.6951635711821
 20
134.0979636051798
 30
0.0
 40
6.299999999999999
100
AcDbArc
 50
31.837363712227
 51
134.4153085971882
  0
LINE
  5
1372
330
1B
100
AcDbEntity
 67
     1
  8
0
 62
     0
100
AcDbLine
 10
107.2691887170266
 20
136.1979636051799
 30
0.0
 11
119.660107180017
 21
136.1979636051799
 31
0.0
  0
ARC
  5
1373
330
1B
100
AcDbEntity
 67
     1
  8
0
 62
     0
100
AcDbCircle
 10
183.7608223908597
 20
134.0979636051798
 30
0.0
 40
6.299999999999999
100
AcDbArc
 50
31.837363712227
 51
134.4153085971882
  0
LINE
  5
1374
330
1B
100
AcDbEntity
 67
     1
  8
0
 62
     0
100
AcDbLine
 10
175.3348475367047
 20
136.1979636051798
 30
0.0
 11
187.7257659996949
 21
136.1979636051798
 31
0.0
  0
ARC
  5
1375
330
1B
100
AcDbEntity
 67
     1
  8
0
 62
     0
100
AcDbCircle
 10
183.7608223908597
 20
134.0979636051798
 30
0.0
 40
4.5
100
AcDbArc
 50
47.6554563558141
 51
90.24444221093082
  0
LINE
  5
1376
330
1B
100
AcDbEntity
 67
     1
  8
0
 62
     0
100
AcDbLine
 10
157.767258611636
 20
138.5979636051799
 30
0.0
 11
153.7042451081916
 21
138.5979636051799
 31
0.0
  0
ARC
  5
1377
330
1B
100
AcDbEntity
 67
     1
  8
0
 62
     0
100
AcDbCircle
 10
157.721138425337
 20
140.6979636051798
 30
0.0
 40
6.299999999999999
100
AcDbArc
 50
211.5881355052006
 51
270.0
  0
ARC
  5
1378
330
1B
100
AcDbEntity
 67
     1
  8
0
 62
     0
100
AcDbCircle
 10
157.721138425337
 20
140.6979636051798
 30
0.0
 40
4.5
100
AcDbArc
 50
227.1665719339339
 51
270.2533222070099
  0
ARC
  5
1379
330
1B
100
AcDbEntity
 67
     1
  8
0
 62
     0
100
AcDbCircle
 10
140.8691887170268
 20
140.6979636051798
 30
0.0
 40
6.299999999999999
100
AcDbArc
 50
211.5881355052006
 51
314.4153085971882
  0
LINE
  5
137A
330
1B
100
AcDbEntity
 67
     1
  8
0
 62
     0
100
AcDbLine
 10
140.7707704939343
 20
136.1979636051799
 30
0.0
 11
153.3120568883273
 21
136.1979636051798
 31
0.0
  0
ARC
  5
137B
330
1B
100
AcDbEntity
 67
     1
  8
0
 62
     0
100
AcDbCircle
 10
149.2951635711819
 20
134.0979636051798
 30
0.0
 40
6.299999999999999
100
AcDbArc
 50
31.58813550520061
 51
134.4153085971882
  0
ARC
  5
137C
330
1B
100
AcDbEntity
 67
     1
  8
0
 62
     0
100
AcDbCircle
 10
149.2951635711819
 20
134.0979636051798
 30
0.0
 40
4.5
100
AcDbArc
 50
47.1665719339339
 51
89.99999999999998
  0
ARC
  5
137D
330
1B
100
AcDbEntity
 67
     1
  8
0
 62
     0
100
AcDbCircle
 10
132.495163571182
 20
134.0979636051798
 30
0.0
 40
4.5
100
AcDbArc
 50
47.6554563558141
 51
90.24444221093082
  0
LINE
  5
137E
330
1B
100
AcDbEntity
 67
     1
  8
0
 62
     0
100
AcDbLine
 10
149.2951635711819
 20
138.59796360518
 30
0.0
 11
136.9042451081917
 21
138.59796360518
 31
0.0
  0
ARC
  5
137F
330
1B
100
AcDbEntity
 67
     1
  8
0
 62
     0
100
AcDbCircle
 10
140.8691887170268
 20
140.6979636051798
 30
0.0
 40
4.5
100
AcDbArc
 50
227.1665719339339
 51
270.0
  0
ARC
  5
1380
330
1B
100
AcDbEntity
 67
     1
  8
0
 62
     0
100
AcDbCircle
 10
175.3348475367048
 20
140.6979636051798
 30
0.0
 40
6.299999999999999
100
AcDbArc
 50
211.5881355052006
 51
314.4153085971882
  0
ARC
  5
1381
330
1B
100
AcDbEntity
 67
     1
  8
0
 62
     0
100
AcDbCircle
 10
158.5348475367046
 20
140.6979636051798
 30
0.0
 40
6.299999999999999
100
AcDbArc
 50
263.0017220512028
 51
314.4153085971882
  0
ARC
  5
1382
330
1B
100
AcDbEntity
 67
     1
  8
0
 62
     0
100
AcDbCircle
 10
166.96082239086
 20
134.0979636051798
 30
0.0
 40
4.5
100
AcDbArc
 50
47.6554563558141
 51
90.24444221093082
  0
LINE
  5
1383
330
1B
100
AcDbEntity
 67
     1
  8
0
 62
     0
100
AcDbLine
 10
183.7608223908596
 20
138.5979636051799
 30
0.0
 11
171.3699039278695
 21
138.5979636051799
 31
0.0
  0
ARC
  5
1384
330
1B
100
AcDbEntity
 67
     1
  8
0
 62
     0
100
AcDbCircle
 10
175.3348475367048
 20
140.6979636051798
 30
0.0
 40
4.5
100
AcDbArc
 50
227.1665719339339
 51
270.0
  0
ARC
  5
1385
330
1B
100
AcDbEntity
 67
     1
  8
0
 62
     0
100
AcDbCircle
 10
158.5348475367046
 20
140.6979636051798
 30
0.0
 40
4.5
100
AcDbArc
 50
259.5860406746102
 51
270.0
  0
ARC
  5
1386
330
1B
100
AcDbEntity
 67
     1
  8
0
 62
     0
100
AcDbCircle
 10
166.96082239086
 20
134.0979636051798
 30
0.0
 40
6.299999999999999
100
AcDbArc
 50
31.837363712227
 51
134.4153085971882
  0
LINE
  5
1387
330
1B
100
AcDbEntity
 67
     1
  8
0
 62
     0
100
AcDbLine
 10
166.9608223908599
 20
138.5979636051799
 30
0.0
 11
157.767258611636
 21
138.5979636051799
 31
0.0
  0
LINE
  5
1388
330
1B
100
AcDbEntity
 67
     1
  8
0
 62
     0
100
AcDbLine
 10
158.5348475367046
 20
136.1979636051798
 30
0.0
 11
170.9257659996947
 21
136.1979636051798
 31
0.0
  0
ARC
  5
138D
330
1B
100
AcDbEntity
 67
     1
  8
0
 62
     0
100
AcDbCircle
 10
192.134847536705
 20
140.6979636051798
 30
0.0
 40
6.299999999999999
100
AcDbArc
 50
211.5881355052006
 51
314.4153085971882
  0
LINE
  5
138E
330
1B
100
AcDbEntity
 67
     1
  8
0
 62
     0
100
AcDbLine
 10
192.0364293136122
 20
136.1979636051798
 30
0.0
 11
201.5650214681254
 21
136.1979636051798
 31
0.0
  0
ARC
  5
1390
330
1B
100
AcDbEntity
 67
     1
  8
0
 62
     0
100
AcDbCircle
 10
200.5608223908599
 20
134.0979636051798
 30
0.0
 40
4.5
100
AcDbArc
 50
77.10557018807877
 51
89.99999999999998
  0
ARC
  5
1391
330
1B
100
AcDbEntity
 67
     1
  8
0
 62
     0
100
AcDbCircle
 10
200.5608223908599
 20
134.0979636051798
 30
0.0
 40
6.299999999999999
100
AcDbArc
 50
80.82812094530336
 51
134.4153085971882
  0
LINE
  5
1392
330
1B
100
AcDbEntity
 67
     1
  8
0
 62
     0
100
AcDbLine
 10
200.5608223908598
 20
138.5979636051799
 30
0.0
 11
188.1699039278697
 21
138.5979636051799
 31
0.0
  0
ARC
  5
1394
330
1B
100
AcDbEntity
 67
     1
  8
0
 62
     0
100
AcDbCircle
 10
192.134847536705
 20
140.6979636051798
 30
0.0
 40
4.5
100
AcDbArc
 50
227.1665719339339
 51
270.0
  0
ARC
  5
1396
330
1B
100
AcDbEntity
 67
     1
  8
0
 62
     0
100
AcDbCircle
 10
205.4550325469856
 20
140.6979636051798
 30
0.0
 40
6.299999999999999
100
AcDbArc
 50
285.7798928417448
 51
314.4153085971882
  0
LINE
  5
139A
330
1B
100
AcDbEntity
 67
     1
  8
0
 62
     0
100
AcDbLine
 10
213.881007401141
 20
138.5979636051799
 30
0.0
 11
204.0221788542506
 21
138.5979636051799
 31
0.0
  0
ARC
  5
139E
330
1B
100
AcDbEntity
 67
     1
  8
0
 62
     0
100
AcDbCircle
 10
272.1763405047295
 20
142.2468612471096
 30
0.0
 40
6.299999999999999
100
AcDbArc
 50
230.3239316513677
 51
333.1511047433552
  0
LINE
  5
139F
330
1B
100
AcDbEntity
 67
     1
  8
0
 62
     0
100
AcDbLine
 10
281.9466662208189
 20
138.5979636051799
 30
0.0
 11
277.3120533081016
 21
138.5979636051799
 31
0.0
  0
ARC
  5
13A0
330
1B
100
AcDbEntity
 67
     1
  8
0
 62
     0
100
AcDbCircle
 10
239.9206913666637
 20
140.6979636051798
 30
0.0
 40
6.299999999999999
100
AcDbArc
 50
263.0017220512028
 51
314.4153085971882
  0
LINE
  5
13A1
330
1B
100
AcDbEntity
 67
     1
  8
0
 62
     0
100
AcDbLine
 10
239.9206913666637
 20
136.1979636051799
 30
0.0
 11
252.3116098296538
 21
136.1979636051799
 31
0.0
  0
LINE
  5
13A2
330
1B
100
AcDbEntity
 67
     1
  8
0
 62
     0
100
AcDbLine
 10
248.3466662208186
 20
138.5979636051799
 30
0.0
 11
239.1531024415946
 21
138.5979636051799
 31
0.0
  0
ARC
  5
13A3
330
1B
100
AcDbEntity
 67
     1
  8
0
 62
     0
100
AcDbCircle
 10
222.2550325469858
 20
140.6979636051798
 30
0.0
 40
6.299999999999999
100
AcDbArc
 50
211.5881355052006
 51
314.4153085971882
  0
ARC
  5
13A4
330
1B
100
AcDbEntity
 67
     1
  8
0
 62
     0
100
AcDbCircle
 10
239.106982255296
 20
140.6979636051798
 30
0.0
 40
6.299999999999999
100
AcDbArc
 50
211.5881355052006
 51
270.0
  0
ARC
  5
13A5
330
1B
100
AcDbEntity
 67
     1
  8
0
 62
     0
100
AcDbCircle
 10
239.9206913666637
 20
140.6979636051798
 30
0.0
 40
4.5
100
AcDbArc
 50
259.5860406746102
 51
270.0
  0
LINE
  5
13A6
330
1B
100
AcDbEntity
 67
     1
  8
0
 62
     0
100
AcDbLine
 10
239.1531024415946
 20
138.5979636051799
 30
0.0
 11
235.0900889381507
 21
138.5979636051799
 31
0.0
  0
ARC
  5
13A7
330
1B
100
AcDbEntity
 67
     1
  8
0
 62
     0
100
AcDbCircle
 10
239.106982255296
 20
140.6979636051798
 30
0.0
 40
4.5
100
AcDbArc
 50
227.1665719339339
 51
270.2533222070099
  0
ARC
  5
13A8
330
1B
100
AcDbEntity
 67
     1
  8
0
 62
     0
100
AcDbCircle
 10
230.6810074011412
 20
134.0979636051799
 30
0.0
 40
4.5
100
AcDbArc
 50
47.1665719339339
 51
89.99999999999998
  0
LINE
  5
13A9
330
1B
100
AcDbEntity
 67
     1
  8
0
 62
     0
100
AcDbLine
 10
230.6810074011412
 20
138.5979636051799
 30
0.0
 11
218.2900889381505
 21
138.5979636051799
 31
0.0
  0
ARC
  5
13AA
330
1B
100
AcDbEntity
 67
     1
  8
0
 62
     0
100
AcDbCircle
 10
222.2550325469858
 20
140.6979636051798
 30
0.0
 40
4.5
100
AcDbArc
 50
227.1665719339339
 51
270.0
  0
LINE
  5
13AB
330
1B
100
AcDbEntity
 67
     1
  8
0
 62
     0
100
AcDbLine
 10
222.1566143238935
 20
136.1979636051799
 30
0.0
 11
234.6979007182865
 21
136.1979636051799
 31
0.0
  0
ARC
  5
13AC
330
1B
100
AcDbEntity
 67
     1
  8
0
 62
     0
100
AcDbCircle
 10
230.6810074011412
 20
134.0979636051799
 30
0.0
 40
6.299999999999999
100
AcDbArc
 50
31.58813550520061
 51
134.4153085971882
  0
ARC
  5
13AD
330
1B
100
AcDbEntity
 67
     1
  8
0
 62
     0
100
AcDbCircle
 10
256.7206913666634
 20
140.6979636051798
 30
0.0
 40
6.299999999999999
100
AcDbArc
 50
211.5881355052006
 51
314.4153085971882
  0
ARC
  5
13AE
330
1B
100
AcDbEntity
 67
     1
  8
0
 62
     0
100
AcDbCircle
 10
265.1466662208188
 20
134.0979636051799
 30
0.0
 40
4.5
100
AcDbArc
 50
47.6554563558141
 51
90.24444221093082
  0
ARC
  5
13AF
330
1B
100
AcDbEntity
 67
     1
  8
0
 62
     0
100
AcDbCircle
 10
248.3466662208186
 20
134.0979636051799
 30
0.0
 40
4.5
100
AcDbArc
 50
47.6554563558141
 51
90.24444221093082
  0
ARC
  5
13B0
330
1B
100
AcDbEntity
 67
     1
  8
0
 62
     0
100
AcDbCircle
 10
248.3466662208186
 20
134.0979636051799
 30
0.0
 40
6.299999999999999
100
AcDbArc
 50
31.837363712227
 51
134.4153085971882
  0
ARC
  5
13B1
330
1B
100
AcDbEntity
 67
     1
  8
0
 62
     0
100
AcDbCircle
 10
256.7206913666634
 20
140.6979636051798
 30
0.0
 40
4.5
100
AcDbArc
 50
227.1665719339339
 51
270.0
  0
LINE
  5
13B2
330
1B
100
AcDbEntity
 67
     1
  8
0
 62
     0
100
AcDbLine
 10
265.1466662208188
 20
138.5979636051799
 30
0.0
 11
252.7557477578286
 21
138.5979636051799
 31
0.0
  0
LINE
  5
13B3
330
1B
100
AcDbEntity
 67
     1
  8
0
 62
     0
100
AcDbLine
 10
256.7206913666634
 20
136.1979636051799
 30
0.0
 11
269.111609829654
 21
136.1979636051799
 31
0.0
  0
ARC
  5
13B4
330
1B
100
AcDbEntity
 67
     1
  8
0
 62
     0
100
AcDbCircle
 10
288.1353018006299
 20
147.6597868264405
 30
0.0
 40
6.299999999999999
100
AcDbArc
 50
230.3239316513677
 51
288.735796146167
  0
LINE
  5
13B5
330
1B
100
AcDbEntity
 67
     1
  8
0
 62
     0
100
AcDbLine
 10
290.4187612612724
 20
138.5979636051799
 30
0.0
 11
286.3557477578286
 21
138.5979636051799
 31
0.0
  0
ARC
  5
13B7
330
1B
100
AcDbEntity
 67
     1
  8
0
 62
     0
100
AcDbCircle
 10
288.1353018006299
 20
147.6597868264405
 30
0.0
 40
4.5
100
AcDbArc
 50
245.9023680801009
 51
288.989118353177
  0
ARC
  5
13B9
330
1B
100
AcDbEntity
 67
     1
  8
0
 62
     0
100
AcDbCircle
 10
282.2757722231466
 20
138.7030594456697
 30
0.0
 40
6.299999999999999
100
AcDbArc
 50
50.32393165136765
 51
153.1511047433552
  0
LINE
  5
13BA
330
1B
100
AcDbEntity
 67
     1
  8
0
 62
     0
100
AcDbLine
 10
273.9372599570204
 20
136.1979636051799
 30
0.0
 11
285.9635595379643
 21
136.1979636051799
 31
0.0
  0
LINE
  5
13EB
330
1B
100
AcDbEntity
 67
     1
  8
0
100
AcDbLine
 10
114.4708887245549
 20
138.59796360518
 30
0.0
 11
106.4382035409752
 21
138.59796360518
 31
0.0
  0
LINE
  5
13F0
330
1B
100
AcDbEntity
 67
     1
  8
0
 48
0.15
100
AcDbLine
 10
290.4187612612724
 20
138.5979636051799
 30
0.0
 11
290.4187612612724
 21
136.19796360518
 31
0.0
  0
ARC
  5
13F4
330
1B
100
AcDbEntity
 67
     1
  8
0
 48
0.15
100
AcDbCircle
 10
271.6884178677097
 20
142.7036743938621
 30
0.0
 40
5.099089415560434
100
AcDbArc
 50
292.2813339196792
 51
346.9049218306251
  0
LINE
  5
13F5
330
1B
100
AcDbEntity
 67
     1
  8
0
 48
0.15
100
AcDbLine
 10
281.9466662208189
 20
138.5979636051799
 30
0.0
 11
286.3557477578286
 21
138.5979636051799
 31
0.0
  0
LINE
  5
13F7
330
1B
100
AcDbEntity
 67
     1
  8
0
 48
0.15
100
AcDbLine
 10
285.9635595379643
 20
136.1979636051799
 30
0.0
 11
290.4187612612724
 21
136.19796360518
 31
0.0
  0
ARC
  5
13F8
330
1B
100
AcDbEntity
 67
     1
  8
0
 48
0.15
100
AcDbCircle
 10
282.5281773230859
 20
138.192148202162
 30
0.0
 40
4.883105049357892
100
AcDbArc
 50
71.06043980829672
 51
165.6604663125932
  0
ARC
  5
13F9
330
1B
100
AcDbEntity
 67
     1
  8
0
 48
0.15
100
AcDbCircle
 10
272.1340229395252
 20
141.2895048497391
 30
0.0
 40
3.727183545750694
100
AcDbArc
 50
226.2312892488278
 51
294.2400635014077
  0
ARC
  5
13FA
330
1B
100
AcDbEntity
 67
     1
  8
0
 62
     0
100
AcDbCircle
 10
265.1466662208188
 20
134.0979636051799
 30
0.0
 40
6.299999999999999
100
AcDbArc
 50
45.58469140280763
 51
134.4153085971882
  0
LINE
  5
13FD
330
1B
100
AcDbEntity
 67
     1
  8
0
 48
0.15
100
AcDbLine
 10
289.5995503888699
 20
143.4046750685854
 30
0.0
 11
290.1588914588027
 21
141.6936251712944
 31
0.0
  0
LINE
  5
13FE
330
1B
100
AcDbEntity
 67
     1
  8
0
 62
     0
100
AcDbLine
 10
274.7122981212216
 20
138.5979636051799
 30
0.0
 11
269.5557477578288
 21
138.5979636051799
 31
0.0
  0
LINE
  5
13FF
330
1B
100
AcDbEntity
 67
     1
  8
0
 48
0.15
100
AcDbLine
 10
201.5650214681254
 20
136.1979636051798
 30
0.0
 11
203.8060442361322
 21
136.1979636051799
 31
0.0
  0
LINE
  5
1402
330
1B
100
AcDbEntity
 67
     1
  8
0
 48
0.15
100
AcDbLine
 10
107.2691887170266
 20
136.1979636051799
 30
0.0
 11
106.5206355851185
 21
136.1701215768167
 31
0.0
  0
LINE
  5
1404
330
1B
100
AcDbEntity
 67
     1
  8
0
 62
     0
100
AcDbLine
 10
109.0900471246879
 20
205.2094406168115
 30
0.0
 11
121.4809655876783
 21
205.2094406168115
 31
0.0
  0
LINE
  5
1405
330
1B
100
AcDbEntity
 67
     1
  8
0
 62
     0
100
AcDbLine
 10
117.5160219788432
 20
207.6094406168116
 30
0.0
 11
108.3224581996191
 21
207.6094406168116
 31
0.0
  0
ARC
  5
1406
330
1B
100
AcDbEntity
 67
     1
  8
0
 62
     0
100
AcDbCircle
 10
117.5160219788433
 20
203.1094406168115
 30
0.0
 40
6.299999999999999
100
AcDbArc
 50
31.837363712227
 51
134.4153085971882
  0
ARC
  5
1407
330
1B
100
AcDbEntity
 67
     1
  8
0
 62
     0
100
AcDbCircle
 10
109.0900471246879
 20
209.3728828877857
 30
0.0
 40
6.299999999999999
100
AcDbArc
 50
263.0017220512028
 51
314.4153085971882
  0
ARC
  5
1408
330
1B
100
AcDbEntity
 67
     1
  8
0
 62
     0
100
AcDbCircle
 10
117.5160219788433
 20
203.1094406168115
 30
0.0
 40
4.5
100
AcDbArc
 50
47.6554563558141
 51
90.24444221093082
  0
ARC
  5
1409
330
1B
100
AcDbEntity
 67
     1
  8
0
 62
     0
100
AcDbCircle
 10
142.6900471246881
 20
209.7094406168114
 30
0.0
 40
4.5
100
AcDbArc
 50
227.1665719339339
 51
270.0
  0
LINE
  5
140A
330
1B
100
AcDbEntity
 67
     1
  8
0
 62
     0
100
AcDbLine
 10
151.1160219788432
 20
207.6094406168116
 30
0.0
 11
138.725103515853
 21
207.6094406168116
 31
0.0
  0
ARC
  5
140B
330
1B
100
AcDbEntity
 67
     1
  8
0
 62
     0
100
AcDbCircle
 10
142.6900471246881
 20
209.7094406168114
 30
0.0
 40
6.299999999999999
100
AcDbArc
 50
211.5881355052006
 51
314.4153085971882
  0
ARC
  5
140C
330
1B
100
AcDbEntity
 67
     1
  8
0
 62
     0
100
AcDbCircle
 10
125.8900471246881
 20
209.7094406168114
 30
0.0
 40
4.5
100
AcDbArc
 50
227.1665719339339
 51
270.0
  0
LINE
  5
140D
330
1B
100
AcDbEntity
 67
     1
  8
0
 62
     0
100
AcDbLine
 10
134.3160219788432
 20
207.6094406168116
 30
0.0
 11
121.9251035158528
 21
207.6094406168116
 31
0.0
  0
ARC
  5
140E
330
1B
100
AcDbEntity
 67
     1
  8
0
 62
     0
100
AcDbCircle
 10
125.8900471246881
 20
209.7094406168114
 30
0.0
 40
6.299999999999999
100
AcDbArc
 50
211.5881355052006
 51
314.4153085971882
  0
LINE
  5
140F
330
1B
100
AcDbEntity
 67
     1
  8
0
 62
     0
100
AcDbLine
 10
125.8900471246881
 20
205.2094406168115
 30
0.0
 11
138.2809655876782
 21
205.2094406168115
 31
0.0
  0
ARC
  5
1410
330
1B
100
AcDbEntity
 67
     1
  8
0
 62
     0
100
AcDbCircle
 10
134.3160219788433
 20
203.1094406168115
 30
0.0
 40
6.299999999999999
100
AcDbArc
 50
31.837363712227
 51
134.4153085971882
  0
ARC
  5
1411
330
1B
100
AcDbEntity
 67
     1
  8
0
 62
     0
100
AcDbCircle
 10
134.3160219788433
 20
203.1094406168115
 30
0.0
 40
4.5
100
AcDbArc
 50
47.6554563558141
 51
90.24444221093082
  0
ARC
  5
1412
330
1B
100
AcDbEntity
 67
     1
  8
0
 62
     0
100
AcDbCircle
 10
168.7816807985212
 20
203.1094406168115
 30
0.0
 40
6.299999999999999
100
AcDbArc
 50
31.837363712227
 51
134.4153085971882
  0
ARC
  5
1413
330
1B
100
AcDbEntity
 67
     1
  8
0
 62
     0
100
AcDbCircle
 10
177.1557059443661
 20
209.7094406168114
 30
0.0
 40
6.299999999999999
100
AcDbArc
 50
211.5881355052006
 51
314.4153085971882
  0
LINE
  5
1414
330
1B
100
AcDbEntity
 67
     1
  8
0
 62
     0
100
AcDbLine
 10
159.5881170192972
 20
207.6094406168115
 30
0.0
 11
155.5251035158528
 21
207.6094406168115
 31
0.0
  0
ARC
  5
1415
330
1B
100
AcDbEntity
 67
     1
  8
0
 62
     0
100
AcDbCircle
 10
159.5419968329982
 20
209.7094406168114
 30
0.0
 40
4.5
100
AcDbArc
 50
227.1665719339339
 51
270.2533222070099
  0
ARC
  5
1416
330
1B
100
AcDbEntity
 67
     1
  8
0
 62
     0
100
AcDbCircle
 10
151.1160219788432
 20
203.1094406168115
 30
0.0
 40
6.299999999999999
100
AcDbArc
 50
31.58813550520061
 51
134.4153085971882
  0
ARC
  5
1417
330
1B
100
AcDbEntity
 67
     1
  8
0
 62
     0
100
AcDbCircle
 10
159.5419968329982
 20
209.7094406168114
 30
0.0
 40
6.299999999999999
100
AcDbArc
 50
211.5881355052006
 51
270.0
  0
LINE
  5
1418
330
1B
100
AcDbEntity
 67
     1
  8
0
 62
     0
100
AcDbLine
 10
142.5916289015955
 20
205.2094406168115
 30
0.0
 11
155.1329152959886
 21
205.2094406168115
 31
0.0
  0
ARC
  5
1419
330
1B
100
AcDbEntity
 67
     1
  8
0
 62
     0
100
AcDbCircle
 10
151.1160219788432
 20
203.1094406168115
 30
0.0
 40
4.5
100
AcDbArc
 50
47.1665719339339
 51
89.99999999999998
  0
LINE
  5
141A
330
1B
100
AcDbEntity
 67
     1
  8
0
 62
     0
100
AcDbLine
 10
168.7816807985212
 20
207.6094406168115
 30
0.0
 11
159.5881170192972
 21
207.6094406168115
 31
0.0
  0
LINE
  5
141B
330
1B
100
AcDbEntity
 67
     1
  8
0
 62
     0
100
AcDbLine
 10
160.3557059443658
 20
205.2094406168115
 30
0.0
 11
172.746624407356
 21
205.2094406168115
 31
0.0
  0
ARC
  5
141C
330
1B
100
AcDbEntity
 67
     1
  8
0
 62
     0
100
AcDbCircle
 10
160.3557059443659
 20
209.7094406168114
 30
0.0
 40
6.299999999999999
100
AcDbArc
 50
263.0017220512028
 51
314.4153085971882
  0
ARC
  5
141D
330
1B
100
AcDbEntity
 67
     1
  8
0
 62
     0
100
AcDbCircle
 10
160.3557059443659
 20
209.7094406168114
 30
0.0
 40
4.5
100
AcDbArc
 50
259.5860406746102
 51
270.0
  0
ARC
  5
141E
330
1B
100
AcDbEntity
 67
     1
  8
0
 62
     0
100
AcDbCircle
 10
168.7816807985212
 20
203.1094406168115
 30
0.0
 40
4.5
100
AcDbArc
 50
47.6554563558141
 51
90.24444221093082
  0
LINE
  5
141F
330
1B
100
AcDbEntity
 67
     1
  8
0
 62
     0
100
AcDbLine
 10
177.155705944366
 20
205.2094406168115
 30
0.0
 11
189.5466244073562
 21
205.2094406168115
 31
0.0
  0
ARC
  5
1420
330
1B
100
AcDbEntity
 67
     1
  8
0
 62
     0
100
AcDbCircle
 10
185.581680798521
 20
203.1094406168115
 30
0.0
 40
6.299999999999999
100
AcDbArc
 50
31.837363712227
 51
134.4153085971882
  0
ARC
  5
1421
330
1B
100
AcDbEntity
 67
     1
  8
0
 62
     0
100
AcDbCircle
 10
193.9557059443662
 20
209.7094406168114
 30
0.0
 40
6.299999999999999
100
AcDbArc
 50
211.5881355052006
 51
314.4153085971882
  0
LINE
  5
1422
330
1B
100
AcDbEntity
 67
     1
  8
0
 62
     0
100
AcDbLine
 10
185.5816807985209
 20
207.6094406168115
 30
0.0
 11
173.1907623355307
 21
207.6094406168115
 31
0.0
  0
ARC
  5
1423
330
1B
100
AcDbEntity
 67
     1
  8
0
 62
     0
100
AcDbCircle
 10
177.1557059443661
 20
209.7094406168114
 30
0.0
 40
4.5
100
AcDbArc
 50
227.1665719339339
 51
270.0
  0
ARC
  5
1424
330
1B
100
AcDbEntity
 67
     1
  8
0
 62
     0
100
AcDbCircle
 10
185.581680798521
 20
203.1094406168115
 30
0.0
 40
4.5
100
AcDbArc
 50
47.6554563558141
 51
90.24444221093082
  0
LINE
  5
1425
330
1B
100
AcDbEntity
 67
     1
  8
0
 62
     0
100
AcDbLine
 10
193.8572877212735
 20
205.2094406168115
 30
0.0
 11
203.3858798757867
 21
205.2094406168115
 31
0.0
  0
LINE
  5
1426
330
1B
100
AcDbEntity
 67
     1
  8
0
 62
     0
100
AcDbLine
 10
202.3816807985211
 20
207.6094406168115
 30
0.0
 11
189.9907623355309
 21
207.6094406168115
 31
0.0
  0
ARC
  5
1427
330
1B
100
AcDbEntity
 67
     1
  8
0
 62
     0
100
AcDbCircle
 10
193.9557059443662
 20
209.7094406168114
 30
0.0
 40
4.5
100
AcDbArc
 50
227.1665719339339
 51
270.0
  0
ARC
  5
1428
330
1B
100
AcDbEntity
 67
     1
  8
0
 62
     0
100
AcDbCircle
 10
202.3816807985212
 20
203.1094406168115
 30
0.0
 40
4.5
100
AcDbArc
 50
77.10557018807877
 51
89.99999999999998
  0
ARC
  5
1429
330
1B
100
AcDbEntity
 67
     1
  8
0
 62
     0
100
AcDbCircle
 10
202.3816807985212
 20
203.1094406168115
 30
0.0
 40
6.299999999999999
100
AcDbArc
 50
80.82812094530336
 51
134.4153085971882
  0
LINE
  5
142A
330
1B
100
AcDbEntity
 67
     1
  8
0
 48
0.15
100
AcDbLine
 10
203.3858798757867
 20
205.2094406168115
 30
0.0
 11
205.6269026437935
 21
205.2094406168115
 31
0.0
  0
LINE
  5
142B
330
1B
100
AcDbEntity
 67
     1
  8
0
 62
     0
100
AcDbLine
 10
215.7018658088022
 20
207.6094406168116
 30
0.0
 11
205.8430372619119
 21
207.6094406168116
 31
0.0
  0
LINE
  5
142C
330
1B
100
AcDbEntity
 67
     1
  8
0
 62
     0
100
AcDbLine
 10
240.9739608492559
 20
207.6094406168116
 30
0.0
 11
236.910947345812
 21
207.6094406168116
 31
0.0
  0
ARC
  5
142D
330
1B
100
AcDbEntity
 67
     1
  8
0
 62
     0
100
AcDbCircle
 10
240.9278406629573
 20
209.7094406168114
 30
0.0
 40
4.5
100
AcDbArc
 50
227.1665719339339
 51
270.2533222070099
  0
ARC
  5
142E
330
1B
100
AcDbEntity
 67
     1
  8
0
 62
     0
100
AcDbCircle
 10
240.9278406629573
 20
209.7094406168114
 30
0.0
 40
6.299999999999999
100
AcDbArc
 50
211.5881355052006
 51
270.0
  0
ARC
  5
142F
330
1B
100
AcDbEntity
 67
     1
  8
0
 62
     0
100
AcDbCircle
 10
224.0758909546471
 20
209.7094406168114
 30
0.0
 40
4.5
100
AcDbArc
 50
227.1665719339339
 51
270.0
  0
LINE
  5
1430
330
1B
100
AcDbEntity
 67
     1
  8
0
 62
     0
100
AcDbLine
 10
232.5018658088024
 20
207.6094406168116
 30
0.0
 11
220.1109473458118
 21
207.6094406168116
 31
0.0
  0
ARC
  5
1431
330
1B
100
AcDbEntity
 67
     1
  8
0
 62
     0
100
AcDbCircle
 10
224.0758909546471
 20
209.7094406168114
 30
0.0
 40
6.299999999999999
100
AcDbArc
 50
211.5881355052006
 51
314.4153085971882
  0
LINE
  5
1432
330
1B
100
AcDbEntity
 67
     1
  8
0
 62
     0
100
AcDbLine
 10
207.8679254118003
 20
205.2094406168115
 30
0.0
 11
219.666809417637
 21
205.2094406168115
 31
0.0
  0
ARC
  5
1433
330
1B
100
AcDbEntity
 67
     1
  8
0
 62
     0
100
AcDbCircle
 10
215.7018658088022
 20
203.1094406168115
 30
0.0
 40
6.299999999999999
100
AcDbArc
 50
31.837363712227
 51
134.4153085971882
  0
ARC
  5
1434
330
1B
100
AcDbEntity
 67
     1
  8
0
 62
     0
100
AcDbCircle
 10
207.2758909546469
 20
209.7094406168114
 30
0.0
 40
6.299999999999999
100
AcDbArc
 50
285.7798928417448
 51
314.4153085971882
  0
ARC
  5
1435
330
1B
100
AcDbEntity
 67
     1
  8
0
 62
     0
100
AcDbCircle
 10
215.7018658088022
 20
203.1094406168115
 30
0.0
 40
4.5
100
AcDbArc
 50
47.6554563558141
 51
90.24444221093082
  0
ARC
  5
1436
330
1B
100
AcDbEntity
 67
     1
  8
0
 62
     0
100
AcDbCircle
 10
232.5018658088024
 20
203.1094406168115
 30
0.0
 40
6.299999999999999
100
AcDbArc
 50
31.58813550520061
 51
134.4153085971882
  0
LINE
  5
1437
330
1B
100
AcDbEntity
 67
     1
  8
0
 62
     0
100
AcDbLine
 10
223.9774727315548
 20
205.2094406168115
 30
0.0
 11
236.5187591259477
 21
205.2094406168115
 31
0.0
  0
ARC
  5
1438
330
1B
100
AcDbEntity
 67
     1
  8
0
 62
     0
100
AcDbCircle
 10
232.5018658088024
 20
203.1094406168115
 30
0.0
 40
4.5
100
AcDbArc
 50
47.1665719339339
 51
89.99999999999998
  0
ARC
  5
1439
330
1B
100
AcDbEntity
 67
     1
  8
0
 62
     0
100
AcDbCircle
 10
250.1675246284798
 20
203.1094406168115
 30
0.0
 40
6.299999999999999
100
AcDbArc
 50
31.837363712227
 51
134.4153085971882
  0
LINE
  5
143A
330
1B
100
AcDbEntity
 67
     1
  8
0
 62
     0
100
AcDbLine
 10
241.7415497743249
 20
205.2094406168115
 30
0.0
 11
254.1324682373151
 21
205.2094406168115
 31
0.0
  0
LINE
  5
143B
330
1B
100
AcDbEntity
 67
     1
  8
0
 62
     0
100
AcDbLine
 10
250.1675246284798
 20
207.6094406168116
 30
0.0
 11
240.9739608492559
 21
207.6094406168116
 31
0.0
  0
ARC
  5
143C
330
1B
100
AcDbEntity
 67
     1
  8
0
 62
     0
100
AcDbCircle
 10
241.7415497743249
 20
209.7094406168114
 30
0.0
 40
4.5
100
AcDbArc
 50
259.5860406746102
 51
270.0
  0
ARC
  5
143D
330
1B
100
AcDbEntity
 67
     1
  8
0
 62
     0
100
AcDbCircle
 10
241.7415497743249
 20
209.7094406168114
 30
0.0
 40
6.299999999999999
100
AcDbArc
 50
263.0017220512028
 51
314.4153085971882
  0
ARC
  5
143E
330
1B
100
AcDbEntity
 67
     1
  8
0
 62
     0
100
AcDbCircle
 10
250.1675246284798
 20
203.1094406168115
 30
0.0
 40
4.5
100
AcDbArc
 50
47.6554563558141
 51
90.24444221093082
  0
LINE
  5
143F
330
1B
100
AcDbEntity
 67
     1
  8
0
 62
     0
100
AcDbLine
 10
276.5331565288829
 20
207.6094406168116
 30
0.0
 11
271.37660616549
 21
207.6094406168116
 31
0.0
  0
ARC
  5
1440
330
1B
100
AcDbEntity
 67
     1
  8
0
 48
0.15
100
AcDbCircle
 10
273.9548813471865
 20
210.3009818613707
 30
0.0
 40
3.727183545750694
100
AcDbArc
 50
226.2312892488278
 51
294.2400635014077
  0
ARC
  5
1441
330
1B
100
AcDbEntity
 67
     1
  8
0
 62
     0
100
AcDbCircle
 10
273.9971989123908
 20
211.2583382587413
 30
0.0
 40
6.299999999999999
100
AcDbArc
 50
230.3239316513677
 51
333.1511047433552
  0
ARC
  5
1442
330
1B
100
AcDbEntity
 67
     1
  8
0
 62
     0
100
AcDbCircle
 10
258.5415497743247
 20
209.7094406168114
 30
0.0
 40
6.299999999999999
100
AcDbArc
 50
211.5881355052006
 51
314.4153085971882
  0
LINE
  5
1443
330
1B
100
AcDbEntity
 67
     1
  8
0
 62
     0
100
AcDbLine
 10
266.96752462848
 20
207.6094406168116
 30
0.0
 11
254.5766061654899
 21
207.6094406168116
 31
0.0
  0
ARC
  5
1444
330
1B
100
AcDbEntity
 67
     1
  8
0
 62
     0
100
AcDbCircle
 10
266.96752462848
 20
203.1094406168115
 30
0.0
 40
6.299999999999999
100
AcDbArc
 50
45.58469140280763
 51
134.4153085971882
  0
LINE
  5
1445
330
1B
100
AcDbEntity
 67
     1
  8
0
 62
     0
100
AcDbLine
 10
258.5415497743247
 20
205.2094406168115
 30
0.0
 11
270.9324682373153
 21
205.2094406168115
 31
0.0
  0
ARC
  5
1446
330
1B
100
AcDbEntity
 67
     1
  8
0
 62
     0
100
AcDbCircle
 10
258.5415497743247
 20
209.7094406168114
 30
0.0
 40
4.5
100
AcDbArc
 50
227.1665719339339
 51
270.0
  0
ARC
  5
1447
330
1B
100
AcDbEntity
 67
     1
  8
0
 62
     0
100
AcDbCircle
 10
266.96752462848
 20
203.1094406168115
 30
0.0
 40
4.5
100
AcDbArc
 50
47.6554563558141
 51
90.24444221093082
  0
ARC
  5
1448
330
1B
100
AcDbEntity
 67
     1
  8
0
 62
     0
100
AcDbCircle
 10
289.9561602082911
 20
216.6712638380721
 30
0.0
 40
6.299999999999999
100
AcDbArc
 50
230.3239316513677
 51
288.735796146167
  0
LINE
  5
1449
330
1B
100
AcDbEntity
 67
     1
  8
0
 48
0.15
100
AcDbLine
 10
287.7844179456256
 20
205.2094406168115
 30
0.0
 11
292.2396196689337
 21
205.2094406168116
 31
0.0
  0
LINE
  5
144A
330
1B
100
AcDbEntity
 67
     1
  8
0
 48
0.15
100
AcDbLine
 10
283.7675246284802
 20
207.6094406168116
 30
0.0
 11
288.1766061654898
 21
207.6094406168116
 31
0.0
  0
ARC
  5
144B
330
1B
100
AcDbEntity
 67
     1
  8
0
 62
     0
100
AcDbCircle
 10
284.0966306308079
 20
207.7145364573013
 30
0.0
 40
6.299999999999999
100
AcDbArc
 50
50.32393165136765
 51
153.1511047433552
  0
ARC
  5
144C
330
1B
100
AcDbEntity
 67
     1
  8
0
 48
0.15
100
AcDbCircle
 10
273.509276275371
 20
211.7151514054937
 30
0.0
 40
5.099089415560434
100
AcDbArc
 50
292.2813339196792
 51
346.9049218306251
  0
ARC
  5
144D
330
1B
100
AcDbEntity
 67
     1
  8
0
 48
0.15
100
AcDbCircle
 10
284.3490357307472
 20
207.2036252137936
 30
0.0
 40
4.883105049357892
100
AcDbArc
 50
71.06043980829672
 51
165.6604663125932
  0
LINE
  5
144E
330
1B
100
AcDbEntity
 67
     1
  8
0
 62
     0
100
AcDbLine
 10
283.7675246284802
 20
207.6094406168116
 30
0.0
 11
279.1329117157629
 21
207.6094406168116
 31
0.0
  0
LINE
  5
144F
330
1B
100
AcDbEntity
 67
     1
  8
0
 62
     0
100
AcDbLine
 10
275.7581183646816
 20
205.2094406168115
 30
0.0
 11
287.7844179456256
 21
205.2094406168115
 31
0.0
  0
LINE
  5
1451
330
1B
100
AcDbEntity
 67
     1
  8
0
 62
     0
100
AcDbLine
 10
292.2396196689337
 20
207.6094406168116
 30
0.0
 11
288.1766061654898
 21
207.6094406168116
 31
0.0
  0
LINE
  5
1457
330
1B
100
AcDbEntity
 67
     1
  8
0
 48
0.15
100
AcDbLine
 10
291.4204087965312
 20
212.416152080217
 30
0.0
 11
291.9797498664639
 21
210.7051021829259
 31
0.0
  0
ARC
  5
1458
330
1B
100
AcDbEntity
 67
     1
  8
0
 62
     0
100
AcDbCircle
 10
289.9561602082911
 20
216.6712638380721
 30
0.0
 40
4.5
100
AcDbArc
 50
245.9023680801009
 51
288.989118353177
  0
LINE
  5
1459
330
1B
100
AcDbEntity
 67
     1
  8
0
 48
0.15
100
AcDbLine
 10
292.2396196689337
 20
207.6094406168116
 30
0.0
 11
364.1243136384362
 21
207.6094406168116
 31
0.0
  0
LINE
  5
145A
330
1B
100
AcDbEntity
 67
     1
  8
0
 48
0.15
100
AcDbLine
 10
364.1243136384362
 20
205.2094406168116
 30
0.0
 11
364.1243136384362
 21
207.6094406168116
 31
0.0
  0
LINE
  5
145B
330
1B
100
AcDbEntity
 67
     1
  8
0
 48
0.15
100
AcDbLine
 10
292.2396196689337
 20
205.2094406168116
 30
0.0
 11
364.1243136384362
 21
205.2094406168116
 31
0.0
  0
LEADER
  5
1496
330
1B
100
AcDbEntity
 67
     1
  8
0
 48
0.15
100
AcDbLeader
  3
ISO-25
 73
     0
 40
3.000000000000001
 41
24.0
 76
     3
 10
310.0394911358216
 20
64.97230501972726
 30
0.0
 10
295.0279049072767
 20
78.28699019546673
 30
0.0
 10
292.584158968669
 20
78.28699019546673
 30
0.0
340
1497
213
0.0
223
1.5
233
0.0
1001
ACAD
1000
DSTYLE
1002
{
1070
   147
1040
0.625
1070
    77
1070
     0
1002
}
  0
MTEXT
  5
1497
102
{ACAD_REACTORS
330
1496
102
}
330
1B
100
AcDbEntity
 67
     1
  8
0
 48
0.15
100
AcDbMText
 10
291.959158968669
 20
76.78699019546673
 30
0.0
 40
3.0
 41
0.0
 71
     9
 72
     1
  1
内蔵用グリップ
 73
     1
 44
1.0
  0
MTEXT
  5
1498
330
1B
100
AcDbEntity
 67
     1
  8
0
 48
0.15
100
AcDbMText
 10
334.2646483854605
 20
28.59341022772503
 30
0.0
 40
3.5
 41
0.0
 71
     1
 72
     5
  1
スプリング引張り目安　100N
 73
     1
 44
1.0
  0
LWPOLYLINE
  5
1499
330
1B
100
AcDbEntity
 67
     1
  8
0
 48
0.15
100
AcDbPolyline
 90
        4
 70
     1
 43
0.0
 10
331.1287091431866
 20
31.1070219029533
 10
399.0255825420654
 20
31.1070219029533
 10
399.0255825420654
 20
23.04288124396293
 10
331.1287091431866
 20
23.04288124396293
  0
LINE
  5
149A
330
1B
100
AcDbEntity
 67
     1
  8
0
100
AcDbLine
 10
105.6198532554007
 20
61.47224529606906
 30
0.0
 11
97.58716807182098
 21
61.47224529606906
 31
0.0
  0
LINE
  5
149B
330
1B
100
AcDbEntity
 67
     1
  8
0
 62
     0
100
AcDbLine
 10
98.41815324787241
 20
59.07224529606897
 30
0.0
 11
110.8090717108627
 21
59.07224529606897
 31
0.0
  0
ARC
  5
149C
330
1B
100
AcDbEntity
 67
     1
  8
0
 62
     0
100
AcDbCircle
 10
106.8441281020278
 20
56.97224529606895
 30
0.0
 40
6.299999999999999
100
AcDbArc
 50
31.837363712227
 51
134.4153085971882
  0
ARC
  5
149D
330
1B
100
AcDbEntity
 67
     1
  8
0
 62
     0
100
AcDbCircle
 10
106.8441281020278
 20
56.97224529606895
 30
0.0
 40
4.5
100
AcDbArc
 50
47.6554563558141
 51
90.24444221093082
  0
ARC
  5
149E
330
1B
100
AcDbEntity
 67
     1
  8
0
 62
     0
100
AcDbCircle
 10
132.0181532478725
 20
63.57224529606885
 30
0.0
 40
6.299999999999999
100
AcDbArc
 50
211.5881355052006
 51
314.4153085971882
  0
LINE
  5
149F
330
1B
100
AcDbEntity
 67
     1
  8
0
 62
     0
100
AcDbLine
 10
140.4441281020276
 20
61.47224529606906
 30
0.0
 11
128.0532096390375
 21
61.47224529606906
 31
0.0
  0
ARC
  5
14A0
330
1B
100
AcDbEntity
 67
     1
  8
0
 62
     0
100
AcDbCircle
 10
132.0181532478725
 20
63.57224529606885
 30
0.0
 40
4.5
100
AcDbArc
 50
227.1665719339339
 51
270.0
  0
ARC
  5
14A1
330
1B
100
AcDbEntity
 67
     1
  8
0
 62
     0
100
AcDbCircle
 10
115.2181532478726
 20
63.57224529606885
 30
0.0
 40
6.299999999999999
100
AcDbArc
 50
211.5881355052006
 51
314.4153085971882
  0
LINE
  5
14A2
330
1B
100
AcDbEntity
 67
     1
  8
0
 62
     0
100
AcDbLine
 10
123.6441281020276
 20
61.47224529606906
 30
0.0
 11
111.2532096390373
 21
61.47224529606906
 31
0.0
  0
ARC
  5
14A3
330
1B
100
AcDbEntity
 67
     1
  8
0
 62
     0
100
AcDbCircle
 10
115.2181532478726
 20
63.57224529606885
 30
0.0
 40
4.5
100
AcDbArc
 50
227.1665719339339
 51
270.0
  0
ARC
  5
14A4
330
1B
100
AcDbEntity
 67
     1
  8
0
 62
     0
100
AcDbCircle
 10
123.6441281020277
 20
56.97224529606895
 30
0.0
 40
6.299999999999999
100
AcDbArc
 50
31.837363712227
 51
134.4153085971882
  0
LINE
  5
14A5
330
1B
100
AcDbEntity
 67
     1
  8
0
 62
     0
100
AcDbLine
 10
115.2181532478725
 20
59.07224529606897
 30
0.0
 11
127.6090717108627
 21
59.07224529606897
 31
0.0
  0
ARC
  5
14A6
330
1B
100
AcDbEntity
 67
     1
  8
0
 62
     0
100
AcDbCircle
 10
123.6441281020277
 20
56.97224529606895
 30
0.0
 40
4.5
100
AcDbArc
 50
47.6554563558141
 51
90.24444221093082
  0
ARC
  5
14A7
330
1B
100
AcDbEntity
 67
     1
  8
0
 62
     0
100
AcDbCircle
 10
166.4838120675505
 20
63.57224529606885
 30
0.0
 40
6.299999999999999
100
AcDbArc
 50
211.5881355052006
 51
314.4153085971882
  0
ARC
  5
14A8
330
1B
100
AcDbEntity
 67
     1
  8
0
 62
     0
100
AcDbCircle
 10
158.1097869217057
 20
56.97224529606895
 30
0.0
 40
6.299999999999999
100
AcDbArc
 50
31.837363712227
 51
134.4153085971882
  0
ARC
  5
14A9
330
1B
100
AcDbEntity
 67
     1
  8
0
 62
     0
100
AcDbCircle
 10
148.8701029561827
 20
63.57224529606885
 30
0.0
 40
6.299999999999999
100
AcDbArc
 50
211.5881355052006
 51
270.0
  0
ARC
  5
14AA
330
1B
100
AcDbEntity
 67
     1
  8
0
 62
     0
100
AcDbCircle
 10
140.4441281020277
 20
56.97224529606895
 30
0.0
 40
6.299999999999999
100
AcDbArc
 50
31.58813550520061
 51
134.4153085971882
  0
ARC
  5
14AB
330
1B
100
AcDbEntity
 67
     1
  8
0
 62
     0
100
AcDbCircle
 10
148.8701029561827
 20
63.57224529606885
 30
0.0
 40
4.5
100
AcDbArc
 50
227.1665719339339
 51
270.2533222070099
  0
LINE
  5
14AC
330
1B
100
AcDbEntity
 67
     1
  8
0
 62
     0
100
AcDbLine
 10
148.9162231424817
 20
61.47224529606901
 30
0.0
 11
144.8532096390373
 21
61.47224529606901
 31
0.0
  0
LINE
  5
14AD
330
1B
100
AcDbEntity
 67
     1
  8
0
 62
     0
100
AcDbLine
 10
131.91973502478
 20
59.07224529606897
 30
0.0
 11
144.4610214191731
 21
59.07224529606891
 31
0.0
  0
ARC
  5
14AE
330
1B
100
AcDbEntity
 67
     1
  8
0
 62
     0
100
AcDbCircle
 10
140.4441281020277
 20
56.97224529606895
 30
0.0
 40
4.5
100
AcDbArc
 50
47.1665719339339
 51
89.99999999999998
  0
ARC
  5
14AF
330
1B
100
AcDbEntity
 67
     1
  8
0
 62
     0
100
AcDbCircle
 10
149.6838120675503
 20
63.57224529606885
 30
0.0
 40
6.299999999999999
100
AcDbArc
 50
263.0017220512028
 51
314.4153085971882
  0
LINE
  5
14B0
330
1B
100
AcDbEntity
 67
     1
  8
0
 62
     0
100
AcDbLine
 10
149.6838120675503
 20
59.07224529606891
 30
0.0
 11
162.0747305305404
 21
59.07224529606891
 31
0.0
  0
LINE
  5
14B1
330
1B
100
AcDbEntity
 67
     1
  8
0
 62
     0
100
AcDbLine
 10
158.1097869217056
 20
61.47224529606901
 30
0.0
 11
148.9162231424817
 21
61.47224529606901
 31
0.0
  0
ARC
  5
14B2
330
1B
100
AcDbEntity
 67
     1
  8
0
 62
     0
100
AcDbCircle
 10
149.6838120675503
 20
63.57224529606885
 30
0.0
 40
4.5
100
AcDbArc
 50
259.5860406746102
 51
270.0
  0
ARC
  5
14B3
330
1B
100
AcDbEntity
 67
     1
  8
0
 62
     0
100
AcDbCircle
 10
158.1097869217057
 20
56.97224529606895
 30
0.0
 40
4.5
100
AcDbArc
 50
47.6554563558141
 51
90.24444221093082
  0
ARC
  5
14B5
330
1B
100
AcDbEntity
 67
     1
  8
0
 62
     0
100
AcDbCircle
 10
174.9097869217054
 20
56.97224529606895
 30
0.0
 40
6.299999999999999
100
AcDbArc
 50
77.42152212992248
 51
134.4153085971882
  0
LINE
  5
14B6
330
1B
100
AcDbEntity
 67
     1
  8
0
 62
     0
100
AcDbLine
 10
166.4838120675504
 20
59.07224529606891
 30
0.0
 11
176.2817797563616
 21
59.07224529606891
 31
0.0
  0
LINE
  5
14B7
330
1B
100
AcDbEntity
 67
     1
  8
0
 62
     0
100
AcDbLine
 10
174.9097869217053
 20
61.47224529606901
 30
0.0
 11
162.5188684587152
 21
61.47224529606901
 31
0.0
  0
ARC
  5
14B8
330
1B
100
AcDbEntity
 67
     1
  8
0
 62
     0
100
AcDbCircle
 10
166.4838120675505
 20
63.57224529606885
 30
0.0
 40
4.5
100
AcDbArc
 50
227.1665719339339
 51
270.0
  0
ARC
  5
14B9
330
1B
100
AcDbEntity
 67
     1
  8
0
 62
     0
100
AcDbCircle
 10
174.9097869217054
 20
56.97224529606895
 30
0.0
 40
4.5
100
AcDbArc
 50
72.24861646980272
 51
90.24444221093082
  0
LINE
  5
14BF
330
1B
100
AcDbEntity
 67
     1
  8
0
 48
0.15
100
AcDbLine
 10
105.6198532554007
 20
61.47224529606906
 30
0.0
 11
106.8249297139156
 21
61.47220434275969
 31
0.0
  0
LINE
  5
14C1
330
1B
100
AcDbEntity
 67
     1
  8
0
 48
0.15
100
AcDbLine
 10
98.41815324787241
 20
59.07224529606897
 30
0.0
 11
97.58716807182098
 21
59.07224529606897
 31
0.0
  0
LINE
  5
14C5
330
1B
100
AcDbEntity
 67
     1
  8
0
 48
0.15
100
AcDbLine
 10
283.9010556988536
 20
66.27895675947448
 30
0.0
 11
284.4603967687863
 21
64.56790686218346
 31
0.0
  0
ARC
  5
14C6
330
1B
100
AcDbEntity
 67
     1
  8
0
 48
0.15
100
AcDbCircle
 10
276.8296826330696
 20
61.06642989305107
 30
0.0
 40
4.883105049357892
100
AcDbArc
 50
71.06043980829672
 51
165.6604663125932
  0
ARC
  5
14C7
330
1B
100
AcDbEntity
 67
     1
  8
0
 62
     0
100
AcDbCircle
 10
276.5772775331303
 20
61.57734113655883
 30
0.0
 40
6.299999999999999
100
AcDbArc
 50
50.32393165136765
 51
153.1511047433552
  0
ARC
  5
14C8
330
1B
100
AcDbEntity
 67
     1
  8
0
 62
     0
100
AcDbCircle
 10
282.4368071106135
 20
70.53406851732962
 30
0.0
 40
6.299999999999999
100
AcDbArc
 50
230.3239316513677
 51
288.735796146167
  0
ARC
  5
14C9
330
1B
100
AcDbEntity
 67
     1
  8
0
 62
     0
100
AcDbCircle
 10
266.4778458147132
 20
65.12114293799874
 30
0.0
 40
6.299999999999999
100
AcDbArc
 50
230.3239316513677
 51
333.1511047433552
  0
ARC
  5
14CA
330
1B
100
AcDbEntity
 67
     1
  8
0
 48
0.15
100
AcDbCircle
 10
266.4355282495089
 20
64.16378654062819
 30
0.0
 40
3.727183545750694
100
AcDbArc
 50
226.2312892488278
 51
294.2400635014077
  0
LINE
  5
14CB
330
1B
100
AcDbEntity
 67
     1
  8
0
 62
     0
100
AcDbLine
 10
269.0138034312053
 20
61.47224529606905
 30
0.0
 11
263.8572530678124
 21
61.47224529606905
 31
0.0
  0
ARC
  5
14CC
330
1B
100
AcDbEntity
 67
     1
  8
0
 62
     0
100
AcDbCircle
 10
233.4084875652797
 20
63.5722452960689
 30
0.0
 40
6.299999999999999
100
AcDbArc
 50
211.5881355052006
 51
270.0
  0
ARC
  5
14CD
330
1B
100
AcDbEntity
 67
     1
  8
0
 62
     0
100
AcDbCircle
 10
233.4084875652797
 20
63.5722452960689
 30
0.0
 40
4.5
100
AcDbArc
 50
227.1665719339339
 51
270.2533222070099
  0
LINE
  5
14CE
330
1B
100
AcDbEntity
 67
     1
  8
0
 62
     0
100
AcDbLine
 10
233.4546077515783
 20
61.47224529606905
 30
0.0
 11
229.3915942481344
 21
61.47224529606905
 31
0.0
  0
ARC
  5
14CF
330
1B
100
AcDbEntity
 67
     1
  8
0
 62
     0
100
AcDbCircle
 10
216.5565378569695
 20
63.5722452960689
 30
0.0
 40
6.299999999999999
100
AcDbArc
 50
306.0469939015053
 51
314.4153085971882
  0
LINE
  5
14D0
330
1B
100
AcDbEntity
 67
     1
  8
0
 62
     0
100
AcDbLine
 10
224.9825127111248
 20
61.47224529606905
 30
0.0
 11
220.2637640929156
 21
61.47224529606904
 31
0.0
  0
LINE
  5
14D6
330
1B
100
AcDbEntity
 67
     1
  8
0
 62
     0
100
AcDbLine
 10
220.2637640929156
 20
59.07224529606896
 30
0.0
 11
228.9994060282702
 21
59.07224529606896
 31
0.0
  0
ARC
  5
14D7
330
1B
100
AcDbEntity
 67
     1
  8
0
 62
     0
100
AcDbCircle
 10
224.9825127111248
 20
56.97224529606899
 30
0.0
 40
6.299999999999999
100
AcDbArc
 50
31.58813550520061
 51
134.4153085971882
  0
ARC
  5
14D8
330
1B
100
AcDbEntity
 67
     1
  8
0
 62
     0
100
AcDbCircle
 10
224.9825127111248
 20
56.97224529606899
 30
0.0
 40
4.5
100
AcDbArc
 50
47.1665719339339
 51
89.99999999999998
  0
LINE
  5
14D9
330
1B
100
AcDbEntity
 67
     1
  8
0
 62
     0
100
AcDbLine
 10
259.4481715308024
 20
61.47224529606905
 30
0.0
 11
247.0572530678123
 21
61.47224529606905
 31
0.0
  0
ARC
  5
14DA
330
1B
100
AcDbEntity
 67
     1
  8
0
 62
     0
100
AcDbCircle
 10
251.0221966766471
 20
63.5722452960689
 30
0.0
 40
6.299999999999999
100
AcDbArc
 50
211.5881355052006
 51
314.4153085971882
  0
ARC
  5
14DB
330
1B
100
AcDbEntity
 67
     1
  8
0
 62
     0
100
AcDbCircle
 10
242.6481715308022
 20
56.97224529606899
 30
0.0
 40
6.299999999999999
100
AcDbArc
 50
31.837363712227
 51
134.4153085971882
  0
LINE
  5
14DC
330
1B
100
AcDbEntity
 67
     1
  8
0
 62
     0
100
AcDbLine
 10
242.6481715308022
 20
61.47224529606905
 30
0.0
 11
233.4546077515783
 21
61.47224529606905
 31
0.0
  0
LINE
  5
14DD
330
1B
100
AcDbEntity
 67
     1
  8
0
 62
     0
100
AcDbLine
 10
234.2221966766473
 20
59.07224529606896
 30
0.0
 11
246.6131151396375
 21
59.07224529606896
 31
0.0
  0
ARC
  5
14DE
330
1B
100
AcDbEntity
 67
     1
  8
0
 62
     0
100
AcDbCircle
 10
234.2221966766473
 20
63.5722452960689
 30
0.0
 40
6.299999999999999
100
AcDbArc
 50
263.0017220512028
 51
314.4153085971882
  0
ARC
  5
14DF
330
1B
100
AcDbEntity
 67
     1
  8
0
 62
     0
100
AcDbCircle
 10
234.2221966766473
 20
63.5722452960689
 30
0.0
 40
4.5
100
AcDbArc
 50
259.5860406746102
 51
270.0
  0
ARC
  5
14E0
330
1B
100
AcDbEntity
 67
     1
  8
0
 62
     0
100
AcDbCircle
 10
242.6481715308022
 20
56.97224529606899
 30
0.0
 40
4.5
100
AcDbArc
 50
47.6554563558141
 51
90.24444221093082
  0
LINE
  5
14E1
330
1B
100
AcDbEntity
 67
     1
  8
0
 62
     0
100
AcDbLine
 10
251.0221966766471
 20
59.07224529606896
 30
0.0
 11
263.4131151396377
 21
59.07224529606896
 31
0.0
  0
ARC
  5
14E2
330
1B
100
AcDbEntity
 67
     1
  8
0
 62
     0
100
AcDbCircle
 10
259.4481715308024
 20
56.97224529606899
 30
0.0
 40
6.299999999999999
100
AcDbArc
 50
45.58469140280763
 51
134.4153085971882
  0
ARC
  5
14E3
330
1B
100
AcDbEntity
 67
     1
  8
0
 62
     0
100
AcDbCircle
 10
251.0221966766471
 20
63.5722452960689
 30
0.0
 40
4.5
100
AcDbArc
 50
227.1665719339339
 51
270.0
  0
ARC
  5
14E4
330
1B
100
AcDbEntity
 67
     1
  8
0
 62
     0
100
AcDbCircle
 10
259.4481715308024
 20
56.97224529606899
 30
0.0
 40
4.5
100
AcDbArc
 50
47.6554563558141
 51
90.24444221093082
  0
LINE
  5
14E5
330
1B
100
AcDbEntity
 67
     1
  8
0
 48
0.15
100
AcDbLine
 10
276.2481715308026
 20
61.47224529606905
 30
0.0
 11
280.6572530678122
 21
61.47224529606905
 31
0.0
  0
LINE
  5
14E6
330
1B
100
AcDbEntity
 67
     1
  8
0
 48
0.15
100
AcDbLine
 10
280.265064847948
 20
59.07224529606896
 30
0.0
 11
284.7202665712561
 21
59.07224529606907
 31
0.0
  0
LINE
  5
14E7
330
1B
100
AcDbEntity
 67
     1
  8
0
 62
     0
100
AcDbLine
 10
268.238765267004
 20
59.07224529606896
 30
0.0
 11
280.265064847948
 21
59.07224529606896
 31
0.0
  0
LINE
  5
14E8
330
1B
100
AcDbEntity
 67
     1
  8
0
 62
     0
100
AcDbLine
 10
276.2481715308026
 20
61.47224529606905
 30
0.0
 11
271.6135586180853
 21
61.47224529606905
 31
0.0
  0
ARC
  5
14E9
330
1B
100
AcDbEntity
 67
     1
  8
0
 48
0.15
100
AcDbCircle
 10
265.9899231776934
 20
65.57795608475121
 30
0.0
 40
5.099089415560434
100
AcDbArc
 50
292.2813339196792
 51
346.9049218306251
  0
LINE
  5
14EF
330
1B
100
AcDbEntity
 67
     1
  8
0
 62
     0
100
AcDbLine
 10
284.7202665712561
 20
61.47224529606905
 30
0.0
 11
280.6572530678122
 21
61.47224529606905
 31
0.0
  0
ARC
  5
14F1
330
1B
100
AcDbEntity
 67
     1
  8
0
 62
     0
100
AcDbCircle
 10
282.4368071106135
 20
70.53406851732962
 30
0.0
 40
4.5
100
AcDbArc
 50
245.9023680801009
 51
288.989118353177
  0
LEADER
  5
1541
330
1B
100
AcDbEntity
 67
     1
  8
0
 48
0.15
100
AcDbLeader
  3
ISO-25
 73
     0
 40
3.0
 41
44.59999999999999
 76
     3
 10
186.3356679652422
 20
139.1929894764199
 30
0.0
 10
177.4809255517423
 20
152.6571278112577
 30
0.0
 10
175.9485629702844
 20
152.6571278112577
 30
0.0
340
1542
213
0.0
223
1.5
233
0.0
1001
ACAD
1000
DSTYLE
1002
{
1070
   147
1040
0.625
1070
    77
1070
     0
1002
}
  0
MTEXT
  5
1542
102
{ACAD_REACTORS
330
1541
102
}
330
1B
100
AcDbEntity
 67
     1
  8
0
 48
0.15
100
AcDbMText
 10
175.3235629702844
 20
151.1571278112577
 30
0.0
 40
3.0
 41
0.0
 71
     9
 72
     1
  1
被覆%%c6スパイラルワイヤー
 73
     1
 44
1.0
  0
DIMENSION
  5
1544
330
1B
100
AcDbEntity
 67
     1
  8
0
 48
0.15
100
AcDbDimension
  2
*D15
 10
225.9378083461247
 20
134.3979636051799
 30
0.0
 11
225.9378083461247
 21
145.5229636051799
 31
0.0
 70
   161
  1
%%c6
 71
     5
 42
6.0
  3
ISO-25
100
AcDbAlignedDimension
 13
230.6810074011412
 23
140.3979636051799
 33
0.0
 14
230.6810074011412
 24
134.3979636051799
 34
0.0
  0
LEADER
  5
1576
330
1B
100
AcDbEntity
 67
     1
  8
0
 48
0.15
100
AcDbLeader
  3
ISO-25
 73
     0
 40
3.0
 41
9.0
 76
     3
 10
358.1243804216181
 20
138.2614058761542
 30
0.0
 10
366.6107663738987
 20
149.1716354599075
 30
0.0
 10
368.4348013069911
 20
149.1716354599075
 30
0.0
340
1577
213
0.0
223
-1.5
233
0.0
1001
ACAD
1000
DSTYLE
1002
{
1070
   147
1040
0.625
1070
    77
1070
     0
1002
}
  0
MTEXT
  5
1577
102
{ACAD_REACTORS
330
1576
102
}
330
1B
100
AcDbEntity
 67
     1
  8
0
 48
0.15
100
AcDbMText
 10
369.0598013069911
 20
150.6716354599075
 30
0.0
 40
3.0
 41
0.0
 71
     1
 72
     1
  1
%%c2.4
 73
     1
 44
1.0
  0
ENDSEC
  0
SECTION
  2
OBJECTS
  0
DICTIONARY
  5
C
330
0
100
AcDbDictionary
281
     1
  3
ACAD_GROUP
350
D
  3
ACAD_IMAGE_VARS
350
2B
  3
ACAD_LAYOUT
350
1A
  3
ACAD_MLINESTYLE
350
17
  3
ACAD_PLOTSETTINGS
350
19
  3
ACAD_PLOTSTYLENAME
350
E
  3
AcDbVariableDictionary
350
1225
  0
DICTIONARY
  5
D
102
{ACAD_REACTORS
330
C
102
}
330
C
100
AcDbDictionary
281
     1
  0
RASTERVARIABLES
  5
2B
102
{ACAD_REACTORS
330
C
102
}
330
C
100
AcDbRasterVariables
 90
        0
 70
     1
 71
     1
 72
     1
  0
DICTIONARY
  5
1A
102
{ACAD_REACTORS
330
C
102
}
330
C
100
AcDbDictionary
281
     1
  3
Model
350
22
  3
ﾚｲｱｳﾄ1
350
1E
  3
ﾚｲｱｳﾄ2
350
26
  0
DICTIONARY
  5
17
102
{ACAD_REACTORS
330
C
102
}
330
C
100
AcDbDictionary
281
     1
  3
Standard
350
18
  0
DICTIONARY
  5
19
102
{ACAD_REACTORS
330
C
102
}
330
C
100
AcDbDictionary
281
     1
  0
ACDBDICTIONARYWDFLT
  5
E
102
{ACAD_REACTORS
330
C
102
}
330
C
100
AcDbDictionary
281
     1
  3
Normal
350
F
100
AcDbDictionaryWithDefault
340
F
  0
DICTIONARY
  5
1225
102
{ACAD_REACTORS
330
C
102
}
330
C
100
AcDbDictionary
281
     1
  3
SORTENTS
350
1226
  0
LAYOUT
  5
22
102
{ACAD_REACTORS
330
1A
102
}
330
1A
100
AcDbPlotSettings
  1

  2
RICOH imagio Neo C380 RPCS
  4

  6

 40
0.0
 41
0.0
 42
0.0
 43
0.0
 44
0.0
 45
0.0
 46
0.0
 47
0.0
 48
0.0
 49
0.0
140
0.0
141
0.0
142
1.0
143
1.0
 70
  1712
 72
     0
 73
     0
 74
     0
  7

 75
     0
147
1.0
148
0.0
149
0.0
100
AcDbLayout
  1
Model
 70
     1
 71
     0
 10
0.0
 20
0.0
 11
12.0
 21
9.0
 12
0.0
 22
0.0
 32
0.0
 14
0.0
 24
0.0
 34
0.0
 15
0.0
 25
0.0
 35
0.0
146
0.0
 13
0.0
 23
0.0
 33
0.0
 16
1.0
 26
0.0
 36
0.0
 17
0.0
 27
1.0
 37
0.0
 76
     0
330
1F
  0
LAYOUT
  5
1E
102
{ACAD_REACTORS
330
1A
102
}
330
1A
100
AcDbPlotSettings
  1

  2
RICOH imagio MP C3500 RPCS
  4
A3
  6

 40
5.873749732971191
 41
5.873747825622558
 42
5.873748779296875
 43
5.873748779296875
 44
296.9259948730469
 45
419.9466552734374
 46
0.0
 47
0.0
 48
0.0
 49
0.0
140
0.0
141
0.0
142
1.0
143
1.0
 70
   688
 72
     1
 73
     1
 74
     5
  7

 75
    16
147
1.0
148
0.0
149
0.0
100
AcDbLayout
  1
ﾚｲｱｳﾄ1
 70
     1
 71
     1
 10
-5.873748779296875
 20
-5.873749732971191
 11
414.0729064941406
 21
291.0522451400757
 12
0.0
 22
0.0
 32
0.0
 14
1.033944076393936
 24
1.071861777917433
 34
-0.0000000100019834
 15
407.7739639505677
 25
284.1972496344207
 35
0.0000000100019837
146
0.0
 13
0.0
 23
0.0
 33
0.0
 16
1.0
 26
0.0
 36
0.0
 17
0.0
 27
1.0
 37
0.0
 76
     0
330
1B
331
2F
  0
LAYOUT
  5
26
102
{ACAD_REACTORS
330
1A
102
}
330
1A
100
AcDbPlotSettings
  1

  2
RICOH imagio Neo C380 RPCS
  4

  6

 40
0.0
 41
0.0
 42
0.0
 43
0.0
 44
0.0
 45
0.0
 46
0.0
 47
0.0
 48
0.0
 49
0.0
140
0.0
141
0.0
142
1.0
143
1.0
 70
   688
 72
     0
 73
     1
 74
     5
  7

 75
    16
147
1.0
148
0.0
149
0.0
100
AcDbLayout
  1
ﾚｲｱｳﾄ2
 70
     1
 71
     2
 10
0.0
 20
0.0
 11
0.0
 21
0.0
 12
0.0
 22
0.0
 32
0.0
 14
0.0
 24
0.0
 34
0.0
 15
0.0
 25
0.0
 35
0.0
146
0.0
 13
0.0
 23
0.0
 33
0.0
 16
1.0
 26
0.0
 36
0.0
 17
0.0
 27
1.0
 37
0.0
 76
     0
330
23
331
49D
  0
MLINESTYLE
  5
18
102
{ACAD_REACTORS
330
17
102
}
330
17
100
AcDbMlineStyle
  2
STANDARD
 70
     0
  3

 62
   256
 51
90.0
 52
90.0
 71
     2
 49
0.5
 62
   256
  6
BYLAYER
 49
-0.5
 62
   256
  6
BYLAYER
  0
ACDBPLACEHOLDER
  5
F
102
{ACAD_REACTORS
330
E
102
}
330
E
  0
DICTIONARYVAR
  5
1226
102
{ACAD_REACTORS
330
1225
102
}
330
1225
100
DictionaryVariables
280
     0
  1
96
  0
ENDSEC
  0
EOF
