  0
SECTION
  2
HEADER
  9
$ACADVER
  1
AC1015
  9
$ACADMAINTVER
 70
     6
  9
$DWGCODEPAGE
  3
ANSI_932
  9
$INSBASE
 10
0.0
 20
0.0
 30
0.0
  9
$EXTMIN
 10
573.1600046940402
 20
301.319474626167
 30
0.0
  9
$EXTMAX
 10
8373.160004694041
 20
5801.319474626168
 30
0.0
  9
$LIMMIN
 10
0.0
 20
0.0
  9
$LIMMAX
 10
420.0
 20
297.0
  9
$ORTHOMODE
 70
     1
  9
$REGENMODE
 70
     1
  9
$FILLMODE
 70
     1
  9
$QTEXTMODE
 70
     0
  9
$MIRRTEXT
 70
     1
  9
$LTSCALE
 40
1.0
  9
$ATTMODE
 70
     1
  9
$TEXTSIZE
 40
2.5
  9
$TRACEWID
 40
1.0
  9
$TEXTSTYLE
  7
Standard
  9
$CLAYER
  8
0
  9
$CELTYPE
  6
ByLayer
  9
$CECOLOR
 62
     0
  9
$CELTSCALE
 40
12.0
  9
$DISPSILH
 70
     0
  9
$DIMSCALE
 40
1.0
  9
$DIMASZ
 40
40.0
  9
$DIMEXO
 40
20.0
  9
$DIMDLI
 40
3.75
  9
$DIMRND
 40
0.0
  9
$DIMDLE
 40
0.0
  9
$DIMEXE
 40
25.0
  9
$DIMTP
 40
0.0
  9
$DIMTM
 40
0.0
  9
$DIMTXT
 40
30.0
  9
$DIMCEN
 40
2.5
  9
$DIMTSZ
 40
0.0
  9
$DIMTOL
 70
     0
  9
$DIMLIM
 70
     0
  9
$DIMTIH
 70
     0
  9
$DIMTOH
 70
     0
  9
$DIMSE1
 70
     0
  9
$DIMSE2
 70
     0
  9
$DIMTAD
 70
     1
  9
$DIMZIN
 70
     8
  9
$DIMBLK
  1

  9
$DIMASO
 70
     1
  9
$DIMSHO
 70
     1
  9
$DIMPOST
  1

  9
$DIMAPOST
  1

  9
$DIMALT
 70
     0
  9
$DIMALTD
 70
     3
  9
$DIMALTF
 40
0.03937007874016
  9
$DIMLFAC
 40
1.0
  9
$DIMTOFL
 70
     1
  9
$DIMTVP
 40
0.0
  9
$DIMTIX
 70
     0
  9
$DIMSOXD
 70
     0
  9
$DIMSAH
 70
     0
  9
$DIMBLK1
  1

  9
$DIMBLK2
  1

  9
$DIMSTYLE
  2
ISO-25
  9
$DIMCLRD
 70
   256
  9
$DIMCLRE
 70
     0
  9
$DIMCLRT
 70
     0
  9
$DIMTFAC
 40
1.0
  9
$DIMGAP
 40
25.0
  9
$DIMJUST
 70
     0
  9
$DIMSD1
 70
     0
  9
$DIMSD2
 70
     0
  9
$DIMTOLJ
 70
     0
  9
$DIMTZIN
 70
     8
  9
$DIMALTZ
 70
     0
  9
$DIMALTTZ
 70
     0
  9
$DIMUPT
 70
     0
  9
$DIMDEC
 70
     2
  9
$DIMTDEC
 70
     2
  9
$DIMALTU
 70
     2
  9
$DIMALTTD
 70
     3
  9
$DIMTXSTY
  7
Standard
  9
$DIMAUNIT
 70
     0
  9
$DIMADEC
 70
     0
  9
$DIMALTRND
 40
0.0
  9
$DIMAZIN
 70
     0
  9
$DIMDSEP
 70
    46
  9
$DIMATFIT
 70
     3
  9
$DIMFRAC
 70
     0
  9
$DIMLDRBLK
  1

  9
$DIMLUNIT
 70
     2
  9
$DIMLWD
 70
     5
  9
$DIMLWE
 70
     5
  9
$DIMTMOVE
 70
     0
  9
$LUNITS
 70
     2
  9
$LUPREC
 70
     4
  9
$SKETCHINC
 40
1.0
  9
$FILLETRAD
 40
10.0
  9
$AUNITS
 70
     0
  9
$AUPREC
 70
     0
  9
$MENU
  1
.
  9
$ELEVATION
 40
0.0
  9
$PELEVATION
 40
0.0
  9
$THICKNESS
 40
0.0
  9
$LIMCHECK
 70
     0
  9
$CHAMFERA
 40
5.0
  9
$CHAMFERB
 40
5.0
  9
$CHAMFERC
 40
20.0
  9
$CHAMFERD
 40
0.0
  9
$SKPOLY
 70
     0
  9
$TDCREATE
 40
2455268.596983136
  9
$TDUCREATE
 40
2455268.221983136
  9
$TDUPDATE
 40
2460216.433213079
  9
$TDUUPDATE
 40
2460216.058213079
  9
$TDINDWG
 40
0.2919522569
  9
$TDUSRTIMER
 40
0.2919522569
  9
$USRTIMER
 70
     1
  9
$ANGBASE
 50
0.0
  9
$ANGDIR
 70
     0
  9
$PDMODE
 70
     0
  9
$PDSIZE
 40
0.0
  9
$PLINEWID
 40
0.0
  9
$SPLFRAME
 70
     0
  9
$SPLINETYPE
 70
     6
  9
$SPLINESEGS
 70
     8
  9
$HANDSEED
  5
EDB3
  9
$SURFTAB1
 70
     6
  9
$SURFTAB2
 70
     6
  9
$SURFTYPE
 70
     6
  9
$SURFU
 70
     6
  9
$SURFV
 70
     6
  9
$UCSBASE
  2

  9
$UCSNAME
  2

  9
$UCSORG
 10
0.0
 20
0.0
 30
0.0
  9
$UCSXDIR
 10
1.0
 20
0.0
 30
0.0
  9
$UCSYDIR
 10
0.0
 20
1.0
 30
0.0
  9
$UCSORTHOREF
  2

  9
$UCSORTHOVIEW
 70
     0
  9
$UCSORGTOP
 10
0.0
 20
0.0
 30
0.0
  9
$UCSORGBOTTOM
 10
0.0
 20
0.0
 30
0.0
  9
$UCSORGLEFT
 10
0.0
 20
0.0
 30
0.0
  9
$UCSORGRIGHT
 10
0.0
 20
0.0
 30
0.0
  9
$UCSORGFRONT
 10
0.0
 20
0.0
 30
0.0
  9
$UCSORGBACK
 10
0.0
 20
0.0
 30
0.0
  9
$PUCSBASE
  2

  9
$PUCSNAME
  2

  9
$PUCSORG
 10
0.0
 20
0.0
 30
0.0
  9
$PUCSXDIR
 10
1.0
 20
0.0
 30
0.0
  9
$PUCSYDIR
 10
0.0
 20
1.0
 30
0.0
  9
$PUCSORTHOREF
  2

  9
$PUCSORTHOVIEW
 70
     0
  9
$PUCSORGTOP
 10
0.0
 20
0.0
 30
0.0
  9
$PUCSORGBOTTOM
 10
0.0
 20
0.0
 30
0.0
  9
$PUCSORGLEFT
 10
0.0
 20
0.0
 30
0.0
  9
$PUCSORGRIGHT
 10
0.0
 20
0.0
 30
0.0
  9
$PUCSORGFRONT
 10
0.0
 20
0.0
 30
0.0
  9
$PUCSORGBACK
 10
0.0
 20
0.0
 30
0.0
  9
$USERI1
 70
     0
  9
$USERI2
 70
     0
  9
$USERI3
 70
     0
  9
$USERI4
 70
     0
  9
$USERI5
 70
     0
  9
$USERR1
 40
0.0
  9
$USERR2
 40
0.0
  9
$USERR3
 40
0.0
  9
$USERR4
 40
0.0
  9
$USERR5
 40
0.0
  9
$WORLDVIEW
 70
     1
  9
$SHADEDGE
 70
     3
  9
$SHADEDIF
 70
    70
  9
$TILEMODE
 70
     1
  9
$MAXACTVP
 70
    64
  9
$PINSBASE
 10
0.0
 20
0.0
 30
0.0
  9
$PLIMCHECK
 70
     0
  9
$PEXTMIN
 10
1.000000000000000E+20
 20
1.000000000000000E+20
 30
1.000000000000000E+20
  9
$PEXTMAX
 10
-1.000000000000000E+20
 20
-1.000000000000000E+20
 30
-1.000000000000000E+20
  9
$PLIMMIN
 10
0.0
 20
0.0
  9
$PLIMMAX
 10
420.0
 20
297.0
  9
$UNITMODE
 70
     0
  9
$VISRETAIN
 70
     1
  9
$PLINEGEN
 70
     0
  9
$PSLTSCALE
 70
     1
  9
$TREEDEPTH
 70
  3020
  9
$CMLSTYLE
  2
Standard
  9
$CMLJUST
 70
     0
  9
$CMLSCALE
 40
20.0
  9
$PROXYGRAPHICS
 70
     1
  9
$MEASUREMENT
 70
     1
  9
$CELWEIGHT
370
    -1
  9
$ENDCAPS
280
     0
  9
$JOINSTYLE
280
     0
  9
$LWDISPLAY
290
     0
  9
$INSUNITS
 70
     4
  9
$HYPERLINKBASE
  1

  9
$STYLESHEET
  1

  9
$XEDIT
290
     1
  9
$CEPSNTYPE
380
     0
  9
$PSTYLEMODE
290
     1
  9
$FINGERPRINTGUID
  2
{2241DC55-7DC5-4086-8419-A1BFBEBACFBB}
  9
$VERSIONGUID
  2
{C558F479-4952-47E6-9542-263375C356A4}
  9
$EXTNAMES
290
     1
  9
$PSVPSCALE
 40
0.0
  9
$OLESTARTUP
290
     0
  0
ENDSEC
  0
SECTION
  2
CLASSES
  0
CLASS
  1
ACDBDICTIONARYWDFLT
  2
AcDbDictionaryWithDefault
  3
AutoCAD 2000
 90
        0
280
     0
281
     0
  0
CLASS
  1
ACDBPLACEHOLDER
  2
AcDbPlaceHolder
  3
AutoCAD 2000
 90
        0
280
     0
281
     0
  0
CLASS
  1
LAYOUT
  2
AcDbLayout
  3
AutoCAD 2000
 90
        0
280
     0
281
     0
  0
CLASS
  1
DICTIONARYVAR
  2
AcDbDictionaryVar
  3
AutoCAD 2000
 90
        0
280
     0
281
     0
  0
ENDSEC
  0
SECTION
  2
TABLES
  0
TABLE
  2
VPORT
  5
8
330
0
100
AcDbSymbolTable
 70
     2
  0
VPORT
  5
EDB2
330
8
100
AcDbSymbolTableRecord
100
AcDbViewportTableRecord
  2
*Active
 70
     0
 10
0.0
 20
0.0
 11
1.0
 21
1.0
 12
4326.085106611104
 22
2835.134786074188
 13
0.0
 23
0.0
 14
10.0
 24
10.0
 15
10.0
 25
10.0
 16
0.0
 26
0.0
 36
1.0
 17
0.0
 27
0.0
 37
0.0
 40
7321.964615848874
 41
1.477300613496932
 42
50.0
 43
0.0
 44
0.0
 50
0.0
 51
0.0
 71
     0
 72
   100
 73
     1
 74
     3
 75
     0
 76
     0
 77
     0
 78
     0
281
     0
 65
     1
110
0.0
120
0.0
130
0.0
111
1.0
121
0.0
131
0.0
112
0.0
122
1.0
132
0.0
 79
     0
146
0.0
  0
ENDTAB
  0
TABLE
  2
LTYPE
  5
5
330
0
100
AcDbSymbolTable
 70
     5
  0
LTYPE
  5
14
330
5
100
AcDbSymbolTableRecord
100
AcDbLinetypeTableRecord
  2
ByBlock
 70
     0
  3

 72
    65
 73
     0
 40
0.0
  0
LTYPE
  5
15
330
5
100
AcDbSymbolTableRecord
100
AcDbLinetypeTableRecord
  2
ByLayer
 70
     0
  3

 72
    65
 73
     0
 40
0.0
  0
LTYPE
  5
16
330
5
100
AcDbSymbolTableRecord
100
AcDbLinetypeTableRecord
  2
Continuous
 70
     0
  3
Solid line
 72
    65
 73
     0
 40
0.0
  0
LTYPE
  5
9B
330
5
100
AcDbSymbolTableRecord
100
AcDbLinetypeTableRecord
  2
HIDDEN
 70
     0
  3
Hidden __ __ __ __ __ __ __ __ __ __ __ __ __ _
 72
    65
 73
     2
 40
9.524999999999998
 49
6.349999999999999
 74
     0
 49
-3.174999999999999
 74
     0
  0
LTYPE
  5
9C
330
5
100
AcDbSymbolTableRecord
100
AcDbLinetypeTableRecord
  2
HIDDEN2
 70
     0
  3
Hidden (.5x) _ _ _ _ _ _ _ _ _ _ _ _ _ _ _ _ _
 72
    65
 73
     2
 40
4.762499999999999
 49
3.174999999999999
 74
     0
 49
-1.587499999999999
 74
     0
  0
LTYPE
  5
9D
330
5
100
AcDbSymbolTableRecord
100
AcDbLinetypeTableRecord
  2
CENTER
 70
     0
  3
Center ____ _ ____ _ ____ _ ____ _ ____ _ ____
 72
    65
 73
     4
 40
50.8
 49
31.75
 74
     0
 49
-6.349999999999999
 74
     0
 49
6.349999999999999
 74
     0
 49
-6.349999999999999
 74
     0
  0
LTYPE
  5
9E
330
5
100
AcDbSymbolTableRecord
100
AcDbLinetypeTableRecord
  2
PHANTOM2
 70
     0
  3
Phantom (.5x) ___ _ _ ___ _ _ ___ _ _ ___ _ _
 72
    65
 73
     6
 40
31.75
 49
15.875
 74
     0
 49
-3.174999999999999
 74
     0
 49
3.174999999999999
 74
     0
 49
-3.174999999999999
 74
     0
 49
3.174999999999999
 74
     0
 49
-3.174999999999999
 74
     0
  0
ENDTAB
  0
TABLE
  2
LAYER
  5
2
330
0
100
AcDbSymbolTable
 70
    14
  0
LAYER
  5
10
330
2
100
AcDbSymbolTableRecord
100
AcDbLayerTableRecord
  2
0
 70
     0
 62
     7
  6
Continuous
370
     9
390
F
  0
LAYER
  5
32
330
2
100
AcDbSymbolTableRecord
100
AcDbLayerTableRecord
  2
6
 70
     0
 62
     5
  6
PHANTOM2
370
    15
390
F
  0
LAYER
  5
9F
330
2
100
AcDbSymbolTableRecord
100
AcDbLayerTableRecord
  2
1
 70
     0
 62
     7
  6
Continuous
370
     9
390
F
  0
LAYER
  5
A0
330
2
100
AcDbSymbolTableRecord
100
AcDbLayerTableRecord
  2
2
 70
     0
 62
     3
  6
Continuous
370
    20
390
F
  0
LAYER
  5
A1
330
2
100
AcDbSymbolTableRecord
100
AcDbLayerTableRecord
  2
3
 70
     0
 62
     4
  6
HIDDEN
370
    15
390
F
  0
LAYER
  5
A2
330
2
100
AcDbSymbolTableRecord
100
AcDbLayerTableRecord
  2
4
 70
     0
 62
     4
  6
HIDDEN2
370
    15
390
F
  0
LAYER
  5
A3
330
2
100
AcDbSymbolTableRecord
100
AcDbLayerTableRecord
  2
5
 70
     0
 62
     6
  6
CENTER
370
    15
390
F
  0
LAYER
  5
E1
330
2
100
AcDbSymbolTableRecord
100
AcDbLayerTableRecord
  2
１
 70
     0
 62
     7
  6
Continuous
370
     9
390
F
  0
LAYER
  5
E2
330
2
100
AcDbSymbolTableRecord
100
AcDbLayerTableRecord
  2
２
 70
     0
 62
     3
  6
Continuous
370
    20
390
F
  0
LAYER
  5
219
330
2
100
AcDbSymbolTableRecord
100
AcDbLayerTableRecord
  2
Object
 70
     0
 62
     3
  6
Continuous
370
    20
390
F
  0
LAYER
  5
31D
330
2
100
AcDbSymbolTableRecord
100
AcDbLayerTableRecord
  2
HIDDEN2
 70
     0
 62
     7
  6
HIDDEN2
370
     9
390
F
  0
LAYER
  5
9E1
330
2
100
AcDbSymbolTableRecord
100
AcDbLayerTableRecord
  2
４
 70
     0
 62
     4
  6
HIDDEN2
370
    15
390
F
  0
LAYER
  5
295B
330
2
100
AcDbSymbolTableRecord
100
AcDbLayerTableRecord
  2
Defpoints
 70
     0
 62
     7
  6
Continuous
290
     0
370
    -3
390
F
  0
LAYER
  5
42E6
330
2
100
AcDbSymbolTableRecord
100
AcDbLayerTableRecord
  2
CENTER
 70
     0
 62
     7
  6
CENTER
370
     5
390
F
  0
ENDTAB
  0
TABLE
  2
STYLE
  5
3
330
0
100
AcDbSymbolTable
 70
     2
  0
STYLE
  5
11
330
3
100
AcDbSymbolTableRecord
100
AcDbTextStyleTableRecord
  2
Standard
 70
     0
 40
0.0
 41
1.0
 50
0.0
 71
     0
 42
2.5
  3
romans.shx
  4
bigfont.shx
  0
STYLE
  5
9A
330
3
100
AcDbSymbolTableRecord
100
AcDbTextStyleTableRecord
  2

 70
     1
 40
0.0
 41
1.0
 50
0.0
 71
     0
 42
2.5
  3
ltypeshp.shx
  4

  0
ENDTAB
  0
TABLE
  2
VIEW
  5
6
330
0
100
AcDbSymbolTable
 70
     0
  0
ENDTAB
  0
TABLE
  2
UCS
  5
7
330
0
100
AcDbSymbolTable
 70
     0
  0
ENDTAB
  0
TABLE
  2
APPID
  5
9
330
0
100
AcDbSymbolTable
 70
     1
  0
APPID
  5
12
330
9
100
AcDbSymbolTableRecord
100
AcDbRegAppTableRecord
  2
ACAD
 70
     0
  0
ENDTAB
  0
TABLE
  2
DIMSTYLE
  5
A
330
0
100
AcDbSymbolTable
 70
     3
100
AcDbDimStyleTable
 71
     1
340
27
  0
DIMSTYLE
105
27
102
{ACAD_REACTORS
330
D9EF
330
D9E2
330
EB58
330
EB65
330
EB91
330
EB7B
102
}
330
A
100
AcDbSymbolTableRecord
100
AcDbDimStyleTableRecord
  2
ISO-25
 70
     0
 41
40.0
 42
20.0
 43
3.75
 44
25.0
 73
     0
 74
     0
 77
     1
 78
     8
140
30.0
141
2.5
143
0.03937007874016
147
25.0
171
     3
172
     1
176
   256
271
     2
272
     2
274
     3
283
     0
284
     8
340
11
371
     5
372
     5
  0
DIMSTYLE
105
31E
330
A
100
AcDbSymbolTableRecord
100
AcDbDimStyleTableRecord
  2
ｺﾋﾟｰ - ISO-25
 70
     0
 41
2.5
 42
0.625
 43
3.75
 44
1.25
 73
     0
 74
     0
 77
     1
 78
     8
140
2.5
141
2.5
143
0.03937007874016
147
0.625
171
     3
172
     1
271
     2
272
     2
274
     3
283
     0
284
     8
340
11
343
2D0
  0
DIMSTYLE
105
1156
330
A
100
AcDbSymbolTableRecord
100
AcDbDimStyleTableRecord
  2
JIS
 70
     0
 41
2.5
 42
1.0
 43
7.0
 44
1.0
 73
     0
 74
     0
 77
     1
 78
     8
140
2.5
141
0.0
143
0.0394
147
0.0
172
     1
174
     1
175
     1
340
11
  0
ENDTAB
  0
TABLE
  2
BLOCK_RECORD
  5
1
330
0
100
AcDbSymbolTable
 70
     8
  0
BLOCK_RECORD
  5
1F
330
1
100
AcDbSymbolTableRecord
100
AcDbBlockTableRecord
  2
*Model_Space
340
22
  0
BLOCK_RECORD
  5
1B
330
1
100
AcDbSymbolTableRecord
100
AcDbBlockTableRecord
  2
*Paper_Space
340
1E
  0
BLOCK_RECORD
  5
23
330
1
100
AcDbSymbolTableRecord
100
AcDbBlockTableRecord
  2
*Paper_Space0
340
26
  0
BLOCK_RECORD
  5
2D0
330
1
100
AcDbSymbolTableRecord
100
AcDbBlockTableRecord
  2
_Dot
340
0
  0
BLOCK_RECORD
  5
D9E3
330
1
100
AcDbSymbolTableRecord
100
AcDbBlockTableRecord
  2
*D2
340
0
  0
BLOCK_RECORD
  5
D9F0
330
1
100
AcDbSymbolTableRecord
100
AcDbBlockTableRecord
  2
*D3
340
0
  0
BLOCK_RECORD
  5
EB59
330
1
100
AcDbSymbolTableRecord
100
AcDbBlockTableRecord
  2
*D4
340
0
  0
BLOCK_RECORD
  5
EB66
330
1
100
AcDbSymbolTableRecord
100
AcDbBlockTableRecord
  2
*D5
340
0
  0
BLOCK_RECORD
  5
EB7C
330
1
100
AcDbSymbolTableRecord
100
AcDbBlockTableRecord
  2
*D6
340
0
  0
BLOCK_RECORD
  5
EB92
330
1
100
AcDbSymbolTableRecord
100
AcDbBlockTableRecord
  2
*D7
340
0
  0
ENDTAB
  0
ENDSEC
  0
SECTION
  2
BLOCKS
  0
BLOCK
  5
20
330
1F
100
AcDbEntity
  8
0
100
AcDbBlockBegin
  2
*Model_Space
 70
     0
 10
0.0
 20
0.0
 30
0.0
  3
*Model_Space
  1

  0
ENDBLK
  5
21
330
1F
100
AcDbEntity
  8
0
100
AcDbBlockEnd
  0
BLOCK
  5
1C
330
1B
100
AcDbEntity
 67
     1
  8
0
100
AcDbBlockBegin
  2
*Paper_Space
 70
     0
 10
0.0
 20
0.0
 30
0.0
  3
*Paper_Space
  1

  0
ENDBLK
  5
1D
330
1B
100
AcDbEntity
 67
     1
  8
0
100
AcDbBlockEnd
  0
BLOCK
  5
24
330
23
100
AcDbEntity
  8
0
100
AcDbBlockBegin
  2
*Paper_Space0
 70
     0
 10
0.0
 20
0.0
 30
0.0
  3
*Paper_Space0
  1

  0
ENDBLK
  5
25
330
23
100
AcDbEntity
  8
0
100
AcDbBlockEnd
  0
BLOCK
  5
2D3
330
2D0
100
AcDbEntity
  8
0
100
AcDbBlockBegin
  2
_Dot
 70
     0
 10
0.0
 20
0.0
 30
0.0
  3
_Dot
  1

  0
LWPOLYLINE
  5
2D1
330
2D0
100
AcDbEntity
  8
0
 62
     0
100
AcDbPolyline
 90
        2
 70
     1
 43
0.5
 10
-0.25
 20
0.0
 42
1.0
 10
0.25
 20
0.0
 42
1.0
  0
LINE
  5
2D2
330
2D0
100
AcDbEntity
  8
0
 62
     0
370
    -2
100
AcDbLine
 10
-0.5
 20
0.0
 30
0.0
 11
-1.0
 21
0.0
 31
0.0
  0
ENDBLK
  5
2D4
330
2D0
100
AcDbEntity
  8
0
100
AcDbBlockEnd
  0
BLOCK
  5
D9ED
330
D9E3
100
AcDbEntity
  8
0
 62
     0
 48
12.0
100
AcDbBlockBegin
  2
*D2
 70
     1
 10
0.0
 20
0.0
 30
0.0
  3
*D2
  1

  0
LINE
  5
EC22
330
D9E3
100
AcDbEntity
  8
0
 62
     0
 48
12.0
370
     5
100
AcDbLine
 10
2942.297706154015
 20
4642.033908136831
 30
0.0
 11
2942.297706154015
 21
4824.082217183337
 31
0.0
  0
LINE
  5
EC23
330
D9E3
100
AcDbEntity
  8
0
 62
     0
 48
12.0
370
     5
100
AcDbLine
 10
4942.297706154015
 20
4642.033908136831
 30
0.0
 11
4942.297706154015
 21
4824.082217183337
 31
0.0
  0
LINE
  5
EC24
330
D9E3
100
AcDbEntity
  8
0
 48
12.0
370
     5
100
AcDbLine
 10
2982.297706154015
 20
4799.082217183337
 30
0.0
 11
4902.297706154016
 21
4799.082217183337
 31
0.0
  0
SOLID
  5
EC25
330
D9E3
100
AcDbEntity
  8
0
 48
12.0
100
AcDbTrace
 10
2982.297706154015
 20
4805.748883850004
 30
0.0
 11
2982.297706154015
 21
4792.41555051667
 31
0.0
 12
2942.297706154015
 22
4799.082217183337
 32
0.0
 13
2942.297706154015
 23
4799.082217183337
 33
0.0
  0
SOLID
  5
EC26
330
D9E3
100
AcDbEntity
  8
0
 48
12.0
100
AcDbTrace
 10
4902.297706154016
 20
4805.748883850004
 30
0.0
 11
4902.297706154016
 21
4792.41555051667
 31
0.0
 12
4942.297706154015
 22
4799.082217183337
 32
0.0
 13
4942.297706154015
 23
4799.082217183337
 33
0.0
  0
MTEXT
  5
EC27
330
D9E3
100
AcDbEntity
  8
0
 62
     0
 48
12.0
100
AcDbMText
 10
3942.297706154015
 20
4839.082217183337
 30
0.0
 40
30.0
 41
0.0
 71
     5
 72
     1
  1
2000
 73
     1
 44
1.0
  0
POINT
  5
EC28
330
D9E3
100
AcDbEntity
  8
Defpoints
 62
     0
 48
12.0
100
AcDbPoint
 10
2942.297706154015
 20
4622.03390813683
 30
0.0
  0
POINT
  5
EC29
330
D9E3
100
AcDbEntity
  8
Defpoints
 62
     0
 48
12.0
100
AcDbPoint
 10
4942.297706154015
 20
4622.03390813683
 30
0.0
  0
POINT
  5
EC2A
330
D9E3
100
AcDbEntity
  8
Defpoints
 62
     0
 48
12.0
100
AcDbPoint
 10
4942.297706154015
 20
4799.082217183337
 30
0.0
  0
ENDBLK
  5
D9EE
330
D9E3
100
AcDbEntity
  8
0
 62
     0
 48
12.0
100
AcDbBlockEnd
  0
BLOCK
  5
D9FA
330
D9F0
100
AcDbEntity
  8
0
 62
     0
 48
12.0
100
AcDbBlockBegin
  2
*D3
 70
     1
 10
0.0
 20
0.0
 30
0.0
  3
*D3
  1

  0
LINE
  5
EC2B
330
D9F0
100
AcDbEntity
  8
0
 62
     0
 48
12.0
370
     5
100
AcDbLine
 10
2902.578572536864
 20
4598.696408907755
 30
0.0
 11
2659.95320923534
 21
4598.72704263227
 31
0.0
  0
LINE
  5
EC2C
330
D9F0
100
AcDbEntity
  8
0
 62
     0
 48
12.0
370
     5
100
AcDbLine
 10
2902.200464857205
 20
1604.006256247169
 30
0.0
 11
2659.575101555682
 21
1604.036889971683
 31
0.0
  0
LINE
  5
EC2D
330
D9F0
100
AcDbEntity
  8
0
 48
12.0
370
     5
100
AcDbLine
 10
2684.948158661478
 20
4558.723886466976
 30
0.0
 11
2684.580151731009
 21
1644.033733168733
 31
0.0
  0
SOLID
  5
EC2E
330
D9F0
100
AcDbEntity
  8
0
 48
12.0
100
AcDbTrace
 10
2678.281492047949
 20
4558.724728196075
 30
0.0
 11
2691.614825275006
 21
4558.723044737877
 31
0.0
 12
2684.953209036072
 22
4598.723886148149
 32
0.0
 13
2684.953209036072
 23
4598.723886148149
 33
0.0
  0
SOLID
  5
EC2F
330
D9F0
100
AcDbEntity
  8
0
 48
12.0
100
AcDbTrace
 10
2677.91348511748
 20
1644.034574897832
 30
0.0
 11
2691.246818344537
 21
1644.032891439634
 31
0.0
 12
2684.575101356414
 22
1604.033733487562
 32
0.0
 13
2684.575101356414
 23
1604.033733487562
 33
0.0
  0
MTEXT
  5
EC30
330
D9F0
100
AcDbEntity
  8
0
 62
     0
 48
12.0
100
AcDbMText
 10
2644.764155515071
 20
3101.38386019245
 30
0.0
 40
30.0
 41
0.0
 71
     5
 72
     1
  1
3000
 11
0.0001262593648658
 21
0.9999999920292863
 31
0.0
 73
     1
 44
1.0
  0
POINT
  5
EC31
330
D9F0
100
AcDbEntity
  8
Defpoints
 62
     0
 48
12.0
100
AcDbPoint
 10
2922.57857237745
 20
4598.693883720458
 30
0.0
  0
POINT
  5
EC32
330
D9F0
100
AcDbEntity
  8
Defpoints
 62
     0
 48
12.0
100
AcDbPoint
 10
2922.200464697791
 20
1604.003731059871
 30
0.0
  0
POINT
  5
EC33
330
D9F0
100
AcDbEntity
  8
Defpoints
 62
     0
 48
12.0
100
AcDbPoint
 10
2684.575101356414
 20
1604.033733487562
 30
0.0
  0
ENDBLK
  5
D9FB
330
D9F0
100
AcDbEntity
  8
0
 62
     0
 48
12.0
100
AcDbBlockEnd
  0
BLOCK
  5
EB63
330
EB59
100
AcDbEntity
  8
0
 62
     0
 48
12.0
100
AcDbBlockBegin
  2
*D4
 70
     1
 10
0.0
 20
0.0
 30
0.0
  3
*D4
  1

  0
LINE
  5
EC34
330
EB59
100
AcDbEntity
  8
0
 62
     0
 48
12.0
370
     5
100
AcDbLine
 10
3192.297706154015
 20
4642.033908136831
 30
0.0
 11
3192.297706154015
 21
4717.185114904121
 31
0.0
  0
LINE
  5
EC35
330
EB59
100
AcDbEntity
  8
0
 62
     0
 48
12.0
370
     5
100
AcDbLine
 10
3442.297706154015
 20
4642.033908136831
 30
0.0
 11
3442.297706154015
 21
4717.185114904121
 31
0.0
  0
LINE
  5
EC36
330
EB59
100
AcDbEntity
  8
0
 48
12.0
370
     5
100
AcDbLine
 10
3232.297706154015
 20
4692.185114904122
 30
0.0
 11
3402.297706154015
 21
4692.185114904122
 31
0.0
  0
SOLID
  5
EC37
330
EB59
100
AcDbEntity
  8
0
 48
12.0
100
AcDbTrace
 10
3232.297706154015
 20
4698.851781570788
 30
0.0
 11
3232.297706154015
 21
4685.518448237455
 31
0.0
 12
3192.297706154015
 22
4692.185114904122
 32
0.0
 13
3192.297706154015
 23
4692.185114904122
 33
0.0
  0
SOLID
  5
EC38
330
EB59
100
AcDbEntity
  8
0
 48
12.0
100
AcDbTrace
 10
3402.297706154015
 20
4698.851781570788
 30
0.0
 11
3402.297706154015
 21
4685.518448237455
 31
0.0
 12
3442.297706154015
 22
4692.185114904122
 32
0.0
 13
3442.297706154015
 23
4692.185114904122
 33
0.0
  0
MTEXT
  5
EC39
330
EB59
100
AcDbEntity
  8
0
 62
     0
 48
12.0
100
AcDbMText
 10
3317.297706154015
 20
4732.185114904122
 30
0.0
 40
30.0
 41
0.0
 71
     5
 72
     1
  1
250
 73
     1
 44
1.0
  0
POINT
  5
EC3A
330
EB59
100
AcDbEntity
  8
Defpoints
 62
     0
 48
12.0
100
AcDbPoint
 10
3192.297706154015
 20
4622.03390813683
 30
0.0
  0
POINT
  5
EC3B
330
EB59
100
AcDbEntity
  8
Defpoints
 62
     0
 48
12.0
100
AcDbPoint
 10
3442.297706154015
 20
4622.03390813683
 30
0.0
  0
POINT
  5
EC3C
330
EB59
100
AcDbEntity
  8
Defpoints
 62
     0
 48
12.0
100
AcDbPoint
 10
3442.297706154015
 20
4692.185114904122
 30
0.0
  0
ENDBLK
  5
EB64
330
EB59
100
AcDbEntity
  8
0
 62
     0
 48
12.0
100
AcDbBlockEnd
  0
BLOCK
  5
EB70
330
EB66
100
AcDbEntity
  8
0
 62
     0
 48
12.0
100
AcDbBlockBegin
  2
*D5
 70
     1
 10
0.0
 20
0.0
 30
0.0
  3
*D5
  1

  0
LINE
  5
EC3D
330
EB66
100
AcDbEntity
  8
0
 62
     0
 48
12.0
370
     5
100
AcDbLine
 10
2902.297706154016
 20
4102.033908136831
 30
0.0
 11
2798.259896302348
 21
4102.033908136831
 31
0.0
  0
LINE
  5
EC3E
330
EB66
100
AcDbEntity
  8
0
 62
     0
 48
12.0
370
     5
100
AcDbLine
 10
2902.297706154016
 20
3602.033908136831
 30
0.0
 11
2798.259896302348
 21
3602.033908136831
 31
0.0
  0
LINE
  5
EC3F
330
EB66
100
AcDbEntity
  8
0
 48
12.0
370
     5
100
AcDbLine
 10
2823.259896302348
 20
4062.033908136831
 30
0.0
 11
2823.259896302348
 21
3642.033908136831
 31
0.0
  0
SOLID
  5
EC40
330
EB66
100
AcDbEntity
  8
0
 48
12.0
100
AcDbTrace
 10
2816.593229635682
 20
4062.033908136831
 30
0.0
 11
2829.926562969015
 21
4062.033908136831
 31
0.0
 12
2823.259896302348
 22
4102.033908136831
 32
0.0
 13
2823.259896302348
 23
4102.033908136831
 33
0.0
  0
SOLID
  5
EC41
330
EB66
100
AcDbEntity
  8
0
 48
12.0
100
AcDbTrace
 10
2816.593229635682
 20
3642.033908136831
 30
0.0
 11
2829.926562969015
 21
3642.033908136831
 31
0.0
 12
2823.259896302348
 22
3602.033908136831
 32
0.0
 13
2823.259896302348
 23
3602.033908136831
 33
0.0
  0
MTEXT
  5
EC42
330
EB66
100
AcDbEntity
  8
0
 62
     0
 48
12.0
100
AcDbMText
 10
2783.259896302348
 20
3852.033908136831
 30
0.0
 40
30.0
 41
0.0
 71
     5
 72
     1
  1
500
 11
0.0000000000000001
 21
1.0
 31
0.0
 73
     1
 44
1.0
  0
POINT
  5
EC43
330
EB66
100
AcDbEntity
  8
Defpoints
 62
     0
 48
12.0
100
AcDbPoint
 10
2922.297706154015
 20
4102.033908136831
 30
0.0
  0
POINT
  5
EC44
330
EB66
100
AcDbEntity
  8
Defpoints
 62
     0
 48
12.0
100
AcDbPoint
 10
2922.297706154015
 20
3602.033908136831
 30
0.0
  0
POINT
  5
EC45
330
EB66
100
AcDbEntity
  8
Defpoints
 62
     0
 48
12.0
100
AcDbPoint
 10
2823.259896302348
 20
3602.033908136831
 30
0.0
  0
ENDBLK
  5
EB71
330
EB66
100
AcDbEntity
  8
0
 62
     0
 48
12.0
100
AcDbBlockEnd
  0
BLOCK
  5
EB86
330
EB7C
100
AcDbEntity
  8
0
 62
     0
 48
12.0
100
AcDbBlockBegin
  2
*D6
 70
     1
 10
0.0
 20
0.0
 30
0.0
  3
*D6
  1

  0
LINE
  5
EC6A
330
EB7C
100
AcDbEntity
  8
0
 62
     0
 48
12.0
370
     5
100
AcDbLine
 10
5441.622111429559
 20
4635.053825127968
 30
0.0
 11
5441.622111429559
 21
4738.26025901286
 31
0.0
  0
LINE
  5
EC6B
330
EB7C
100
AcDbEntity
  8
0
 62
     0
 48
12.0
370
     5
100
AcDbLine
 10
5641.622111429558
 20
4635.053825127968
 30
0.0
 11
5641.622111429558
 21
4738.26025901286
 31
0.0
  0
LINE
  5
EC6C
330
EB7C
100
AcDbEntity
  8
0
 48
12.0
370
     5
100
AcDbLine
 10
5481.622111429558
 20
4713.26025901286
 30
0.0
 11
5601.622111429559
 21
4713.26025901286
 31
0.0
  0
SOLID
  5
EC6D
330
EB7C
100
AcDbEntity
  8
0
 48
12.0
100
AcDbTrace
 10
5481.622111429558
 20
4719.926925679527
 30
0.0
 11
5481.622111429558
 21
4706.593592346194
 31
0.0
 12
5441.622111429559
 22
4713.26025901286
 32
0.0
 13
5441.622111429559
 23
4713.26025901286
 33
0.0
  0
SOLID
  5
EC6E
330
EB7C
100
AcDbEntity
  8
0
 48
12.0
100
AcDbTrace
 10
5601.622111429559
 20
4719.926925679527
 30
0.0
 11
5601.622111429559
 21
4706.593592346194
 31
0.0
 12
5641.622111429558
 22
4713.26025901286
 32
0.0
 13
5641.622111429558
 23
4713.26025901286
 33
0.0
  0
MTEXT
  5
EC6F
330
EB7C
100
AcDbEntity
  8
0
 62
     0
 48
12.0
100
AcDbMText
 10
5541.393361105955
 20
4753.26025901286
 30
0.0
 40
30.0
 41
0.0
 71
     5
 72
     1
  1
50
 73
     1
 44
1.0
  0
POINT
  5
EC70
330
EB7C
100
AcDbEntity
  8
Defpoints
 62
     0
 48
12.0
100
AcDbPoint
 10
5441.622111429559
 20
4615.053825127968
 30
0.0
  0
POINT
  5
EC71
330
EB7C
100
AcDbEntity
  8
Defpoints
 62
     0
 48
12.0
100
AcDbPoint
 10
5641.622111429558
 20
4615.053825127968
 30
0.0
  0
POINT
  5
EC72
330
EB7C
100
AcDbEntity
  8
Defpoints
 62
     0
 48
12.0
100
AcDbPoint
 10
5641.622111429558
 20
4713.26025901286
 30
0.0
  0
ENDBLK
  5
EB87
330
EB7C
100
AcDbEntity
  8
0
 62
     0
 48
12.0
100
AcDbBlockEnd
  0
BLOCK
  5
EB9E
330
EB92
100
AcDbEntity
  8
0
 62
     0
 48
12.0
100
AcDbBlockBegin
  2
*D7
 70
     1
 10
0.0
 20
0.0
 30
0.0
  3
*D7
  1

  0
LINE
  5
EC73
330
EB92
100
AcDbEntity
  8
0
 62
     0
 48
12.0
370
     5
100
AcDbLine
 10
5521.622111429558
 20
4615.053825127968
 30
0.0
 11
5516.622111429558
 21
4615.053825127968
 31
0.0
  0
LINE
  5
EC74
330
EB92
100
AcDbEntity
  8
0
 62
     0
 48
12.0
370
     5
100
AcDbLine
 10
5521.622111429558
 20
4559.053825127969
 30
0.0
 11
5516.622111429558
 21
4559.053825127969
 31
0.0
  0
LINE
  5
EC75
330
EB92
100
AcDbEntity
  8
0
 48
12.0
370
     5
100
AcDbLine
 10
5541.622111429559
 20
4655.053825127969
 30
0.0
 11
5541.622111429559
 21
4695.053825127969
 31
0.0
  0
LINE
  5
EC76
330
EB92
100
AcDbEntity
  8
0
 48
12.0
370
     5
100
AcDbLine
 10
5541.622111429559
 20
4519.053825127968
 30
0.0
 11
5541.622111429559
 21
4479.053825127969
 31
0.0
  0
MTEXT
  5
EC77
330
EB92
100
AcDbEntity
  8
0
 62
     0
 48
12.0
100
AcDbMText
 10
5513.099835714587
 20
4505.198460012639
 30
0.0
 40
30.0
 41
0.0
 71
     5
 72
     1
  1
%%c14
 11
0.0000000000000001
 21
1.0
 31
0.0
 73
     1
 44
1.0
  0
LINE
  5
EC78
330
EB92
100
AcDbEntity
  8
0
 48
12.0
370
     5
100
AcDbLine
 10
5541.622111429559
 20
4615.053825127968
 30
0.0
 11
5541.622111429559
 21
4559.053825127969
 31
0.0
  0
SOLID
  5
EC79
330
EB92
100
AcDbEntity
  8
0
 48
12.0
100
AcDbTrace
 10
5534.955444762892
 20
4655.053825127969
 30
0.0
 11
5548.288778096226
 21
4655.053825127969
 31
0.0
 12
5541.622111429559
 22
4615.053825127968
 32
0.0
 13
5541.622111429559
 23
4615.053825127968
 33
0.0
  0
SOLID
  5
EC7A
330
EB92
100
AcDbEntity
  8
0
 48
12.0
100
AcDbTrace
 10
5534.955444762892
 20
4519.053825127968
 30
0.0
 11
5548.288778096226
 21
4519.053825127968
 31
0.0
 12
5541.622111429559
 22
4559.053825127969
 32
0.0
 13
5541.622111429559
 23
4559.053825127969
 33
0.0
  0
POINT
  5
EC7B
330
EB92
100
AcDbEntity
  8
Defpoints
 62
     0
 48
12.0
100
AcDbPoint
 10
5541.622111429559
 20
4615.053825127968
 30
0.0
  0
POINT
  5
EC7C
330
EB92
100
AcDbEntity
  8
Defpoints
 62
     0
 48
12.0
100
AcDbPoint
 10
5541.622111429559
 20
4559.053825127969
 30
0.0
  0
POINT
  5
EC7D
330
EB92
100
AcDbEntity
  8
Defpoints
 62
     0
 48
12.0
100
AcDbPoint
 10
5541.622111429559
 20
4559.053825127969
 30
0.0
  0
ENDBLK
  5
EB9F
330
EB92
100
AcDbEntity
  8
0
 62
     0
 48
12.0
100
AcDbBlockEnd
  0
ENDSEC
  0
SECTION
  2
ENTITIES
  0
LINE
  5
2B
330
1F
100
AcDbEntity
  8
0
100
AcDbLine
 10
573.1600046940402
 20
301.319474626167
 30
0.0
 11
8373.160004694041
 21
301.319474626167
 31
0.0
  0
LINE
  5
2C
330
1F
100
AcDbEntity
  8
2
 62
     0
100
AcDbLine
 10
8373.160004694041
 20
301.319474626167
 30
0.0
 11
8373.160004694041
 21
5801.319474626167
 31
0.0
  0
LINE
  5
2D
330
1F
100
AcDbEntity
  8
2
 62
     0
100
AcDbLine
 10
8373.160004694041
 20
5801.319474626167
 30
0.0
 11
573.1600046940402
 21
5801.319474626168
 31
0.0
  0
LINE
  5
2E
330
1F
100
AcDbEntity
  8
2
 62
     0
100
AcDbLine
 10
573.1600046940402
 20
5801.319474626168
 30
0.0
 11
573.1600046940402
 21
301.319474626167
 31
0.0
  0
LINE
  5
110
330
1F
100
AcDbEntity
  8
0
 62
     0
 48
25.0
100
AcDbLine
 10
4340.445395237529
 20
501.3194746261669
 30
0.0
 11
4733.44539523753
 21
501.3194746261669
 31
0.0
  0
LINE
  5
112
330
1F
100
AcDbEntity
  8
２
 62
     0
370
    20
100
AcDbLine
 10
8373.160004694041
 20
301.319474626167
 30
0.0
 11
873.1600046940402
 21
301.3194746261688
 31
0.0
  0
LINE
  5
115
330
1F
100
AcDbEntity
  8
１
 62
     0
 48
25.0
100
AcDbLine
 10
3285.86752289331
 20
351.3194746261642
 30
0.0
 11
666.1579842031423
 21
351.3194746261634
 31
0.0
  0
LINE
  5
116
330
1F
100
AcDbEntity
  8
１
 62
     0
 48
25.0
100
AcDbLine
 10
3285.86752289331
 20
451.3194746261669
 30
0.0
 11
666.1579842031423
 21
451.319474626167
 31
0.0
  0
LINE
  5
117
330
1F
100
AcDbEntity
  8
0
 62
     0
100
AcDbLine
 10
873.1600046940402
 20
301.319474626167
 30
0.0
 11
573.1600046940402
 21
301.319474626167
 31
0.0
  0
LINE
  5
119
330
1F
100
AcDbEntity
  8
２
 62
     0
 48
25.0
100
AcDbLine
 10
666.1579842031423
 20
501.3194746261669
 30
0.0
 11
666.1579842031423
 21
301.319474626167
 31
0.0
  0
LINE
  5
120
330
1F
100
AcDbEntity
  8
２
 62
     0
 48
25.0
100
AcDbLine
 10
3285.86752289331
 20
501.3194746261669
 30
0.0
 11
4340.445395237529
 21
501.3194746261669
 31
0.0
  0
LINE
  5
121
330
1F
100
AcDbEntity
  8
１
 62
     0
 48
25.0
100
AcDbLine
 10
3285.86752289331
 20
401.3194746261669
 30
0.0
 11
4340.445395237529
 21
401.3194746261669
 31
0.0
  0
MTEXT
  5
122
330
1F
100
AcDbEntity
  8
１
 62
     0
 48
25.0
100
AcDbMText
 10
3482.347372893309
 20
351.319474626167
 30
0.0
 40
45.0
 41
392.9597
 71
     5
 72
     5
  1
{\fMS UI Gothic|b0|i0|c128|p17;作図者}
 73
     1
 44
1.0
  0
MTEXT
  5
123
330
1F
100
AcDbEntity
  8
１
 62
     0
 48
25.0
100
AcDbMText
 10
3489.57747289331
 20
451.3194746261669
 30
0.0
 40
45.0
 41
407.4199
 71
     5
 72
     5
  1
{\fMS UI Gothic|b0|i0|c128|p17;作図日}
 73
     1
 44
1.0
  0
LINE
  5
124
330
1F
100
AcDbEntity
  8
２
 62
     0
 48
25.0
100
AcDbLine
 10
3285.86752289331
 20
401.3194746261606
 30
0.0
 11
3285.86752289331
 21
301.3194746261688
 31
0.0
  0
LINE
  5
125
330
1F
100
AcDbEntity
  8
２
 62
     0
 48
25.0
100
AcDbLine
 10
3285.86752289331
 20
501.3194746261669
 30
0.0
 11
3285.86752289331
 21
301.3194746261688
 31
0.0
  0
LINE
  5
126
330
1F
100
AcDbEntity
  8
0
 62
     0
 48
25.0
100
AcDbLine
 10
3285.86752289331
 20
501.3194746261669
 30
0.0
 11
3285.86752289331
 21
401.3194746261669
 31
0.0
  0
LINE
  5
127
330
1F
100
AcDbEntity
  8
２
 62
     0
 48
25.0
100
AcDbLine
 10
3678.827200362372
 20
501.3194746261669
 30
0.0
 11
3678.827200362372
 21
301.3194746261679
 31
0.0
  0
LINE
  5
12A
330
1F
100
AcDbEntity
  8
２
 62
     0
 48
25.0
100
AcDbLine
 10
4340.445395237529
 20
501.3194746261679
 30
0.0
 11
4340.445395237529
 21
301.3194746261688
 31
0.0
  0
LINE
  5
12B
330
1F
100
AcDbEntity
  8
１
 62
     0
 48
25.0
100
AcDbLine
 10
4733.44539523753
 20
401.3194746261669
 30
0.0
 11
6940.799542333171
 21
401.3194746261669
 31
0.0
  0
LINE
  5
12C
330
1F
100
AcDbEntity
  8
0
 62
     0
 48
25.0
100
AcDbLine
 10
4963.195390442862
 20
501.3194746261669
 30
0.0
 11
6152.110390442862
 21
501.3194746261669
 31
0.0
  0
MTEXT
  5
12D
330
1F
100
AcDbEntity
  8
１
 62
     0
 48
25.0
100
AcDbMText
 10
4929.94539523753
 20
351.319474626167
 30
0.0
 40
45.0
 41
393.0
 71
     5
 72
     5
  1
{\fMS UI Gothic|b0|i0|c128|p17;図　　　名}
 73
     1
 44
1.0
  0
MTEXT
  5
12E
330
1F
100
AcDbEntity
  8
１
 62
     0
 48
25.0
100
AcDbMText
 10
4929.94539523753
 20
451.3194746261669
 30
0.0
 40
45.0
 41
393.0
 71
     5
 72
     5
  1
{\fMS UI Gothic|b0|i0|c128|p17;物件名称}
 73
     1
 44
1.0
  0
LINE
  5
12F
330
1F
100
AcDbEntity
  8
0
 62
     0
 48
25.0
100
AcDbLine
 10
4733.44539523753
 20
501.3194746261669
 30
0.0
 11
5126.44539523753
 21
501.3194746261669
 31
0.0
  0
MTEXT
  5
130
330
1F
100
AcDbEntity
  8
１
 62
     0
 48
25.0
100
AcDbMText
 10
4531.794970237529
 20
401.3194746261669
 30
0.0
 40
45.0
 41
320.6992
 71
     5
 72
     5
  1
{\fMS UI Gothic|b0|i0|c128|p17;S=1/20}
 73
     1
 44
1.0
  0
LINE
  5
131
330
1F
100
AcDbEntity
  8
２
 62
     0
 48
25.0
100
AcDbLine
 10
4733.44539523753
 20
501.3194746261669
 30
0.0
 11
4733.44539523753
 21
301.3194746261679
 31
0.0
  0
LINE
  5
132
330
1F
100
AcDbEntity
  8
0
 62
     0
 48
25.0
100
AcDbLine
 10
4733.44539523753
 20
501.3194746261669
 30
0.0
 11
4733.44539523753
 21
301.3194746261679
 31
0.0
  0
LINE
  5
133
330
1F
100
AcDbEntity
  8
２
 62
     0
 48
25.0
100
AcDbLine
 10
5126.44539523753
 20
501.3194746261669
 30
0.0
 11
5126.44539523753
 21
301.319474626167
 31
0.0
  0
MTEXT
  5
134
330
1F
100
AcDbEntity
  8
１
 62
     0
 48
25.0
100
AcDbMText
 10
7857.093234368085
 20
401.3194746261669
 30
0.0
 40
75.0
 41
1032.1335
 71
     5
 72
     5
  1
{\fMS UI Gothic|b0|i0|c128|p17;株式会社 アルティマ}
 73
     1
 44
1.0
  0
LINE
  5
138
330
1F
100
AcDbEntity
  8
2
 62
     0
 48
25.0
100
AcDbLine
 10
573.1600046940402
 20
501.3194746261669
 30
0.0
 11
8373.160004694041
 21
501.3194746261669
 31
0.0
  0
LINE
  5
13A
330
1F
100
AcDbEntity
  8
１
 62
     0
 48
25.0
100
AcDbLine
 10
666.1579842031423
 20
401.3194746261665
 30
0.0
 11
3285.86752289331
 21
401.3194746261606
 31
0.0
  0
LINE
  5
13D
330
1F
100
AcDbEntity
  8
２
 62
     0
370
    20
100
AcDbLine
 10
573.1600046940402
 20
301.319474626167
 30
0.0
 11
8373.160004694041
 21
301.319474626167
 31
0.0
  0
MTEXT
  5
140
330
1F
100
AcDbEntity
  8
１
 62
     0
 48
20.0
100
AcDbMText
 10
619.6590046940403
 20
401.3194746261669
 30
0.0
 40
45.0
 41
92.99799999999999
 71
     5
 72
     5
  1
{\fMS UI Gothic|b0|i0|c128|p17;記\P事}
 73
     1
 44
1.0
  0
LINE
  5
148
330
1F
100
AcDbEntity
  8
1
 48
20.0
100
AcDbLine
 10
6940.799542333171
 20
501.319474626167
 30
0.0
 11
6940.799542333171
 21
301.3194746261673
 31
0.0
  0
LINE
  5
149
330
1F
100
AcDbEntity
  8
２
 62
     0
 48
20.0
100
AcDbLine
 10
6940.799542333171
 20
501.3194746261669
 30
0.0
 11
6940.799542333171
 21
301.3194746261673
 31
0.0
  0
ARC
  5
246
102
{ACAD_REACTORS
330
25D
102
}
330
1F
100
AcDbEntity
  8
Object
 62
     0
 48
0.3
100
AcDbCircle
 10
7297.209912067147
 20
376.0429704794555
 30
0.0
 40
32.4
100
AcDbArc
 50
180.0
 51
257.3448222610501
  0
LINE
  5
247
102
{ACAD_REACTORS
330
249
102
}
330
1F
100
AcDbEntity
  8
Object
 62
     0
 48
0.3
100
AcDbLine
 10
7123.213589567001
 20
460.1503417338672
 30
0.0
 11
7144.813589567002
 21
460.1503417338672
 31
0.0
  0
ARC
  5
248
102
{ACAD_REACTORS
330
249
102
}
330
1F
100
AcDbEntity
  8
Object
 62
     0
 48
0.3
100
AcDbCircle
 10
7112.413589567002
 20
375.9103417338685
 30
0.0
 40
32.4
100
AcDbArc
 50
180.0
 51
0.0
  0
HATCH
  5
249
330
1F
100
AcDbEntity
  8
Object
 62
     0
 48
0.3
100
AcDbHatch
 10
0.0
 20
0.0
 30
0.0
210
0.0
220
0.0
230
1.0
  2
ANSI31
 70
     0
 71
     1
 91
        1
 92
        1
 93
        8
 72
     1
 10
7101.613589567001
 20
460.1503417338672
 11
7080.013589567002
 21
460.1503417338672
 72
     1
 10
7080.013589567002
 20
460.1503417338672
 11
7080.013589567002
 21
375.9103417338685
 72
     2
 10
7112.413589567002
 20
375.9103417338685
 40
32.4
 50
180.0
 51
360.0
 73
     1
 72
     1
 10
7144.813589567002
 20
375.9103417338685
 11
7144.813589567002
 21
460.1503417338672
 72
     1
 10
7144.813589567002
 20
460.1503417338672
 11
7123.213589567001
 21
460.1503417338672
 72
     1
 10
7123.213589567001
 20
460.1503417338672
 11
7123.213589567001
 21
375.9103417338685
 72
     2
 10
7112.413589567002
 20
375.9103417338685
 40
10.8
 50
360.0
 51
540.0
 73
     0
 72
     1
 10
7101.613589567001
 20
375.9103417338685
 11
7101.613589567001
 21
460.1503417338672
 97
        8
330
24F
330
24A
330
248
330
251
330
247
330
24C
330
24D
330
24B
 75
     0
 76
     1
 52
0.0
 41
0.09
 77
     0
 78
     1
 53
45.0
 43
5859.711144608137
 44
-477.3585758446554
 45
-0.2020557627240559
 46
0.202055762724056
 79
     0
 98
        1
 10
5859.711144608137
 20
-477.3585758446554
  0
LINE
  5
24A
102
{ACAD_REACTORS
330
249
102
}
330
1F
100
AcDbEntity
  8
Object
 62
     0
 48
0.3
100
AcDbLine
 10
7080.013589567002
 20
375.9103417338685
 30
0.0
 11
7080.013589567002
 21
460.1503417338672
 31
0.0
  0
LINE
  5
24B
102
{ACAD_REACTORS
330
249
102
}
330
1F
100
AcDbEntity
  8
Object
 62
     0
 48
0.3
100
AcDbLine
 10
7101.613589567001
 20
460.1503417338672
 30
0.0
 11
7101.613589567001
 21
375.9103417338685
 31
0.0
  0
LINE
  5
24C
102
{ACAD_REACTORS
330
249
102
}
330
1F
100
AcDbEntity
  8
Object
 62
     0
 48
0.3
100
AcDbLine
 10
7123.213589567001
 20
460.1503417338672
 30
0.0
 11
7123.213589567001
 21
375.9103417338685
 31
0.0
  0
ARC
  5
24D
102
{ACAD_REACTORS
330
249
102
}
330
1F
100
AcDbEntity
  8
Object
 62
     0
 48
0.3
100
AcDbCircle
 10
7112.413589567002
 20
375.9103417338685
 30
0.0
 40
10.8
100
AcDbArc
 50
180.0
 51
0.0
  0
LINE
  5
24E
330
1F
100
AcDbEntity
  8
Object
 62
     0
 48
0.3
100
AcDbLine
 10
7080.013589567002
 20
460.1503417338672
 30
0.0
 11
7101.613589567001
 21
460.1503417338672
 31
0.0
  0
LINE
  5
24F
102
{ACAD_REACTORS
330
249
102
}
330
1F
100
AcDbEntity
  8
Object
 62
     0
 48
0.3
100
AcDbLine
 10
7101.613589567001
 20
460.1503417338672
 30
0.0
 11
7080.013589567002
 21
460.1503417338672
 31
0.0
  0
LINE
  5
250
102
{ACAD_REACTORS
330
253
102
}
330
1F
100
AcDbEntity
  8
Object
 62
     0
 48
0.3
100
AcDbLine
 10
7202.413589567003
 20
460.1503417338672
 30
0.0
 11
7202.413589567003
 21
365.1103417338686
 31
0.0
  0
LINE
  5
251
102
{ACAD_REACTORS
330
249
102
}
330
1F
100
AcDbEntity
  8
Object
 62
     0
 48
0.3
100
AcDbLine
 10
7144.813589567002
 20
460.1503417338672
 30
0.0
 11
7144.813589567002
 21
375.9103417338685
 31
0.0
  0
LINE
  5
252
102
{ACAD_REACTORS
330
253
102
}
330
1F
100
AcDbEntity
  8
Object
 62
     0
 48
0.3
100
AcDbLine
 10
7180.813589567001
 20
460.1503417338672
 30
0.0
 11
7180.813589567001
 21
343.5103417338684
 31
0.0
  0
HATCH
  5
253
330
1F
100
AcDbEntity
  8
Object
 62
     0
 48
0.3
100
AcDbHatch
 10
0.0
 20
0.0
 30
0.0
210
0.0
220
0.0
230
1.0
  2
ANSI31
 70
     0
 71
     1
 91
        1
 92
        1
 93
        6
 72
     1
 10
7180.813589567001
 20
460.1503417338672
 11
7202.413589567003
 21
460.1503417338672
 72
     1
 10
7202.413589567003
 20
460.1503417338672
 11
7202.413589567003
 21
365.1103417338686
 72
     1
 10
7202.413589567003
 20
365.1103417338686
 11
7245.613589567003
 21
365.1103417338686
 72
     1
 10
7245.613589567003
 20
365.1103417338686
 11
7245.613589567003
 21
343.5103417338684
 72
     1
 10
7245.613589567003
 20
343.5103417338684
 11
7180.813589567001
 21
343.5103417338684
 72
     1
 10
7180.813589567001
 20
343.5103417338684
 11
7180.813589567001
 21
460.1503417338672
 97
        6
330
257
330
250
330
256
330
255
330
254
330
252
 75
     0
 76
     1
 52
0.0
 41
0.09
 77
     0
 78
     1
 53
45.0
 43
5859.711144608137
 44
-477.3585758446554
 45
-0.2020557627240559
 46
0.202055762724056
 79
     0
 98
        1
 10
5859.711144608137
 20
-477.3585758446554
  0
LINE
  5
254
102
{ACAD_REACTORS
330
253
102
}
330
1F
100
AcDbEntity
  8
Object
 62
     0
 48
0.3
100
AcDbLine
 10
7180.813589567001
 20
343.5103417338684
 30
0.0
 11
7245.613589567003
 21
343.5103417338684
 31
0.0
  0
LINE
  5
255
102
{ACAD_REACTORS
330
253
102
}
330
1F
100
AcDbEntity
  8
Object
 62
     0
 48
0.3
100
AcDbLine
 10
7245.613589567003
 20
343.5103417338684
 30
0.0
 11
7245.613589567003
 21
365.1103417338686
 31
0.0
  0
LINE
  5
256
102
{ACAD_REACTORS
330
253
102
}
330
1F
100
AcDbEntity
  8
Object
 62
     0
 48
0.3
100
AcDbLine
 10
7245.613589567003
 20
365.1103417338686
 30
0.0
 11
7202.413589567003
 21
365.1103417338686
 31
0.0
  0
LINE
  5
257
102
{ACAD_REACTORS
330
253
102
}
330
1F
100
AcDbEntity
  8
Object
 62
     0
 48
0.3
100
AcDbLine
 10
7180.813589567001
 20
460.1503417338672
 30
0.0
 11
7202.413589567003
 21
460.1503417338672
 31
0.0
  0
LINE
  5
258
102
{ACAD_REACTORS
330
25D
102
}
330
1F
100
AcDbEntity
  8
Object
 62
     0
 48
0.3
100
AcDbLine
 10
7329.609912067148
 20
427.7503417338671
 30
0.0
 11
7329.609912067148
 21
415.2725519677517
 31
0.0
  0
LINE
  5
259
330
1F
100
AcDbEntity
  8
Object
 62
     0
 48
0.3
100
AcDbLine
 10
7286.409912067147
 20
376.0429704794555
 30
0.0
 11
7286.409912067147
 21
427.7503417338671
 31
0.0
  0
LINE
  5
25A
102
{ACAD_REACTORS
330
25D
102
}
330
1F
100
AcDbEntity
  8
Object
 62
     0
 48
0.3
100
AcDbLine
 10
7264.809912067147
 20
374.8035131265828
 30
0.0
 11
7264.809912067147
 21
427.7503417338671
 31
0.0
  0
LINE
  5
25B
102
{ACAD_REACTORS
330
25D
102
}
330
1F
100
AcDbEntity
  8
Object
 62
     0
 48
0.3
100
AcDbLine
 10
7308.009912067148
 20
415.2725519677517
 30
0.0
 11
7308.009912067148
 21
427.7503417338671
 31
0.0
  0
LINE
  5
25C
102
{ACAD_REACTORS
330
25D
102
}
330
1F
100
AcDbEntity
  8
Object
 62
     0
 48
0.3
100
AcDbLine
 10
7286.409912067147
 20
376.0429704794555
 30
0.0
 11
7286.409912067147
 21
427.7503417338671
 31
0.0
  0
HATCH
  5
25D
330
1F
100
AcDbEntity
  8
Object
 62
     0
 48
0.3
100
AcDbHatch
 10
0.0
 20
0.0
 30
0.0
210
0.0
220
0.0
230
1.0
  2
ANSI31
 70
     0
 71
     1
 91
        1
 92
        7
 72
     1
 73
     1
 93
       17
 10
7286.409912067147
 20
376.0429704794555
 42
0.0
 10
7286.409912067147
 20
427.7503417338671
 42
-1.0
 10
7308.009912067148
 20
427.7503417338671
 42
0.0
 10
7308.009912067148
 20
415.2725519677518
 42
0.0
 10
7329.609912067148
 20
415.2725519677517
 42
0.0
 10
7329.609912067148
 20
427.7503417338671
 42
1.0
 10
7264.809912067147
 20
427.7503417338671
 42
0.0
 10
7264.809912067147
 20
376.042970479455
 42
0.3509045778194451
 10
7290.111623503576
 20
344.4300886198675
 42
0.407199901548665
 10
7308.009912067148
 20
354.9558236483938
 42
0.0
 10
7308.009912067146
 20
343.5103417338684
 42
0.0
 10
7329.609912067148
 20
343.5103417338684
 42
0.0
 10
7329.609912067148
 20
402.2906781893873
 42
0.0
 10
7297.240342503669
 20
402.2906781893873
 42
0.0
 10
7297.240342503669
 20
380.6906781893871
 42
0.0
 10
7308.009912067148
 20
380.6906781893871
 42
0.0
 10
7308.009912067148
 20
376.0429704794555
 42
-1.0
 97
       17
330
25F
330
262
330
266
330
267
330
268
330
25C
330
26D
330
25B
330
25E
330
258
330
26C
330
25A
330
246
330
269
330
26A
330
261
330
26B
 75
     0
 76
     1
 52
0.0
 41
0.09
 77
     0
 78
     1
 53
45.0
 43
5859.711144608137
 44
-477.3585758446554
 45
-0.2020557627240559
 46
0.202055762724056
 79
     0
 47
0.0407053698821989
 98
        1
 10
7295.019301946647
 20
358.4035315374867
  0
LINE
  5
25E
102
{ACAD_REACTORS
330
25D
102
}
330
1F
100
AcDbEntity
  8
Object
 62
     0
 48
0.3
100
AcDbLine
 10
7308.009912067148
 20
415.2725519677517
 30
0.0
 11
7329.609912067148
 21
415.2725519677517
 31
0.0
  0
LINE
  5
25F
102
{ACAD_REACTORS
330
25D
102
}
330
1F
100
AcDbEntity
  8
Object
 62
     0
 48
0.3
100
AcDbLine
 10
7329.609912067148
 20
402.2906781893873
 30
0.0
 11
7297.240342503669
 21
402.2906781893873
 31
0.0
  0
LINE
  5
260
330
1F
100
AcDbEntity
  8
Object
 62
     0
 48
0.3
100
AcDbLine
 10
7308.009912067148
 20
343.5103417338684
 30
0.0
 11
7329.609912067148
 21
343.5103417338684
 31
0.0
  0
LINE
  5
261
102
{ACAD_REACTORS
330
25D
102
}
330
1F
100
AcDbEntity
  8
Object
 62
     0
 48
0.3
100
AcDbLine
 10
7329.609912067148
 20
343.5103417338684
 30
0.0
 11
7308.009912067148
 21
343.5103417338684
 31
0.0
  0
LINE
  5
262
102
{ACAD_REACTORS
330
25D
102
}
330
1F
100
AcDbEntity
  8
Object
 62
     0
 48
0.3
100
AcDbLine
 10
7297.240342503669
 20
402.2906781893873
 30
0.0
 11
7297.240342503669
 21
380.6906781893871
 31
0.0
  0
LINE
  5
263
330
1F
100
AcDbEntity
  8
Object
 62
     0
 48
0.3
100
AcDbLine
 10
7297.240342503669
 20
380.6906781893871
 30
0.0
 11
7308.009912067148
 21
380.6906781893871
 31
0.0
  0
LINE
  5
264
330
1F
100
AcDbEntity
  8
Object
 62
     0
 48
0.3
100
AcDbLine
 10
7308.009912067148
 20
376.0429704794555
 30
0.0
 11
7308.009912067148
 21
380.6906781893871
 31
0.0
  0
LINE
  5
265
330
1F
100
AcDbEntity
  8
Object
 62
     0
 48
0.3
100
AcDbLine
 10
7308.009912067148
 20
380.6906781893871
 30
0.0
 11
7308.009912067148
 21
375.694500600521
 31
0.0
  0
LINE
  5
266
102
{ACAD_REACTORS
330
25D
102
}
330
1F
100
AcDbEntity
  8
Object
 62
     0
 48
0.3
100
AcDbLine
 10
7297.240342503669
 20
380.6906781893871
 30
0.0
 11
7308.009912067148
 21
380.6906781893871
 31
0.0
  0
LINE
  5
267
102
{ACAD_REACTORS
330
25D
102
}
330
1F
100
AcDbEntity
  8
Object
 62
     0
 48
0.3
100
AcDbLine
 10
7308.009912067148
 20
380.6906781893871
 30
0.0
 11
7308.009912067148
 21
376.0429704794555
 31
0.0
  0
ARC
  5
268
102
{ACAD_REACTORS
330
25D
102
}
330
1F
100
AcDbEntity
  8
Object
 62
     0
 48
0.3
100
AcDbCircle
 10
7297.209912067147
 20
376.0429704794555
 30
0.0
 40
10.8
100
AcDbArc
 50
180.0
 51
0.0
  0
ARC
  5
269
102
{ACAD_REACTORS
330
25D
102
}
330
1F
100
AcDbEntity
  8
Object
 62
     0
 48
0.3
100
AcDbCircle
 10
7293.670022142595
 20
358.8595483792871
 30
0.0
 40
14.86174652666639
100
AcDbArc
 50
256.1468978562162
 51
344.7714912032799
  0
LINE
  5
26A
102
{ACAD_REACTORS
330
25D
102
}
330
1F
100
AcDbEntity
  8
Object
 62
     0
 48
0.3
100
AcDbLine
 10
7308.009912067148
 20
354.9558236483567
 30
0.0
 11
7308.009912067148
 21
343.5103417338684
 31
0.0
  0
LINE
  5
26B
102
{ACAD_REACTORS
330
25D
102
}
330
1F
100
AcDbEntity
  8
Object
 62
     0
 48
0.3
100
AcDbLine
 10
7329.609912067148
 20
402.2906781893839
 30
0.0
 11
7329.609912067148
 21
343.5103417338684
 31
0.0
  0
ARC
  5
26C
102
{ACAD_REACTORS
330
25D
102
}
330
1F
100
AcDbEntity
  8
Object
 62
     0
 48
0.3
100
AcDbCircle
 10
7297.209912067147
 20
427.7503417338671
 30
0.0
 40
32.4
100
AcDbArc
 50
0.0
 51
180.0
  0
ARC
  5
26D
102
{ACAD_REACTORS
330
25D
102
}
330
1F
100
AcDbEntity
  8
Object
 62
     0
 48
0.3
100
AcDbCircle
 10
7297.209912067147
 20
427.7503417338671
 30
0.0
 40
10.8
100
AcDbArc
 50
0.0
 51
180.0
  0
MTEXT
  5
286
330
1F
100
AcDbEntity
  8
0
 48
20.0
100
AcDbMText
 10
2284.364107166581
 20
4748.824262872029
 30
0.0
 40
2.5
 41
0.0
 71
     1
 72
     5
  1

 73
     1
 44
1.0
  0
MTEXT
  5
28E
330
1F
100
AcDbEntity
  8
0
 48
20.0
100
AcDbMText
 10
2363.422322777649
 20
3919.355080373121
 30
0.0
 40
2.5
 41
2713.437
 71
     1
 72
     5
  1

 73
     1
 44
1.0
  0
MTEXT
  5
28F
330
1F
100
AcDbEntity
  8
0
 48
20.0
100
AcDbMText
 10
2513.751252987534
 20
4182.31548624136
 30
0.0
 40
2.5
 41
0.0
 71
     1
 72
     5
  1

 73
     1
 44
1.0
  0
MTEXT
  5
290
330
1F
100
AcDbEntity
  8
0
 48
20.0
100
AcDbMText
 10
3274.762888724799
 20
3877.197467654254
 30
0.0
 40
2.5
 41
0.0
 71
     1
 72
     5
  1

 73
     1
 44
1.0
  0
MTEXT
  5
406
330
1F
100
AcDbEntity
  8
0
100
AcDbMText
 10
3085.025203387708
 20
3282.374582518992
 30
0.0
 40
2.5
 41
0.625
 71
     1
 72
     1
  1

 73
     1
 44
1.0
  0
MTEXT
  5
5B9
330
1F
100
AcDbEntity
  8
0
 48
20.0
100
AcDbMText
 10
2533.682300930144
 20
4903.882850892638
 30
0.0
 40
45.0
 41
0.0
 71
     1
 72
     1
  1

 73
     1
 44
1.0
  0
MTEXT
  5
67D
330
1F
100
AcDbEntity
  8
１
 62
     1
 48
20.0
100
AcDbMText
 10
3236.590647920576
 20
326.3194746261665
 30
0.0
 40
24.0
 41
98.5538
 71
     5
 72
     5
  1
60
 73
     1
 44
1.0
  0
MTEXT
  5
2F35
330
1F
100
AcDbEntity
  8
2
 48
0.5
100
AcDbMText
 10
4200.585498167547
 20
3394.764089031266
 30
0.0
 40
12.0
 41
5.5082
 71
     1
 72
     1
  1

 73
     1
 44
1.0
  0
MTEXT
  5
3984
330
1F
100
AcDbEntity
  8
0
 62
     0
 48
0.5
100
AcDbMText
 10
5752.717063778332
 20
3456.534198599792
 30
0.0
 40
2.5
 41
0.0
 71
     9
 72
     1
  1

 73
     1
 44
1.0
  0
LINE
  5
9FC9
330
1F
100
AcDbEntity
  8
0
 62
     0
100
AcDbLine
 10
5779.942887850349
 20
4606.934701337823
 30
0.0
 11
5779.942887850349
 21
4570.541300087509
 31
0.0
  0
LINE
  5
9FCA
330
1F
100
AcDbEntity
  8
0
 62
     0
100
AcDbLine
 10
5771.942887850349
 20
4606.934701337823
 30
0.0
 11
5771.942887850349
 21
4566.934701337823
 31
0.0
  0
LINE
  5
9FCC
330
1F
100
AcDbEntity
  8
0
 62
     0
100
AcDbLine
 10
5878.742887850353
 20
4570.934701337822
 30
0.0
 11
5878.742887850353
 21
4602.934701337822
 31
0.0
  0
ARC
  5
9FCD
330
1F
100
AcDbEntity
  8
0
 62
     0
100
AcDbCircle
 10
5822.702372453914
 20
4556.888196873357
 30
0.0
 40
27.04746746849392
100
AcDbArc
 50
27.27380201547615
 51
89.51650758353483
  0
ARC
  5
9FD2
330
1F
100
AcDbEntity
  8
0
 62
     0
100
AcDbCircle
 10
5693.071905797068
 20
4587.013186545158
 30
0.0
 40
51.52599198264046
100
AcDbArc
 50
157.208038552044
 51
202.7919614479559
  0
LINE
  5
9FD4
330
1F
100
AcDbEntity
  8
0
 62
     0
100
AcDbLine
 10
5441.676876333961
 20
4565.574561384333
 30
0.0
 11
5441.676876333961
 21
4608.461709038756
 31
0.0
  0
LINE
  5
9FD5
330
1F
100
AcDbEntity
  8
0
 62
     0
100
AcDbLine
 10
5422.042855058968
 20
4570.514775383906
 30
0.0
 11
5422.105783584844
 21
4603.449535381074
 31
0.0
  0
ARC
  5
9FD6
330
1F
100
AcDbEntity
  8
0
 62
     0
100
AcDbCircle
 10
5429.976885906882
 20
4570.514775383906
 30
0.0
 40
7.93403084792544
100
AcDbArc
 50
136.2235944163069
 51
223.776405583693
  0
LINE
  5
9FD7
330
1F
100
AcDbEntity
  8
0
 62
     0
100
AcDbLine
 10
5422.074319321906
 20
4586.982155382491
 30
0.0
 11
5422.074319321906
 21
4560.982155382491
 31
0.0
  0
LINE
  5
9FD8
330
1F
100
AcDbEntity
  8
0
 62
     0
100
AcDbLine
 10
5422.074388068646
 20
4613.018135211543
 30
0.0
 11
5422.074388068646
 21
4560.982155382491
 31
0.0
  0
LINE
  5
9FD9
330
1F
100
AcDbEntity
  8
0
 62
     0
100
AcDbLine
 10
5441.622111429559
 20
4559.053825127969
 30
0.0
 11
5441.622111429559
 21
4614.193353894044
 31
0.0
  0
LINE
  5
9FDA
330
1F
100
AcDbEntity
  8
0
 62
     0
100
AcDbLine
 10
5677.257771991452
 20
4507.078604416167
 30
0.0
 11
5677.257771991452
 21
4587.078604416166
 31
0.0
  0
LINE
  5
9FDB
330
1F
100
AcDbEntity
  8
0
 62
     0
100
AcDbLine
 10
5685.257771991452
 20
4667.078604416166
 30
0.0
 11
5685.257771991452
 21
4507.078604416167
 31
0.0
  0
LINE
  5
9FDC
330
1F
100
AcDbEntity
  8
0
 62
     0
100
AcDbLine
 10
5685.257771991452
 20
4587.078604416166
 30
0.0
 11
5685.257771991452
 21
4527.078604416167
 31
0.0
  0
LINE
  5
9FDD
330
1F
100
AcDbEntity
  8
0
 62
     0
100
AcDbLine
 10
5677.257771991452
 20
4548.090288366689
 30
0.0
 11
5677.257771991452
 21
4626.066920465641
 31
0.0
  0
LINE
  5
9FDE
330
1F
100
AcDbEntity
  8
0
 62
     0
100
AcDbLine
 10
5641.559551491457
 20
4554.31197208101
 30
0.0
 11
5641.673966993065
 21
4614.193353894044
 31
0.0
  0
LINE
  5
9FDF
330
1F
100
AcDbEntity
  8
0
 62
     0
100
AcDbLine
 10
5441.622111429559
 20
4559.053825127969
 30
0.0
 11
5641.622111429558
 21
4559.053825127969
 31
0.0
  0
LINE
  5
9FE0
330
1F
100
AcDbEntity
  8
0
 62
     0
100
AcDbLine
 10
5771.942887850349
 20
4568.934701337822
 30
0.0
 11
5705.942887850349
 21
4568.934701337822
 31
0.0
  0
LINE
  5
9FE1
330
1F
100
AcDbEntity
  8
0
 62
     0
100
AcDbLine
 10
5771.942887850349
 20
4566.934701337823
 30
0.0
 11
5844.196504648233
 21
4566.934701337823
 31
0.0
  0
LINE
  5
9FE2
330
1F
100
AcDbEntity
  8
0
 62
     0
100
AcDbLine
 10
5868.232209755614
 20
4566.934701337823
 30
0.0
 11
5846.742887850353
 21
4569.282514762324
 31
0.0
  0
LINE
  5
9FE3
330
1F
100
AcDbEntity
  8
0
 62
     0
100
AcDbLine
 10
5868.232209755614
 20
4566.934701337823
 30
0.0
 11
5869.966181301755
 21
4566.934701337823
 31
0.0
  0
ARC
  5
9FE4
330
1F
100
AcDbEntity
  8
0
 62
     0
100
AcDbCircle
 10
5869.966181301755
 20
4578.187691402493
 30
0.0
 40
11.38580004735585
100
AcDbArc
 50
261.2401983393213
 51
320.4299839966683
  0
ARC
  5
9FE5
330
1F
100
AcDbEntity
  8
0
 62
     0
100
AcDbCircle
 10
5843.080458801149
 20
4570.699918773633
 30
0.0
 40
3.927138993174281
100
AcDbArc
 50
253.4896813575782
 51
338.8429642585263
  0
LINE
  5
9FE6
330
1F
100
AcDbEntity
  8
0
 62
     0
100
AcDbLine
 10
5771.942887850349
 20
4566.934701337823
 30
0.0
 11
5771.942887850349
 21
4568.934701337822
 31
0.0
  0
LINE
  5
9FE7
330
1F
100
AcDbEntity
  8
0
 62
     0
100
AcDbLine
 10
5779.942887850349
 20
4570.541300087509
 30
0.0
 11
5779.942887850349
 21
4566.934701337823
 31
0.0
  0
LINE
  5
9FEA
330
1F
100
AcDbEntity
  8
0
 62
     0
100
AcDbLine
 10
5685.257771991452
 20
4507.078604416167
 30
0.0
 11
5677.257771991452
 21
4507.078604416167
 31
0.0
  0
LINE
  5
9FEB
330
1F
100
AcDbEntity
  8
0
 62
     0
100
AcDbLine
 10
5697.429863298279
 20
4569.091671752498
 30
0.0
 11
5697.503425848274
 21
4568.934701337822
 31
0.0
  0
LINE
  5
9FEC
330
1F
100
AcDbEntity
  8
0
 62
     0
100
AcDbLine
 10
5698.742887850352
 20
4568.934701337822
 30
0.0
 11
5697.503425848274
 21
4568.934701337822
 31
0.0
  0
LINE
  5
9FED
330
1F
100
AcDbEntity
  8
0
 62
     0
100
AcDbLine
 10
5705.942887850349
 20
4568.934701337822
 30
0.0
 11
5698.742887850352
 21
4568.934701337822
 31
0.0
  0
LINE
  5
9FEE
330
1F
100
AcDbEntity
  8
0
 62
     0
100
AcDbLine
 10
5685.257771991452
 20
4527.078604416167
 30
0.0
 11
5697.257771991452
 21
4527.078604416167
 31
0.0
  0
LINE
  5
9FEF
330
1F
100
AcDbEntity
  8
0
 62
     0
100
AcDbLine
 10
5671.689828808998
 20
4567.052725940815
 30
0.0
 11
5677.257771991452
 21
4567.052725940815
 31
0.0
  0
LINE
  5
9FF0
330
1F
100
AcDbEntity
  8
0
 62
     0
100
AcDbLine
 10
5645.569191535058
 20
4567.052725940815
 30
0.0
 11
5671.689828808998
 21
4567.052725940815
 31
0.0
  0
LINE
  5
9FF1
330
1F
100
AcDbEntity
  8
0
 62
     0
100
AcDbLine
 10
5676.259748961235
 20
4547.092265336472
 30
0.0
 11
5677.257771991452
 21
4548.090288366689
 31
0.0
  0
LINE
  5
9FF2
330
1F
100
AcDbEntity
  8
0
 62
     0
100
AcDbLine
 10
5645.569191535058
 20
4547.092265336472
 30
0.0
 11
5676.259748961235
 21
4547.092265336472
 31
0.0
  0
LINE
  5
9FF3
330
1F
100
AcDbEntity
  8
0
 62
     0
100
AcDbLine
 10
5645.569191535058
 20
4547.092265336472
 30
0.0
 11
5671.689828808998
 21
4547.092265336472
 31
0.0
  0
ARC
  5
9FF4
330
1F
100
AcDbEntity
  8
0
 62
     0
100
AcDbCircle
 10
5655.985062124059
 20
4557.072495638644
 30
0.0
 40
14.42551063259171
100
AcDbArc
 50
136.2235944163069
 51
223.776405583693
  0
LINE
  5
9FF6
330
1F
100
AcDbEntity
  8
0
 62
     0
100
AcDbLine
 10
5422.074319321906
 20
4560.982155382491
 30
0.0
 11
5414.074319321906
 21
4560.982155382491
 31
0.0
  0
LINE
  5
9FF7
330
1F
100
AcDbEntity
  8
0
 62
     0
100
AcDbLine
 10
5422.074319321906
 20
4560.982155382491
 30
0.0
 11
5414.074388068645
 21
4560.982155382491
 31
0.0
  0
LINE
  5
9FF8
330
1F
100
AcDbEntity
  8
0
 62
     0
100
AcDbLine
 10
5441.127963667339
 20
4565.025648717712
 30
0.0
 11
5441.676876333961
 21
4565.574561384333
 31
0.0
  0
LINE
  5
9FF9
330
1F
100
AcDbEntity
  8
0
 62
     0
100
AcDbLine
 10
5424.248157082937
 20
4565.025648717712
 30
0.0
 11
5441.127963667339
 21
4565.025648717712
 31
0.0
  0
LINE
  5
9FFA
330
1F
100
AcDbEntity
  8
0
 62
     0
100
AcDbLine
 10
5424.248157082937
 20
4565.025648717712
 30
0.0
 11
5438.614507583607
 21
4565.025648717712
 31
0.0
  0
LWPOLYLINE
  5
9FFC
330
1F
100
AcDbEntity
  8
0
 62
     0
100
AcDbPolyline
 90
        3
 70
     0
 43
0.0
 10
5414.07438806865
 20
4560.982155382491
 10
5403.648134115051
 20
4558.699831086214
 10
5403.648134115051
 20
4558.699831086214
  0
LINE
  5
9FFD
330
1F
100
AcDbEntity
  8
0
 62
     0
100
AcDbLine
 10
5641.622111429558
 20
4615.053825127968
 30
0.0
 11
5441.622111429559
 21
4615.053825127968
 31
0.0
  0
LINE
  5
9FFE
330
1F
100
AcDbEntity
  8
0
 62
     0
100
AcDbLine
 10
5771.942887850349
 20
4604.934701337823
 30
0.0
 11
5705.942887850349
 21
4604.934701337823
 31
0.0
  0
LINE
  5
9FFF
330
1F
100
AcDbEntity
  8
0
 62
     0
100
AcDbLine
 10
5842.584723152217
 20
4606.934701337823
 30
0.0
 11
5771.942887850349
 21
4606.934701337823
 31
0.0
  0
LINE
  5
A000
330
1F
100
AcDbEntity
  8
0
 62
     0
100
AcDbLine
 10
5842.584723152217
 20
4606.934701337823
 30
0.0
 11
5771.942887850349
 21
4606.934701337823
 31
0.0
  0
LINE
  5
A001
330
1F
100
AcDbEntity
  8
0
 62
     0
100
AcDbLine
 10
5802.681886204646
 20
4583.934701337823
 30
0.0
 11
5823.335587816047
 21
4583.934701337823
 31
0.0
  0
LINE
  5
A002
330
1F
100
AcDbEntity
  8
0
 62
     0
100
AcDbLine
 10
5802.681886204646
 20
4589.934701337823
 30
0.0
 11
5822.930610734529
 21
4589.934701337823
 31
0.0
  0
LINE
  5
A003
330
1F
100
AcDbEntity
  8
0
 62
     0
100
AcDbLine
 10
5868.232209755614
 20
4606.934701337823
 30
0.0
 11
5846.742887850353
 21
4604.23713088228
 31
0.0
  0
LINE
  5
A004
330
1F
100
AcDbEntity
  8
0
 62
     0
100
AcDbLine
 10
5869.805917922768
 20
4606.934701337823
 30
0.0
 11
5868.232209755614
 21
4606.934701337823
 31
0.0
  0
LINE
  5
A005
330
1F
100
AcDbEntity
  8
0
 62
     0
100
AcDbLine
 10
5869.805917922768
 20
4606.934701337823
 30
0.0
 11
5868.232209755614
 21
4606.934701337823
 31
0.0
  0
ARC
  5
A006
330
1F
100
AcDbEntity
  8
0
 62
     0
100
AcDbCircle
 10
5842.274568053134
 20
4602.323690106842
 30
0.0
 40
4.621430596438699
100
AcDbArc
 50
21.11048458335583
 51
93.84814721197772
  0
ARC
  5
A007
330
1F
100
AcDbEntity
  8
0
 62
     0
100
AcDbCircle
 10
5869.01906383919
 20
4593.192999581417
 30
0.0
 40
13.76421107477037
100
AcDbArc
 50
45.05262221396842
 51
93.27719545011417
  0
ARC
  5
A008
330
1F
100
AcDbEntity
  8
0
 62
     0
100
AcDbCircle
 10
5820.826472269338
 20
4620.411785180507
 30
0.0
 40
30.54963237478725
100
AcDbArc
 50
273.9494346700785
 51
328.0313641311591
  0
LINE
  5
A009
330
1F
100
AcDbEntity
  8
0
 62
     0
100
AcDbLine
 10
5771.942887850349
 20
4606.934701337823
 30
0.0
 11
5771.942887850349
 21
4604.934701337823
 31
0.0
  0
LINE
  5
A00A
330
1F
100
AcDbEntity
  8
0
 62
     0
100
AcDbLine
 10
5771.942887850349
 20
4606.934701337823
 30
0.0
 11
5779.942887850349
 21
4606.934701337823
 31
0.0
  0
ARC
  5
A00B
330
1F
100
AcDbEntity
  8
0
 62
     0
100
AcDbCircle
 10
5802.681886204646
 20
4586.934701337823
 30
0.0
 40
3.0
100
AcDbArc
 50
90.0
 51
270.0
  0
LINE
  5
A00E
330
1F
100
AcDbEntity
  8
0
 62
     0
100
AcDbLine
 10
5677.257771991452
 20
4587.078604416166
 30
0.0
 11
5677.257771991452
 21
4667.078604416166
 31
0.0
  0
LINE
  5
A00F
330
1F
100
AcDbEntity
  8
0
 62
     0
100
AcDbLine
 10
5705.942887850349
 20
4604.934701337823
 30
0.0
 11
5698.742887850352
 21
4604.934701337823
 31
0.0
  0
LINE
  5
A010
330
1F
100
AcDbEntity
  8
0
 62
     0
100
AcDbLine
 10
5698.742887850352
 20
4604.934701337823
 30
0.0
 11
5697.429863298279
 21
4604.934701337823
 31
0.0
  0
LINE
  5
A011
330
1F
100
AcDbEntity
  8
0
 62
     0
100
AcDbLine
 10
5685.257771991452
 20
4587.078604416166
 30
0.0
 11
5685.257771991452
 21
4637.078604416166
 31
0.0
  0
LINE
  5
A012
330
1F
100
AcDbEntity
  8
0
 62
     0
100
AcDbLine
 10
5685.257771991452
 20
4587.078604416166
 30
0.0
 11
5685.257771991452
 21
4647.078604416167
 31
0.0
  0
LINE
  5
A013
330
1F
100
AcDbEntity
  8
0
 62
     0
100
AcDbLine
 10
5685.257771991452
 20
4647.078604416167
 30
0.0
 11
5697.257771991452
 21
4647.078604416167
 31
0.0
  0
LINE
  5
A014
330
1F
100
AcDbEntity
  8
0
 62
     0
100
AcDbLine
 10
5676.259757467761
 20
4627.060822895666
 30
0.0
 11
5677.257771991452
 21
4626.066920465641
 31
0.0
  0
LINE
  5
A015
330
1F
100
AcDbEntity
  8
0
 62
     0
100
AcDbLine
 10
5676.259757467761
 20
4627.060822895666
 30
0.0
 11
5645.607051540017
 21
4627.060822895666
 31
0.0
  0
LINE
  5
A016
330
1F
100
AcDbEntity
  8
0
 62
     0
100
AcDbLine
 10
5671.689828808998
 20
4606.973647149507
 30
0.0
 11
5677.257771991452
 21
4606.973647149507
 31
0.0
  0
LINE
  5
A017
330
1F
100
AcDbEntity
  8
0
 62
     0
100
AcDbLine
 10
5677.257771991452
 20
4587.078604416166
 30
0.0
 11
5677.257771991452
 21
4597.058834718338
 31
0.0
  0
LINE
  5
A018
330
1F
100
AcDbEntity
  8
0
 62
     0
100
AcDbLine
 10
5677.257771991452
 20
4587.078604416166
 30
0.0
 11
5677.257771991452
 21
4607.03906502051
 31
0.0
  0
LINE
  5
A019
330
1F
100
AcDbEntity
  8
0
 62
     0
100
AcDbLine
 10
5641.545913814432
 20
4587.013186545158
 30
0.0
 11
5641.545913814432
 21
4607.013186545159
 31
0.0
  0
LINE
  5
A01A
330
1F
100
AcDbEntity
  8
0
 62
     0
100
AcDbLine
 10
5641.622111429558
 20
4587.053825127981
 30
0.0
 11
5641.622111429558
 21
4607.053825127981
 31
0.0
  0
LINE
  5
A01B
330
1F
100
AcDbEntity
  8
0
 62
     0
100
AcDbLine
 10
5641.622111429558
 20
4587.053825127981
 30
0.0
 11
5641.622111429558
 21
4607.053825127981
 31
0.0
  0
LINE
  5
A01C
330
1F
100
AcDbEntity
  8
0
 62
     0
100
AcDbLine
 10
5641.616759242268
 20
4587.013186545158
 30
0.0
 11
5645.501592549914
 21
4606.632260686715
 31
0.0
  0
LINE
  5
A01D
330
1F
100
AcDbEntity
  8
0
 62
     0
100
AcDbLine
 10
5645.569191535058
 20
4606.973647149507
 30
0.0
 11
5671.689828808998
 21
4606.973647149507
 31
0.0
  0
ARC
  5
A01E
330
1F
100
AcDbEntity
  8
0
 62
     0
100
AcDbCircle
 10
5656.407106235678
 20
4616.953877451678
 30
0.0
 40
14.73313924260999
100
AcDbArc
 50
137.3591881473751
 51
222.6408118526248
  0
LINE
  5
A01F
330
1F
100
AcDbEntity
  8
0
 62
     0
100
AcDbLine
 10
5641.622111429558
 20
4587.053825127969
 30
0.0
 11
5641.622111429558
 21
4615.053825127968
 31
0.0
  0
LINE
  5
A020
330
1F
100
AcDbEntity
  8
0
 62
     0
100
AcDbLine
 10
5677.257771991452
 20
4667.078604416166
 30
0.0
 11
5685.257771991452
 21
4667.078604416166
 31
0.0
  0
LINE
  5
A02D
330
1F
100
AcDbEntity
  8
0
 62
     0
100
AcDbLine
 10
5422.074388068646
 20
4613.018135211543
 30
0.0
 11
5414.074388068645
 21
4613.018135211543
 31
0.0
  0
LINE
  5
A02E
330
1F
100
AcDbEntity
  8
0
 62
     0
100
AcDbLine
 10
5422.074388068646
 20
4613.018135211543
 30
0.0
 11
5414.074388068645
 21
4613.018135211543
 31
0.0
  0
LINE
  5
A032
330
1F
100
AcDbEntity
  8
0
 62
     0
100
AcDbLine
 10
5438.614507583607
 20
4597.96040871488
 30
0.0
 11
5441.676876333961
 21
4597.96040871488
 31
0.0
  0
LINE
  5
A033
330
1F
100
AcDbEntity
  8
0
 62
     0
100
AcDbLine
 10
5438.614507583607
 20
4576.003902050101
 30
0.0
 11
5441.676876333961
 21
4576.003902050101
 31
0.0
  0
LINE
  5
A034
330
1F
100
AcDbEntity
  8
0
 62
     0
100
AcDbLine
 10
5441.676876333961
 20
4587.018135211542
 30
0.0
 11
5441.676876333961
 21
4597.996388543932
 31
0.0
  0
LINE
  5
A035
330
1F
100
AcDbEntity
  8
0
 62
     0
100
AcDbLine
 10
5441.676876333961
 20
4587.018135211542
 30
0.0
 11
5441.676876333961
 21
4592.507261877737
 31
0.0
  0
LINE
  5
A036
330
1F
100
AcDbEntity
  8
0
 62
     0
100
AcDbLine
 10
5441.127968345925
 20
4609.008355375266
 30
0.0
 11
5441.676876333961
 21
4608.461709038756
 31
0.0
  0
LINE
  5
A037
330
1F
100
AcDbEntity
  8
0
 62
     0
100
AcDbLine
 10
5441.676876333961
 20
4587.018135211542
 30
0.0
 11
5441.676876333961
 21
4599.018135211543
 31
0.0
  0
LINE
  5
A038
330
1F
100
AcDbEntity
  8
0
 62
     0
100
AcDbLine
 10
5424.248157082937
 20
4576.003902050101
 30
0.0
 11
5438.614507583607
 21
4576.003902050101
 31
0.0
  0
LINE
  5
A039
330
1F
100
AcDbEntity
  8
0
 62
     0
100
AcDbLine
 10
5424.248157082937
 20
4597.96040871488
 30
0.0
 11
5438.614507583607
 21
4597.96040871488
 31
0.0
  0
LINE
  5
A03A
330
1F
100
AcDbEntity
  8
0
 62
     0
100
AcDbLine
 10
5441.127968345925
 20
4609.008355375266
 30
0.0
 11
5424.268980085671
 21
4609.008355375266
 31
0.0
  0
LINE
  5
A03D
330
1F
100
AcDbEntity
  8
0
 62
     0
100
AcDbLine
 10
5422.074388068646
 20
4587.018135211542
 30
0.0
 11
5422.074388068646
 21
4613.018135211543
 31
0.0
  0
ARC
  5
A03E
330
1F
100
AcDbEntity
  8
0
 62
     0
100
AcDbCircle
 10
5430.20901016828
 20
4603.449535381074
 30
0.0
 40
8.103226583435498
100
AcDbArc
 50
137.3591881473751
 51
222.6408118526248
  0
ARC
  5
A03F
330
1F
100
AcDbEntity
  8
0
 62
     0
100
AcDbCircle
 10
5450.374649927045
 20
4586.982155382491
 30
0.0
 40
28.33929559045225
100
AcDbArc
 50
157.208038552044
 51
202.7919614479559
  0
LWPOLYLINE
  5
A040
330
1F
100
AcDbEntity
  8
0
 62
     0
100
AcDbPolyline
 90
        3
 70
     0
 43
0.0
 10
5414.07438806865
 20
4613.018135211545
 10
5403.132789042397
 20
4616.114733287282
 10
5414.07438806865
 20
4613.018135211545
  0
LINE
  5
A088
330
1F
100
AcDbEntity
  8
0
 62
     0
100
AcDbLine
 10
5697.257771991452
 20
4537.078604416168
 30
0.0
 11
5697.257771991452
 21
4461.316453597254
 31
0.0
  0
LINE
  5
A0C9
330
1F
100
AcDbEntity
  8
0
 62
     0
100
AcDbLine
 10
5771.770796543522
 20
4604.934701337824
 30
0.0
 11
5705.770796543522
 21
4604.934701337824
 31
0.0
  0
LINE
  5
A0CA
330
1F
100
AcDbEntity
  8
0
 62
     0
100
AcDbLine
 10
5771.770796543522
 20
4568.934701337824
 30
0.0
 11
5705.770796543522
 21
4568.934701337824
 31
0.0
  0
LINE
  5
A0CB
330
1F
100
AcDbEntity
  8
0
 62
     0
100
AcDbLine
 10
5779.770796543522
 20
4606.934701337825
 30
0.0
 11
5779.770796543522
 21
4570.541300087509
 31
0.0
  0
LINE
  5
A0CC
330
1F
100
AcDbEntity
  8
0
 62
     0
100
AcDbLine
 10
5771.770796543522
 20
4606.934701337825
 30
0.0
 11
5771.770796543522
 21
4566.934701337824
 31
0.0
  0
ARC
  5
A0CD
330
1F
100
AcDbEntity
  8
0
 62
     0
100
AcDbCircle
 10
5820.654380962511
 20
4620.411785180509
 30
0.0
 40
30.54963237478725
100
AcDbArc
 50
273.9494346700785
 51
328.0313641311591
  0
ARC
  5
A0CE
330
1F
100
AcDbEntity
  8
0
 62
     0
100
AcDbCircle
 10
5868.846972532363
 20
4593.192999581421
 30
0.0
 40
13.76421107477037
100
AcDbArc
 50
45.05262221396842
 51
93.27719545011417
  0
LINE
  5
A0CF
330
1F
100
AcDbEntity
  8
0
 62
     0
100
AcDbLine
 10
5802.509794897819
 20
4583.934701337824
 30
0.0
 11
5823.16349650922
 21
4583.934701337824
 31
0.0
  0
LINE
  5
A0D0
330
1F
100
AcDbEntity
  8
0
 62
     0
100
AcDbLine
 10
5802.509794897819
 20
4589.934701337824
 30
0.0
 11
5822.758519427702
 21
4589.934701337824
 31
0.0
  0
LINE
  5
A0D1
330
1F
100
AcDbEntity
  8
0
 62
     0
100
AcDbLine
 10
5771.770796543522
 20
4566.934701337824
 30
0.0
 11
5844.024413341405
 21
4566.934701337824
 31
0.0
  0
ARC
  5
A0D2
330
1F
100
AcDbEntity
  8
0
 62
     0
100
AcDbCircle
 10
5842.908367494321
 20
4570.699918773633
 30
0.0
 40
3.927138993174281
100
AcDbArc
 50
253.4896813575782
 51
338.8429642585263
  0
LINE
  5
A0D3
330
1F
100
AcDbEntity
  8
0
 62
     0
100
AcDbLine
 10
5868.060118448786
 20
4566.934701337824
 30
0.0
 11
5846.570796543525
 21
4569.282514762326
 31
0.0
  0
LINE
  5
A0D4
330
1F
100
AcDbEntity
  8
0
 62
     0
100
AcDbLine
 10
5868.060118448786
 20
4566.934701337824
 30
0.0
 11
5869.794089994928
 21
4566.934701337824
 31
0.0
  0
ARC
  5
A0D5
330
1F
100
AcDbEntity
  8
0
 62
     0
100
AcDbCircle
 10
5869.794089994928
 20
4578.187691402494
 30
0.0
 40
11.38580004735585
100
AcDbArc
 50
261.2401983393213
 51
320.4299839966683
  0
ARC
  5
A0D6
330
1F
100
AcDbEntity
  8
0
 62
     0
100
AcDbCircle
 10
5822.530281147087
 20
4556.888196873358
 30
0.0
 40
27.04746746849392
100
AcDbArc
 50
27.27380201547615
 51
89.51650758353483
  0
LINE
  5
A0D7
330
1F
100
AcDbEntity
  8
0
 62
     0
100
AcDbLine
 10
5878.570796543525
 20
4570.934701337825
 30
0.0
 11
5878.570796543525
 21
4602.934701337825
 31
0.0
  0
ARC
  5
A0D8
330
1F
100
AcDbEntity
  8
0
 62
     0
100
AcDbCircle
 10
5802.509794897819
 20
4586.934701337824
 30
0.0
 40
3.0
100
AcDbArc
 50
90.0
 51
270.0
  0
LINE
  5
A0D9
330
1F
100
AcDbEntity
  8
0
 62
     0
100
AcDbLine
 10
5771.770796543522
 20
4566.934701337824
 30
0.0
 11
5771.770796543522
 21
4568.934701337824
 31
0.0
  0
LINE
  5
A0DA
330
1F
100
AcDbEntity
  8
0
 62
     0
100
AcDbLine
 10
5779.770796543522
 20
4570.541300087509
 30
0.0
 11
5779.770796543522
 21
4566.934701337824
 31
0.0
  0
LINE
  5
A0DB
330
1F
100
AcDbEntity
  8
0
 62
     0
100
AcDbLine
 10
5842.412631845374
 20
4606.934701337825
 30
0.0
 11
5771.770796543522
 21
4606.934701337825
 31
0.0
  0
LINE
  5
A0DC
330
1F
100
AcDbEntity
  8
0
 62
     0
100
AcDbLine
 10
5842.412631845374
 20
4606.934701337825
 30
0.0
 11
5771.770796543522
 21
4606.934701337825
 31
0.0
  0
ARC
  5
A0DD
330
1F
100
AcDbEntity
  8
0
 62
     0
100
AcDbCircle
 10
5842.102476746306
 20
4602.323690106845
 30
0.0
 40
4.621430596438699
100
AcDbArc
 50
21.11048458335583
 51
93.84814721197772
  0
LINE
  5
A0DE
330
1F
100
AcDbEntity
  8
0
 62
     0
100
AcDbLine
 10
5868.060118448786
 20
4606.934701337825
 30
0.0
 11
5846.570796543525
 21
4604.23713088228
 31
0.0
  0
LINE
  5
A0DF
330
1F
100
AcDbEntity
  8
0
 62
     0
100
AcDbLine
 10
5869.63382661594
 20
4606.934701337825
 30
0.0
 11
5868.060118448786
 21
4606.934701337825
 31
0.0
  0
LINE
  5
A0E0
330
1F
100
AcDbEntity
  8
0
 62
     0
100
AcDbLine
 10
5869.63382661594
 20
4606.934701337825
 30
0.0
 11
5868.060118448786
 21
4606.934701337825
 31
0.0
  0
LINE
  5
A0E1
330
1F
100
AcDbEntity
  8
0
 62
     0
100
AcDbLine
 10
5771.770796543522
 20
4606.934701337825
 30
0.0
 11
5771.770796543522
 21
4604.934701337824
 31
0.0
  0
LINE
  5
A0E2
330
1F
100
AcDbEntity
  8
0
 62
     0
100
AcDbLine
 10
5771.770796543522
 20
4606.934701337825
 30
0.0
 11
5779.770796543522
 21
4606.934701337825
 31
0.0
  0
LINE
  5
A0E3
330
1F
100
AcDbEntity
  8
0
 62
     0
100
AcDbLine
 10
5697.257771991452
 20
4637.078604416169
 30
0.0
 11
5697.257771991452
 21
4718.419777063969
 31
0.0
  0
LINE
  5
A0E6
330
1F
100
AcDbEntity
  8
0
 48
0.5
100
AcDbLine
 10
5697.257771991452
 20
4569.0916717525
 30
0.0
 11
5697.257771991452
 21
4604.934701337824
 31
0.0
  0
LINE
  5
A0F3
330
1F
100
AcDbEntity
  8
0
 62
     0
100
AcDbLine
 10
5697.257771991452
 20
4637.078604416169
 30
0.0
 11
5697.257771991452
 21
4537.078604416168
 31
0.0
  0
LINE
  5
A0F4
330
1F
100
AcDbEntity
  8
0
 62
     0
100
AcDbLine
 10
5697.257771991452
 20
4569.0916717525
 30
0.0
 11
5697.331334541446
 21
4568.934701337824
 31
0.0
  0
LINE
  5
A0F5
330
1F
100
AcDbEntity
  8
0
 62
     0
100
AcDbLine
 10
5698.570796543525
 20
4568.934701337824
 30
0.0
 11
5697.331334541446
 21
4568.934701337824
 31
0.0
  0
LINE
  5
A0F6
330
1F
100
AcDbEntity
  8
0
 62
     0
100
AcDbLine
 10
5705.770796543522
 20
4568.934701337824
 30
0.0
 11
5698.570796543525
 21
4568.934701337824
 31
0.0
  0
LINE
  5
A101
330
1F
100
AcDbEntity
  8
0
 62
     0
100
AcDbLine
 10
5705.770796543522
 20
4604.934701337824
 30
0.0
 11
5698.570796543525
 21
4604.934701337824
 31
0.0
  0
LINE
  5
A102
330
1F
100
AcDbEntity
  8
0
 62
     0
100
AcDbLine
 10
5698.570796543525
 20
4604.934701337824
 30
0.0
 11
5697.257771991452
 21
4604.934701337824
 31
0.0
  0
LINE
  5
A1EC
330
1F
100
AcDbEntity
  8
0
 62
     0
100
AcDbLine
 10
2951.946638669824
 20
4604.619331812265
 30
0.0
 11
2944.881471893213
 21
4611.689028154915
 31
0.0
  0
LINE
  5
A1ED
330
1F
100
AcDbEntity
  8
0
 62
     0
 48
0.5
100
AcDbLine
 10
2944.065473106981
 20
4603.801675089798
 30
0.0
 11
2936.640851904522
 21
4611.226296292255
 31
0.0
  0
LINE
  5
A1F3
330
1F
100
AcDbEntity
  8
0
 62
     0
100
AcDbLine
 10
2932.648773638209
 20
4599.4484844614
 30
0.0
 11
2939.713940414821
 21
4592.378788118748
 31
0.0
  0
LINE
  5
A1F4
330
1F
100
AcDbEntity
  8
0
 62
     0
 48
0.5
100
AcDbLine
 10
2933.10531799859
 20
4607.690762386323
 30
0.0
 11
2947.954560403507
 21
4592.841519981406
 31
0.0
  0
LINE
  5
A1F8
330
1F
100
AcDbEntity
  8
0
 62
     0
100
AcDbLine
 10
2939.713940414821
 20
4592.378788118748
 30
0.0
 11
2940.454176618472
 21
4592.577133811725
 31
0.0
  0
LINE
  5
A1F9
330
1F
100
AcDbEntity
  8
0
 62
     0
100
AcDbLine
 10
2939.713940414821
 20
4592.378788118748
 30
0.0
 11
2940.454176618472
 21
4592.577133811725
 31
0.0
  0
LINE
  5
A1FB
330
1F
100
AcDbEntity
  8
0
 62
     0
100
AcDbLine
 10
2951.771007296583
 20
4603.963025413488
 30
0.0
 11
2951.946638669824
 21
4604.619331812265
 31
0.0
  0
ARC
  5
A1FE
330
1F
100
AcDbEntity
  8
0
 62
     0
 48
0.5
100
AcDbCircle
 10
2942.297706154015
 20
4602.033908136831
 30
0.0
 40
6.3
100
AcDbArc
 50
281.2147267221793
 51
291.6201318843042
  0
ARC
  5
A203
330
1F
100
AcDbEntity
  8
0
 62
     0
 48
0.5
100
AcDbCircle
 10
2942.297706154015
 20
4602.033908136831
 30
0.0
 40
6.3
100
AcDbArc
 50
338.3798681156957
 51
349.4471266145595
  0
ARC
  5
A206
330
1F
100
AcDbEntity
  8
0
 62
     0
 48
0.5
100
AcDbCircle
 10
2949.722327356474
 20
4594.609286934372
 30
0.0
 40
2.5
100
AcDbArc
 50
225.0
 51
45.0
  0
LINE
  5
A207
330
1F
100
AcDbEntity
  8
0
 62
     0
 48
0.5
100
AcDbLine
 10
2951.490094309439
 20
4596.377053887339
 30
0.0
 11
2944.065473106981
 21
4603.801675089798
 31
0.0
  0
LINE
  5
A20C
330
1F
100
AcDbEntity
  8
0
 62
     0
100
AcDbLine
 10
2934.485192364377
 20
4606.310888020535
 30
0.0
 11
2932.648773638209
 21
4599.4484844614
 31
0.0
  0
LINE
  5
A20D
330
1F
100
AcDbEntity
  8
0
 62
     0
100
AcDbLine
 10
2944.881471893213
 20
4611.689028154915
 30
0.0
 11
2938.017354700424
 21
4609.849793496355
 31
0.0
  0
LINE
  5
A20E
330
1F
100
AcDbEntity
  8
0
 62
     0
100
AcDbLine
 10
2944.881471893213
 20
4611.689028154915
 30
0.0
 11
2938.017354700424
 21
4609.849793496355
 31
0.0
  0
ARC
  5
A20F
330
1F
100
AcDbEntity
  8
0
 62
     0
 48
0.5
100
AcDbCircle
 10
2934.873084951556
 20
4609.45852933929
 30
0.0
 40
2.5
100
AcDbArc
 50
45.0
 51
225.0
  0
DIMENSION
  5
D9E2
330
1F
100
AcDbEntity
  8
0
 62
     0
 48
12.0
100
AcDbDimension
  2
*D2
 10
4942.297706154015
 20
4799.082217183337
 30
0.0
 11
3942.297706154015
 21
4839.082217183337
 31
0.0
 70
    33
 71
     5
 42
2000.0
  3
ISO-25
100
AcDbAlignedDimension
 13
2942.297706154015
 23
4622.03390813683
 33
0.0
 14
4942.297706154015
 24
4622.03390813683
 34
0.0
  0
DIMENSION
  5
D9EF
330
1F
100
AcDbEntity
  8
0
 62
     0
 48
12.0
100
AcDbDimension
  2
*D3
 10
2684.575101356414
 20
1604.033733487562
 30
0.0
 11
2644.764155515071
 21
3101.38386019245
 31
0.0
 70
    33
  1
3000
 71
     5
 42
2994.690176530404
  3
ISO-25
100
AcDbAlignedDimension
 13
2922.57857237745
 23
4598.693883720459
 33
0.0
 14
2922.200464697791
 24
1604.003731059871
 34
0.0
  0
ARC
  5
DA5A
330
1F
100
AcDbEntity
  8
0
 62
     0
 48
12.0
100
AcDbCircle
 10
2942.297706154015
 20
4602.033908136831
 30
0.0
 40
6.300000000000106
100
AcDbArc
 50
338.3798681157138
 51
111.6201318842861
  0
ARC
  5
DA5D
330
1F
100
AcDbEntity
  8
0
 62
     0
 48
12.0
100
AcDbCircle
 10
2942.297706154015
 20
4602.033908136831
 30
0.0
 40
8.305611164942092
100
AcDbArc
 50
332.5177551930745
 51
117.4822448069255
  0
LINE
  5
DA5F
330
1F
100
AcDbEntity
  8
0
 62
     0
 48
12.0
100
AcDbLine
 10
2946.387304399143
 20
4594.40877598577
 30
0.0
 11
2940.454176618472
 21
4592.577133811725
 31
0.0
  0
LINE
  5
DA60
330
1F
100
AcDbEntity
  8
0
 62
     0
 48
12.0
100
AcDbLine
 10
2949.922838305076
 20
4597.944309891703
 30
0.0
 11
2951.771007296583
 21
4603.963025413488
 31
0.0
  0
ARC
  5
DA61
330
1F
100
AcDbEntity
  8
0
 62
     0
 48
12.0
100
AcDbCircle
 10
2942.297706154015
 20
4602.033908136831
 30
0.0
 40
6.300000000000106
100
AcDbArc
 50
158.3798681157138
 51
291.6201318842861
  0
ARC
  5
DA62
330
1F
100
AcDbEntity
  8
0
 62
     0
 48
12.0
100
AcDbCircle
 10
2942.297706154015
 20
4602.033908136831
 30
0.0
 40
8.305611164942092
100
AcDbArc
 50
152.5177551930745
 51
297.4822448069255
  0
CIRCLE
  5
DA63
330
1F
100
AcDbEntity
  8
0
 62
     0
 48
12.0
100
AcDbCircle
 10
2942.297706154015
 20
4602.033908136831
 30
0.0
 40
20.00000000000014
  0
CIRCLE
  5
DA64
330
1F
100
AcDbEntity
  8
0
 62
     0
 48
12.0
100
AcDbCircle
 10
2942.297706154014
 20
1602.033908136831
 30
0.0
 40
20.00000000000014
  0
ARC
  5
DA65
330
1F
100
AcDbEntity
  8
0
 62
     0
 48
12.0
100
AcDbCircle
 10
2942.297706154014
 20
1602.033908136831
 30
0.0
 40
8.305611164942092
100
AcDbArc
 50
242.5177551930745
 51
27.48224480692549
  0
ARC
  5
DA66
330
1F
100
AcDbEntity
  8
0
 62
     0
 48
12.0
100
AcDbCircle
 10
2942.297706154014
 20
1602.033908136831
 30
0.0
 40
8.305611164942092
100
AcDbArc
 50
62.51775519307448
 51
207.4822448069254
  0
ARC
  5
DA67
330
1F
100
AcDbEntity
  8
0
 62
     0
 48
12.0
100
AcDbCircle
 10
2942.297706154014
 20
1602.033908136831
 30
0.0
 40
6.300000000000106
100
AcDbArc
 50
248.3798681157138
 51
21.6201318842861
  0
ARC
  5
DA68
330
1F
100
AcDbEntity
  8
0
 62
     0
 48
12.0
100
AcDbCircle
 10
2942.297706154014
 20
1602.033908136831
 30
0.0
 40
6.300000000000106
100
AcDbArc
 50
68.37986811571386
 51
201.6201318842861
  0
LINE
  5
DA69
330
1F
100
AcDbEntity
  8
0
 62
     0
 48
0.5
100
AcDbLine
 10
2936.640851904522
 20
1592.841519981406
 30
0.0
 11
2944.06547310698
 21
1600.266141183865
 31
0.0
  0
LINE
  5
DA6A
330
1F
100
AcDbEntity
  8
0
 62
     0
100
AcDbLine
 10
2939.712282478582
 20
1611.682840652637
 30
0.0
 11
2932.642586135931
 21
1604.617673876026
 31
0.0
  0
LINE
  5
DA6B
330
1F
100
AcDbEntity
  8
0
 62
     0
100
AcDbLine
 10
2944.883129829447
 20
1592.384975621023
 30
0.0
 11
2951.952826172098
 21
1599.450142397634
 31
0.0
  0
LINE
  5
DA6C
330
1F
100
AcDbEntity
  8
0
 62
     0
 48
0.5
100
AcDbLine
 10
2947.954560403506
 20
1611.226296292257
 30
0.0
 11
2933.105317998589
 21
1596.377053887339
 31
0.0
  0
LINE
  5
DA6D
330
1F
100
AcDbEntity
  8
0
 62
     0
 48
12.0
100
AcDbLine
 10
2938.208107908886
 20
1594.40877598577
 30
0.0
 11
2944.226823430671
 21
1592.560606994263
 31
0.0
  0
LINE
  5
DA6E
330
1F
100
AcDbEntity
  8
0
 62
     0
 48
12.0
100
AcDbLine
 10
2934.672574002953
 20
1597.944309891703
 30
0.0
 11
2932.840931828908
 21
1603.877437672374
 31
0.0
  0
ARC
  5
DA6F
330
1F
100
AcDbEntity
  8
0
 62
     0
 48
0.5
100
AcDbCircle
 10
2934.873084951555
 20
1594.609286934373
 30
0.0
 40
2.5
100
AcDbArc
 50
135.0
 51
315.0
  0
ARC
  5
DA70
330
1F
100
AcDbEntity
  8
0
 62
     0
 48
0.5
100
AcDbCircle
 10
2942.297706154014
 20
1602.033908136831
 30
0.0
 40
6.3
100
AcDbArc
 50
248.3798681156957
 51
259.4471266145595
  0
ARC
  5
DA71
330
1F
100
AcDbEntity
  8
0
 62
     0
 48
0.5
100
AcDbCircle
 10
2942.297706154014
 20
1602.033908136831
 30
0.0
 40
6.3
100
AcDbArc
 50
191.2147267221793
 51
201.6201318843042
  0
LINE
  5
DA72
330
1F
100
AcDbEntity
  8
0
 62
     0
100
AcDbLine
 10
2944.226823430671
 20
1592.560606994263
 30
0.0
 11
2944.883129829447
 21
1592.384975621023
 31
0.0
  0
LINE
  5
DA73
330
1F
100
AcDbEntity
  8
0
 62
     0
100
AcDbLine
 10
2932.642586135931
 20
1604.617673876026
 30
0.0
 11
2932.840931828908
 21
1603.877437672374
 31
0.0
  0
LINE
  5
DA74
330
1F
100
AcDbEntity
  8
0
 62
     0
100
AcDbLine
 10
2932.642586135931
 20
1604.617673876026
 30
0.0
 11
2932.840931828908
 21
1603.877437672374
 31
0.0
  0
LINE
  5
DA75
330
1F
100
AcDbEntity
  8
0
 62
     0
100
AcDbLine
 10
2951.952826172098
 20
1599.450142397634
 30
0.0
 11
2950.113591513538
 21
1606.314259590422
 31
0.0
  0
LINE
  5
DA76
330
1F
100
AcDbEntity
  8
0
 62
     0
100
AcDbLine
 10
2951.952826172098
 20
1599.450142397634
 30
0.0
 11
2950.113591513538
 21
1606.314259590422
 31
0.0
  0
LINE
  5
DA77
330
1F
100
AcDbEntity
  8
0
 62
     0
100
AcDbLine
 10
2946.574686037718
 20
1609.846421926469
 30
0.0
 11
2939.712282478582
 21
1611.682840652637
 31
0.0
  0
ARC
  5
DA78
330
1F
100
AcDbEntity
  8
0
 62
     0
 48
0.5
100
AcDbCircle
 10
2949.722327356473
 20
1609.45852933929
 30
0.0
 40
2.5
100
AcDbArc
 50
315.0
 51
135.0
  0
LINE
  5
DA79
330
1F
100
AcDbEntity
  8
0
 62
     0
 48
0.5
100
AcDbLine
 10
2944.06547310698
 20
1600.266141183865
 30
0.0
 11
2951.490094309439
 21
1607.690762386324
 31
0.0
  0
ARC
  5
DA8B
330
1F
100
AcDbEntity
  8
0
 62
     0
 48
12.0
100
AcDbCircle
 10
5360.08234751943
 20
4587.018066694787
 30
0.0
 40
52.00749785598945
100
AcDbArc
 50
34.05373124591843
 51
256.9194599184392
  0
CIRCLE
  5
DE75
330
1F
100
AcDbEntity
  8
0
 62
     0
 48
12.0
100
AcDbCircle
 10
4942.297706154015
 20
1602.033908136831
 30
0.0
 40
20.00000000000014
  0
ARC
  5
DE76
330
1F
100
AcDbEntity
  8
0
 62
     0
 48
12.0
100
AcDbCircle
 10
4942.297706154015
 20
1602.033908136831
 30
0.0
 40
8.305611164942092
100
AcDbArc
 50
332.5177551930745
 51
117.4822448069255
  0
ARC
  5
DE77
330
1F
100
AcDbEntity
  8
0
 62
     0
 48
12.0
100
AcDbCircle
 10
4942.297706154015
 20
1602.033908136831
 30
0.0
 40
8.305611164942092
100
AcDbArc
 50
152.5177551930745
 51
297.4822448069255
  0
ARC
  5
DE78
330
1F
100
AcDbEntity
  8
0
 62
     0
 48
12.0
100
AcDbCircle
 10
4942.297706154015
 20
1602.033908136831
 30
0.0
 40
6.300000000000106
100
AcDbArc
 50
338.3798681157138
 51
111.6201318842861
  0
ARC
  5
DE79
330
1F
100
AcDbEntity
  8
0
 62
     0
 48
12.0
100
AcDbCircle
 10
4942.297706154015
 20
1602.033908136831
 30
0.0
 40
6.300000000000106
100
AcDbArc
 50
158.3798681157138
 51
291.6201318842861
  0
LINE
  5
DE7A
330
1F
100
AcDbEntity
  8
0
 62
     0
 48
0.5
100
AcDbLine
 10
4951.49009430944
 20
1596.37705388734
 30
0.0
 11
4944.065473106982
 21
1603.801675089798
 31
0.0
  0
LINE
  5
DE7B
330
1F
100
AcDbEntity
  8
0
 62
     0
100
AcDbLine
 10
4932.648773638209
 20
1599.4484844614
 30
0.0
 11
4939.713940414821
 21
1592.378788118748
 31
0.0
  0
LINE
  5
DE7C
330
1F
100
AcDbEntity
  8
0
 62
     0
100
AcDbLine
 10
4951.946638669824
 20
1604.619331812265
 30
0.0
 11
4944.881471893213
 21
1611.689028154916
 31
0.0
  0
LINE
  5
DE7D
330
1F
100
AcDbEntity
  8
0
 62
     0
 48
0.5
100
AcDbLine
 10
4933.10531799859
 20
1607.690762386323
 30
0.0
 11
4947.954560403507
 21
1592.841519981406
 31
0.0
  0
LINE
  5
DE7E
330
1F
100
AcDbEntity
  8
0
 62
     0
 48
12.0
100
AcDbLine
 10
4949.922838305076
 20
1597.944309891703
 30
0.0
 11
4951.771007296584
 21
1603.963025413489
 31
0.0
  0
LINE
  5
DE7F
330
1F
100
AcDbEntity
  8
0
 62
     0
 48
12.0
100
AcDbLine
 10
4946.387304399143
 20
1594.40877598577
 30
0.0
 11
4940.454176618472
 21
1592.577133811725
 31
0.0
  0
ARC
  5
DE80
330
1F
100
AcDbEntity
  8
0
 62
     0
 48
0.5
100
AcDbCircle
 10
4949.722327356474
 20
1594.609286934373
 30
0.0
 40
2.5
100
AcDbArc
 50
225.0
 51
45.0
  0
ARC
  5
DE81
330
1F
100
AcDbEntity
  8
0
 62
     0
 48
0.5
100
AcDbCircle
 10
4942.297706154015
 20
1602.033908136831
 30
0.0
 40
6.3
100
AcDbArc
 50
338.3798681156957
 51
349.4471266145595
  0
ARC
  5
DE82
330
1F
100
AcDbEntity
  8
0
 62
     0
 48
0.5
100
AcDbCircle
 10
4942.297706154015
 20
1602.033908136831
 30
0.0
 40
6.3
100
AcDbArc
 50
281.2147267221793
 51
291.6201318843042
  0
LINE
  5
DE83
330
1F
100
AcDbEntity
  8
0
 62
     0
100
AcDbLine
 10
4951.771007296584
 20
1603.963025413489
 30
0.0
 11
4951.946638669824
 21
1604.619331812265
 31
0.0
  0
LINE
  5
DE84
330
1F
100
AcDbEntity
  8
0
 62
     0
100
AcDbLine
 10
4939.713940414821
 20
1592.378788118748
 30
0.0
 11
4940.454176618472
 21
1592.577133811725
 31
0.0
  0
LINE
  5
DE85
330
1F
100
AcDbEntity
  8
0
 62
     0
100
AcDbLine
 10
4939.713940414821
 20
1592.378788118748
 30
0.0
 11
4940.454176618472
 21
1592.577133811725
 31
0.0
  0
LINE
  5
DE86
330
1F
100
AcDbEntity
  8
0
 62
     0
100
AcDbLine
 10
4944.881471893213
 20
1611.689028154916
 30
0.0
 11
4938.017354700424
 21
1609.849793496355
 31
0.0
  0
LINE
  5
DE87
330
1F
100
AcDbEntity
  8
0
 62
     0
100
AcDbLine
 10
4944.881471893213
 20
1611.689028154916
 30
0.0
 11
4938.017354700424
 21
1609.849793496355
 31
0.0
  0
LINE
  5
DE88
330
1F
100
AcDbEntity
  8
0
 62
     0
100
AcDbLine
 10
4934.485192364378
 20
1606.310888020535
 30
0.0
 11
4932.648773638209
 21
1599.4484844614
 31
0.0
  0
ARC
  5
DE89
330
1F
100
AcDbEntity
  8
0
 62
     0
 48
0.5
100
AcDbCircle
 10
4934.873084951556
 20
1609.45852933929
 30
0.0
 40
2.5
100
AcDbArc
 50
45.0
 51
225.0
  0
LINE
  5
DE8A
330
1F
100
AcDbEntity
  8
0
 62
     0
 48
0.5
100
AcDbLine
 10
4944.065473106982
 20
1603.801675089798
 30
0.0
 11
4936.640851904523
 21
1611.226296292256
 31
0.0
  0
LINE
  5
DE8B
330
1F
100
AcDbEntity
  8
0
 62
     0
 48
0.5
100
AcDbLine
 10
4947.954560403507
 20
4611.226296292255
 30
0.0
 11
4933.10531799859
 21
4596.377053887339
 31
0.0
  0
LINE
  5
DE8C
330
1F
100
AcDbEntity
  8
0
 62
     0
100
AcDbLine
 10
4944.883129829448
 20
4592.384975621023
 30
0.0
 11
4951.952826172099
 21
4599.450142397635
 31
0.0
  0
LINE
  5
DE8D
330
1F
100
AcDbEntity
  8
0
 62
     0
100
AcDbLine
 10
4939.712282478584
 20
4611.682840652636
 30
0.0
 11
4932.642586135933
 21
4604.617673876026
 31
0.0
  0
LINE
  5
DE8E
330
1F
100
AcDbEntity
  8
0
 62
     0
 48
0.5
100
AcDbLine
 10
4936.640851904524
 20
4592.841519981406
 30
0.0
 11
4944.065473106982
 21
4600.266141183865
 31
0.0
  0
ARC
  5
DE8F
330
1F
100
AcDbEntity
  8
0
 62
     0
 48
12.0
100
AcDbCircle
 10
4942.297706154016
 20
4602.033908136831
 30
0.0
 40
6.300000000000106
100
AcDbArc
 50
68.37986811571386
 51
201.6201318842861
  0
ARC
  5
DE90
330
1F
100
AcDbEntity
  8
0
 62
     0
 48
12.0
100
AcDbCircle
 10
4942.297706154016
 20
4602.033908136831
 30
0.0
 40
6.300000000000106
100
AcDbArc
 50
248.3798681157138
 51
21.6201318842861
  0
ARC
  5
DE91
330
1F
100
AcDbEntity
  8
0
 62
     0
 48
12.0
100
AcDbCircle
 10
4942.297706154016
 20
4602.033908136831
 30
0.0
 40
8.305611164942092
100
AcDbArc
 50
62.51775519307448
 51
207.4822448069254
  0
ARC
  5
DE92
330
1F
100
AcDbEntity
  8
0
 62
     0
 48
12.0
100
AcDbCircle
 10
4942.297706154016
 20
4602.033908136831
 30
0.0
 40
8.305611164942092
100
AcDbArc
 50
242.5177551930745
 51
27.48224480692549
  0
CIRCLE
  5
DE93
330
1F
100
AcDbEntity
  8
0
 62
     0
 48
12.0
100
AcDbCircle
 10
4942.297706154016
 20
4602.033908136831
 30
0.0
 40
20.00000000000014
  0
LINE
  5
DE94
330
1F
100
AcDbEntity
  8
0
 62
     0
100
AcDbLine
 10
4932.642586135933
 20
4604.617673876026
 30
0.0
 11
4932.840931828909
 21
4603.877437672374
 31
0.0
  0
LINE
  5
DE95
330
1F
100
AcDbEntity
  8
0
 62
     0
100
AcDbLine
 10
4932.642586135933
 20
4604.617673876026
 30
0.0
 11
4932.840931828909
 21
4603.877437672374
 31
0.0
  0
LINE
  5
DE96
330
1F
100
AcDbEntity
  8
0
 62
     0
100
AcDbLine
 10
4944.226823430672
 20
4592.560606994262
 30
0.0
 11
4944.883129829448
 21
4592.384975621023
 31
0.0
  0
ARC
  5
DE97
330
1F
100
AcDbEntity
  8
0
 62
     0
 48
0.5
100
AcDbCircle
 10
4942.297706154016
 20
4602.033908136831
 30
0.0
 40
6.3
100
AcDbArc
 50
191.2147267221793
 51
201.6201318843042
  0
ARC
  5
DE98
330
1F
100
AcDbEntity
  8
0
 62
     0
 48
0.5
100
AcDbCircle
 10
4942.297706154016
 20
4602.033908136831
 30
0.0
 40
6.3
100
AcDbArc
 50
248.3798681156957
 51
259.4471266145595
  0
ARC
  5
DE99
330
1F
100
AcDbEntity
  8
0
 62
     0
 48
0.5
100
AcDbCircle
 10
4934.873084951557
 20
4594.609286934373
 30
0.0
 40
2.5
100
AcDbArc
 50
135.0
 51
315.0
  0
LINE
  5
DE9A
330
1F
100
AcDbEntity
  8
0
 62
     0
 48
12.0
100
AcDbLine
 10
4934.672574002954
 20
4597.944309891703
 30
0.0
 11
4932.840931828909
 21
4603.877437672374
 31
0.0
  0
LINE
  5
DE9B
330
1F
100
AcDbEntity
  8
0
 62
     0
 48
12.0
100
AcDbLine
 10
4938.208107908888
 20
4594.40877598577
 30
0.0
 11
4944.226823430672
 21
4592.560606994262
 31
0.0
  0
LINE
  5
DE9C
330
1F
100
AcDbEntity
  8
0
 62
     0
 48
0.5
100
AcDbLine
 10
4944.065473106982
 20
4600.266141183865
 30
0.0
 11
4951.49009430944
 21
4607.690762386324
 31
0.0
  0
ARC
  5
DE9D
330
1F
100
AcDbEntity
  8
0
 62
     0
 48
0.5
100
AcDbCircle
 10
4949.722327356474
 20
4609.45852933929
 30
0.0
 40
2.5
100
AcDbArc
 50
315.0
 51
135.0
  0
LINE
  5
DE9E
330
1F
100
AcDbEntity
  8
0
 62
     0
100
AcDbLine
 10
4946.574686037719
 20
4609.846421926468
 30
0.0
 11
4939.712282478584
 21
4611.682840652636
 31
0.0
  0
LINE
  5
DE9F
330
1F
100
AcDbEntity
  8
0
 62
     0
100
AcDbLine
 10
4951.952826172099
 20
4599.450142397635
 30
0.0
 11
4950.113591513539
 21
4606.314259590423
 31
0.0
  0
LINE
  5
DEA0
330
1F
100
AcDbEntity
  8
0
 62
     0
100
AcDbLine
 10
4951.952826172099
 20
4599.450142397635
 30
0.0
 11
4950.113591513539
 21
4606.314259590423
 31
0.0
  0
CIRCLE
  5
DEB7
330
1F
100
AcDbEntity
  8
0
 62
     0
 48
12.0
100
AcDbCircle
 10
3192.297706154015
 20
4602.033908136831
 30
0.0
 40
20.00000000000014
  0
ARC
  5
DEB8
330
1F
100
AcDbEntity
  8
0
 62
     0
 48
12.0
100
AcDbCircle
 10
3192.297706154015
 20
4602.033908136831
 30
0.0
 40
8.305611164942092
100
AcDbArc
 50
287.5177551930745
 51
72.48224480692551
  0
ARC
  5
DEB9
330
1F
100
AcDbEntity
  8
0
 62
     0
 48
12.0
100
AcDbCircle
 10
3192.297706154015
 20
4602.033908136831
 30
0.0
 40
8.305611164942092
100
AcDbArc
 50
107.5177551930744
 51
252.4822448069254
  0
ARC
  5
DEBA
330
1F
100
AcDbEntity
  8
0
 62
     0
 48
12.0
100
AcDbCircle
 10
3192.297706154015
 20
4602.033908136831
 30
0.0
 40
6.300000000000106
100
AcDbArc
 50
293.3798681157138
 51
66.62013188428613
  0
ARC
  5
DEBB
330
1F
100
AcDbEntity
  8
0
 62
     0
 48
12.0
100
AcDbCircle
 10
3192.297706154015
 20
4602.033908136831
 30
0.0
 40
6.300000000000106
100
AcDbArc
 50
113.3798681157138
 51
246.6201318842861
  0
LINE
  5
DEBC
330
1F
100
AcDbEntity
  8
0
 62
     0
 48
0.5
100
AcDbLine
 10
3194.797706154015
 20
4591.53390813683
 30
0.0
 11
3194.797706154015
 21
4602.033908136831
 31
0.0
  0
LINE
  5
DEBD
330
1F
100
AcDbEntity
  8
0
 62
     0
100
AcDbLine
 10
3183.64670992774
 20
4607.028563136831
 30
0.0
 11
3183.643507040877
 21
4597.033705574056
 31
0.0
  0
LINE
  5
DEBE
330
1F
100
AcDbEntity
  8
0
 62
     0
100
AcDbLine
 10
3200.948702380294
 20
4597.03925313683
 30
0.0
 11
3200.951905267156
 21
4607.034110699604
 31
0.0
  0
LINE
  5
DEBF
330
1F
100
AcDbEntity
  8
0
 62
     0
 48
0.5
100
AcDbLine
 10
3189.797706154015
 20
4612.533908136831
 30
0.0
 11
3189.797706154015
 21
4591.53390813683
 31
0.0
  0
LINE
  5
DEC0
330
1F
100
AcDbEntity
  8
0
 62
     0
 48
12.0
100
AcDbLine
 10
3194.797706154015
 20
4593.750342833913
 30
0.0
 11
3200.360433540176
 21
4596.699364566727
 31
0.0
  0
LINE
  5
DEC1
330
1F
100
AcDbEntity
  8
0
 62
     0
 48
12.0
100
AcDbLine
 10
3189.797706154015
 20
4593.750342833913
 30
0.0
 11
3184.307184664682
 21
4596.650531119297
 31
0.0
  0
ARC
  5
DEC2
330
1F
100
AcDbEntity
  8
0
 62
     0
 48
0.5
100
AcDbCircle
 10
3192.297706154015
 20
4591.53390813683
 30
0.0
 40
2.5
100
AcDbArc
 50
180.0
 51
0.0
  0
ARC
  5
DEC3
330
1F
100
AcDbEntity
  8
0
 62
     0
 48
0.5
100
AcDbCircle
 10
3192.297706154015
 20
4602.033908136831
 30
0.0
 40
6.3
100
AcDbArc
 50
293.3798681156957
 51
304.4471266145595
  0
ARC
  5
DEC4
330
1F
100
AcDbEntity
  8
0
 62
     0
 48
0.5
100
AcDbCircle
 10
3192.297706154015
 20
4602.033908136831
 30
0.0
 40
6.3
100
AcDbArc
 50
236.2147267221793
 51
246.6201318843042
  0
LINE
  5
DEC5
330
1F
100
AcDbEntity
  8
0
 62
     0
100
AcDbLine
 10
3200.360433540176
 20
4596.699364566727
 30
0.0
 11
3200.948702380294
 21
4597.03925313683
 31
0.0
  0
LINE
  5
DEC6
330
1F
100
AcDbEntity
  8
0
 62
     0
100
AcDbLine
 10
3183.643507040877
 20
4597.033705574056
 30
0.0
 11
3184.307184664682
 21
4596.650531119297
 31
0.0
  0
LINE
  5
DEC7
330
1F
100
AcDbEntity
  8
0
 62
     0
100
AcDbLine
 10
3183.643507040877
 20
4597.033705574056
 30
0.0
 11
3184.307184664682
 21
4596.650531119297
 31
0.0
  0
LINE
  5
DEC8
330
1F
100
AcDbEntity
  8
0
 62
     0
100
AcDbLine
 10
3200.951905267156
 20
4607.034110699604
 30
0.0
 11
3194.797706154015
 21
4610.587239214223
 31
0.0
  0
LINE
  5
DEC9
330
1F
100
AcDbEntity
  8
0
 62
     0
100
AcDbLine
 10
3200.951905267156
 20
4607.034110699604
 30
0.0
 11
3194.797706154015
 21
4610.587239214223
 31
0.0
  0
LINE
  5
DECA
330
1F
100
AcDbEntity
  8
0
 62
     0
100
AcDbLine
 10
3189.797706154015
 20
4610.582471094363
 30
0.0
 11
3183.64670992774
 21
4607.028563136831
 31
0.0
  0
ARC
  5
DECB
330
1F
100
AcDbEntity
  8
0
 62
     0
 48
0.5
100
AcDbCircle
 10
3192.297706154015
 20
4612.533908136831
 30
0.0
 40
2.5
100
AcDbArc
 50
0.0
 51
180.0
  0
LINE
  5
DECC
330
1F
100
AcDbEntity
  8
0
 62
     0
 48
0.5
100
AcDbLine
 10
3194.797706154015
 20
4602.033908136831
 30
0.0
 11
3194.797706154015
 21
4612.533908136831
 31
0.0
  0
CIRCLE
  5
DECD
330
1F
100
AcDbEntity
  8
0
 62
     0
 48
12.0
100
AcDbCircle
 10
3192.297706154014
 20
1602.033908136831
 30
0.0
 40
20.00000000000014
  0
LINE
  5
DECE
330
1F
100
AcDbEntity
  8
0
 62
     0
 48
0.5
100
AcDbLine
 10
3194.797706154014
 20
1602.033908136831
 30
0.0
 11
3194.797706154014
 21
1612.533908136831
 31
0.0
  0
ARC
  5
DECF
330
1F
100
AcDbEntity
  8
0
 62
     0
 48
0.5
100
AcDbCircle
 10
3192.297706154014
 20
1612.533908136831
 30
0.0
 40
2.5
100
AcDbArc
 50
0.0
 51
180.0
  0
LINE
  5
DED0
330
1F
100
AcDbEntity
  8
0
 62
     0
100
AcDbLine
 10
3189.797706154014
 20
1610.582471094363
 30
0.0
 11
3183.646709927739
 21
1607.028563136831
 31
0.0
  0
LINE
  5
DED1
330
1F
100
AcDbEntity
  8
0
 62
     0
100
AcDbLine
 10
3200.951905267156
 20
1607.034110699605
 30
0.0
 11
3194.797706154014
 21
1610.587239214223
 31
0.0
  0
LINE
  5
DED2
330
1F
100
AcDbEntity
  8
0
 62
     0
100
AcDbLine
 10
3200.951905267156
 20
1607.034110699605
 30
0.0
 11
3194.797706154014
 21
1610.587239214223
 31
0.0
  0
LINE
  5
DED3
330
1F
100
AcDbEntity
  8
0
 62
     0
100
AcDbLine
 10
3183.643507040876
 20
1597.033705574057
 30
0.0
 11
3184.307184664681
 21
1596.650531119298
 31
0.0
  0
LINE
  5
DED4
330
1F
100
AcDbEntity
  8
0
 62
     0
100
AcDbLine
 10
3183.643507040876
 20
1597.033705574057
 30
0.0
 11
3184.307184664681
 21
1596.650531119298
 31
0.0
  0
LINE
  5
DED5
330
1F
100
AcDbEntity
  8
0
 62
     0
100
AcDbLine
 10
3200.360433540175
 20
1596.699364566727
 30
0.0
 11
3200.948702380293
 21
1597.039253136831
 31
0.0
  0
ARC
  5
DED6
330
1F
100
AcDbEntity
  8
0
 62
     0
 48
0.5
100
AcDbCircle
 10
3192.297706154014
 20
1602.033908136831
 30
0.0
 40
6.3
100
AcDbArc
 50
236.2147267221793
 51
246.6201318843042
  0
ARC
  5
DED7
330
1F
100
AcDbEntity
  8
0
 62
     0
 48
0.5
100
AcDbCircle
 10
3192.297706154014
 20
1602.033908136831
 30
0.0
 40
6.3
100
AcDbArc
 50
293.3798681156957
 51
304.4471266145595
  0
ARC
  5
DED8
330
1F
100
AcDbEntity
  8
0
 62
     0
 48
0.5
100
AcDbCircle
 10
3192.297706154014
 20
1591.533908136831
 30
0.0
 40
2.5
100
AcDbArc
 50
180.0
 51
0.0
  0
LINE
  5
DED9
330
1F
100
AcDbEntity
  8
0
 62
     0
 48
12.0
100
AcDbLine
 10
3189.797706154014
 20
1593.750342833913
 30
0.0
 11
3184.307184664681
 21
1596.650531119298
 31
0.0
  0
LINE
  5
DEDA
330
1F
100
AcDbEntity
  8
0
 62
     0
 48
12.0
100
AcDbLine
 10
3194.797706154014
 20
1593.750342833913
 30
0.0
 11
3200.360433540175
 21
1596.699364566727
 31
0.0
  0
LINE
  5
DEDB
330
1F
100
AcDbEntity
  8
0
 62
     0
 48
0.5
100
AcDbLine
 10
3189.797706154014
 20
1612.533908136831
 30
0.0
 11
3189.797706154014
 21
1591.533908136831
 31
0.0
  0
LINE
  5
DEDC
330
1F
100
AcDbEntity
  8
0
 62
     0
100
AcDbLine
 10
3200.948702380293
 20
1597.039253136831
 30
0.0
 11
3200.951905267156
 21
1607.034110699605
 31
0.0
  0
LINE
  5
DEDD
330
1F
100
AcDbEntity
  8
0
 62
     0
100
AcDbLine
 10
3183.646709927739
 20
1607.028563136831
 30
0.0
 11
3183.643507040876
 21
1597.033705574057
 31
0.0
  0
LINE
  5
DEDE
330
1F
100
AcDbEntity
  8
0
 62
     0
 48
0.5
100
AcDbLine
 10
3194.797706154014
 20
1591.533908136831
 30
0.0
 11
3194.797706154014
 21
1602.033908136831
 31
0.0
  0
ARC
  5
DEDF
330
1F
100
AcDbEntity
  8
0
 62
     0
 48
12.0
100
AcDbCircle
 10
3192.297706154014
 20
1602.033908136831
 30
0.0
 40
6.300000000000106
100
AcDbArc
 50
113.3798681157138
 51
246.6201318842861
  0
ARC
  5
DEE0
330
1F
100
AcDbEntity
  8
0
 62
     0
 48
12.0
100
AcDbCircle
 10
3192.297706154014
 20
1602.033908136831
 30
0.0
 40
6.300000000000106
100
AcDbArc
 50
293.3798681157138
 51
66.62013188428613
  0
ARC
  5
DEE1
330
1F
100
AcDbEntity
  8
0
 62
     0
 48
12.0
100
AcDbCircle
 10
3192.297706154014
 20
1602.033908136831
 30
0.0
 40
8.305611164942092
100
AcDbArc
 50
107.5177551930744
 51
252.4822448069254
  0
ARC
  5
DEE2
330
1F
100
AcDbEntity
  8
0
 62
     0
 48
12.0
100
AcDbCircle
 10
3192.297706154014
 20
1602.033908136831
 30
0.0
 40
8.305611164942092
100
AcDbArc
 50
287.5177551930745
 51
72.48224480692551
  0
CIRCLE
  5
DEE3
330
1F
100
AcDbEntity
  8
0
 62
     0
 48
12.0
100
AcDbCircle
 10
3442.297706154015
 20
4602.033908136831
 30
0.0
 40
20.00000000000014
  0
ARC
  5
DEE4
330
1F
100
AcDbEntity
  8
0
 62
     0
 48
12.0
100
AcDbCircle
 10
3442.297706154015
 20
4602.033908136831
 30
0.0
 40
8.305611164942092
100
AcDbArc
 50
287.5177551930745
 51
72.48224480692551
  0
ARC
  5
DEE5
330
1F
100
AcDbEntity
  8
0
 62
     0
 48
12.0
100
AcDbCircle
 10
3442.297706154015
 20
4602.033908136831
 30
0.0
 40
8.305611164942092
100
AcDbArc
 50
107.5177551930744
 51
252.4822448069254
  0
ARC
  5
DEE6
330
1F
100
AcDbEntity
  8
0
 62
     0
 48
12.0
100
AcDbCircle
 10
3442.297706154015
 20
4602.033908136831
 30
0.0
 40
6.300000000000106
100
AcDbArc
 50
293.3798681157138
 51
66.62013188428613
  0
ARC
  5
DEE7
330
1F
100
AcDbEntity
  8
0
 62
     0
 48
12.0
100
AcDbCircle
 10
3442.297706154015
 20
4602.033908136831
 30
0.0
 40
6.300000000000106
100
AcDbArc
 50
113.3798681157138
 51
246.6201318842861
  0
LINE
  5
DEE8
330
1F
100
AcDbEntity
  8
0
 62
     0
 48
0.5
100
AcDbLine
 10
3444.797706154015
 20
4591.53390813683
 30
0.0
 11
3444.797706154015
 21
4602.033908136831
 31
0.0
  0
LINE
  5
DEE9
330
1F
100
AcDbEntity
  8
0
 62
     0
100
AcDbLine
 10
3433.64670992774
 20
4607.028563136831
 30
0.0
 11
3433.643507040876
 21
4597.033705574056
 31
0.0
  0
LINE
  5
DEEA
330
1F
100
AcDbEntity
  8
0
 62
     0
100
AcDbLine
 10
3450.948702380294
 20
4597.03925313683
 30
0.0
 11
3450.951905267157
 21
4607.034110699604
 31
0.0
  0
LINE
  5
DEEB
330
1F
100
AcDbEntity
  8
0
 62
     0
 48
0.5
100
AcDbLine
 10
3439.797706154015
 20
4612.533908136831
 30
0.0
 11
3439.797706154015
 21
4591.53390813683
 31
0.0
  0
LINE
  5
DEEC
330
1F
100
AcDbEntity
  8
0
 62
     0
 48
12.0
100
AcDbLine
 10
3444.797706154015
 20
4593.750342833913
 30
0.0
 11
3450.360433540176
 21
4596.699364566727
 31
0.0
  0
LINE
  5
DEED
330
1F
100
AcDbEntity
  8
0
 62
     0
 48
12.0
100
AcDbLine
 10
3439.797706154015
 20
4593.750342833913
 30
0.0
 11
3434.307184664681
 21
4596.650531119297
 31
0.0
  0
ARC
  5
DEEE
330
1F
100
AcDbEntity
  8
0
 62
     0
 48
0.5
100
AcDbCircle
 10
3442.297706154015
 20
4591.53390813683
 30
0.0
 40
2.5
100
AcDbArc
 50
180.0
 51
0.0
  0
ARC
  5
DEEF
330
1F
100
AcDbEntity
  8
0
 62
     0
 48
0.5
100
AcDbCircle
 10
3442.297706154015
 20
4602.033908136831
 30
0.0
 40
6.3
100
AcDbArc
 50
293.3798681156957
 51
304.4471266145595
  0
ARC
  5
DEF0
330
1F
100
AcDbEntity
  8
0
 62
     0
 48
0.5
100
AcDbCircle
 10
3442.297706154015
 20
4602.033908136831
 30
0.0
 40
6.3
100
AcDbArc
 50
236.2147267221793
 51
246.6201318843042
  0
LINE
  5
DEF1
330
1F
100
AcDbEntity
  8
0
 62
     0
100
AcDbLine
 10
3450.360433540176
 20
4596.699364566727
 30
0.0
 11
3450.948702380294
 21
4597.03925313683
 31
0.0
  0
LINE
  5
DEF2
330
1F
100
AcDbEntity
  8
0
 62
     0
100
AcDbLine
 10
3433.643507040876
 20
4597.033705574056
 30
0.0
 11
3434.307184664681
 21
4596.650531119297
 31
0.0
  0
LINE
  5
DEF3
330
1F
100
AcDbEntity
  8
0
 62
     0
100
AcDbLine
 10
3433.643507040876
 20
4597.033705574056
 30
0.0
 11
3434.307184664681
 21
4596.650531119297
 31
0.0
  0
LINE
  5
DEF4
330
1F
100
AcDbEntity
  8
0
 62
     0
100
AcDbLine
 10
3450.951905267157
 20
4607.034110699604
 30
0.0
 11
3444.797706154015
 21
4610.587239214223
 31
0.0
  0
LINE
  5
DEF5
330
1F
100
AcDbEntity
  8
0
 62
     0
100
AcDbLine
 10
3450.951905267157
 20
4607.034110699604
 30
0.0
 11
3444.797706154015
 21
4610.587239214223
 31
0.0
  0
LINE
  5
DEF6
330
1F
100
AcDbEntity
  8
0
 62
     0
100
AcDbLine
 10
3439.797706154015
 20
4610.582471094363
 30
0.0
 11
3433.64670992774
 21
4607.028563136831
 31
0.0
  0
ARC
  5
DEF7
330
1F
100
AcDbEntity
  8
0
 62
     0
 48
0.5
100
AcDbCircle
 10
3442.297706154015
 20
4612.533908136831
 30
0.0
 40
2.5
100
AcDbArc
 50
0.0
 51
180.0
  0
LINE
  5
DEF8
330
1F
100
AcDbEntity
  8
0
 62
     0
 48
0.5
100
AcDbLine
 10
3444.797706154015
 20
4602.033908136831
 30
0.0
 11
3444.797706154015
 21
4612.533908136831
 31
0.0
  0
CIRCLE
  5
DEF9
330
1F
100
AcDbEntity
  8
0
 62
     0
 48
12.0
100
AcDbCircle
 10
3442.297706154014
 20
1602.033908136831
 30
0.0
 40
20.00000000000014
  0
LINE
  5
DEFA
330
1F
100
AcDbEntity
  8
0
 62
     0
 48
0.5
100
AcDbLine
 10
3444.797706154014
 20
1602.033908136831
 30
0.0
 11
3444.797706154014
 21
1612.533908136831
 31
0.0
  0
ARC
  5
DEFB
330
1F
100
AcDbEntity
  8
0
 62
     0
 48
0.5
100
AcDbCircle
 10
3442.297706154014
 20
1612.533908136831
 30
0.0
 40
2.5
100
AcDbArc
 50
0.0
 51
180.0
  0
LINE
  5
DEFC
330
1F
100
AcDbEntity
  8
0
 62
     0
100
AcDbLine
 10
3439.797706154014
 20
1610.582471094363
 30
0.0
 11
3433.646709927739
 21
1607.028563136831
 31
0.0
  0
LINE
  5
DEFD
330
1F
100
AcDbEntity
  8
0
 62
     0
100
AcDbLine
 10
3450.951905267156
 20
1607.034110699605
 30
0.0
 11
3444.797706154014
 21
1610.587239214223
 31
0.0
  0
LINE
  5
DEFE
330
1F
100
AcDbEntity
  8
0
 62
     0
100
AcDbLine
 10
3450.951905267156
 20
1607.034110699605
 30
0.0
 11
3444.797706154014
 21
1610.587239214223
 31
0.0
  0
LINE
  5
DEFF
330
1F
100
AcDbEntity
  8
0
 62
     0
100
AcDbLine
 10
3433.643507040876
 20
1597.033705574057
 30
0.0
 11
3434.307184664681
 21
1596.650531119298
 31
0.0
  0
LINE
  5
DF00
330
1F
100
AcDbEntity
  8
0
 62
     0
100
AcDbLine
 10
3433.643507040876
 20
1597.033705574057
 30
0.0
 11
3434.307184664681
 21
1596.650531119298
 31
0.0
  0
LINE
  5
DF01
330
1F
100
AcDbEntity
  8
0
 62
     0
100
AcDbLine
 10
3450.360433540175
 20
1596.699364566727
 30
0.0
 11
3450.948702380293
 21
1597.039253136831
 31
0.0
  0
ARC
  5
DF02
330
1F
100
AcDbEntity
  8
0
 62
     0
 48
0.5
100
AcDbCircle
 10
3442.297706154014
 20
1602.033908136831
 30
0.0
 40
6.3
100
AcDbArc
 50
236.2147267221793
 51
246.6201318843042
  0
ARC
  5
DF03
330
1F
100
AcDbEntity
  8
0
 62
     0
 48
0.5
100
AcDbCircle
 10
3442.297706154014
 20
1602.033908136831
 30
0.0
 40
6.3
100
AcDbArc
 50
293.3798681156957
 51
304.4471266145595
  0
ARC
  5
DF04
330
1F
100
AcDbEntity
  8
0
 62
     0
 48
0.5
100
AcDbCircle
 10
3442.297706154014
 20
1591.533908136831
 30
0.0
 40
2.5
100
AcDbArc
 50
180.0
 51
0.0
  0
LINE
  5
DF05
330
1F
100
AcDbEntity
  8
0
 62
     0
 48
12.0
100
AcDbLine
 10
3439.797706154014
 20
1593.750342833913
 30
0.0
 11
3434.307184664681
 21
1596.650531119298
 31
0.0
  0
LINE
  5
DF06
330
1F
100
AcDbEntity
  8
0
 62
     0
 48
12.0
100
AcDbLine
 10
3444.797706154014
 20
1593.750342833913
 30
0.0
 11
3450.360433540175
 21
1596.699364566727
 31
0.0
  0
LINE
  5
DF07
330
1F
100
AcDbEntity
  8
0
 62
     0
 48
0.5
100
AcDbLine
 10
3439.797706154014
 20
1612.533908136831
 30
0.0
 11
3439.797706154014
 21
1591.533908136831
 31
0.0
  0
LINE
  5
DF08
330
1F
100
AcDbEntity
  8
0
 62
     0
100
AcDbLine
 10
3450.948702380293
 20
1597.039253136831
 30
0.0
 11
3450.951905267156
 21
1607.034110699605
 31
0.0
  0
LINE
  5
DF09
330
1F
100
AcDbEntity
  8
0
 62
     0
100
AcDbLine
 10
3433.646709927739
 20
1607.028563136831
 30
0.0
 11
3433.643507040876
 21
1597.033705574057
 31
0.0
  0
LINE
  5
DF0A
330
1F
100
AcDbEntity
  8
0
 62
     0
 48
0.5
100
AcDbLine
 10
3444.797706154014
 20
1591.533908136831
 30
0.0
 11
3444.797706154014
 21
1602.033908136831
 31
0.0
  0
ARC
  5
DF0B
330
1F
100
AcDbEntity
  8
0
 62
     0
 48
12.0
100
AcDbCircle
 10
3442.297706154014
 20
1602.033908136831
 30
0.0
 40
6.300000000000106
100
AcDbArc
 50
113.3798681157138
 51
246.6201318842861
  0
ARC
  5
DF0C
330
1F
100
AcDbEntity
  8
0
 62
     0
 48
12.0
100
AcDbCircle
 10
3442.297706154014
 20
1602.033908136831
 30
0.0
 40
6.300000000000106
100
AcDbArc
 50
293.3798681157138
 51
66.62013188428613
  0
ARC
  5
DF0D
330
1F
100
AcDbEntity
  8
0
 62
     0
 48
12.0
100
AcDbCircle
 10
3442.297706154014
 20
1602.033908136831
 30
0.0
 40
8.305611164942092
100
AcDbArc
 50
107.5177551930744
 51
252.4822448069254
  0
ARC
  5
DF0E
330
1F
100
AcDbEntity
  8
0
 62
     0
 48
12.0
100
AcDbCircle
 10
3442.297706154014
 20
1602.033908136831
 30
0.0
 40
8.305611164942092
100
AcDbArc
 50
287.5177551930745
 51
72.48224480692551
  0
CIRCLE
  5
DF0F
330
1F
100
AcDbEntity
  8
0
 62
     0
 48
12.0
100
AcDbCircle
 10
3692.297706154015
 20
4602.033908136831
 30
0.0
 40
20.00000000000014
  0
ARC
  5
DF10
330
1F
100
AcDbEntity
  8
0
 62
     0
 48
12.0
100
AcDbCircle
 10
3692.297706154015
 20
4602.033908136831
 30
0.0
 40
8.305611164942092
100
AcDbArc
 50
287.5177551930745
 51
72.48224480692551
  0
ARC
  5
DF11
330
1F
100
AcDbEntity
  8
0
 62
     0
 48
12.0
100
AcDbCircle
 10
3692.297706154015
 20
4602.033908136831
 30
0.0
 40
8.305611164942092
100
AcDbArc
 50
107.5177551930744
 51
252.4822448069254
  0
ARC
  5
DF12
330
1F
100
AcDbEntity
  8
0
 62
     0
 48
12.0
100
AcDbCircle
 10
3692.297706154015
 20
4602.033908136831
 30
0.0
 40
6.300000000000106
100
AcDbArc
 50
293.3798681157138
 51
66.62013188428613
  0
ARC
  5
DF13
330
1F
100
AcDbEntity
  8
0
 62
     0
 48
12.0
100
AcDbCircle
 10
3692.297706154015
 20
4602.033908136831
 30
0.0
 40
6.300000000000106
100
AcDbArc
 50
113.3798681157138
 51
246.6201318842861
  0
LINE
  5
DF14
330
1F
100
AcDbEntity
  8
0
 62
     0
 48
0.5
100
AcDbLine
 10
3694.797706154015
 20
4591.53390813683
 30
0.0
 11
3694.797706154015
 21
4602.033908136831
 31
0.0
  0
LINE
  5
DF15
330
1F
100
AcDbEntity
  8
0
 62
     0
100
AcDbLine
 10
3683.64670992774
 20
4607.028563136831
 30
0.0
 11
3683.643507040876
 21
4597.033705574056
 31
0.0
  0
LINE
  5
DF16
330
1F
100
AcDbEntity
  8
0
 62
     0
100
AcDbLine
 10
3700.948702380294
 20
4597.03925313683
 30
0.0
 11
3700.951905267157
 21
4607.034110699604
 31
0.0
  0
LINE
  5
DF17
330
1F
100
AcDbEntity
  8
0
 62
     0
 48
0.5
100
AcDbLine
 10
3689.797706154015
 20
4612.533908136831
 30
0.0
 11
3689.797706154015
 21
4591.53390813683
 31
0.0
  0
LINE
  5
DF18
330
1F
100
AcDbEntity
  8
0
 62
     0
 48
12.0
100
AcDbLine
 10
3694.797706154015
 20
4593.750342833913
 30
0.0
 11
3700.360433540176
 21
4596.699364566727
 31
0.0
  0
LINE
  5
DF19
330
1F
100
AcDbEntity
  8
0
 62
     0
 48
12.0
100
AcDbLine
 10
3689.797706154015
 20
4593.750342833913
 30
0.0
 11
3684.307184664681
 21
4596.650531119297
 31
0.0
  0
ARC
  5
DF1A
330
1F
100
AcDbEntity
  8
0
 62
     0
 48
0.5
100
AcDbCircle
 10
3692.297706154015
 20
4591.53390813683
 30
0.0
 40
2.5
100
AcDbArc
 50
180.0
 51
0.0
  0
ARC
  5
DF1B
330
1F
100
AcDbEntity
  8
0
 62
     0
 48
0.5
100
AcDbCircle
 10
3692.297706154015
 20
4602.033908136831
 30
0.0
 40
6.3
100
AcDbArc
 50
293.3798681156957
 51
304.4471266145595
  0
ARC
  5
DF1C
330
1F
100
AcDbEntity
  8
0
 62
     0
 48
0.5
100
AcDbCircle
 10
3692.297706154015
 20
4602.033908136831
 30
0.0
 40
6.3
100
AcDbArc
 50
236.2147267221793
 51
246.6201318843042
  0
LINE
  5
DF1D
330
1F
100
AcDbEntity
  8
0
 62
     0
100
AcDbLine
 10
3700.360433540176
 20
4596.699364566727
 30
0.0
 11
3700.948702380294
 21
4597.03925313683
 31
0.0
  0
LINE
  5
DF1E
330
1F
100
AcDbEntity
  8
0
 62
     0
100
AcDbLine
 10
3683.643507040876
 20
4597.033705574056
 30
0.0
 11
3684.307184664681
 21
4596.650531119297
 31
0.0
  0
LINE
  5
DF1F
330
1F
100
AcDbEntity
  8
0
 62
     0
100
AcDbLine
 10
3683.643507040876
 20
4597.033705574056
 30
0.0
 11
3684.307184664681
 21
4596.650531119297
 31
0.0
  0
LINE
  5
DF20
330
1F
100
AcDbEntity
  8
0
 62
     0
100
AcDbLine
 10
3700.951905267157
 20
4607.034110699604
 30
0.0
 11
3694.797706154015
 21
4610.587239214223
 31
0.0
  0
LINE
  5
DF21
330
1F
100
AcDbEntity
  8
0
 62
     0
100
AcDbLine
 10
3700.951905267157
 20
4607.034110699604
 30
0.0
 11
3694.797706154015
 21
4610.587239214223
 31
0.0
  0
LINE
  5
DF22
330
1F
100
AcDbEntity
  8
0
 62
     0
100
AcDbLine
 10
3689.797706154015
 20
4610.582471094363
 30
0.0
 11
3683.64670992774
 21
4607.028563136831
 31
0.0
  0
ARC
  5
DF23
330
1F
100
AcDbEntity
  8
0
 62
     0
 48
0.5
100
AcDbCircle
 10
3692.297706154015
 20
4612.533908136831
 30
0.0
 40
2.5
100
AcDbArc
 50
0.0
 51
180.0
  0
LINE
  5
DF24
330
1F
100
AcDbEntity
  8
0
 62
     0
 48
0.5
100
AcDbLine
 10
3694.797706154015
 20
4602.033908136831
 30
0.0
 11
3694.797706154015
 21
4612.533908136831
 31
0.0
  0
CIRCLE
  5
DF25
330
1F
100
AcDbEntity
  8
0
 62
     0
 48
12.0
100
AcDbCircle
 10
3692.297706154014
 20
1602.033908136831
 30
0.0
 40
20.00000000000014
  0
LINE
  5
DF26
330
1F
100
AcDbEntity
  8
0
 62
     0
 48
0.5
100
AcDbLine
 10
3694.797706154014
 20
1602.033908136831
 30
0.0
 11
3694.797706154014
 21
1612.533908136831
 31
0.0
  0
ARC
  5
DF27
330
1F
100
AcDbEntity
  8
0
 62
     0
 48
0.5
100
AcDbCircle
 10
3692.297706154014
 20
1612.533908136831
 30
0.0
 40
2.5
100
AcDbArc
 50
0.0
 51
180.0
  0
LINE
  5
DF28
330
1F
100
AcDbEntity
  8
0
 62
     0
100
AcDbLine
 10
3689.797706154014
 20
1610.582471094363
 30
0.0
 11
3683.646709927739
 21
1607.028563136831
 31
0.0
  0
LINE
  5
DF29
330
1F
100
AcDbEntity
  8
0
 62
     0
100
AcDbLine
 10
3700.951905267156
 20
1607.034110699605
 30
0.0
 11
3694.797706154014
 21
1610.587239214223
 31
0.0
  0
LINE
  5
DF2A
330
1F
100
AcDbEntity
  8
0
 62
     0
100
AcDbLine
 10
3700.951905267156
 20
1607.034110699605
 30
0.0
 11
3694.797706154014
 21
1610.587239214223
 31
0.0
  0
LINE
  5
DF2B
330
1F
100
AcDbEntity
  8
0
 62
     0
100
AcDbLine
 10
3683.643507040876
 20
1597.033705574057
 30
0.0
 11
3684.307184664681
 21
1596.650531119298
 31
0.0
  0
LINE
  5
DF2C
330
1F
100
AcDbEntity
  8
0
 62
     0
100
AcDbLine
 10
3683.643507040876
 20
1597.033705574057
 30
0.0
 11
3684.307184664681
 21
1596.650531119298
 31
0.0
  0
LINE
  5
DF2D
330
1F
100
AcDbEntity
  8
0
 62
     0
100
AcDbLine
 10
3700.360433540175
 20
1596.699364566727
 30
0.0
 11
3700.948702380293
 21
1597.039253136831
 31
0.0
  0
ARC
  5
DF2E
330
1F
100
AcDbEntity
  8
0
 62
     0
 48
0.5
100
AcDbCircle
 10
3692.297706154014
 20
1602.033908136831
 30
0.0
 40
6.3
100
AcDbArc
 50
236.2147267221793
 51
246.6201318843042
  0
ARC
  5
DF2F
330
1F
100
AcDbEntity
  8
0
 62
     0
 48
0.5
100
AcDbCircle
 10
3692.297706154014
 20
1602.033908136831
 30
0.0
 40
6.3
100
AcDbArc
 50
293.3798681156957
 51
304.4471266145595
  0
ARC
  5
DF30
330
1F
100
AcDbEntity
  8
0
 62
     0
 48
0.5
100
AcDbCircle
 10
3692.297706154014
 20
1591.533908136831
 30
0.0
 40
2.5
100
AcDbArc
 50
180.0
 51
0.0
  0
LINE
  5
DF31
330
1F
100
AcDbEntity
  8
0
 62
     0
 48
12.0
100
AcDbLine
 10
3689.797706154014
 20
1593.750342833913
 30
0.0
 11
3684.307184664681
 21
1596.650531119298
 31
0.0
  0
LINE
  5
DF32
330
1F
100
AcDbEntity
  8
0
 62
     0
 48
12.0
100
AcDbLine
 10
3694.797706154014
 20
1593.750342833913
 30
0.0
 11
3700.360433540175
 21
1596.699364566727
 31
0.0
  0
LINE
  5
DF33
330
1F
100
AcDbEntity
  8
0
 62
     0
 48
0.5
100
AcDbLine
 10
3689.797706154014
 20
1612.533908136831
 30
0.0
 11
3689.797706154014
 21
1591.533908136831
 31
0.0
  0
LINE
  5
DF34
330
1F
100
AcDbEntity
  8
0
 62
     0
100
AcDbLine
 10
3700.948702380293
 20
1597.039253136831
 30
0.0
 11
3700.951905267156
 21
1607.034110699605
 31
0.0
  0
LINE
  5
DF35
330
1F
100
AcDbEntity
  8
0
 62
     0
100
AcDbLine
 10
3683.646709927739
 20
1607.028563136831
 30
0.0
 11
3683.643507040876
 21
1597.033705574057
 31
0.0
  0
LINE
  5
DF36
330
1F
100
AcDbEntity
  8
0
 62
     0
 48
0.5
100
AcDbLine
 10
3694.797706154014
 20
1591.533908136831
 30
0.0
 11
3694.797706154014
 21
1602.033908136831
 31
0.0
  0
ARC
  5
DF37
330
1F
100
AcDbEntity
  8
0
 62
     0
 48
12.0
100
AcDbCircle
 10
3692.297706154014
 20
1602.033908136831
 30
0.0
 40
6.300000000000106
100
AcDbArc
 50
113.3798681157138
 51
246.6201318842861
  0
ARC
  5
DF38
330
1F
100
AcDbEntity
  8
0
 62
     0
 48
12.0
100
AcDbCircle
 10
3692.297706154014
 20
1602.033908136831
 30
0.0
 40
6.300000000000106
100
AcDbArc
 50
293.3798681157138
 51
66.62013188428613
  0
ARC
  5
DF39
330
1F
100
AcDbEntity
  8
0
 62
     0
 48
12.0
100
AcDbCircle
 10
3692.297706154014
 20
1602.033908136831
 30
0.0
 40
8.305611164942092
100
AcDbArc
 50
107.5177551930744
 51
252.4822448069254
  0
ARC
  5
DF3A
330
1F
100
AcDbEntity
  8
0
 62
     0
 48
12.0
100
AcDbCircle
 10
3692.297706154014
 20
1602.033908136831
 30
0.0
 40
8.305611164942092
100
AcDbArc
 50
287.5177551930745
 51
72.48224480692551
  0
CIRCLE
  5
DF3B
330
1F
100
AcDbEntity
  8
0
 62
     0
 48
12.0
100
AcDbCircle
 10
3942.297706154015
 20
4602.033908136831
 30
0.0
 40
20.00000000000014
  0
ARC
  5
DF3C
330
1F
100
AcDbEntity
  8
0
 62
     0
 48
12.0
100
AcDbCircle
 10
3942.297706154015
 20
4602.033908136831
 30
0.0
 40
8.305611164942092
100
AcDbArc
 50
287.5177551930745
 51
72.48224480692551
  0
ARC
  5
DF3D
330
1F
100
AcDbEntity
  8
0
 62
     0
 48
12.0
100
AcDbCircle
 10
3942.297706154015
 20
4602.033908136831
 30
0.0
 40
8.305611164942092
100
AcDbArc
 50
107.5177551930744
 51
252.4822448069254
  0
ARC
  5
DF3E
330
1F
100
AcDbEntity
  8
0
 62
     0
 48
12.0
100
AcDbCircle
 10
3942.297706154015
 20
4602.033908136831
 30
0.0
 40
6.300000000000106
100
AcDbArc
 50
293.3798681157138
 51
66.62013188428613
  0
ARC
  5
DF3F
330
1F
100
AcDbEntity
  8
0
 62
     0
 48
12.0
100
AcDbCircle
 10
3942.297706154015
 20
4602.033908136831
 30
0.0
 40
6.300000000000106
100
AcDbArc
 50
113.3798681157138
 51
246.6201318842861
  0
LINE
  5
DF40
330
1F
100
AcDbEntity
  8
0
 62
     0
 48
0.5
100
AcDbLine
 10
3944.797706154015
 20
4591.53390813683
 30
0.0
 11
3944.797706154015
 21
4602.033908136831
 31
0.0
  0
LINE
  5
DF41
330
1F
100
AcDbEntity
  8
0
 62
     0
100
AcDbLine
 10
3933.64670992774
 20
4607.028563136831
 30
0.0
 11
3933.643507040876
 21
4597.033705574056
 31
0.0
  0
LINE
  5
DF42
330
1F
100
AcDbEntity
  8
0
 62
     0
100
AcDbLine
 10
3950.948702380294
 20
4597.03925313683
 30
0.0
 11
3950.951905267157
 21
4607.034110699604
 31
0.0
  0
LINE
  5
DF43
330
1F
100
AcDbEntity
  8
0
 62
     0
 48
0.5
100
AcDbLine
 10
3939.797706154015
 20
4612.533908136831
 30
0.0
 11
3939.797706154015
 21
4591.53390813683
 31
0.0
  0
LINE
  5
DF44
330
1F
100
AcDbEntity
  8
0
 62
     0
 48
12.0
100
AcDbLine
 10
3944.797706154015
 20
4593.750342833913
 30
0.0
 11
3950.360433540176
 21
4596.699364566727
 31
0.0
  0
LINE
  5
DF45
330
1F
100
AcDbEntity
  8
0
 62
     0
 48
12.0
100
AcDbLine
 10
3939.797706154015
 20
4593.750342833913
 30
0.0
 11
3934.307184664681
 21
4596.650531119297
 31
0.0
  0
ARC
  5
DF46
330
1F
100
AcDbEntity
  8
0
 62
     0
 48
0.5
100
AcDbCircle
 10
3942.297706154015
 20
4591.53390813683
 30
0.0
 40
2.5
100
AcDbArc
 50
180.0
 51
0.0
  0
ARC
  5
DF47
330
1F
100
AcDbEntity
  8
0
 62
     0
 48
0.5
100
AcDbCircle
 10
3942.297706154015
 20
4602.033908136831
 30
0.0
 40
6.3
100
AcDbArc
 50
293.3798681156957
 51
304.4471266145595
  0
ARC
  5
DF48
330
1F
100
AcDbEntity
  8
0
 62
     0
 48
0.5
100
AcDbCircle
 10
3942.297706154015
 20
4602.033908136831
 30
0.0
 40
6.3
100
AcDbArc
 50
236.2147267221793
 51
246.6201318843042
  0
LINE
  5
DF49
330
1F
100
AcDbEntity
  8
0
 62
     0
100
AcDbLine
 10
3950.360433540176
 20
4596.699364566727
 30
0.0
 11
3950.948702380294
 21
4597.03925313683
 31
0.0
  0
LINE
  5
DF4A
330
1F
100
AcDbEntity
  8
0
 62
     0
100
AcDbLine
 10
3933.643507040876
 20
4597.033705574056
 30
0.0
 11
3934.307184664681
 21
4596.650531119297
 31
0.0
  0
LINE
  5
DF4B
330
1F
100
AcDbEntity
  8
0
 62
     0
100
AcDbLine
 10
3933.643507040876
 20
4597.033705574056
 30
0.0
 11
3934.307184664681
 21
4596.650531119297
 31
0.0
  0
LINE
  5
DF4C
330
1F
100
AcDbEntity
  8
0
 62
     0
100
AcDbLine
 10
3950.951905267157
 20
4607.034110699604
 30
0.0
 11
3944.797706154015
 21
4610.587239214223
 31
0.0
  0
LINE
  5
DF4D
330
1F
100
AcDbEntity
  8
0
 62
     0
100
AcDbLine
 10
3950.951905267157
 20
4607.034110699604
 30
0.0
 11
3944.797706154015
 21
4610.587239214223
 31
0.0
  0
LINE
  5
DF4E
330
1F
100
AcDbEntity
  8
0
 62
     0
100
AcDbLine
 10
3939.797706154015
 20
4610.582471094363
 30
0.0
 11
3933.64670992774
 21
4607.028563136831
 31
0.0
  0
ARC
  5
DF4F
330
1F
100
AcDbEntity
  8
0
 62
     0
 48
0.5
100
AcDbCircle
 10
3942.297706154015
 20
4612.533908136831
 30
0.0
 40
2.5
100
AcDbArc
 50
0.0
 51
180.0
  0
LINE
  5
DF50
330
1F
100
AcDbEntity
  8
0
 62
     0
 48
0.5
100
AcDbLine
 10
3944.797706154015
 20
4602.033908136831
 30
0.0
 11
3944.797706154015
 21
4612.533908136831
 31
0.0
  0
CIRCLE
  5
DF51
330
1F
100
AcDbEntity
  8
0
 62
     0
 48
12.0
100
AcDbCircle
 10
3942.297706154014
 20
1602.033908136831
 30
0.0
 40
20.00000000000014
  0
LINE
  5
DF52
330
1F
100
AcDbEntity
  8
0
 62
     0
 48
0.5
100
AcDbLine
 10
3944.797706154014
 20
1602.033908136831
 30
0.0
 11
3944.797706154014
 21
1612.533908136831
 31
0.0
  0
ARC
  5
DF53
330
1F
100
AcDbEntity
  8
0
 62
     0
 48
0.5
100
AcDbCircle
 10
3942.297706154014
 20
1612.533908136831
 30
0.0
 40
2.5
100
AcDbArc
 50
0.0
 51
180.0
  0
LINE
  5
DF54
330
1F
100
AcDbEntity
  8
0
 62
     0
100
AcDbLine
 10
3939.797706154014
 20
1610.582471094363
 30
0.0
 11
3933.646709927739
 21
1607.028563136831
 31
0.0
  0
LINE
  5
DF55
330
1F
100
AcDbEntity
  8
0
 62
     0
100
AcDbLine
 10
3950.951905267156
 20
1607.034110699605
 30
0.0
 11
3944.797706154014
 21
1610.587239214223
 31
0.0
  0
LINE
  5
DF56
330
1F
100
AcDbEntity
  8
0
 62
     0
100
AcDbLine
 10
3950.951905267156
 20
1607.034110699605
 30
0.0
 11
3944.797706154014
 21
1610.587239214223
 31
0.0
  0
LINE
  5
DF57
330
1F
100
AcDbEntity
  8
0
 62
     0
100
AcDbLine
 10
3933.643507040876
 20
1597.033705574057
 30
0.0
 11
3934.307184664681
 21
1596.650531119298
 31
0.0
  0
LINE
  5
DF58
330
1F
100
AcDbEntity
  8
0
 62
     0
100
AcDbLine
 10
3933.643507040876
 20
1597.033705574057
 30
0.0
 11
3934.307184664681
 21
1596.650531119298
 31
0.0
  0
LINE
  5
DF59
330
1F
100
AcDbEntity
  8
0
 62
     0
100
AcDbLine
 10
3950.360433540175
 20
1596.699364566727
 30
0.0
 11
3950.948702380293
 21
1597.039253136831
 31
0.0
  0
ARC
  5
DF5A
330
1F
100
AcDbEntity
  8
0
 62
     0
 48
0.5
100
AcDbCircle
 10
3942.297706154014
 20
1602.033908136831
 30
0.0
 40
6.3
100
AcDbArc
 50
236.2147267221793
 51
246.6201318843042
  0
ARC
  5
DF5B
330
1F
100
AcDbEntity
  8
0
 62
     0
 48
0.5
100
AcDbCircle
 10
3942.297706154014
 20
1602.033908136831
 30
0.0
 40
6.3
100
AcDbArc
 50
293.3798681156957
 51
304.4471266145595
  0
ARC
  5
DF5C
330
1F
100
AcDbEntity
  8
0
 62
     0
 48
0.5
100
AcDbCircle
 10
3942.297706154014
 20
1591.533908136831
 30
0.0
 40
2.5
100
AcDbArc
 50
180.0
 51
0.0
  0
LINE
  5
DF5D
330
1F
100
AcDbEntity
  8
0
 62
     0
 48
12.0
100
AcDbLine
 10
3939.797706154014
 20
1593.750342833913
 30
0.0
 11
3934.307184664681
 21
1596.650531119298
 31
0.0
  0
LINE
  5
DF5E
330
1F
100
AcDbEntity
  8
0
 62
     0
 48
12.0
100
AcDbLine
 10
3944.797706154014
 20
1593.750342833913
 30
0.0
 11
3950.360433540175
 21
1596.699364566727
 31
0.0
  0
LINE
  5
DF5F
330
1F
100
AcDbEntity
  8
0
 62
     0
 48
0.5
100
AcDbLine
 10
3939.797706154014
 20
1612.533908136831
 30
0.0
 11
3939.797706154014
 21
1591.533908136831
 31
0.0
  0
LINE
  5
DF60
330
1F
100
AcDbEntity
  8
0
 62
     0
100
AcDbLine
 10
3950.948702380293
 20
1597.039253136831
 30
0.0
 11
3950.951905267156
 21
1607.034110699605
 31
0.0
  0
LINE
  5
DF61
330
1F
100
AcDbEntity
  8
0
 62
     0
100
AcDbLine
 10
3933.646709927739
 20
1607.028563136831
 30
0.0
 11
3933.643507040876
 21
1597.033705574057
 31
0.0
  0
LINE
  5
DF62
330
1F
100
AcDbEntity
  8
0
 62
     0
 48
0.5
100
AcDbLine
 10
3944.797706154014
 20
1591.533908136831
 30
0.0
 11
3944.797706154014
 21
1602.033908136831
 31
0.0
  0
ARC
  5
DF63
330
1F
100
AcDbEntity
  8
0
 62
     0
 48
12.0
100
AcDbCircle
 10
3942.297706154014
 20
1602.033908136831
 30
0.0
 40
6.300000000000106
100
AcDbArc
 50
113.3798681157138
 51
246.6201318842861
  0
ARC
  5
DF64
330
1F
100
AcDbEntity
  8
0
 62
     0
 48
12.0
100
AcDbCircle
 10
3942.297706154014
 20
1602.033908136831
 30
0.0
 40
6.300000000000106
100
AcDbArc
 50
293.3798681157138
 51
66.62013188428613
  0
ARC
  5
DF65
330
1F
100
AcDbEntity
  8
0
 62
     0
 48
12.0
100
AcDbCircle
 10
3942.297706154014
 20
1602.033908136831
 30
0.0
 40
8.305611164942092
100
AcDbArc
 50
107.5177551930744
 51
252.4822448069254
  0
ARC
  5
DF66
330
1F
100
AcDbEntity
  8
0
 62
     0
 48
12.0
100
AcDbCircle
 10
3942.297706154014
 20
1602.033908136831
 30
0.0
 40
8.305611164942092
100
AcDbArc
 50
287.5177551930745
 51
72.48224480692551
  0
CIRCLE
  5
DF67
330
1F
100
AcDbEntity
  8
0
 62
     0
 48
12.0
100
AcDbCircle
 10
4192.297706154015
 20
4602.033908136831
 30
0.0
 40
20.00000000000014
  0
ARC
  5
DF68
330
1F
100
AcDbEntity
  8
0
 62
     0
 48
12.0
100
AcDbCircle
 10
4192.297706154015
 20
4602.033908136831
 30
0.0
 40
8.305611164942092
100
AcDbArc
 50
287.5177551930745
 51
72.48224480692551
  0
ARC
  5
DF69
330
1F
100
AcDbEntity
  8
0
 62
     0
 48
12.0
100
AcDbCircle
 10
4192.297706154015
 20
4602.033908136831
 30
0.0
 40
8.305611164942092
100
AcDbArc
 50
107.5177551930744
 51
252.4822448069254
  0
ARC
  5
DF6A
330
1F
100
AcDbEntity
  8
0
 62
     0
 48
12.0
100
AcDbCircle
 10
4192.297706154015
 20
4602.033908136831
 30
0.0
 40
6.300000000000106
100
AcDbArc
 50
293.3798681157138
 51
66.62013188428613
  0
ARC
  5
DF6B
330
1F
100
AcDbEntity
  8
0
 62
     0
 48
12.0
100
AcDbCircle
 10
4192.297706154015
 20
4602.033908136831
 30
0.0
 40
6.300000000000106
100
AcDbArc
 50
113.3798681157138
 51
246.6201318842861
  0
LINE
  5
DF6C
330
1F
100
AcDbEntity
  8
0
 62
     0
 48
0.5
100
AcDbLine
 10
4194.797706154015
 20
4591.53390813683
 30
0.0
 11
4194.797706154015
 21
4602.033908136831
 31
0.0
  0
LINE
  5
DF6D
330
1F
100
AcDbEntity
  8
0
 62
     0
100
AcDbLine
 10
4183.64670992774
 20
4607.028563136831
 30
0.0
 11
4183.643507040876
 21
4597.033705574056
 31
0.0
  0
LINE
  5
DF6E
330
1F
100
AcDbEntity
  8
0
 62
     0
100
AcDbLine
 10
4200.948702380293
 20
4597.03925313683
 30
0.0
 11
4200.951905267157
 21
4607.034110699604
 31
0.0
  0
LINE
  5
DF6F
330
1F
100
AcDbEntity
  8
0
 62
     0
 48
0.5
100
AcDbLine
 10
4189.797706154015
 20
4612.533908136831
 30
0.0
 11
4189.797706154015
 21
4591.53390813683
 31
0.0
  0
LINE
  5
DF70
330
1F
100
AcDbEntity
  8
0
 62
     0
 48
12.0
100
AcDbLine
 10
4194.797706154015
 20
4593.750342833913
 30
0.0
 11
4200.360433540176
 21
4596.699364566727
 31
0.0
  0
LINE
  5
DF71
330
1F
100
AcDbEntity
  8
0
 62
     0
 48
12.0
100
AcDbLine
 10
4189.797706154015
 20
4593.750342833913
 30
0.0
 11
4184.307184664681
 21
4596.650531119297
 31
0.0
  0
ARC
  5
DF72
330
1F
100
AcDbEntity
  8
0
 62
     0
 48
0.5
100
AcDbCircle
 10
4192.297706154015
 20
4591.53390813683
 30
0.0
 40
2.5
100
AcDbArc
 50
180.0
 51
0.0
  0
ARC
  5
DF73
330
1F
100
AcDbEntity
  8
0
 62
     0
 48
0.5
100
AcDbCircle
 10
4192.297706154015
 20
4602.033908136831
 30
0.0
 40
6.3
100
AcDbArc
 50
293.3798681156957
 51
304.4471266145595
  0
ARC
  5
DF74
330
1F
100
AcDbEntity
  8
0
 62
     0
 48
0.5
100
AcDbCircle
 10
4192.297706154015
 20
4602.033908136831
 30
0.0
 40
6.3
100
AcDbArc
 50
236.2147267221793
 51
246.6201318843042
  0
LINE
  5
DF75
330
1F
100
AcDbEntity
  8
0
 62
     0
100
AcDbLine
 10
4200.360433540176
 20
4596.699364566727
 30
0.0
 11
4200.948702380293
 21
4597.03925313683
 31
0.0
  0
LINE
  5
DF76
330
1F
100
AcDbEntity
  8
0
 62
     0
100
AcDbLine
 10
4183.643507040876
 20
4597.033705574056
 30
0.0
 11
4184.307184664681
 21
4596.650531119297
 31
0.0
  0
LINE
  5
DF77
330
1F
100
AcDbEntity
  8
0
 62
     0
100
AcDbLine
 10
4183.643507040876
 20
4597.033705574056
 30
0.0
 11
4184.307184664681
 21
4596.650531119297
 31
0.0
  0
LINE
  5
DF78
330
1F
100
AcDbEntity
  8
0
 62
     0
100
AcDbLine
 10
4200.951905267157
 20
4607.034110699604
 30
0.0
 11
4194.797706154015
 21
4610.587239214223
 31
0.0
  0
LINE
  5
DF79
330
1F
100
AcDbEntity
  8
0
 62
     0
100
AcDbLine
 10
4200.951905267157
 20
4607.034110699604
 30
0.0
 11
4194.797706154015
 21
4610.587239214223
 31
0.0
  0
LINE
  5
DF7A
330
1F
100
AcDbEntity
  8
0
 62
     0
100
AcDbLine
 10
4189.797706154015
 20
4610.582471094363
 30
0.0
 11
4183.64670992774
 21
4607.028563136831
 31
0.0
  0
ARC
  5
DF7B
330
1F
100
AcDbEntity
  8
0
 62
     0
 48
0.5
100
AcDbCircle
 10
4192.297706154015
 20
4612.533908136831
 30
0.0
 40
2.5
100
AcDbArc
 50
0.0
 51
180.0
  0
LINE
  5
DF7C
330
1F
100
AcDbEntity
  8
0
 62
     0
 48
0.5
100
AcDbLine
 10
4194.797706154015
 20
4602.033908136831
 30
0.0
 11
4194.797706154015
 21
4612.533908136831
 31
0.0
  0
CIRCLE
  5
DF7D
330
1F
100
AcDbEntity
  8
0
 62
     0
 48
12.0
100
AcDbCircle
 10
4192.297706154015
 20
1602.033908136831
 30
0.0
 40
20.00000000000014
  0
LINE
  5
DF7E
330
1F
100
AcDbEntity
  8
0
 62
     0
 48
0.5
100
AcDbLine
 10
4194.797706154015
 20
1602.033908136831
 30
0.0
 11
4194.797706154015
 21
1612.533908136831
 31
0.0
  0
ARC
  5
DF7F
330
1F
100
AcDbEntity
  8
0
 62
     0
 48
0.5
100
AcDbCircle
 10
4192.297706154015
 20
1612.533908136831
 30
0.0
 40
2.5
100
AcDbArc
 50
0.0
 51
180.0
  0
LINE
  5
DF80
330
1F
100
AcDbEntity
  8
0
 62
     0
100
AcDbLine
 10
4189.797706154015
 20
1610.582471094363
 30
0.0
 11
4183.64670992774
 21
1607.028563136831
 31
0.0
  0
LINE
  5
DF81
330
1F
100
AcDbEntity
  8
0
 62
     0
100
AcDbLine
 10
4200.951905267157
 20
1607.034110699605
 30
0.0
 11
4194.797706154015
 21
1610.587239214223
 31
0.0
  0
LINE
  5
DF82
330
1F
100
AcDbEntity
  8
0
 62
     0
100
AcDbLine
 10
4200.951905267157
 20
1607.034110699605
 30
0.0
 11
4194.797706154015
 21
1610.587239214223
 31
0.0
  0
LINE
  5
DF83
330
1F
100
AcDbEntity
  8
0
 62
     0
100
AcDbLine
 10
4183.643507040876
 20
1597.033705574057
 30
0.0
 11
4184.307184664681
 21
1596.650531119298
 31
0.0
  0
LINE
  5
DF84
330
1F
100
AcDbEntity
  8
0
 62
     0
100
AcDbLine
 10
4183.643507040876
 20
1597.033705574057
 30
0.0
 11
4184.307184664681
 21
1596.650531119298
 31
0.0
  0
LINE
  5
DF85
330
1F
100
AcDbEntity
  8
0
 62
     0
100
AcDbLine
 10
4200.360433540176
 20
1596.699364566727
 30
0.0
 11
4200.948702380293
 21
1597.039253136831
 31
0.0
  0
ARC
  5
DF86
330
1F
100
AcDbEntity
  8
0
 62
     0
 48
0.5
100
AcDbCircle
 10
4192.297706154015
 20
1602.033908136831
 30
0.0
 40
6.3
100
AcDbArc
 50
236.2147267221793
 51
246.6201318843042
  0
ARC
  5
DF87
330
1F
100
AcDbEntity
  8
0
 62
     0
 48
0.5
100
AcDbCircle
 10
4192.297706154015
 20
1602.033908136831
 30
0.0
 40
6.3
100
AcDbArc
 50
293.3798681156957
 51
304.4471266145595
  0
ARC
  5
DF88
330
1F
100
AcDbEntity
  8
0
 62
     0
 48
0.5
100
AcDbCircle
 10
4192.297706154015
 20
1591.533908136831
 30
0.0
 40
2.5
100
AcDbArc
 50
180.0
 51
0.0
  0
LINE
  5
DF89
330
1F
100
AcDbEntity
  8
0
 62
     0
 48
12.0
100
AcDbLine
 10
4189.797706154015
 20
1593.750342833913
 30
0.0
 11
4184.307184664681
 21
1596.650531119298
 31
0.0
  0
LINE
  5
DF8A
330
1F
100
AcDbEntity
  8
0
 62
     0
 48
12.0
100
AcDbLine
 10
4194.797706154015
 20
1593.750342833913
 30
0.0
 11
4200.360433540176
 21
1596.699364566727
 31
0.0
  0
LINE
  5
DF8B
330
1F
100
AcDbEntity
  8
0
 62
     0
 48
0.5
100
AcDbLine
 10
4189.797706154015
 20
1612.533908136831
 30
0.0
 11
4189.797706154015
 21
1591.533908136831
 31
0.0
  0
LINE
  5
DF8C
330
1F
100
AcDbEntity
  8
0
 62
     0
100
AcDbLine
 10
4200.948702380293
 20
1597.039253136831
 30
0.0
 11
4200.951905267157
 21
1607.034110699605
 31
0.0
  0
LINE
  5
DF8D
330
1F
100
AcDbEntity
  8
0
 62
     0
100
AcDbLine
 10
4183.64670992774
 20
1607.028563136831
 30
0.0
 11
4183.643507040876
 21
1597.033705574057
 31
0.0
  0
LINE
  5
DF8E
330
1F
100
AcDbEntity
  8
0
 62
     0
 48
0.5
100
AcDbLine
 10
4194.797706154015
 20
1591.533908136831
 30
0.0
 11
4194.797706154015
 21
1602.033908136831
 31
0.0
  0
ARC
  5
DF8F
330
1F
100
AcDbEntity
  8
0
 62
     0
 48
12.0
100
AcDbCircle
 10
4192.297706154015
 20
1602.033908136831
 30
0.0
 40
6.300000000000106
100
AcDbArc
 50
113.3798681157138
 51
246.6201318842861
  0
ARC
  5
DF90
330
1F
100
AcDbEntity
  8
0
 62
     0
 48
12.0
100
AcDbCircle
 10
4192.297706154015
 20
1602.033908136831
 30
0.0
 40
6.300000000000106
100
AcDbArc
 50
293.3798681157138
 51
66.62013188428613
  0
ARC
  5
DF91
330
1F
100
AcDbEntity
  8
0
 62
     0
 48
12.0
100
AcDbCircle
 10
4192.297706154015
 20
1602.033908136831
 30
0.0
 40
8.305611164942092
100
AcDbArc
 50
107.5177551930744
 51
252.4822448069254
  0
ARC
  5
DF92
330
1F
100
AcDbEntity
  8
0
 62
     0
 48
12.0
100
AcDbCircle
 10
4192.297706154015
 20
1602.033908136831
 30
0.0
 40
8.305611164942092
100
AcDbArc
 50
287.5177551930745
 51
72.48224480692551
  0
CIRCLE
  5
DF93
330
1F
100
AcDbEntity
  8
0
 62
     0
 48
12.0
100
AcDbCircle
 10
4442.297706154015
 20
4602.033908136831
 30
0.0
 40
20.00000000000014
  0
ARC
  5
DF94
330
1F
100
AcDbEntity
  8
0
 62
     0
 48
12.0
100
AcDbCircle
 10
4442.297706154015
 20
4602.033908136831
 30
0.0
 40
8.305611164942092
100
AcDbArc
 50
287.5177551930745
 51
72.48224480692551
  0
ARC
  5
DF95
330
1F
100
AcDbEntity
  8
0
 62
     0
 48
12.0
100
AcDbCircle
 10
4442.297706154015
 20
4602.033908136831
 30
0.0
 40
8.305611164942092
100
AcDbArc
 50
107.5177551930744
 51
252.4822448069254
  0
ARC
  5
DF96
330
1F
100
AcDbEntity
  8
0
 62
     0
 48
12.0
100
AcDbCircle
 10
4442.297706154015
 20
4602.033908136831
 30
0.0
 40
6.300000000000106
100
AcDbArc
 50
293.3798681157138
 51
66.62013188428613
  0
ARC
  5
DF97
330
1F
100
AcDbEntity
  8
0
 62
     0
 48
12.0
100
AcDbCircle
 10
4442.297706154015
 20
4602.033908136831
 30
0.0
 40
6.300000000000106
100
AcDbArc
 50
113.3798681157138
 51
246.6201318842861
  0
LINE
  5
DF98
330
1F
100
AcDbEntity
  8
0
 62
     0
 48
0.5
100
AcDbLine
 10
4444.797706154015
 20
4591.53390813683
 30
0.0
 11
4444.797706154015
 21
4602.033908136831
 31
0.0
  0
LINE
  5
DF99
330
1F
100
AcDbEntity
  8
0
 62
     0
100
AcDbLine
 10
4433.64670992774
 20
4607.028563136831
 30
0.0
 11
4433.643507040876
 21
4597.033705574056
 31
0.0
  0
LINE
  5
DF9A
330
1F
100
AcDbEntity
  8
0
 62
     0
100
AcDbLine
 10
4450.948702380293
 20
4597.03925313683
 30
0.0
 11
4450.951905267157
 21
4607.034110699604
 31
0.0
  0
LINE
  5
DF9B
330
1F
100
AcDbEntity
  8
0
 62
     0
 48
0.5
100
AcDbLine
 10
4439.797706154015
 20
4612.533908136831
 30
0.0
 11
4439.797706154015
 21
4591.53390813683
 31
0.0
  0
LINE
  5
DF9C
330
1F
100
AcDbEntity
  8
0
 62
     0
 48
12.0
100
AcDbLine
 10
4444.797706154015
 20
4593.750342833913
 30
0.0
 11
4450.360433540176
 21
4596.699364566727
 31
0.0
  0
LINE
  5
DF9D
330
1F
100
AcDbEntity
  8
0
 62
     0
 48
12.0
100
AcDbLine
 10
4439.797706154015
 20
4593.750342833913
 30
0.0
 11
4434.307184664681
 21
4596.650531119297
 31
0.0
  0
ARC
  5
DF9E
330
1F
100
AcDbEntity
  8
0
 62
     0
 48
0.5
100
AcDbCircle
 10
4442.297706154015
 20
4591.53390813683
 30
0.0
 40
2.5
100
AcDbArc
 50
180.0
 51
0.0
  0
ARC
  5
DF9F
330
1F
100
AcDbEntity
  8
0
 62
     0
 48
0.5
100
AcDbCircle
 10
4442.297706154015
 20
4602.033908136831
 30
0.0
 40
6.3
100
AcDbArc
 50
293.3798681156957
 51
304.4471266145595
  0
ARC
  5
DFA0
330
1F
100
AcDbEntity
  8
0
 62
     0
 48
0.5
100
AcDbCircle
 10
4442.297706154015
 20
4602.033908136831
 30
0.0
 40
6.3
100
AcDbArc
 50
236.2147267221793
 51
246.6201318843042
  0
LINE
  5
DFA1
330
1F
100
AcDbEntity
  8
0
 62
     0
100
AcDbLine
 10
4450.360433540176
 20
4596.699364566727
 30
0.0
 11
4450.948702380293
 21
4597.03925313683
 31
0.0
  0
LINE
  5
DFA2
330
1F
100
AcDbEntity
  8
0
 62
     0
100
AcDbLine
 10
4433.643507040876
 20
4597.033705574056
 30
0.0
 11
4434.307184664681
 21
4596.650531119297
 31
0.0
  0
LINE
  5
DFA3
330
1F
100
AcDbEntity
  8
0
 62
     0
100
AcDbLine
 10
4433.643507040876
 20
4597.033705574056
 30
0.0
 11
4434.307184664681
 21
4596.650531119297
 31
0.0
  0
LINE
  5
DFA4
330
1F
100
AcDbEntity
  8
0
 62
     0
100
AcDbLine
 10
4450.951905267157
 20
4607.034110699604
 30
0.0
 11
4444.797706154015
 21
4610.587239214223
 31
0.0
  0
LINE
  5
DFA5
330
1F
100
AcDbEntity
  8
0
 62
     0
100
AcDbLine
 10
4450.951905267157
 20
4607.034110699604
 30
0.0
 11
4444.797706154015
 21
4610.587239214223
 31
0.0
  0
LINE
  5
DFA6
330
1F
100
AcDbEntity
  8
0
 62
     0
100
AcDbLine
 10
4439.797706154015
 20
4610.582471094363
 30
0.0
 11
4433.64670992774
 21
4607.028563136831
 31
0.0
  0
ARC
  5
DFA7
330
1F
100
AcDbEntity
  8
0
 62
     0
 48
0.5
100
AcDbCircle
 10
4442.297706154015
 20
4612.533908136831
 30
0.0
 40
2.5
100
AcDbArc
 50
0.0
 51
180.0
  0
LINE
  5
DFA8
330
1F
100
AcDbEntity
  8
0
 62
     0
 48
0.5
100
AcDbLine
 10
4444.797706154015
 20
4602.033908136831
 30
0.0
 11
4444.797706154015
 21
4612.533908136831
 31
0.0
  0
CIRCLE
  5
DFA9
330
1F
100
AcDbEntity
  8
0
 62
     0
 48
12.0
100
AcDbCircle
 10
4442.297706154015
 20
1602.033908136831
 30
0.0
 40
20.00000000000014
  0
LINE
  5
DFAA
330
1F
100
AcDbEntity
  8
0
 62
     0
 48
0.5
100
AcDbLine
 10
4444.797706154015
 20
1602.033908136831
 30
0.0
 11
4444.797706154015
 21
1612.533908136831
 31
0.0
  0
ARC
  5
DFAB
330
1F
100
AcDbEntity
  8
0
 62
     0
 48
0.5
100
AcDbCircle
 10
4442.297706154015
 20
1612.533908136831
 30
0.0
 40
2.5
100
AcDbArc
 50
0.0
 51
180.0
  0
LINE
  5
DFAC
330
1F
100
AcDbEntity
  8
0
 62
     0
100
AcDbLine
 10
4439.797706154015
 20
1610.582471094363
 30
0.0
 11
4433.64670992774
 21
1607.028563136831
 31
0.0
  0
LINE
  5
DFAD
330
1F
100
AcDbEntity
  8
0
 62
     0
100
AcDbLine
 10
4450.951905267157
 20
1607.034110699605
 30
0.0
 11
4444.797706154015
 21
1610.587239214223
 31
0.0
  0
LINE
  5
DFAE
330
1F
100
AcDbEntity
  8
0
 62
     0
100
AcDbLine
 10
4450.951905267157
 20
1607.034110699605
 30
0.0
 11
4444.797706154015
 21
1610.587239214223
 31
0.0
  0
LINE
  5
DFAF
330
1F
100
AcDbEntity
  8
0
 62
     0
100
AcDbLine
 10
4433.643507040876
 20
1597.033705574057
 30
0.0
 11
4434.307184664681
 21
1596.650531119298
 31
0.0
  0
LINE
  5
DFB0
330
1F
100
AcDbEntity
  8
0
 62
     0
100
AcDbLine
 10
4433.643507040876
 20
1597.033705574057
 30
0.0
 11
4434.307184664681
 21
1596.650531119298
 31
0.0
  0
LINE
  5
DFB1
330
1F
100
AcDbEntity
  8
0
 62
     0
100
AcDbLine
 10
4450.360433540176
 20
1596.699364566727
 30
0.0
 11
4450.948702380293
 21
1597.039253136831
 31
0.0
  0
ARC
  5
DFB2
330
1F
100
AcDbEntity
  8
0
 62
     0
 48
0.5
100
AcDbCircle
 10
4442.297706154015
 20
1602.033908136831
 30
0.0
 40
6.3
100
AcDbArc
 50
236.2147267221793
 51
246.6201318843042
  0
ARC
  5
DFB3
330
1F
100
AcDbEntity
  8
0
 62
     0
 48
0.5
100
AcDbCircle
 10
4442.297706154015
 20
1602.033908136831
 30
0.0
 40
6.3
100
AcDbArc
 50
293.3798681156957
 51
304.4471266145595
  0
ARC
  5
DFB4
330
1F
100
AcDbEntity
  8
0
 62
     0
 48
0.5
100
AcDbCircle
 10
4442.297706154015
 20
1591.533908136831
 30
0.0
 40
2.5
100
AcDbArc
 50
180.0
 51
0.0
  0
LINE
  5
DFB5
330
1F
100
AcDbEntity
  8
0
 62
     0
 48
12.0
100
AcDbLine
 10
4439.797706154015
 20
1593.750342833913
 30
0.0
 11
4434.307184664681
 21
1596.650531119298
 31
0.0
  0
LINE
  5
DFB6
330
1F
100
AcDbEntity
  8
0
 62
     0
 48
12.0
100
AcDbLine
 10
4444.797706154015
 20
1593.750342833913
 30
0.0
 11
4450.360433540176
 21
1596.699364566727
 31
0.0
  0
LINE
  5
DFB7
330
1F
100
AcDbEntity
  8
0
 62
     0
 48
0.5
100
AcDbLine
 10
4439.797706154015
 20
1612.533908136831
 30
0.0
 11
4439.797706154015
 21
1591.533908136831
 31
0.0
  0
LINE
  5
DFB8
330
1F
100
AcDbEntity
  8
0
 62
     0
100
AcDbLine
 10
4450.948702380293
 20
1597.039253136831
 30
0.0
 11
4450.951905267157
 21
1607.034110699605
 31
0.0
  0
LINE
  5
DFB9
330
1F
100
AcDbEntity
  8
0
 62
     0
100
AcDbLine
 10
4433.64670992774
 20
1607.028563136831
 30
0.0
 11
4433.643507040876
 21
1597.033705574057
 31
0.0
  0
LINE
  5
DFBA
330
1F
100
AcDbEntity
  8
0
 62
     0
 48
0.5
100
AcDbLine
 10
4444.797706154015
 20
1591.533908136831
 30
0.0
 11
4444.797706154015
 21
1602.033908136831
 31
0.0
  0
ARC
  5
DFBB
330
1F
100
AcDbEntity
  8
0
 62
     0
 48
12.0
100
AcDbCircle
 10
4442.297706154015
 20
1602.033908136831
 30
0.0
 40
6.300000000000106
100
AcDbArc
 50
113.3798681157138
 51
246.6201318842861
  0
ARC
  5
DFBC
330
1F
100
AcDbEntity
  8
0
 62
     0
 48
12.0
100
AcDbCircle
 10
4442.297706154015
 20
1602.033908136831
 30
0.0
 40
6.300000000000106
100
AcDbArc
 50
293.3798681157138
 51
66.62013188428613
  0
ARC
  5
DFBD
330
1F
100
AcDbEntity
  8
0
 62
     0
 48
12.0
100
AcDbCircle
 10
4442.297706154015
 20
1602.033908136831
 30
0.0
 40
8.305611164942092
100
AcDbArc
 50
107.5177551930744
 51
252.4822448069254
  0
ARC
  5
DFBE
330
1F
100
AcDbEntity
  8
0
 62
     0
 48
12.0
100
AcDbCircle
 10
4442.297706154015
 20
1602.033908136831
 30
0.0
 40
8.305611164942092
100
AcDbArc
 50
287.5177551930745
 51
72.48224480692551
  0
CIRCLE
  5
DFBF
330
1F
100
AcDbEntity
  8
0
 62
     0
 48
12.0
100
AcDbCircle
 10
4692.297706154015
 20
4602.033908136831
 30
0.0
 40
20.00000000000014
  0
ARC
  5
DFC0
330
1F
100
AcDbEntity
  8
0
 62
     0
 48
12.0
100
AcDbCircle
 10
4692.297706154015
 20
4602.033908136831
 30
0.0
 40
8.305611164942092
100
AcDbArc
 50
287.5177551930745
 51
72.48224480692551
  0
ARC
  5
DFC1
330
1F
100
AcDbEntity
  8
0
 62
     0
 48
12.0
100
AcDbCircle
 10
4692.297706154015
 20
4602.033908136831
 30
0.0
 40
8.305611164942092
100
AcDbArc
 50
107.5177551930744
 51
252.4822448069254
  0
ARC
  5
DFC2
330
1F
100
AcDbEntity
  8
0
 62
     0
 48
12.0
100
AcDbCircle
 10
4692.297706154015
 20
4602.033908136831
 30
0.0
 40
6.300000000000106
100
AcDbArc
 50
293.3798681157138
 51
66.62013188428613
  0
ARC
  5
DFC3
330
1F
100
AcDbEntity
  8
0
 62
     0
 48
12.0
100
AcDbCircle
 10
4692.297706154015
 20
4602.033908136831
 30
0.0
 40
6.300000000000106
100
AcDbArc
 50
113.3798681157138
 51
246.6201318842861
  0
LINE
  5
DFC4
330
1F
100
AcDbEntity
  8
0
 62
     0
 48
0.5
100
AcDbLine
 10
4694.797706154015
 20
4591.53390813683
 30
0.0
 11
4694.797706154015
 21
4602.033908136831
 31
0.0
  0
LINE
  5
DFC5
330
1F
100
AcDbEntity
  8
0
 62
     0
100
AcDbLine
 10
4683.64670992774
 20
4607.028563136831
 30
0.0
 11
4683.643507040876
 21
4597.033705574056
 31
0.0
  0
LINE
  5
DFC6
330
1F
100
AcDbEntity
  8
0
 62
     0
100
AcDbLine
 10
4700.948702380293
 20
4597.03925313683
 30
0.0
 11
4700.951905267157
 21
4607.034110699604
 31
0.0
  0
LINE
  5
DFC7
330
1F
100
AcDbEntity
  8
0
 62
     0
 48
0.5
100
AcDbLine
 10
4689.797706154015
 20
4612.533908136831
 30
0.0
 11
4689.797706154015
 21
4591.53390813683
 31
0.0
  0
LINE
  5
DFC8
330
1F
100
AcDbEntity
  8
0
 62
     0
 48
12.0
100
AcDbLine
 10
4694.797706154015
 20
4593.750342833913
 30
0.0
 11
4700.360433540176
 21
4596.699364566727
 31
0.0
  0
LINE
  5
DFC9
330
1F
100
AcDbEntity
  8
0
 62
     0
 48
12.0
100
AcDbLine
 10
4689.797706154015
 20
4593.750342833913
 30
0.0
 11
4684.307184664681
 21
4596.650531119297
 31
0.0
  0
ARC
  5
DFCA
330
1F
100
AcDbEntity
  8
0
 62
     0
 48
0.5
100
AcDbCircle
 10
4692.297706154015
 20
4591.53390813683
 30
0.0
 40
2.5
100
AcDbArc
 50
180.0
 51
0.0
  0
ARC
  5
DFCB
330
1F
100
AcDbEntity
  8
0
 62
     0
 48
0.5
100
AcDbCircle
 10
4692.297706154015
 20
4602.033908136831
 30
0.0
 40
6.3
100
AcDbArc
 50
293.3798681156957
 51
304.4471266145595
  0
ARC
  5
DFCC
330
1F
100
AcDbEntity
  8
0
 62
     0
 48
0.5
100
AcDbCircle
 10
4692.297706154015
 20
4602.033908136831
 30
0.0
 40
6.3
100
AcDbArc
 50
236.2147267221793
 51
246.6201318843042
  0
LINE
  5
DFCD
330
1F
100
AcDbEntity
  8
0
 62
     0
100
AcDbLine
 10
4700.360433540176
 20
4596.699364566727
 30
0.0
 11
4700.948702380293
 21
4597.03925313683
 31
0.0
  0
LINE
  5
DFCE
330
1F
100
AcDbEntity
  8
0
 62
     0
100
AcDbLine
 10
4683.643507040876
 20
4597.033705574056
 30
0.0
 11
4684.307184664681
 21
4596.650531119297
 31
0.0
  0
LINE
  5
DFCF
330
1F
100
AcDbEntity
  8
0
 62
     0
100
AcDbLine
 10
4683.643507040876
 20
4597.033705574056
 30
0.0
 11
4684.307184664681
 21
4596.650531119297
 31
0.0
  0
LINE
  5
DFD0
330
1F
100
AcDbEntity
  8
0
 62
     0
100
AcDbLine
 10
4700.951905267157
 20
4607.034110699604
 30
0.0
 11
4694.797706154015
 21
4610.587239214223
 31
0.0
  0
LINE
  5
DFD1
330
1F
100
AcDbEntity
  8
0
 62
     0
100
AcDbLine
 10
4700.951905267157
 20
4607.034110699604
 30
0.0
 11
4694.797706154015
 21
4610.587239214223
 31
0.0
  0
LINE
  5
DFD2
330
1F
100
AcDbEntity
  8
0
 62
     0
100
AcDbLine
 10
4689.797706154015
 20
4610.582471094363
 30
0.0
 11
4683.64670992774
 21
4607.028563136831
 31
0.0
  0
ARC
  5
DFD3
330
1F
100
AcDbEntity
  8
0
 62
     0
 48
0.5
100
AcDbCircle
 10
4692.297706154015
 20
4612.533908136831
 30
0.0
 40
2.5
100
AcDbArc
 50
0.0
 51
180.0
  0
LINE
  5
DFD4
330
1F
100
AcDbEntity
  8
0
 62
     0
 48
0.5
100
AcDbLine
 10
4694.797706154015
 20
4602.033908136831
 30
0.0
 11
4694.797706154015
 21
4612.533908136831
 31
0.0
  0
CIRCLE
  5
DFD5
330
1F
100
AcDbEntity
  8
0
 62
     0
 48
12.0
100
AcDbCircle
 10
4692.297706154015
 20
1602.033908136831
 30
0.0
 40
20.00000000000014
  0
LINE
  5
DFD6
330
1F
100
AcDbEntity
  8
0
 62
     0
 48
0.5
100
AcDbLine
 10
4694.797706154015
 20
1602.033908136831
 30
0.0
 11
4694.797706154015
 21
1612.533908136831
 31
0.0
  0
ARC
  5
DFD7
330
1F
100
AcDbEntity
  8
0
 62
     0
 48
0.5
100
AcDbCircle
 10
4692.297706154015
 20
1612.533908136831
 30
0.0
 40
2.5
100
AcDbArc
 50
0.0
 51
180.0
  0
LINE
  5
DFD8
330
1F
100
AcDbEntity
  8
0
 62
     0
100
AcDbLine
 10
4689.797706154015
 20
1610.582471094363
 30
0.0
 11
4683.64670992774
 21
1607.028563136831
 31
0.0
  0
LINE
  5
DFD9
330
1F
100
AcDbEntity
  8
0
 62
     0
100
AcDbLine
 10
4700.951905267157
 20
1607.034110699605
 30
0.0
 11
4694.797706154015
 21
1610.587239214223
 31
0.0
  0
LINE
  5
DFDA
330
1F
100
AcDbEntity
  8
0
 62
     0
100
AcDbLine
 10
4700.951905267157
 20
1607.034110699605
 30
0.0
 11
4694.797706154015
 21
1610.587239214223
 31
0.0
  0
LINE
  5
DFDB
330
1F
100
AcDbEntity
  8
0
 62
     0
100
AcDbLine
 10
4683.643507040876
 20
1597.033705574057
 30
0.0
 11
4684.307184664681
 21
1596.650531119298
 31
0.0
  0
LINE
  5
DFDC
330
1F
100
AcDbEntity
  8
0
 62
     0
100
AcDbLine
 10
4683.643507040876
 20
1597.033705574057
 30
0.0
 11
4684.307184664681
 21
1596.650531119298
 31
0.0
  0
LINE
  5
DFDD
330
1F
100
AcDbEntity
  8
0
 62
     0
100
AcDbLine
 10
4700.360433540176
 20
1596.699364566727
 30
0.0
 11
4700.948702380293
 21
1597.039253136831
 31
0.0
  0
ARC
  5
DFDE
330
1F
100
AcDbEntity
  8
0
 62
     0
 48
0.5
100
AcDbCircle
 10
4692.297706154015
 20
1602.033908136831
 30
0.0
 40
6.3
100
AcDbArc
 50
236.2147267221793
 51
246.6201318843042
  0
ARC
  5
DFDF
330
1F
100
AcDbEntity
  8
0
 62
     0
 48
0.5
100
AcDbCircle
 10
4692.297706154015
 20
1602.033908136831
 30
0.0
 40
6.3
100
AcDbArc
 50
293.3798681156957
 51
304.4471266145595
  0
ARC
  5
DFE0
330
1F
100
AcDbEntity
  8
0
 62
     0
 48
0.5
100
AcDbCircle
 10
4692.297706154015
 20
1591.533908136831
 30
0.0
 40
2.5
100
AcDbArc
 50
180.0
 51
0.0
  0
LINE
  5
DFE1
330
1F
100
AcDbEntity
  8
0
 62
     0
 48
12.0
100
AcDbLine
 10
4689.797706154015
 20
1593.750342833913
 30
0.0
 11
4684.307184664681
 21
1596.650531119298
 31
0.0
  0
LINE
  5
DFE2
330
1F
100
AcDbEntity
  8
0
 62
     0
 48
12.0
100
AcDbLine
 10
4694.797706154015
 20
1593.750342833913
 30
0.0
 11
4700.360433540176
 21
1596.699364566727
 31
0.0
  0
LINE
  5
DFE3
330
1F
100
AcDbEntity
  8
0
 62
     0
 48
0.5
100
AcDbLine
 10
4689.797706154015
 20
1612.533908136831
 30
0.0
 11
4689.797706154015
 21
1591.533908136831
 31
0.0
  0
LINE
  5
DFE4
330
1F
100
AcDbEntity
  8
0
 62
     0
100
AcDbLine
 10
4700.948702380293
 20
1597.039253136831
 30
0.0
 11
4700.951905267157
 21
1607.034110699605
 31
0.0
  0
LINE
  5
DFE5
330
1F
100
AcDbEntity
  8
0
 62
     0
100
AcDbLine
 10
4683.64670992774
 20
1607.028563136831
 30
0.0
 11
4683.643507040876
 21
1597.033705574057
 31
0.0
  0
LINE
  5
DFE6
330
1F
100
AcDbEntity
  8
0
 62
     0
 48
0.5
100
AcDbLine
 10
4694.797706154015
 20
1591.533908136831
 30
0.0
 11
4694.797706154015
 21
1602.033908136831
 31
0.0
  0
ARC
  5
DFE7
330
1F
100
AcDbEntity
  8
0
 62
     0
 48
12.0
100
AcDbCircle
 10
4692.297706154015
 20
1602.033908136831
 30
0.0
 40
6.300000000000106
100
AcDbArc
 50
113.3798681157138
 51
246.6201318842861
  0
ARC
  5
DFE8
330
1F
100
AcDbEntity
  8
0
 62
     0
 48
12.0
100
AcDbCircle
 10
4692.297706154015
 20
1602.033908136831
 30
0.0
 40
6.300000000000106
100
AcDbArc
 50
293.3798681157138
 51
66.62013188428613
  0
ARC
  5
DFE9
330
1F
100
AcDbEntity
  8
0
 62
     0
 48
12.0
100
AcDbCircle
 10
4692.297706154015
 20
1602.033908136831
 30
0.0
 40
8.305611164942092
100
AcDbArc
 50
107.5177551930744
 51
252.4822448069254
  0
ARC
  5
DFEA
330
1F
100
AcDbEntity
  8
0
 62
     0
 48
12.0
100
AcDbCircle
 10
4692.297706154015
 20
1602.033908136831
 30
0.0
 40
8.305611164942092
100
AcDbArc
 50
287.5177551930745
 51
72.48224480692551
  0
ARC
  5
E044
330
1F
100
AcDbEntity
  8
0
 62
     0
 48
12.0
100
AcDbCircle
 10
2942.297706154015
 20
4102.033908136831
 30
0.0
 40
8.305611164942092
100
AcDbArc
 50
17.51775519307452
 51
162.4822448069254
  0
ARC
  5
E045
330
1F
100
AcDbEntity
  8
0
 62
     0
 48
12.0
100
AcDbCircle
 10
2942.297706154015
 20
4102.033908136831
 30
0.0
 40
8.305611164942092
100
AcDbArc
 50
197.5177551930745
 51
342.4822448069255
  0
ARC
  5
E046
330
1F
100
AcDbEntity
  8
0
 62
     0
 48
12.0
100
AcDbCircle
 10
2942.297706154015
 20
4102.033908136831
 30
0.0
 40
6.300000000000106
100
AcDbArc
 50
23.37986811571387
 51
156.6201318842861
  0
ARC
  5
E047
330
1F
100
AcDbEntity
  8
0
 62
     0
 48
12.0
100
AcDbCircle
 10
2942.297706154015
 20
4102.033908136831
 30
0.0
 40
6.300000000000106
100
AcDbArc
 50
203.3798681157139
 51
336.6201318842861
  0
LINE
  5
E048
330
1F
100
AcDbEntity
  8
0
 62
     0
 48
0.5
100
AcDbLine
 10
2931.797706154015
 20
4099.533908136831
 30
0.0
 11
2952.797706154014
 21
4099.533908136831
 31
0.0
  0
LINE
  5
E049
330
1F
100
AcDbEntity
  8
0
 62
     0
100
AcDbLine
 10
2937.29750359124
 20
4110.688107249973
 30
0.0
 11
2933.744375076623
 21
4104.533908136831
 31
0.0
  0
LINE
  5
E04A
330
1F
100
AcDbEntity
  8
0
 62
     0
100
AcDbLine
 10
2937.29750359124
 20
4110.688107249973
 30
0.0
 11
2933.744375076623
 21
4104.533908136831
 31
0.0
  0
LINE
  5
E04B
330
1F
100
AcDbEntity
  8
0
 62
     0
100
AcDbLine
 10
2933.749143196482
 20
4099.533908136831
 30
0.0
 11
2937.303051154014
 21
4093.382911910556
 31
0.0
  0
LINE
  5
E04C
330
1F
100
AcDbEntity
  8
0
 62
     0
 48
0.5
100
AcDbLine
 10
2942.297706154015
 20
4104.533908136831
 30
0.0
 11
2931.797706154015
 21
4104.533908136831
 31
0.0
  0
CIRCLE
  5
E04D
330
1F
100
AcDbEntity
  8
0
 62
     0
 48
12.0
100
AcDbCircle
 10
2942.297706154015
 20
4102.033908136831
 30
0.0
 40
20.00000000000014
  0
LINE
  5
E04E
330
1F
100
AcDbEntity
  8
0
 62
     0
 48
0.5
100
AcDbLine
 10
2952.797706154014
 20
4104.533908136831
 30
0.0
 11
2942.297706154015
 21
4104.533908136831
 31
0.0
  0
LINE
  5
E04F
330
1F
100
AcDbEntity
  8
0
 62
     0
100
AcDbLine
 10
2937.303051154014
 20
4093.382911910556
 30
0.0
 11
2947.297908716789
 21
4093.379709023692
 31
0.0
  0
LINE
  5
E050
330
1F
100
AcDbEntity
  8
0
 62
     0
100
AcDbLine
 10
2947.292361154015
 20
4110.68490436311
 30
0.0
 11
2937.29750359124
 21
4110.688107249973
 31
0.0
  0
LINE
  5
E051
330
1F
100
AcDbEntity
  8
0
 62
     0
 48
12.0
100
AcDbLine
 10
2950.581271456932
 20
4104.533908136831
 30
0.0
 11
2947.632249724118
 21
4110.096635522991
 31
0.0
  0
LINE
  5
E052
330
1F
100
AcDbEntity
  8
0
 62
     0
 48
12.0
100
AcDbLine
 10
2950.581271456932
 20
4099.533908136831
 30
0.0
 11
2947.681083171548
 21
4094.043386647498
 31
0.0
  0
ARC
  5
E053
330
1F
100
AcDbEntity
  8
0
 62
     0
 48
0.5
100
AcDbCircle
 10
2952.797706154015
 20
4102.033908136831
 30
0.0
 40
2.5
100
AcDbArc
 50
270.0
 51
90.0
  0
ARC
  5
E054
330
1F
100
AcDbEntity
  8
0
 62
     0
 48
0.5
100
AcDbCircle
 10
2942.297706154015
 20
4102.033908136831
 30
0.0
 40
6.3
100
AcDbArc
 50
23.37986811569573
 51
34.44712661455956
  0
ARC
  5
E055
330
1F
100
AcDbEntity
  8
0
 62
     0
 48
0.5
100
AcDbCircle
 10
2942.297706154015
 20
4102.033908136831
 30
0.0
 40
6.3
100
AcDbArc
 50
326.2147267221793
 51
336.6201318843042
  0
LINE
  5
E056
330
1F
100
AcDbEntity
  8
0
 62
     0
100
AcDbLine
 10
2947.632249724118
 20
4110.096635522991
 30
0.0
 11
2947.292361154015
 21
4110.68490436311
 31
0.0
  0
LINE
  5
E057
330
1F
100
AcDbEntity
  8
0
 62
     0
100
AcDbLine
 10
2947.297908716789
 20
4093.379709023692
 30
0.0
 11
2947.681083171548
 21
4094.043386647498
 31
0.0
  0
LINE
  5
E058
330
1F
100
AcDbEntity
  8
0
 62
     0
100
AcDbLine
 10
2947.297908716789
 20
4093.379709023692
 30
0.0
 11
2947.681083171548
 21
4094.043386647498
 31
0.0
  0
ARC
  5
E059
330
1F
100
AcDbEntity
  8
0
 62
     0
 48
0.5
100
AcDbCircle
 10
2931.797706154015
 20
4102.033908136831
 30
0.0
 40
2.5
100
AcDbArc
 50
90.0
 51
270.0
  0
CIRCLE
  5
E136
330
1F
100
AcDbEntity
  8
0
 62
     0
 48
12.0
100
AcDbCircle
 10
2942.297706154015
 20
3602.033908136831
 30
0.0
 40
20.00000000000014
  0
ARC
  5
E137
330
1F
100
AcDbEntity
  8
0
 62
     0
 48
12.0
100
AcDbCircle
 10
2942.297706154015
 20
3602.033908136831
 30
0.0
 40
8.305611164942092
100
AcDbArc
 50
17.51775519307452
 51
162.4822448069254
  0
ARC
  5
E138
330
1F
100
AcDbEntity
  8
0
 62
     0
 48
12.0
100
AcDbCircle
 10
2942.297706154015
 20
3602.033908136831
 30
0.0
 40
8.305611164942092
100
AcDbArc
 50
197.5177551930745
 51
342.4822448069255
  0
ARC
  5
E139
330
1F
100
AcDbEntity
  8
0
 62
     0
 48
12.0
100
AcDbCircle
 10
2942.297706154015
 20
3602.033908136831
 30
0.0
 40
6.300000000000106
100
AcDbArc
 50
23.37986811571387
 51
156.6201318842861
  0
ARC
  5
E13A
330
1F
100
AcDbEntity
  8
0
 62
     0
 48
12.0
100
AcDbCircle
 10
2942.297706154015
 20
3602.033908136831
 30
0.0
 40
6.300000000000106
100
AcDbArc
 50
203.3798681157139
 51
336.6201318842861
  0
LINE
  5
E13B
330
1F
100
AcDbEntity
  8
0
 62
     0
 48
0.5
100
AcDbLine
 10
2931.797706154015
 20
3599.533908136831
 30
0.0
 11
2952.797706154014
 21
3599.533908136831
 31
0.0
  0
LINE
  5
E13C
330
1F
100
AcDbEntity
  8
0
 62
     0
100
AcDbLine
 10
2937.29750359124
 20
3610.688107249972
 30
0.0
 11
2933.744375076623
 21
3604.533908136831
 31
0.0
  0
LINE
  5
E13D
330
1F
100
AcDbEntity
  8
0
 62
     0
100
AcDbLine
 10
2937.29750359124
 20
3610.688107249972
 30
0.0
 11
2933.744375076623
 21
3604.533908136831
 31
0.0
  0
LINE
  5
E13E
330
1F
100
AcDbEntity
  8
0
 62
     0
100
AcDbLine
 10
2933.749143196482
 20
3599.533908136831
 30
0.0
 11
2937.303051154014
 21
3593.382911910556
 31
0.0
  0
LINE
  5
E13F
330
1F
100
AcDbEntity
  8
0
 62
     0
 48
0.5
100
AcDbLine
 10
2942.297706154015
 20
3604.533908136831
 30
0.0
 11
2931.797706154015
 21
3604.533908136831
 31
0.0
  0
LINE
  5
E140
330
1F
100
AcDbEntity
  8
0
 62
     0
 48
0.5
100
AcDbLine
 10
2952.797706154014
 20
3604.533908136831
 30
0.0
 11
2942.297706154015
 21
3604.533908136831
 31
0.0
  0
LINE
  5
E141
330
1F
100
AcDbEntity
  8
0
 62
     0
100
AcDbLine
 10
2937.303051154014
 20
3593.382911910556
 30
0.0
 11
2947.297908716789
 21
3593.379709023693
 31
0.0
  0
LINE
  5
E142
330
1F
100
AcDbEntity
  8
0
 62
     0
100
AcDbLine
 10
2947.292361154015
 20
3610.68490436311
 30
0.0
 11
2937.29750359124
 21
3610.688107249972
 31
0.0
  0
LINE
  5
E143
330
1F
100
AcDbEntity
  8
0
 62
     0
 48
12.0
100
AcDbLine
 10
2950.581271456932
 20
3604.533908136831
 30
0.0
 11
2947.632249724118
 21
3610.096635522992
 31
0.0
  0
LINE
  5
E144
330
1F
100
AcDbEntity
  8
0
 62
     0
 48
12.0
100
AcDbLine
 10
2950.581271456932
 20
3599.533908136831
 30
0.0
 11
2947.681083171548
 21
3594.043386647497
 31
0.0
  0
ARC
  5
E145
330
1F
100
AcDbEntity
  8
0
 62
     0
 48
0.5
100
AcDbCircle
 10
2952.797706154015
 20
3602.033908136831
 30
0.0
 40
2.5
100
AcDbArc
 50
270.0
 51
90.0
  0
ARC
  5
E146
330
1F
100
AcDbEntity
  8
0
 62
     0
 48
0.5
100
AcDbCircle
 10
2942.297706154015
 20
3602.033908136831
 30
0.0
 40
6.3
100
AcDbArc
 50
23.37986811569573
 51
34.44712661455956
  0
ARC
  5
E147
330
1F
100
AcDbEntity
  8
0
 62
     0
 48
0.5
100
AcDbCircle
 10
2942.297706154015
 20
3602.033908136831
 30
0.0
 40
6.3
100
AcDbArc
 50
326.2147267221793
 51
336.6201318843042
  0
LINE
  5
E148
330
1F
100
AcDbEntity
  8
0
 62
     0
100
AcDbLine
 10
2947.632249724118
 20
3610.096635522992
 30
0.0
 11
2947.292361154015
 21
3610.68490436311
 31
0.0
  0
LINE
  5
E149
330
1F
100
AcDbEntity
  8
0
 62
     0
100
AcDbLine
 10
2947.297908716789
 20
3593.379709023693
 30
0.0
 11
2947.681083171548
 21
3594.043386647497
 31
0.0
  0
LINE
  5
E14A
330
1F
100
AcDbEntity
  8
0
 62
     0
100
AcDbLine
 10
2947.297908716789
 20
3593.379709023693
 30
0.0
 11
2947.681083171548
 21
3594.043386647497
 31
0.0
  0
ARC
  5
E14B
330
1F
100
AcDbEntity
  8
0
 62
     0
 48
0.5
100
AcDbCircle
 10
2931.797706154015
 20
3602.033908136831
 30
0.0
 40
2.5
100
AcDbArc
 50
90.0
 51
270.0
  0
CIRCLE
  5
E14C
330
1F
100
AcDbEntity
  8
0
 62
     0
 48
12.0
100
AcDbCircle
 10
2942.297706154015
 20
3102.033908136831
 30
0.0
 40
20.00000000000014
  0
ARC
  5
E14D
330
1F
100
AcDbEntity
  8
0
 62
     0
 48
12.0
100
AcDbCircle
 10
2942.297706154015
 20
3102.033908136831
 30
0.0
 40
8.305611164942092
100
AcDbArc
 50
17.51775519307452
 51
162.4822448069254
  0
ARC
  5
E14E
330
1F
100
AcDbEntity
  8
0
 62
     0
 48
12.0
100
AcDbCircle
 10
2942.297706154015
 20
3102.033908136831
 30
0.0
 40
8.305611164942092
100
AcDbArc
 50
197.5177551930745
 51
342.4822448069255
  0
ARC
  5
E14F
330
1F
100
AcDbEntity
  8
0
 62
     0
 48
12.0
100
AcDbCircle
 10
2942.297706154015
 20
3102.033908136831
 30
0.0
 40
6.300000000000106
100
AcDbArc
 50
23.37986811571387
 51
156.6201318842861
  0
ARC
  5
E150
330
1F
100
AcDbEntity
  8
0
 62
     0
 48
12.0
100
AcDbCircle
 10
2942.297706154015
 20
3102.033908136831
 30
0.0
 40
6.300000000000106
100
AcDbArc
 50
203.3798681157139
 51
336.6201318842861
  0
LINE
  5
E151
330
1F
100
AcDbEntity
  8
0
 62
     0
 48
0.5
100
AcDbLine
 10
2931.797706154015
 20
3099.533908136831
 30
0.0
 11
2952.797706154014
 21
3099.533908136831
 31
0.0
  0
LINE
  5
E152
330
1F
100
AcDbEntity
  8
0
 62
     0
100
AcDbLine
 10
2937.29750359124
 20
3110.688107249973
 30
0.0
 11
2933.744375076623
 21
3104.533908136831
 31
0.0
  0
LINE
  5
E153
330
1F
100
AcDbEntity
  8
0
 62
     0
100
AcDbLine
 10
2937.29750359124
 20
3110.688107249973
 30
0.0
 11
2933.744375076623
 21
3104.533908136831
 31
0.0
  0
LINE
  5
E154
330
1F
100
AcDbEntity
  8
0
 62
     0
100
AcDbLine
 10
2933.749143196482
 20
3099.533908136831
 30
0.0
 11
2937.303051154014
 21
3093.382911910556
 31
0.0
  0
LINE
  5
E155
330
1F
100
AcDbEntity
  8
0
 62
     0
 48
0.5
100
AcDbLine
 10
2942.297706154015
 20
3104.533908136831
 30
0.0
 11
2931.797706154015
 21
3104.533908136831
 31
0.0
  0
LINE
  5
E156
330
1F
100
AcDbEntity
  8
0
 62
     0
 48
0.5
100
AcDbLine
 10
2952.797706154014
 20
3104.533908136831
 30
0.0
 11
2942.297706154015
 21
3104.533908136831
 31
0.0
  0
LINE
  5
E157
330
1F
100
AcDbEntity
  8
0
 62
     0
100
AcDbLine
 10
2937.303051154014
 20
3093.382911910556
 30
0.0
 11
2947.297908716789
 21
3093.379709023693
 31
0.0
  0
LINE
  5
E158
330
1F
100
AcDbEntity
  8
0
 62
     0
100
AcDbLine
 10
2947.292361154015
 20
3110.68490436311
 30
0.0
 11
2937.29750359124
 21
3110.688107249973
 31
0.0
  0
LINE
  5
E159
330
1F
100
AcDbEntity
  8
0
 62
     0
 48
12.0
100
AcDbLine
 10
2950.581271456932
 20
3104.533908136831
 30
0.0
 11
2947.632249724118
 21
3110.096635522992
 31
0.0
  0
LINE
  5
E15A
330
1F
100
AcDbEntity
  8
0
 62
     0
 48
12.0
100
AcDbLine
 10
2950.581271456932
 20
3099.533908136831
 30
0.0
 11
2947.681083171548
 21
3094.043386647498
 31
0.0
  0
ARC
  5
E15B
330
1F
100
AcDbEntity
  8
0
 62
     0
 48
0.5
100
AcDbCircle
 10
2952.797706154015
 20
3102.033908136831
 30
0.0
 40
2.5
100
AcDbArc
 50
270.0
 51
90.0
  0
ARC
  5
E15C
330
1F
100
AcDbEntity
  8
0
 62
     0
 48
0.5
100
AcDbCircle
 10
2942.297706154015
 20
3102.033908136831
 30
0.0
 40
6.3
100
AcDbArc
 50
23.37986811569573
 51
34.44712661455956
  0
ARC
  5
E15D
330
1F
100
AcDbEntity
  8
0
 62
     0
 48
0.5
100
AcDbCircle
 10
2942.297706154015
 20
3102.033908136831
 30
0.0
 40
6.3
100
AcDbArc
 50
326.2147267221793
 51
336.6201318843042
  0
LINE
  5
E15E
330
1F
100
AcDbEntity
  8
0
 62
     0
100
AcDbLine
 10
2947.632249724118
 20
3110.096635522992
 30
0.0
 11
2947.292361154015
 21
3110.68490436311
 31
0.0
  0
LINE
  5
E15F
330
1F
100
AcDbEntity
  8
0
 62
     0
100
AcDbLine
 10
2947.297908716789
 20
3093.379709023693
 30
0.0
 11
2947.681083171548
 21
3094.043386647498
 31
0.0
  0
LINE
  5
E160
330
1F
100
AcDbEntity
  8
0
 62
     0
100
AcDbLine
 10
2947.297908716789
 20
3093.379709023693
 30
0.0
 11
2947.681083171548
 21
3094.043386647498
 31
0.0
  0
ARC
  5
E161
330
1F
100
AcDbEntity
  8
0
 62
     0
 48
0.5
100
AcDbCircle
 10
2931.797706154015
 20
3102.033908136831
 30
0.0
 40
2.5
100
AcDbArc
 50
90.0
 51
270.0
  0
CIRCLE
  5
E162
330
1F
100
AcDbEntity
  8
0
 62
     0
 48
12.0
100
AcDbCircle
 10
2942.297706154015
 20
2602.033908136831
 30
0.0
 40
20.00000000000014
  0
ARC
  5
E163
330
1F
100
AcDbEntity
  8
0
 62
     0
 48
12.0
100
AcDbCircle
 10
2942.297706154015
 20
2602.033908136831
 30
0.0
 40
8.305611164942092
100
AcDbArc
 50
17.51775519307452
 51
162.4822448069254
  0
ARC
  5
E164
330
1F
100
AcDbEntity
  8
0
 62
     0
 48
12.0
100
AcDbCircle
 10
2942.297706154015
 20
2602.033908136831
 30
0.0
 40
8.305611164942092
100
AcDbArc
 50
197.5177551930745
 51
342.4822448069255
  0
ARC
  5
E165
330
1F
100
AcDbEntity
  8
0
 62
     0
 48
12.0
100
AcDbCircle
 10
2942.297706154015
 20
2602.033908136831
 30
0.0
 40
6.300000000000106
100
AcDbArc
 50
23.37986811571387
 51
156.6201318842861
  0
ARC
  5
E166
330
1F
100
AcDbEntity
  8
0
 62
     0
 48
12.0
100
AcDbCircle
 10
2942.297706154015
 20
2602.033908136831
 30
0.0
 40
6.300000000000106
100
AcDbArc
 50
203.3798681157139
 51
336.6201318842861
  0
LINE
  5
E167
330
1F
100
AcDbEntity
  8
0
 62
     0
 48
0.5
100
AcDbLine
 10
2931.797706154015
 20
2599.533908136831
 30
0.0
 11
2952.797706154014
 21
2599.533908136831
 31
0.0
  0
LINE
  5
E168
330
1F
100
AcDbEntity
  8
0
 62
     0
100
AcDbLine
 10
2937.29750359124
 20
2610.688107249973
 30
0.0
 11
2933.744375076623
 21
2604.533908136831
 31
0.0
  0
LINE
  5
E169
330
1F
100
AcDbEntity
  8
0
 62
     0
100
AcDbLine
 10
2937.29750359124
 20
2610.688107249973
 30
0.0
 11
2933.744375076623
 21
2604.533908136831
 31
0.0
  0
LINE
  5
E16A
330
1F
100
AcDbEntity
  8
0
 62
     0
100
AcDbLine
 10
2933.749143196482
 20
2599.533908136831
 30
0.0
 11
2937.303051154014
 21
2593.382911910556
 31
0.0
  0
LINE
  5
E16B
330
1F
100
AcDbEntity
  8
0
 62
     0
 48
0.5
100
AcDbLine
 10
2942.297706154015
 20
2604.533908136831
 30
0.0
 11
2931.797706154015
 21
2604.533908136831
 31
0.0
  0
LINE
  5
E16C
330
1F
100
AcDbEntity
  8
0
 62
     0
 48
0.5
100
AcDbLine
 10
2952.797706154014
 20
2604.533908136831
 30
0.0
 11
2942.297706154015
 21
2604.533908136831
 31
0.0
  0
LINE
  5
E16D
330
1F
100
AcDbEntity
  8
0
 62
     0
100
AcDbLine
 10
2937.303051154014
 20
2593.382911910556
 30
0.0
 11
2947.297908716789
 21
2593.379709023693
 31
0.0
  0
LINE
  5
E16E
330
1F
100
AcDbEntity
  8
0
 62
     0
100
AcDbLine
 10
2947.292361154015
 20
2610.68490436311
 30
0.0
 11
2937.29750359124
 21
2610.688107249973
 31
0.0
  0
LINE
  5
E16F
330
1F
100
AcDbEntity
  8
0
 62
     0
 48
12.0
100
AcDbLine
 10
2950.581271456932
 20
2604.533908136831
 30
0.0
 11
2947.632249724118
 21
2610.096635522992
 31
0.0
  0
LINE
  5
E170
330
1F
100
AcDbEntity
  8
0
 62
     0
 48
12.0
100
AcDbLine
 10
2950.581271456932
 20
2599.533908136831
 30
0.0
 11
2947.681083171548
 21
2594.043386647498
 31
0.0
  0
ARC
  5
E171
330
1F
100
AcDbEntity
  8
0
 62
     0
 48
0.5
100
AcDbCircle
 10
2952.797706154015
 20
2602.033908136831
 30
0.0
 40
2.5
100
AcDbArc
 50
270.0
 51
90.0
  0
ARC
  5
E172
330
1F
100
AcDbEntity
  8
0
 62
     0
 48
0.5
100
AcDbCircle
 10
2942.297706154015
 20
2602.033908136831
 30
0.0
 40
6.3
100
AcDbArc
 50
23.37986811569573
 51
34.44712661455956
  0
ARC
  5
E173
330
1F
100
AcDbEntity
  8
0
 62
     0
 48
0.5
100
AcDbCircle
 10
2942.297706154015
 20
2602.033908136831
 30
0.0
 40
6.3
100
AcDbArc
 50
326.2147267221793
 51
336.6201318843042
  0
LINE
  5
E174
330
1F
100
AcDbEntity
  8
0
 62
     0
100
AcDbLine
 10
2947.632249724118
 20
2610.096635522992
 30
0.0
 11
2947.292361154015
 21
2610.68490436311
 31
0.0
  0
LINE
  5
E175
330
1F
100
AcDbEntity
  8
0
 62
     0
100
AcDbLine
 10
2947.297908716789
 20
2593.379709023693
 30
0.0
 11
2947.681083171548
 21
2594.043386647498
 31
0.0
  0
LINE
  5
E176
330
1F
100
AcDbEntity
  8
0
 62
     0
100
AcDbLine
 10
2947.297908716789
 20
2593.379709023693
 30
0.0
 11
2947.681083171548
 21
2594.043386647498
 31
0.0
  0
ARC
  5
E177
330
1F
100
AcDbEntity
  8
0
 62
     0
 48
0.5
100
AcDbCircle
 10
2931.797706154015
 20
2602.033908136831
 30
0.0
 40
2.5
100
AcDbArc
 50
90.0
 51
270.0
  0
CIRCLE
  5
E178
330
1F
100
AcDbEntity
  8
0
 62
     0
 48
12.0
100
AcDbCircle
 10
2942.297706154015
 20
2102.033908136831
 30
0.0
 40
20.00000000000014
  0
ARC
  5
E179
330
1F
100
AcDbEntity
  8
0
 62
     0
 48
12.0
100
AcDbCircle
 10
2942.297706154015
 20
2102.033908136831
 30
0.0
 40
8.305611164942092
100
AcDbArc
 50
17.51775519307452
 51
162.4822448069254
  0
ARC
  5
E17A
330
1F
100
AcDbEntity
  8
0
 62
     0
 48
12.0
100
AcDbCircle
 10
2942.297706154015
 20
2102.033908136831
 30
0.0
 40
8.305611164942092
100
AcDbArc
 50
197.5177551930745
 51
342.4822448069255
  0
ARC
  5
E17B
330
1F
100
AcDbEntity
  8
0
 62
     0
 48
12.0
100
AcDbCircle
 10
2942.297706154015
 20
2102.033908136831
 30
0.0
 40
6.300000000000106
100
AcDbArc
 50
23.37986811571387
 51
156.6201318842861
  0
ARC
  5
E17C
330
1F
100
AcDbEntity
  8
0
 62
     0
 48
12.0
100
AcDbCircle
 10
2942.297706154015
 20
2102.033908136831
 30
0.0
 40
6.300000000000106
100
AcDbArc
 50
203.3798681157139
 51
336.6201318842861
  0
LINE
  5
E17D
330
1F
100
AcDbEntity
  8
0
 62
     0
 48
0.5
100
AcDbLine
 10
2931.797706154015
 20
2099.533908136831
 30
0.0
 11
2952.797706154014
 21
2099.533908136831
 31
0.0
  0
LINE
  5
E17E
330
1F
100
AcDbEntity
  8
0
 62
     0
100
AcDbLine
 10
2937.29750359124
 20
2110.688107249973
 30
0.0
 11
2933.744375076623
 21
2104.533908136831
 31
0.0
  0
LINE
  5
E17F
330
1F
100
AcDbEntity
  8
0
 62
     0
100
AcDbLine
 10
2937.29750359124
 20
2110.688107249973
 30
0.0
 11
2933.744375076623
 21
2104.533908136831
 31
0.0
  0
LINE
  5
E180
330
1F
100
AcDbEntity
  8
0
 62
     0
100
AcDbLine
 10
2933.749143196482
 20
2099.533908136831
 30
0.0
 11
2937.303051154014
 21
2093.382911910555
 31
0.0
  0
LINE
  5
E181
330
1F
100
AcDbEntity
  8
0
 62
     0
 48
0.5
100
AcDbLine
 10
2942.297706154015
 20
2104.533908136831
 30
0.0
 11
2931.797706154015
 21
2104.533908136831
 31
0.0
  0
LINE
  5
E182
330
1F
100
AcDbEntity
  8
0
 62
     0
 48
0.5
100
AcDbLine
 10
2952.797706154014
 20
2104.533908136831
 30
0.0
 11
2942.297706154015
 21
2104.533908136831
 31
0.0
  0
LINE
  5
E183
330
1F
100
AcDbEntity
  8
0
 62
     0
100
AcDbLine
 10
2937.303051154014
 20
2093.382911910555
 30
0.0
 11
2947.297908716789
 21
2093.379709023693
 31
0.0
  0
LINE
  5
E184
330
1F
100
AcDbEntity
  8
0
 62
     0
100
AcDbLine
 10
2947.292361154015
 20
2110.68490436311
 30
0.0
 11
2937.29750359124
 21
2110.688107249973
 31
0.0
  0
LINE
  5
E185
330
1F
100
AcDbEntity
  8
0
 62
     0
 48
12.0
100
AcDbLine
 10
2950.581271456932
 20
2104.533908136831
 30
0.0
 11
2947.632249724118
 21
2110.096635522992
 31
0.0
  0
LINE
  5
E186
330
1F
100
AcDbEntity
  8
0
 62
     0
 48
12.0
100
AcDbLine
 10
2950.581271456932
 20
2099.533908136831
 30
0.0
 11
2947.681083171548
 21
2094.043386647498
 31
0.0
  0
ARC
  5
E187
330
1F
100
AcDbEntity
  8
0
 62
     0
 48
0.5
100
AcDbCircle
 10
2952.797706154015
 20
2102.033908136831
 30
0.0
 40
2.5
100
AcDbArc
 50
270.0
 51
90.0
  0
ARC
  5
E188
330
1F
100
AcDbEntity
  8
0
 62
     0
 48
0.5
100
AcDbCircle
 10
2942.297706154015
 20
2102.033908136831
 30
0.0
 40
6.3
100
AcDbArc
 50
23.37986811569573
 51
34.44712661455956
  0
ARC
  5
E189
330
1F
100
AcDbEntity
  8
0
 62
     0
 48
0.5
100
AcDbCircle
 10
2942.297706154015
 20
2102.033908136831
 30
0.0
 40
6.3
100
AcDbArc
 50
326.2147267221793
 51
336.6201318843042
  0
LINE
  5
E18A
330
1F
100
AcDbEntity
  8
0
 62
     0
100
AcDbLine
 10
2947.632249724118
 20
2110.096635522992
 30
0.0
 11
2947.292361154015
 21
2110.68490436311
 31
0.0
  0
LINE
  5
E18B
330
1F
100
AcDbEntity
  8
0
 62
     0
100
AcDbLine
 10
2947.297908716789
 20
2093.379709023693
 30
0.0
 11
2947.681083171548
 21
2094.043386647498
 31
0.0
  0
LINE
  5
E18C
330
1F
100
AcDbEntity
  8
0
 62
     0
100
AcDbLine
 10
2947.297908716789
 20
2093.379709023693
 30
0.0
 11
2947.681083171548
 21
2094.043386647498
 31
0.0
  0
ARC
  5
E18D
330
1F
100
AcDbEntity
  8
0
 62
     0
 48
0.5
100
AcDbCircle
 10
2931.797706154015
 20
2102.033908136831
 30
0.0
 40
2.5
100
AcDbArc
 50
90.0
 51
270.0
  0
LINE
  5
E18E
330
1F
100
AcDbEntity
  8
0
 62
     0
 48
12.0
100
AcDbLine
 10
4950.581271456933
 20
2104.533908136831
 30
0.0
 11
4947.632249724119
 21
2110.096635522992
 31
0.0
  0
LINE
  5
E18F
330
1F
100
AcDbEntity
  8
0
 62
     0
100
AcDbLine
 10
4937.29750359124
 20
2110.688107249973
 30
0.0
 11
4933.744375076623
 21
2104.533908136831
 31
0.0
  0
LINE
  5
E190
330
1F
100
AcDbEntity
  8
0
 62
     0
100
AcDbLine
 10
4937.29750359124
 20
2110.688107249973
 30
0.0
 11
4933.744375076623
 21
2104.533908136831
 31
0.0
  0
ARC
  5
E191
330
1F
100
AcDbEntity
  8
0
 62
     0
 48
12.0
100
AcDbCircle
 10
4942.297706154015
 20
2102.033908136831
 30
0.0
 40
6.300000000000106
100
AcDbArc
 50
23.37986811571387
 51
156.6201318842861
  0
ARC
  5
E192
330
1F
100
AcDbEntity
  8
0
 62
     0
 48
12.0
100
AcDbCircle
 10
4942.297706154015
 20
2102.033908136831
 30
0.0
 40
8.305611164942092
100
AcDbArc
 50
17.51775519307452
 51
162.4822448069254
  0
CIRCLE
  5
E193
330
1F
100
AcDbEntity
  8
0
 62
     0
 48
12.0
100
AcDbCircle
 10
4942.297706154015
 20
2102.033908136831
 30
0.0
 40
20.00000000000014
  0
ARC
  5
E194
330
1F
100
AcDbEntity
  8
0
 62
     0
 48
0.5
100
AcDbCircle
 10
4931.797706154014
 20
2102.033908136831
 30
0.0
 40
2.5
100
AcDbArc
 50
90.0
 51
270.0
  0
LINE
  5
E195
330
1F
100
AcDbEntity
  8
0
 62
     0
100
AcDbLine
 10
4947.29790871679
 20
2093.379709023693
 30
0.0
 11
4947.681083171548
 21
2094.043386647498
 31
0.0
  0
LINE
  5
E196
330
1F
100
AcDbEntity
  8
0
 62
     0
100
AcDbLine
 10
4947.29790871679
 20
2093.379709023693
 30
0.0
 11
4947.681083171548
 21
2094.043386647498
 31
0.0
  0
ARC
  5
E197
330
1F
100
AcDbEntity
  8
0
 62
     0
 48
0.5
100
AcDbCircle
 10
4942.297706154015
 20
2102.033908136831
 30
0.0
 40
6.3
100
AcDbArc
 50
326.2147267221793
 51
336.6201318843042
  0
ARC
  5
E198
330
1F
100
AcDbEntity
  8
0
 62
     0
 48
0.5
100
AcDbCircle
 10
4942.297706154015
 20
2102.033908136831
 30
0.0
 40
6.3
100
AcDbArc
 50
23.37986811569573
 51
34.44712661455956
  0
ARC
  5
E199
330
1F
100
AcDbEntity
  8
0
 62
     0
 48
0.5
100
AcDbCircle
 10
4952.797706154015
 20
2102.033908136831
 30
0.0
 40
2.5
100
AcDbArc
 50
270.0
 51
90.0
  0
LINE
  5
E19A
330
1F
100
AcDbEntity
  8
0
 62
     0
 48
12.0
100
AcDbLine
 10
4950.581271456933
 20
2099.533908136831
 30
0.0
 11
4947.681083171548
 21
2094.043386647498
 31
0.0
  0
LINE
  5
E19B
330
1F
100
AcDbEntity
  8
0
 62
     0
100
AcDbLine
 10
4937.303051154015
 20
2093.382911910555
 30
0.0
 11
4947.29790871679
 21
2093.379709023693
 31
0.0
  0
LINE
  5
E19C
330
1F
100
AcDbEntity
  8
0
 62
     0
 48
0.5
100
AcDbLine
 10
4952.797706154015
 20
2104.533908136831
 30
0.0
 11
4942.297706154015
 21
2104.533908136831
 31
0.0
  0
LINE
  5
E19D
330
1F
100
AcDbEntity
  8
0
 62
     0
 48
0.5
100
AcDbLine
 10
4942.297706154015
 20
2104.533908136831
 30
0.0
 11
4931.797706154014
 21
2104.533908136831
 31
0.0
  0
LINE
  5
E19E
330
1F
100
AcDbEntity
  8
0
 62
     0
100
AcDbLine
 10
4933.749143196482
 20
2099.533908136831
 30
0.0
 11
4937.303051154015
 21
2093.382911910555
 31
0.0
  0
LINE
  5
E19F
330
1F
100
AcDbEntity
  8
0
 62
     0
 48
0.5
100
AcDbLine
 10
4931.797706154014
 20
2099.533908136831
 30
0.0
 11
4952.797706154015
 21
2099.533908136831
 31
0.0
  0
ARC
  5
E1A0
330
1F
100
AcDbEntity
  8
0
 62
     0
 48
12.0
100
AcDbCircle
 10
4942.297706154015
 20
2102.033908136831
 30
0.0
 40
6.300000000000106
100
AcDbArc
 50
203.3798681157139
 51
336.6201318842861
  0
ARC
  5
E1A1
330
1F
100
AcDbEntity
  8
0
 62
     0
 48
12.0
100
AcDbCircle
 10
4942.297706154015
 20
2102.033908136831
 30
0.0
 40
8.305611164942092
100
AcDbArc
 50
197.5177551930745
 51
342.4822448069255
  0
LINE
  5
E1A2
330
1F
100
AcDbEntity
  8
0
 62
     0
100
AcDbLine
 10
4947.632249724119
 20
2110.096635522992
 30
0.0
 11
4947.292361154016
 21
2110.68490436311
 31
0.0
  0
LINE
  5
E1A3
330
1F
100
AcDbEntity
  8
0
 62
     0
100
AcDbLine
 10
4947.292361154016
 20
2110.68490436311
 30
0.0
 11
4937.29750359124
 21
2110.688107249973
 31
0.0
  0
CIRCLE
  5
E1A4
330
1F
100
AcDbEntity
  8
0
 62
     0
 48
12.0
100
AcDbCircle
 10
4942.297706154015
 20
2602.033908136831
 30
0.0
 40
20.00000000000014
  0
ARC
  5
E1A5
330
1F
100
AcDbEntity
  8
0
 62
     0
 48
0.5
100
AcDbCircle
 10
4931.797706154014
 20
2602.033908136831
 30
0.0
 40
2.5
100
AcDbArc
 50
90.0
 51
270.0
  0
LINE
  5
E1A6
330
1F
100
AcDbEntity
  8
0
 62
     0
100
AcDbLine
 10
4947.29790871679
 20
2593.379709023693
 30
0.0
 11
4947.681083171548
 21
2594.043386647498
 31
0.0
  0
LINE
  5
E1A7
330
1F
100
AcDbEntity
  8
0
 62
     0
100
AcDbLine
 10
4947.29790871679
 20
2593.379709023693
 30
0.0
 11
4947.681083171548
 21
2594.043386647498
 31
0.0
  0
LINE
  5
E1A8
330
1F
100
AcDbEntity
  8
0
 62
     0
100
AcDbLine
 10
4947.632249724119
 20
2610.096635522992
 30
0.0
 11
4947.292361154016
 21
2610.68490436311
 31
0.0
  0
ARC
  5
E1A9
330
1F
100
AcDbEntity
  8
0
 62
     0
 48
0.5
100
AcDbCircle
 10
4942.297706154015
 20
2602.033908136831
 30
0.0
 40
6.3
100
AcDbArc
 50
326.2147267221793
 51
336.6201318843042
  0
ARC
  5
E1AA
330
1F
100
AcDbEntity
  8
0
 62
     0
 48
0.5
100
AcDbCircle
 10
4942.297706154015
 20
2602.033908136831
 30
0.0
 40
6.3
100
AcDbArc
 50
23.37986811569573
 51
34.44712661455956
  0
ARC
  5
E1AB
330
1F
100
AcDbEntity
  8
0
 62
     0
 48
0.5
100
AcDbCircle
 10
4952.797706154015
 20
2602.033908136831
 30
0.0
 40
2.5
100
AcDbArc
 50
270.0
 51
90.0
  0
LINE
  5
E1AC
330
1F
100
AcDbEntity
  8
0
 62
     0
 48
12.0
100
AcDbLine
 10
4950.581271456933
 20
2599.533908136831
 30
0.0
 11
4947.681083171548
 21
2594.043386647498
 31
0.0
  0
LINE
  5
E1AD
330
1F
100
AcDbEntity
  8
0
 62
     0
 48
12.0
100
AcDbLine
 10
4950.581271456933
 20
2604.533908136831
 30
0.0
 11
4947.632249724119
 21
2610.096635522992
 31
0.0
  0
LINE
  5
E1AE
330
1F
100
AcDbEntity
  8
0
 62
     0
100
AcDbLine
 10
4947.292361154016
 20
2610.68490436311
 30
0.0
 11
4937.29750359124
 21
2610.688107249973
 31
0.0
  0
LINE
  5
E1AF
330
1F
100
AcDbEntity
  8
0
 62
     0
100
AcDbLine
 10
4937.303051154015
 20
2593.382911910556
 30
0.0
 11
4947.29790871679
 21
2593.379709023693
 31
0.0
  0
LINE
  5
E1B0
330
1F
100
AcDbEntity
  8
0
 62
     0
 48
0.5
100
AcDbLine
 10
4952.797706154015
 20
2604.533908136831
 30
0.0
 11
4942.297706154015
 21
2604.533908136831
 31
0.0
  0
LINE
  5
E1B1
330
1F
100
AcDbEntity
  8
0
 62
     0
 48
0.5
100
AcDbLine
 10
4942.297706154015
 20
2604.533908136831
 30
0.0
 11
4931.797706154014
 21
2604.533908136831
 31
0.0
  0
LINE
  5
E1B2
330
1F
100
AcDbEntity
  8
0
 62
     0
100
AcDbLine
 10
4933.749143196482
 20
2599.533908136831
 30
0.0
 11
4937.303051154015
 21
2593.382911910556
 31
0.0
  0
LINE
  5
E1B3
330
1F
100
AcDbEntity
  8
0
 62
     0
100
AcDbLine
 10
4937.29750359124
 20
2610.688107249973
 30
0.0
 11
4933.744375076623
 21
2604.533908136831
 31
0.0
  0
LINE
  5
E1B4
330
1F
100
AcDbEntity
  8
0
 62
     0
100
AcDbLine
 10
4937.29750359124
 20
2610.688107249973
 30
0.0
 11
4933.744375076623
 21
2604.533908136831
 31
0.0
  0
LINE
  5
E1B5
330
1F
100
AcDbEntity
  8
0
 62
     0
 48
0.5
100
AcDbLine
 10
4931.797706154014
 20
2599.533908136831
 30
0.0
 11
4952.797706154015
 21
2599.533908136831
 31
0.0
  0
ARC
  5
E1B6
330
1F
100
AcDbEntity
  8
0
 62
     0
 48
12.0
100
AcDbCircle
 10
4942.297706154015
 20
2602.033908136831
 30
0.0
 40
6.300000000000106
100
AcDbArc
 50
203.3798681157139
 51
336.6201318842861
  0
ARC
  5
E1B7
330
1F
100
AcDbEntity
  8
0
 62
     0
 48
12.0
100
AcDbCircle
 10
4942.297706154015
 20
2602.033908136831
 30
0.0
 40
6.300000000000106
100
AcDbArc
 50
23.37986811571387
 51
156.6201318842861
  0
ARC
  5
E1B8
330
1F
100
AcDbEntity
  8
0
 62
     0
 48
12.0
100
AcDbCircle
 10
4942.297706154015
 20
2602.033908136831
 30
0.0
 40
8.305611164942092
100
AcDbArc
 50
197.5177551930745
 51
342.4822448069255
  0
ARC
  5
E1B9
330
1F
100
AcDbEntity
  8
0
 62
     0
 48
12.0
100
AcDbCircle
 10
4942.297706154015
 20
2602.033908136831
 30
0.0
 40
8.305611164942092
100
AcDbArc
 50
17.51775519307452
 51
162.4822448069254
  0
CIRCLE
  5
E1BA
330
1F
100
AcDbEntity
  8
0
 62
     0
 48
12.0
100
AcDbCircle
 10
4942.297706154015
 20
3102.033908136831
 30
0.0
 40
20.00000000000014
  0
ARC
  5
E1BB
330
1F
100
AcDbEntity
  8
0
 62
     0
 48
0.5
100
AcDbCircle
 10
4931.797706154014
 20
3102.033908136831
 30
0.0
 40
2.5
100
AcDbArc
 50
90.0
 51
270.0
  0
LINE
  5
E1BC
330
1F
100
AcDbEntity
  8
0
 62
     0
100
AcDbLine
 10
4947.29790871679
 20
3093.379709023693
 30
0.0
 11
4947.681083171548
 21
3094.043386647498
 31
0.0
  0
LINE
  5
E1BD
330
1F
100
AcDbEntity
  8
0
 62
     0
100
AcDbLine
 10
4947.29790871679
 20
3093.379709023693
 30
0.0
 11
4947.681083171548
 21
3094.043386647498
 31
0.0
  0
LINE
  5
E1BE
330
1F
100
AcDbEntity
  8
0
 62
     0
100
AcDbLine
 10
4947.632249724119
 20
3110.096635522992
 30
0.0
 11
4947.292361154016
 21
3110.68490436311
 31
0.0
  0
ARC
  5
E1BF
330
1F
100
AcDbEntity
  8
0
 62
     0
 48
0.5
100
AcDbCircle
 10
4942.297706154015
 20
3102.033908136831
 30
0.0
 40
6.3
100
AcDbArc
 50
326.2147267221793
 51
336.6201318843042
  0
ARC
  5
E1C0
330
1F
100
AcDbEntity
  8
0
 62
     0
 48
0.5
100
AcDbCircle
 10
4942.297706154015
 20
3102.033908136831
 30
0.0
 40
6.3
100
AcDbArc
 50
23.37986811569573
 51
34.44712661455956
  0
ARC
  5
E1C1
330
1F
100
AcDbEntity
  8
0
 62
     0
 48
0.5
100
AcDbCircle
 10
4952.797706154015
 20
3102.033908136831
 30
0.0
 40
2.5
100
AcDbArc
 50
270.0
 51
90.0
  0
LINE
  5
E1C2
330
1F
100
AcDbEntity
  8
0
 62
     0
 48
12.0
100
AcDbLine
 10
4950.581271456933
 20
3099.533908136831
 30
0.0
 11
4947.681083171548
 21
3094.043386647498
 31
0.0
  0
LINE
  5
E1C3
330
1F
100
AcDbEntity
  8
0
 62
     0
 48
12.0
100
AcDbLine
 10
4950.581271456933
 20
3104.533908136831
 30
0.0
 11
4947.632249724119
 21
3110.096635522992
 31
0.0
  0
LINE
  5
E1C4
330
1F
100
AcDbEntity
  8
0
 62
     0
100
AcDbLine
 10
4947.292361154016
 20
3110.68490436311
 30
0.0
 11
4937.29750359124
 21
3110.688107249973
 31
0.0
  0
LINE
  5
E1C5
330
1F
100
AcDbEntity
  8
0
 62
     0
100
AcDbLine
 10
4937.303051154015
 20
3093.382911910556
 30
0.0
 11
4947.29790871679
 21
3093.379709023693
 31
0.0
  0
LINE
  5
E1C6
330
1F
100
AcDbEntity
  8
0
 62
     0
 48
0.5
100
AcDbLine
 10
4952.797706154015
 20
3104.533908136831
 30
0.0
 11
4942.297706154015
 21
3104.533908136831
 31
0.0
  0
LINE
  5
E1C7
330
1F
100
AcDbEntity
  8
0
 62
     0
 48
0.5
100
AcDbLine
 10
4942.297706154015
 20
3104.533908136831
 30
0.0
 11
4931.797706154014
 21
3104.533908136831
 31
0.0
  0
LINE
  5
E1C8
330
1F
100
AcDbEntity
  8
0
 62
     0
100
AcDbLine
 10
4933.749143196482
 20
3099.533908136831
 30
0.0
 11
4937.303051154015
 21
3093.382911910556
 31
0.0
  0
LINE
  5
E1C9
330
1F
100
AcDbEntity
  8
0
 62
     0
100
AcDbLine
 10
4937.29750359124
 20
3110.688107249973
 30
0.0
 11
4933.744375076623
 21
3104.533908136831
 31
0.0
  0
LINE
  5
E1CA
330
1F
100
AcDbEntity
  8
0
 62
     0
100
AcDbLine
 10
4937.29750359124
 20
3110.688107249973
 30
0.0
 11
4933.744375076623
 21
3104.533908136831
 31
0.0
  0
LINE
  5
E1CB
330
1F
100
AcDbEntity
  8
0
 62
     0
 48
0.5
100
AcDbLine
 10
4931.797706154014
 20
3099.533908136831
 30
0.0
 11
4952.797706154015
 21
3099.533908136831
 31
0.0
  0
ARC
  5
E1CC
330
1F
100
AcDbEntity
  8
0
 62
     0
 48
12.0
100
AcDbCircle
 10
4942.297706154015
 20
3102.033908136831
 30
0.0
 40
6.300000000000106
100
AcDbArc
 50
203.3798681157139
 51
336.6201318842861
  0
ARC
  5
E1CD
330
1F
100
AcDbEntity
  8
0
 62
     0
 48
12.0
100
AcDbCircle
 10
4942.297706154015
 20
3102.033908136831
 30
0.0
 40
6.300000000000106
100
AcDbArc
 50
23.37986811571387
 51
156.6201318842861
  0
ARC
  5
E1CE
330
1F
100
AcDbEntity
  8
0
 62
     0
 48
12.0
100
AcDbCircle
 10
4942.297706154015
 20
3102.033908136831
 30
0.0
 40
8.305611164942092
100
AcDbArc
 50
197.5177551930745
 51
342.4822448069255
  0
ARC
  5
E1CF
330
1F
100
AcDbEntity
  8
0
 62
     0
 48
12.0
100
AcDbCircle
 10
4942.297706154015
 20
3102.033908136831
 30
0.0
 40
8.305611164942092
100
AcDbArc
 50
17.51775519307452
 51
162.4822448069254
  0
CIRCLE
  5
E1D0
330
1F
100
AcDbEntity
  8
0
 62
     0
 48
12.0
100
AcDbCircle
 10
4942.297706154015
 20
3602.033908136831
 30
0.0
 40
20.00000000000014
  0
ARC
  5
E1D1
330
1F
100
AcDbEntity
  8
0
 62
     0
 48
0.5
100
AcDbCircle
 10
4931.797706154014
 20
3602.033908136831
 30
0.0
 40
2.5
100
AcDbArc
 50
90.0
 51
270.0
  0
LINE
  5
E1D2
330
1F
100
AcDbEntity
  8
0
 62
     0
100
AcDbLine
 10
4947.29790871679
 20
3593.379709023693
 30
0.0
 11
4947.681083171548
 21
3594.043386647497
 31
0.0
  0
LINE
  5
E1D3
330
1F
100
AcDbEntity
  8
0
 62
     0
100
AcDbLine
 10
4947.29790871679
 20
3593.379709023693
 30
0.0
 11
4947.681083171548
 21
3594.043386647497
 31
0.0
  0
LINE
  5
E1D4
330
1F
100
AcDbEntity
  8
0
 62
     0
100
AcDbLine
 10
4947.632249724119
 20
3610.096635522992
 30
0.0
 11
4947.292361154016
 21
3610.68490436311
 31
0.0
  0
ARC
  5
E1D5
330
1F
100
AcDbEntity
  8
0
 62
     0
 48
0.5
100
AcDbCircle
 10
4942.297706154015
 20
3602.033908136831
 30
0.0
 40
6.3
100
AcDbArc
 50
326.2147267221793
 51
336.6201318843042
  0
ARC
  5
E1D6
330
1F
100
AcDbEntity
  8
0
 62
     0
 48
0.5
100
AcDbCircle
 10
4942.297706154015
 20
3602.033908136831
 30
0.0
 40
6.3
100
AcDbArc
 50
23.37986811569573
 51
34.44712661455956
  0
ARC
  5
E1D7
330
1F
100
AcDbEntity
  8
0
 62
     0
 48
0.5
100
AcDbCircle
 10
4952.797706154015
 20
3602.033908136831
 30
0.0
 40
2.5
100
AcDbArc
 50
270.0
 51
90.0
  0
LINE
  5
E1D8
330
1F
100
AcDbEntity
  8
0
 62
     0
 48
12.0
100
AcDbLine
 10
4950.581271456933
 20
3599.533908136831
 30
0.0
 11
4947.681083171548
 21
3594.043386647497
 31
0.0
  0
LINE
  5
E1D9
330
1F
100
AcDbEntity
  8
0
 62
     0
 48
12.0
100
AcDbLine
 10
4950.581271456933
 20
3604.533908136831
 30
0.0
 11
4947.632249724119
 21
3610.096635522992
 31
0.0
  0
LINE
  5
E1DA
330
1F
100
AcDbEntity
  8
0
 62
     0
100
AcDbLine
 10
4947.292361154016
 20
3610.68490436311
 30
0.0
 11
4937.29750359124
 21
3610.688107249972
 31
0.0
  0
LINE
  5
E1DB
330
1F
100
AcDbEntity
  8
0
 62
     0
100
AcDbLine
 10
4937.303051154015
 20
3593.382911910556
 30
0.0
 11
4947.29790871679
 21
3593.379709023693
 31
0.0
  0
LINE
  5
E1DC
330
1F
100
AcDbEntity
  8
0
 62
     0
 48
0.5
100
AcDbLine
 10
4952.797706154015
 20
3604.533908136831
 30
0.0
 11
4942.297706154015
 21
3604.533908136831
 31
0.0
  0
LINE
  5
E1DD
330
1F
100
AcDbEntity
  8
0
 62
     0
 48
0.5
100
AcDbLine
 10
4942.297706154015
 20
3604.533908136831
 30
0.0
 11
4931.797706154014
 21
3604.533908136831
 31
0.0
  0
LINE
  5
E1DE
330
1F
100
AcDbEntity
  8
0
 62
     0
100
AcDbLine
 10
4933.749143196482
 20
3599.533908136831
 30
0.0
 11
4937.303051154015
 21
3593.382911910556
 31
0.0
  0
LINE
  5
E1DF
330
1F
100
AcDbEntity
  8
0
 62
     0
100
AcDbLine
 10
4937.29750359124
 20
3610.688107249972
 30
0.0
 11
4933.744375076623
 21
3604.533908136831
 31
0.0
  0
LINE
  5
E1E0
330
1F
100
AcDbEntity
  8
0
 62
     0
100
AcDbLine
 10
4937.29750359124
 20
3610.688107249972
 30
0.0
 11
4933.744375076623
 21
3604.533908136831
 31
0.0
  0
LINE
  5
E1E1
330
1F
100
AcDbEntity
  8
0
 62
     0
 48
0.5
100
AcDbLine
 10
4931.797706154014
 20
3599.533908136831
 30
0.0
 11
4952.797706154015
 21
3599.533908136831
 31
0.0
  0
ARC
  5
E1E2
330
1F
100
AcDbEntity
  8
0
 62
     0
 48
12.0
100
AcDbCircle
 10
4942.297706154015
 20
3602.033908136831
 30
0.0
 40
6.300000000000106
100
AcDbArc
 50
203.3798681157139
 51
336.6201318842861
  0
ARC
  5
E1E3
330
1F
100
AcDbEntity
  8
0
 62
     0
 48
12.0
100
AcDbCircle
 10
4942.297706154015
 20
3602.033908136831
 30
0.0
 40
6.300000000000106
100
AcDbArc
 50
23.37986811571387
 51
156.6201318842861
  0
ARC
  5
E1E4
330
1F
100
AcDbEntity
  8
0
 62
     0
 48
12.0
100
AcDbCircle
 10
4942.297706154015
 20
3602.033908136831
 30
0.0
 40
8.305611164942092
100
AcDbArc
 50
197.5177551930745
 51
342.4822448069255
  0
ARC
  5
E1E5
330
1F
100
AcDbEntity
  8
0
 62
     0
 48
12.0
100
AcDbCircle
 10
4942.297706154015
 20
3602.033908136831
 30
0.0
 40
8.305611164942092
100
AcDbArc
 50
17.51775519307452
 51
162.4822448069254
  0
CIRCLE
  5
E1E6
330
1F
100
AcDbEntity
  8
0
 62
     0
 48
12.0
100
AcDbCircle
 10
4942.297706154015
 20
4102.033908136831
 30
0.0
 40
20.00000000000014
  0
ARC
  5
E1E7
330
1F
100
AcDbEntity
  8
0
 62
     0
 48
12.0
100
AcDbCircle
 10
4942.297706154015
 20
4102.033908136831
 30
0.0
 40
8.305611164942092
100
AcDbArc
 50
17.51775519307452
 51
162.4822448069254
  0
ARC
  5
E1E8
330
1F
100
AcDbEntity
  8
0
 62
     0
 48
12.0
100
AcDbCircle
 10
4942.297706154015
 20
4102.033908136831
 30
0.0
 40
8.305611164942092
100
AcDbArc
 50
197.5177551930745
 51
342.4822448069255
  0
ARC
  5
E1E9
330
1F
100
AcDbEntity
  8
0
 62
     0
 48
12.0
100
AcDbCircle
 10
4942.297706154015
 20
4102.033908136831
 30
0.0
 40
6.300000000000106
100
AcDbArc
 50
23.37986811571387
 51
156.6201318842861
  0
ARC
  5
E1EA
330
1F
100
AcDbEntity
  8
0
 62
     0
 48
12.0
100
AcDbCircle
 10
4942.297706154015
 20
4102.033908136831
 30
0.0
 40
6.300000000000106
100
AcDbArc
 50
203.3798681157139
 51
336.6201318842861
  0
LINE
  5
E1EB
330
1F
100
AcDbEntity
  8
0
 62
     0
 48
0.5
100
AcDbLine
 10
4931.797706154014
 20
4099.533908136831
 30
0.0
 11
4952.797706154015
 21
4099.533908136831
 31
0.0
  0
LINE
  5
E1EC
330
1F
100
AcDbEntity
  8
0
 62
     0
100
AcDbLine
 10
4937.29750359124
 20
4110.688107249973
 30
0.0
 11
4933.744375076623
 21
4104.533908136831
 31
0.0
  0
LINE
  5
E1ED
330
1F
100
AcDbEntity
  8
0
 62
     0
100
AcDbLine
 10
4937.29750359124
 20
4110.688107249973
 30
0.0
 11
4933.744375076623
 21
4104.533908136831
 31
0.0
  0
LINE
  5
E1EE
330
1F
100
AcDbEntity
  8
0
 62
     0
100
AcDbLine
 10
4933.749143196482
 20
4099.533908136831
 30
0.0
 11
4937.303051154015
 21
4093.382911910556
 31
0.0
  0
LINE
  5
E1EF
330
1F
100
AcDbEntity
  8
0
 62
     0
 48
0.5
100
AcDbLine
 10
4942.297706154015
 20
4104.533908136831
 30
0.0
 11
4931.797706154014
 21
4104.533908136831
 31
0.0
  0
LINE
  5
E1F0
330
1F
100
AcDbEntity
  8
0
 62
     0
 48
0.5
100
AcDbLine
 10
4952.797706154015
 20
4104.533908136831
 30
0.0
 11
4942.297706154015
 21
4104.533908136831
 31
0.0
  0
LINE
  5
E1F1
330
1F
100
AcDbEntity
  8
0
 62
     0
100
AcDbLine
 10
4937.303051154015
 20
4093.382911910556
 30
0.0
 11
4947.29790871679
 21
4093.379709023692
 31
0.0
  0
LINE
  5
E1F2
330
1F
100
AcDbEntity
  8
0
 62
     0
100
AcDbLine
 10
4947.292361154016
 20
4110.68490436311
 30
0.0
 11
4937.29750359124
 21
4110.688107249973
 31
0.0
  0
LINE
  5
E1F3
330
1F
100
AcDbEntity
  8
0
 62
     0
 48
12.0
100
AcDbLine
 10
4950.581271456933
 20
4104.533908136831
 30
0.0
 11
4947.632249724119
 21
4110.096635522991
 31
0.0
  0
LINE
  5
E1F4
330
1F
100
AcDbEntity
  8
0
 62
     0
 48
12.0
100
AcDbLine
 10
4950.581271456933
 20
4099.533908136831
 30
0.0
 11
4947.681083171548
 21
4094.043386647498
 31
0.0
  0
ARC
  5
E1F5
330
1F
100
AcDbEntity
  8
0
 62
     0
 48
0.5
100
AcDbCircle
 10
4952.797706154015
 20
4102.033908136831
 30
0.0
 40
2.5
100
AcDbArc
 50
270.0
 51
90.0
  0
ARC
  5
E1F6
330
1F
100
AcDbEntity
  8
0
 62
     0
 48
0.5
100
AcDbCircle
 10
4942.297706154015
 20
4102.033908136831
 30
0.0
 40
6.3
100
AcDbArc
 50
23.37986811569573
 51
34.44712661455956
  0
ARC
  5
E1F7
330
1F
100
AcDbEntity
  8
0
 62
     0
 48
0.5
100
AcDbCircle
 10
4942.297706154015
 20
4102.033908136831
 30
0.0
 40
6.3
100
AcDbArc
 50
326.2147267221793
 51
336.6201318843042
  0
LINE
  5
E1F8
330
1F
100
AcDbEntity
  8
0
 62
     0
100
AcDbLine
 10
4947.632249724119
 20
4110.096635522991
 30
0.0
 11
4947.292361154016
 21
4110.68490436311
 31
0.0
  0
LINE
  5
E1F9
330
1F
100
AcDbEntity
  8
0
 62
     0
100
AcDbLine
 10
4947.29790871679
 20
4093.379709023692
 30
0.0
 11
4947.681083171548
 21
4094.043386647498
 31
0.0
  0
LINE
  5
E1FA
330
1F
100
AcDbEntity
  8
0
 62
     0
100
AcDbLine
 10
4947.29790871679
 20
4093.379709023692
 30
0.0
 11
4947.681083171548
 21
4094.043386647498
 31
0.0
  0
ARC
  5
E1FB
330
1F
100
AcDbEntity
  8
0
 62
     0
 48
0.5
100
AcDbCircle
 10
4931.797706154014
 20
4102.033908136831
 30
0.0
 40
2.5
100
AcDbArc
 50
90.0
 51
270.0
  0
LINE
  5
E1FC
330
1F
100
AcDbEntity
  8
0
 62
     0
 48
12.0
100
AcDbLine
 10
3192.297706154014
 20
1615.033908136831
 30
0.0
 11
2955.046154481999
 21
2103.126830877184
 31
0.0
  0
LINE
  5
E1FD
330
1F
100
AcDbEntity
  8
0
 62
     0
 48
12.0
100
AcDbLine
 10
3442.297706154014
 20
1615.033908136831
 30
0.0
 11
2955.039907809532
 21
2603.139589707627
 31
0.0
  0
LINE
  5
E1FE
330
1F
100
AcDbEntity
  8
0
 62
     0
 48
12.0
100
AcDbLine
 10
3692.297706154014
 20
1615.033908136831
 30
0.0
 11
2955.297706154015
 21
3102.033908136831
 31
0.0
  0
LINE
  5
E1FF
330
1F
100
AcDbEntity
  8
0
 62
     0
 48
12.0
100
AcDbLine
 10
3942.297706154014
 20
1622.033908136832
 30
0.0
 11
2955.297706154015
 21
3602.033908136831
 31
0.0
  0
LINE
  5
E200
330
1F
100
AcDbEntity
  8
0
 62
     0
 48
12.0
100
AcDbLine
 10
2955.297706154015
 20
3602.033908136831
 30
0.0
 11
2952.797706154015
 21
3602.033908136831
 31
0.0
  0
LINE
  5
E201
330
1F
100
AcDbEntity
  8
0
 62
     0
 48
12.0
100
AcDbLine
 10
4192.297706154015
 20
1622.033908136832
 30
0.0
 11
2955.297706154015
 21
4102.033908136831
 31
0.0
  0
LINE
  5
E202
330
1F
100
AcDbEntity
  8
0
 62
     0
 48
12.0
100
AcDbLine
 10
4442.297706154015
 20
1615.033908136831
 30
0.0
 11
2949.722327356474
 21
4592.109286934372
 31
0.0
  0
LINE
  5
E204
330
1F
100
AcDbEntity
  8
0
 62
     0
 48
12.0
100
AcDbLine
 10
4933.105317998589
 20
1611.226296292256
 30
0.0
 11
3443.416132521605
 21
4589.298036391788
 31
0.0
  0
LINE
  5
E205
330
1F
100
AcDbEntity
  8
0
 62
     0
 48
12.0
100
AcDbLine
 10
3692.297706154015
 20
4589.033908136831
 30
0.0
 11
4929.559198164018
 21
2100.920767544309
 31
0.0
  0
LINE
  5
E206
330
1F
100
AcDbEntity
  8
0
 62
     0
 48
12.0
100
AcDbLine
 10
4929.297706154015
 20
2602.033908136831
 30
0.0
 11
3942.297706154015
 21
4589.033908136831
 31
0.0
  0
LINE
  5
E207
330
1F
100
AcDbEntity
  8
0
 62
     0
 48
12.0
100
AcDbLine
 10
4192.297706154015
 20
4589.033908136831
 30
0.0
 11
4929.557561535528
 21
3100.924064864893
 31
0.0
  0
LINE
  5
E20A
330
1F
100
AcDbEntity
  8
0
 62
     0
 48
12.0
100
AcDbLine
 10
4442.297706154015
 20
4589.033908136831
 30
0.0
 11
4929.297706154015
 21
3602.033908136831
 31
0.0
  0
LINE
  5
E20B
330
1F
100
AcDbEntity
  8
0
 62
     0
 48
12.0
100
AcDbLine
 10
4929.297706154015
 20
4102.033908136831
 30
0.0
 11
4692.297706154015
 21
4589.033908136831
 31
0.0
  0
LINE
  5
E20D
330
1F
100
AcDbEntity
  8
0
 62
     0
 48
12.0
100
AcDbLine
 10
2951.49009430944
 20
1611.226296292257
 30
0.0
 11
4441.179279786424
 21
4589.298036391788
 31
0.0
  0
LINE
  5
E20E
330
1F
100
AcDbEntity
  8
0
 62
     0
 48
12.0
100
AcDbLine
 10
2955.297706154015
 20
2602.033908136831
 30
0.0
 11
3942.297706154015
 21
4589.033908136831
 31
0.0
  0
LINE
  5
E20F
330
1F
100
AcDbEntity
  8
0
 62
     0
 48
12.0
100
AcDbLine
 10
4192.297706154015
 20
4589.033908136831
 30
0.0
 11
2955.036214144011
 21
2100.92076754431
 31
0.0
  0
LINE
  5
E210
330
1F
100
AcDbEntity
  8
0
 62
     0
 48
12.0
100
AcDbLine
 10
4692.297706154015
 20
4582.033908136831
 30
0.0
 11
3192.297706154014
 21
1615.033908136832
 31
0.0
  0
LINE
  5
E211
330
1F
100
AcDbEntity
  8
0
 62
     0
 48
12.0
100
AcDbLine
 10
3442.297706154014
 20
1615.033908136832
 30
0.0
 11
4934.873084951556
 21
4592.109286934372
 31
0.0
  0
LINE
  5
E212
330
1F
100
AcDbEntity
  8
0
 62
     0
 48
12.0
100
AcDbLine
 10
3442.297706154015
 20
4589.033908136831
 30
0.0
 11
2955.297706154015
 21
3602.033908136831
 31
0.0
  0
LINE
  5
E213
330
1F
100
AcDbEntity
  8
0
 62
     0
 48
12.0
100
AcDbLine
 10
3692.297706154015
 20
4589.033908136831
 30
0.0
 11
2955.037850772501
 21
3100.924064864894
 31
0.0
  0
LINE
  5
E214
330
1F
100
AcDbEntity
  8
0
 62
     0
 48
12.0
100
AcDbLine
 10
2955.297706154015
 20
4102.033908136831
 30
0.0
 11
3192.297706154015
 21
4589.033908136831
 31
0.0
  0
LINE
  5
E215
330
1F
100
AcDbEntity
  8
0
 62
     0
 48
12.0
100
AcDbLine
 10
3692.297706154014
 20
1622.033908136832
 30
0.0
 11
4929.297706154015
 21
4102.033908136831
 31
0.0
  0
LINE
  5
E216
330
1F
100
AcDbEntity
  8
0
 62
     0
 48
12.0
100
AcDbLine
 10
3942.297706154015
 20
1622.033908136832
 30
0.0
 11
4929.297706154015
 21
3602.033908136831
 31
0.0
  0
LINE
  5
E217
330
1F
100
AcDbEntity
  8
0
 62
     0
 48
12.0
100
AcDbLine
 10
4192.297706154015
 20
1615.033908136831
 30
0.0
 11
4929.297706154015
 21
3102.033908136831
 31
0.0
  0
LINE
  5
E218
330
1F
100
AcDbEntity
  8
0
 62
     0
 48
12.0
100
AcDbLine
 10
4442.297706154015
 20
1615.033908136831
 30
0.0
 11
4929.555504498498
 21
2603.139589707627
 31
0.0
  0
LINE
  5
E219
330
1F
100
AcDbEntity
  8
0
 62
     0
 48
12.0
100
AcDbLine
 10
4692.297706154015
 20
1615.033908136831
 30
0.0
 11
4929.54925782603
 21
2103.126830877185
 31
0.0
  0
LINE
  5
E21A
330
1F
100
AcDbEntity
  8
0
 62
     0
 48
12.0
100
AcDbLine
 10
3192.297706154015
 20
4589.033908136831
 30
0.0
 11
4692.297706154015
 21
1615.033908136831
 31
0.0
  0
LINE
  5
E222
330
1F
100
AcDbEntity
  8
0
 62
     0
100
AcDbLine
 10
5440.013631733603
 20
3083.697356947173
 30
0.0
 11
5640.013631733603
 21
3083.697356947173
 31
0.0
  0
LINE
  5
E223
330
1F
100
AcDbEntity
  8
0
 62
     0
100
AcDbLine
 10
5640.013631733603
 20
3139.697356947174
 30
0.0
 11
5440.013631733603
 21
3139.697356947174
 31
0.0
  0
LINE
  5
E224
330
1F
100
AcDbEntity
  8
0
 62
     0
 48
12.0
100
AcDbLine
 10
5318.42688505659
 20
3099.661667030748
 30
0.0
 11
5400.506842028022
 21
3099.661667030748
 31
0.0
  0
LINE
  5
E225
330
1F
100
AcDbEntity
  8
0
 62
     0
 48
12.0
100
AcDbLine
 10
5318.42688505659
 20
3123.661667030749
 30
0.0
 11
5400.506842028022
 21
3123.661667030749
 31
0.0
  0
ARC
  5
E226
330
1F
100
AcDbEntity
  8
0
 62
     0
 48
12.0
100
AcDbCircle
 10
5318.42688505659
 20
3111.661667030748
 30
0.0
 40
12.0
100
AcDbArc
 50
90.0
 51
270.0
  0
ARC
  5
E228
330
1F
100
AcDbEntity
  8
0
 62
     0
 48
12.0
100
AcDbCircle
 10
5388.50183240301
 20
3111.661667030748
 30
0.0
 40
16.97410545792242
100
AcDbArc
 50
315.011957102727
 51
44.98804289727197
  0
ARC
  5
E229
330
1F
100
AcDbEntity
  8
0
 62
     0
100
AcDbCircle
 10
5448.766170231076
 20
3111.625687201696
 30
0.0
 40
28.33929559045225
100
AcDbArc
 50
157.208038552044
 51
202.7919614479559
  0
LINE
  5
E22A
330
1F
100
AcDbEntity
  8
0
 62
     0
100
AcDbLine
 10
5440.068396637991
 20
3111.661667030748
 30
0.0
 11
5440.068396637991
 21
3123.661667030749
 31
0.0
  0
LINE
  5
E22B
330
1F
100
AcDbEntity
  8
0
 62
     0
100
AcDbLine
 10
5440.068396637991
 20
3111.661667030748
 30
0.0
 11
5440.068396637991
 21
3117.150793696946
 31
0.0
  0
LINE
  5
E22C
330
1F
100
AcDbEntity
  8
0
 62
     0
100
AcDbLine
 10
5440.068396637991
 20
3111.661667030748
 30
0.0
 11
5440.068396637991
 21
3122.639920363141
 31
0.0
  0
LINE
  5
E22D
330
1F
100
AcDbEntity
  8
0
 62
     0
100
AcDbLine
 10
5440.013631733603
 20
3083.697356947173
 30
0.0
 11
5440.013631733603
 21
3138.836885713252
 31
0.0
  0
LINE
  5
E22E
330
1F
100
AcDbEntity
  8
0
 62
     0
100
AcDbLine
 10
5420.46590837269
 20
3137.661667030748
 30
0.0
 11
5420.46590837269
 21
3085.625687201696
 31
0.0
  0
LINE
  5
E22F
330
1F
100
AcDbEntity
  8
0
 62
     0
100
AcDbLine
 10
5440.068396637991
 20
3090.218093203537
 30
0.0
 11
5440.068396637991
 21
3133.105240857963
 31
0.0
  0
LINE
  5
E230
330
1F
100
AcDbEntity
  8
0
 62
     0
100
AcDbLine
 10
5420.46590837269
 20
3111.661667030748
 30
0.0
 11
5420.46590837269
 21
3137.661667030748
 31
0.0
  0
LINE
  5
E231
330
1F
100
AcDbEntity
  8
0
 62
     0
100
AcDbLine
 10
5420.434375362998
 20
3095.158307203113
 30
0.0
 11
5420.497303888875
 21
3128.093067200279
 31
0.0
  0
ARC
  5
E232
330
1F
100
AcDbEntity
  8
0
 62
     0
 48
12.0
100
AcDbCircle
 10
5421.333440179384
 20
3105.293811789422
 30
0.0
 40
21.57471309521586
100
AcDbArc
 50
195.1325558555182
 51
245.731385308554
  0
LINE
  5
E233
330
1F
100
AcDbEntity
  8
0
 62
     0
100
AcDbLine
 10
5420.465839625936
 20
3111.625687201696
 30
0.0
 11
5420.465839625936
 21
3085.625687201696
 31
0.0
  0
ARC
  5
E234
330
1F
100
AcDbEntity
  8
0
 62
     0
100
AcDbCircle
 10
5428.368406210928
 20
3095.158307203113
 30
0.0
 40
7.93403084792544
100
AcDbArc
 50
136.2235944163069
 51
223.776405583693
  0
LINE
  5
E235
330
1F
100
AcDbEntity
  8
0
 62
     0
100
AcDbLine
 10
5422.639677386982
 20
3089.669180536919
 30
0.0
 11
5437.006027887637
 21
3089.669180536919
 31
0.0
  0
LINE
  5
E236
330
1F
100
AcDbEntity
  8
0
 62
     0
100
AcDbLine
 10
5422.639677386982
 20
3089.669180536919
 30
0.0
 11
5439.51948397137
 21
3089.669180536919
 31
0.0
  0
LINE
  5
E237
330
1F
100
AcDbEntity
  8
0
 62
     0
100
AcDbLine
 10
5439.51948397137
 20
3089.669180536919
 30
0.0
 11
5440.068396637991
 21
3090.218093203537
 31
0.0
  0
LINE
  5
E238
330
1F
100
AcDbEntity
  8
0
 62
     0
100
AcDbLine
 10
5422.639677386982
 20
3100.647433869307
 30
0.0
 11
5437.006027887637
 21
3100.647433869307
 31
0.0
  0
LINE
  5
E239
330
1F
100
AcDbEntity
  8
0
 62
     0
100
AcDbLine
 10
5437.006027887637
 20
3100.647433869307
 30
0.0
 11
5440.068396637991
 21
3100.647433869307
 31
0.0
  0
LINE
  5
E23A
330
1F
100
AcDbEntity
  8
0
 62
     0
100
AcDbLine
 10
5420.465839625936
 20
3085.625687201696
 30
0.0
 11
5412.465908372691
 21
3085.625687201696
 31
0.0
  0
LINE
  5
E23B
330
1F
100
AcDbEntity
  8
0
 62
     0
100
AcDbLine
 10
5420.465839625936
 20
3085.625687201696
 30
0.0
 11
5412.465839625936
 21
3085.625687201696
 31
0.0
  0
ARC
  5
E23C
330
1F
100
AcDbEntity
  8
0
 62
     0
 48
12.0
100
AcDbCircle
 10
5421.147556305172
 20
3118.137807207622
 30
0.0
 40
21.36708012847084
100
AcDbArc
 50
113.9732140590161
 51
165.0176203787254
  0
LINE
  5
E23D
330
1F
100
AcDbEntity
  8
0
 62
     0
100
AcDbLine
 10
5439.51948864997
 20
3133.651887194475
 30
0.0
 11
5422.660500389702
 21
3133.651887194475
 31
0.0
  0
LINE
  5
E23E
330
1F
100
AcDbEntity
  8
0
 62
     0
100
AcDbLine
 10
5439.51948864997
 20
3133.651887194475
 30
0.0
 11
5440.068396637991
 21
3133.105240857963
 31
0.0
  0
LINE
  5
E23F
330
1F
100
AcDbEntity
  8
0
 62
     0
100
AcDbLine
 10
5420.46590837269
 20
3137.661667030748
 30
0.0
 11
5412.465908372691
 21
3137.661667030748
 31
0.0
  0
LINE
  5
E240
330
1F
100
AcDbEntity
  8
0
 62
     0
100
AcDbLine
 10
5420.46590837269
 20
3137.661667030748
 30
0.0
 11
5412.465908372691
 21
3137.661667030748
 31
0.0
  0
LINE
  5
E241
330
1F
100
AcDbEntity
  8
0
 62
     0
100
AcDbLine
 10
5422.639677386982
 20
3122.603940534085
 30
0.0
 11
5437.006027887637
 21
3122.603940534085
 31
0.0
  0
LINE
  5
E242
330
1F
100
AcDbEntity
  8
0
 62
     0
100
AcDbLine
 10
5437.006027887637
 20
3122.603940534085
 30
0.0
 11
5440.068396637991
 21
3122.603940534085
 31
0.0
  0
ARC
  5
E243
330
1F
100
AcDbEntity
  8
0
 62
     0
100
AcDbCircle
 10
5428.600530472311
 20
3128.093067200279
 30
0.0
 40
8.103226583435498
100
AcDbArc
 50
137.3591881473751
 51
222.6408118526248
  0
LINE
  5
E244
330
1F
100
AcDbEntity
  8
0
 62
     0
100
AcDbLine
 10
5866.451638752831
 20
3131.57823315703
 30
0.0
 11
5844.962316847571
 21
3128.880662701485
 31
0.0
  0
ARC
  5
E245
330
1F
100
AcDbEntity
  8
0
 62
     0
100
AcDbCircle
 10
5840.493997050351
 20
3126.96722192605
 30
0.0
 40
4.621430596438699
100
AcDbArc
 50
21.11048458335583
 51
93.84814721197772
  0
ARC
  5
E246
330
1F
100
AcDbEntity
  8
0
 62
     0
100
AcDbCircle
 10
5820.921801451131
 20
3081.531728692564
 30
0.0
 40
27.04746746849392
100
AcDbArc
 50
27.27380201547615
 51
89.51650758353483
  0
LINE
  5
E247
330
1F
100
AcDbEntity
  8
0
 62
     0
100
AcDbLine
 10
5866.451638752831
 20
3091.578233157029
 30
0.0
 11
5844.962316847571
 21
3093.926046581531
 31
0.0
  0
ARC
  5
E248
330
1F
100
AcDbEntity
  8
0
 62
     0
100
AcDbCircle
 10
5841.299887798367
 20
3095.343450592838
 30
0.0
 40
3.927138993174281
100
AcDbArc
 50
253.4896813575782
 51
338.8429642585263
  0
ARC
  5
E249
330
1F
100
AcDbEntity
  8
0
 62
     0
100
AcDbCircle
 10
5819.045901266556
 20
3145.055316999714
 30
0.0
 40
30.54963237478725
100
AcDbArc
 50
273.9494346700785
 51
328.0313641311591
  0
LINE
  5
E24C
330
1F
100
AcDbEntity
  8
0
 62
     0
100
AcDbLine
 10
5695.649292295496
 20
3061.722136235374
 30
0.0
 11
5695.649292295496
 21
2985.959985416458
 31
0.0
  0
LINE
  5
E24D
330
1F
100
AcDbEntity
  8
0
 62
     0
100
AcDbLine
 10
5770.162316847567
 20
3093.57823315703
 30
0.0
 11
5704.162316847567
 21
3093.57823315703
 31
0.0
  0
LINE
  5
E24E
330
1F
100
AcDbEntity
  8
0
 62
     0
100
AcDbLine
 10
5770.162316847567
 20
3129.57823315703
 30
0.0
 11
5704.162316847567
 21
3129.57823315703
 31
0.0
  0
LINE
  5
E24F
330
1F
100
AcDbEntity
  8
0
 62
     0
100
AcDbLine
 10
5675.649292295497
 20
3111.722136235373
 30
0.0
 11
5675.649292295497
 21
3121.702366537545
 31
0.0
  0
LINE
  5
E251
330
1F
100
AcDbEntity
  8
0
 62
     0
100
AcDbLine
 10
5675.649292295497
 20
3072.733820185895
 30
0.0
 11
5675.649292295497
 21
3150.710452284849
 31
0.0
  0
ARC
  5
E252
330
1F
100
AcDbEntity
  8
0
 62
     0
100
AcDbCircle
 10
5691.463426101098
 20
3111.656718364367
 30
0.0
 40
51.52599198264046
100
AcDbArc
 50
157.208038552044
 51
202.7919614479559
  0
LINE
  5
E253
330
1F
100
AcDbEntity
  8
0
 62
     0
100
AcDbLine
 10
5639.951071795501
 20
3078.955503900218
 30
0.0
 11
5640.065487297095
 21
3138.836885713252
 31
0.0
  0
LINE
  5
E254
330
1F
100
AcDbEntity
  8
0
 62
     0
100
AcDbLine
 10
5675.649292295497
 20
3111.722136235373
 30
0.0
 11
5675.649292295497
 21
3191.722136235374
 31
0.0
  0
LINE
  5
E255
330
1F
100
AcDbEntity
  8
0
 62
     0
100
AcDbLine
 10
5640.013631733603
 20
3111.697356947173
 30
0.0
 11
5640.013631733603
 21
3139.697356947174
 31
0.0
  0
LINE
  5
E256
330
1F
100
AcDbEntity
  8
0
 62
     0
100
AcDbLine
 10
5640.008279546298
 20
3111.656718364367
 30
0.0
 11
5643.893112853959
 21
3131.275792505919
 31
0.0
  0
LINE
  5
E257
330
1F
100
AcDbEntity
  8
0
 62
     0
100
AcDbLine
 10
5640.013631733603
 20
3111.697356947188
 30
0.0
 11
5640.013631733603
 21
3131.697356947188
 31
0.0
  0
LINE
  5
E258
330
1F
100
AcDbEntity
  8
0
 62
     0
100
AcDbLine
 10
5640.013631733603
 20
3111.697356947188
 30
0.0
 11
5640.013631733603
 21
3131.697356947188
 31
0.0
  0
LINE
  5
E259
330
1F
100
AcDbEntity
  8
0
 62
     0
100
AcDbLine
 10
5639.937434118463
 20
3111.656718364367
 30
0.0
 11
5639.937434118463
 21
3131.656718364367
 31
0.0
  0
LINE
  5
E25A
330
1F
100
AcDbEntity
  8
0
 62
     0
100
AcDbLine
 10
5683.649292295497
 20
3111.722136235373
 30
0.0
 11
5683.649292295497
 21
3171.722136235374
 31
0.0
  0
LINE
  5
E25B
330
1F
100
AcDbEntity
  8
0
 62
     0
100
AcDbLine
 10
5683.649292295497
 20
3111.722136235373
 30
0.0
 11
5683.649292295497
 21
3161.722136235374
 31
0.0
  0
LINE
  5
E25C
330
1F
100
AcDbEntity
  8
0
 62
     0
100
AcDbLine
 10
5675.649292295497
 20
3111.722136235373
 30
0.0
 11
5675.649292295497
 21
3131.682596839717
 31
0.0
  0
LINE
  5
E25D
330
1F
100
AcDbEntity
  8
0
 48
0.5
100
AcDbLine
 10
5695.649292295496
 20
3093.735203571705
 30
0.0
 11
5695.649292295496
 21
3129.57823315703
 31
0.0
  0
LINE
  5
E25E
330
1F
100
AcDbEntity
  8
0
 62
     0
100
AcDbLine
 10
5683.649292295497
 20
3191.722136235374
 30
0.0
 11
5683.649292295497
 21
3031.722136235373
 31
0.0
  0
LINE
  5
E25F
330
1F
100
AcDbEntity
  8
0
 62
     0
100
AcDbLine
 10
5643.960711839103
 20
3071.735797155677
 30
0.0
 11
5670.081349113028
 21
3071.735797155677
 31
0.0
  0
LINE
  5
E260
330
1F
100
AcDbEntity
  8
0
 62
     0
100
AcDbLine
 10
5643.960711839103
 20
3071.735797155677
 30
0.0
 11
5674.65126926528
 21
3071.735797155677
 31
0.0
  0
LINE
  5
E261
330
1F
100
AcDbEntity
  8
0
 62
     0
100
AcDbLine
 10
5643.960711839103
 20
3091.696257760024
 30
0.0
 11
5670.081349113028
 21
3091.696257760024
 31
0.0
  0
ARC
  5
E262
330
1F
100
AcDbEntity
  8
0
 62
     0
100
AcDbCircle
 10
5654.376582428088
 20
3081.716027457853
 30
0.0
 40
14.42551063259171
100
AcDbArc
 50
136.2235944163069
 51
223.776405583693
  0
LINE
  5
E263
330
1F
100
AcDbEntity
  8
0
 62
     0
100
AcDbLine
 10
5674.65126926528
 20
3071.735797155677
 30
0.0
 11
5675.649292295497
 21
3072.733820185895
 31
0.0
  0
LINE
  5
E264
330
1F
100
AcDbEntity
  8
0
 62
     0
100
AcDbLine
 10
5670.081349113028
 20
3091.696257760024
 30
0.0
 11
5675.649292295497
 21
3091.696257760024
 31
0.0
  0
LINE
  5
E265
330
1F
100
AcDbEntity
  8
0
 62
     0
100
AcDbLine
 10
5683.649292295497
 20
3111.722136235373
 30
0.0
 11
5683.649292295497
 21
3051.722136235374
 31
0.0
  0
LINE
  5
E266
330
1F
100
AcDbEntity
  8
0
 62
     0
100
AcDbLine
 10
5683.649292295497
 20
3051.722136235374
 30
0.0
 11
5695.649292295496
 21
3051.722136235374
 31
0.0
  0
LINE
  5
E267
330
1F
100
AcDbEntity
  8
0
 62
     0
100
AcDbLine
 10
5704.162316847567
 20
3093.57823315703
 30
0.0
 11
5696.96231684757
 21
3093.57823315703
 31
0.0
  0
LINE
  5
E268
330
1F
100
AcDbEntity
  8
0
 62
     0
100
AcDbLine
 10
5696.96231684757
 20
3093.57823315703
 30
0.0
 11
5695.722854845492
 21
3093.57823315703
 31
0.0
  0
LINE
  5
E269
330
1F
100
AcDbEntity
  8
0
 62
     0
100
AcDbLine
 10
5695.649292295496
 20
3093.735203571705
 30
0.0
 11
5695.722854845492
 21
3093.57823315703
 31
0.0
  0
LINE
  5
E26A
330
1F
100
AcDbEntity
  8
0
 62
     0
100
AcDbLine
 10
5683.649292295497
 20
3031.722136235373
 30
0.0
 11
5675.649292295497
 21
3031.722136235373
 31
0.0
  0
LINE
  5
E26B
330
1F
100
AcDbEntity
  8
0
 62
     0
100
AcDbLine
 10
5675.649292295497
 20
3031.722136235373
 30
0.0
 11
5675.649292295497
 21
3111.722136235373
 31
0.0
  0
LINE
  5
E26C
330
1F
100
AcDbEntity
  8
0
 62
     0
100
AcDbLine
 10
5674.651277771805
 20
3151.704354714871
 30
0.0
 11
5643.998571844047
 21
3151.704354714871
 31
0.0
  0
LINE
  5
E26D
330
1F
100
AcDbEntity
  8
0
 62
     0
100
AcDbLine
 10
5643.960711839103
 20
3131.61717896871
 30
0.0
 11
5670.081349113028
 21
3131.61717896871
 31
0.0
  0
ARC
  5
E26E
330
1F
100
AcDbEntity
  8
0
 62
     0
100
AcDbCircle
 10
5654.798626539708
 20
3141.597409270882
 30
0.0
 40
14.73313924260999
100
AcDbArc
 50
137.3591881473751
 51
222.6408118526248
  0
LINE
  5
E26F
330
1F
100
AcDbEntity
  8
0
 62
     0
100
AcDbLine
 10
5670.081349113028
 20
3131.61717896871
 30
0.0
 11
5675.649292295497
 21
3131.61717896871
 31
0.0
  0
LINE
  5
E270
330
1F
100
AcDbEntity
  8
0
 62
     0
100
AcDbLine
 10
5674.651277771805
 20
3151.704354714871
 30
0.0
 11
5675.649292295497
 21
3150.710452284849
 31
0.0
  0
LINE
  5
E271
330
1F
100
AcDbEntity
  8
0
 62
     0
100
AcDbLine
 10
5683.649292295497
 20
3171.722136235374
 30
0.0
 11
5695.649292295496
 21
3171.722136235374
 31
0.0
  0
LINE
  5
E272
330
1F
100
AcDbEntity
  8
0
 62
     0
100
AcDbLine
 10
5696.96231684757
 20
3129.57823315703
 30
0.0
 11
5695.649292295496
 21
3129.57823315703
 31
0.0
  0
LINE
  5
E273
330
1F
100
AcDbEntity
  8
0
 62
     0
100
AcDbLine
 10
5704.162316847567
 20
3129.57823315703
 30
0.0
 11
5696.96231684757
 21
3129.57823315703
 31
0.0
  0
LINE
  5
E274
330
1F
100
AcDbEntity
  8
0
 62
     0
100
AcDbLine
 10
5675.649292295497
 20
3191.722136235374
 30
0.0
 11
5683.649292295497
 21
3191.722136235374
 31
0.0
  0
ARC
  5
E275
330
1F
100
AcDbEntity
  8
0
 62
     0
100
AcDbCircle
 10
5800.901315201863
 20
3111.57823315703
 30
0.0
 40
3.0
100
AcDbArc
 50
90.0
 51
270.0
  0
LINE
  5
E276
330
1F
100
AcDbEntity
  8
0
 62
     0
100
AcDbLine
 10
5770.162316847567
 20
3131.57823315703
 30
0.0
 11
5770.162316847567
 21
3091.578233157029
 31
0.0
  0
LINE
  5
E277
330
1F
100
AcDbEntity
  8
0
 62
     0
100
AcDbLine
 10
5778.162316847567
 20
3131.57823315703
 30
0.0
 11
5778.162316847567
 21
3095.184831906713
 31
0.0
  0
LINE
  5
E278
330
1F
100
AcDbEntity
  8
0
 62
     0
100
AcDbLine
 10
5770.162316847567
 20
3091.578233157029
 30
0.0
 11
5842.415933645451
 21
3091.578233157029
 31
0.0
  0
LINE
  5
E279
330
1F
100
AcDbEntity
  8
0
 62
     0
100
AcDbLine
 10
5778.162316847567
 20
3095.184831906713
 30
0.0
 11
5778.162316847567
 21
3091.578233157029
 31
0.0
  0
LINE
  5
E27A
330
1F
100
AcDbEntity
  8
0
 62
     0
100
AcDbLine
 10
5770.162316847567
 20
3091.578233157029
 30
0.0
 11
5770.162316847567
 21
3093.57823315703
 31
0.0
  0
LINE
  5
E27B
330
1F
100
AcDbEntity
  8
0
 62
     0
100
AcDbLine
 10
5800.901315201863
 20
3108.57823315703
 30
0.0
 11
5821.555016813265
 21
3108.57823315703
 31
0.0
  0
LINE
  5
E27C
330
1F
100
AcDbEntity
  8
0
 62
     0
100
AcDbLine
 10
5840.80415214942
 20
3131.57823315703
 30
0.0
 11
5770.162316847567
 21
3131.57823315703
 31
0.0
  0
LINE
  5
E27D
330
1F
100
AcDbEntity
  8
0
 62
     0
100
AcDbLine
 10
5840.80415214942
 20
3131.57823315703
 30
0.0
 11
5770.162316847567
 21
3131.57823315703
 31
0.0
  0
LINE
  5
E27E
330
1F
100
AcDbEntity
  8
0
 62
     0
100
AcDbLine
 10
5770.162316847567
 20
3131.57823315703
 30
0.0
 11
5778.162316847567
 21
3131.57823315703
 31
0.0
  0
LINE
  5
E27F
330
1F
100
AcDbEntity
  8
0
 62
     0
100
AcDbLine
 10
5770.162316847567
 20
3131.57823315703
 30
0.0
 11
5770.162316847567
 21
3129.57823315703
 31
0.0
  0
LINE
  5
E280
330
1F
100
AcDbEntity
  8
0
 62
     0
100
AcDbLine
 10
5800.901315201863
 20
3114.578233157029
 30
0.0
 11
5821.150039731747
 21
3114.578233157029
 31
0.0
  0
LINE
  5
E281
330
1F
100
AcDbEntity
  8
0
 62
     0
100
AcDbLine
 10
5876.962316847571
 20
3095.57823315703
 30
0.0
 11
5876.962316847571
 21
3127.57823315703
 31
0.0
  0
ARC
  5
E282
330
1F
100
AcDbEntity
  8
0
 62
     0
100
AcDbCircle
 10
5868.185610298973
 20
3102.831223221699
 30
0.0
 40
11.38580004735585
100
AcDbArc
 50
261.2401983393213
 51
320.4299839966683
  0
LINE
  5
E283
330
1F
100
AcDbEntity
  8
0
 62
     0
100
AcDbLine
 10
5866.451638752831
 20
3091.578233157029
 30
0.0
 11
5868.185610298973
 21
3091.578233157029
 31
0.0
  0
LINE
  5
E284
330
1F
100
AcDbEntity
  8
0
 62
     0
100
AcDbLine
 10
5868.025346919985
 20
3131.57823315703
 30
0.0
 11
5866.451638752831
 21
3131.57823315703
 31
0.0
  0
LINE
  5
E285
330
1F
100
AcDbEntity
  8
0
 62
     0
100
AcDbLine
 10
5868.025346919985
 20
3131.57823315703
 30
0.0
 11
5866.451638752831
 21
3131.57823315703
 31
0.0
  0
ARC
  5
E286
330
1F
100
AcDbEntity
  8
0
 62
     0
100
AcDbCircle
 10
5867.238492836408
 20
3117.836531400626
 30
0.0
 40
13.76421107477037
100
AcDbArc
 50
45.05262221396842
 51
93.27719545011417
  0
LINE
  5
E332
330
1F
100
AcDbEntity
  8
0
 62
     0
 48
12.0
100
AcDbLine
 10
5695.649292295501
 20
3231.195284189292
 30
0.0
 11
5723.93356354296
 21
3259.479555436755
 31
0.0
  0
LINE
  5
E333
330
1F
100
AcDbEntity
  8
0
 62
     0
 48
12.0
100
AcDbLine
 10
5695.649292295501
 20
3247.195284189293
 30
0.0
 11
5723.93356354296
 21
3275.479555436755
 31
0.0
  0
LINE
  5
E334
330
1F
100
AcDbEntity
  8
0
 62
     0
 48
12.0
100
AcDbLine
 10
5695.649292295501
 20
3215.195284189293
 30
0.0
 11
5723.93356354296
 21
3243.479555436755
 31
0.0
  0
LINE
  5
E335
330
1F
100
AcDbEntity
  8
0
 62
     0
 48
12.0
100
AcDbLine
 10
5695.649292295496
 20
2976.511879687114
 30
0.0
 11
5723.93356354296
 21
3004.796150934575
 31
0.0
  0
LINE
  5
E336
330
1F
100
AcDbEntity
  8
0
 62
     0
 48
12.0
100
AcDbLine
 10
5695.649292295496
 20
3008.511879687114
 30
0.0
 11
5723.93356354296
 21
3036.796150934575
 31
0.0
  0
LINE
  5
E337
330
1F
100
AcDbEntity
  8
0
 62
     0
 48
12.0
100
AcDbLine
 10
5695.649292295496
 20
2992.511879687114
 30
0.0
 11
5723.93356354296
 21
3020.796150934575
 31
0.0
  0
LINE
  5
E338
330
1F
100
AcDbEntity
  8
0
 62
     0
 48
12.0
100
AcDbLine
 10
5697.257771991452
 20
4460.503172030221
 30
0.0
 11
5725.542043238911
 21
4488.787443277682
 31
0.0
  0
LINE
  5
E339
330
1F
100
AcDbEntity
  8
0
 62
     0
 48
12.0
100
AcDbLine
 10
5697.257771991452
 20
4444.503172030221
 30
0.0
 11
5725.542043238911
 21
4472.787443277683
 31
0.0
  0
LINE
  5
E33A
330
1F
100
AcDbEntity
  8
0
 62
     0
 48
12.0
100
AcDbLine
 10
5697.257771991452
 20
4476.503172030221
 30
0.0
 11
5725.542043238911
 21
4504.787443277683
 31
0.0
  0
LINE
  5
E33B
330
1F
100
AcDbEntity
  8
0
 62
     0
 48
12.0
100
AcDbLine
 10
5697.257771991452
 20
4683.1865765324
 30
0.0
 11
5725.542043238914
 21
4711.470847779863
 31
0.0
  0
LINE
  5
E33C
330
1F
100
AcDbEntity
  8
0
 62
     0
 48
12.0
100
AcDbLine
 10
5697.257771991452
 20
4715.1865765324
 30
0.0
 11
5725.542043238914
 21
4743.470847779863
 31
0.0
  0
LINE
  5
E33D
330
1F
100
AcDbEntity
  8
0
 62
     0
 48
12.0
100
AcDbLine
 10
5697.257771991452
 20
4699.1865765324
 30
0.0
 11
5725.542043238914
 21
4727.470847779863
 31
0.0
  0
LINE
  5
E33E
330
1F
100
AcDbEntity
  8
0
 62
     0
 48
12.0
100
AcDbLine
 10
5697.257771991452
 20
4449.899179168962
 30
0.0
 11
5697.257771991452
 21
4432.010871589263
 31
0.0
  0
LINE
  5
E3A5
330
1F
100
AcDbEntity
  8
0
 62
     0
 48
12.0
100
AcDbLine
 10
5697.257771991452
 20
4432.010871589263
 30
0.0
 11
5697.257771991452
 21
4461.316453597254
 31
0.0
  0
LINE
  5
E3A8
330
1F
100
AcDbEntity
  8
0
 62
     0
 48
12.0
100
AcDbLine
 10
5695.649292295496
 20
3276.460539506317
 30
0.0
 11
5695.649292295496
 21
3309.773202940225
 31
0.0
  0
LINE
  5
E3AE
330
1F
100
AcDbEntity
  8
0
 62
     0
100
AcDbLine
 10
5641.622111429558
 20
1646.240108696543
 30
0.0
 11
5441.622111429559
 21
1646.240108696543
 31
0.0
  0
LINE
  5
E3AF
330
1F
100
AcDbEntity
  8
0
 62
     0
100
AcDbLine
 10
5441.622111429559
 20
1590.240108696543
 30
0.0
 11
5641.622111429558
 21
1590.240108696543
 31
0.0
  0
ARC
  5
E3B0
330
1F
100
AcDbEntity
  8
0
 62
     0
 48
12.0
100
AcDbCircle
 10
5360.08234751943
 20
1618.20435026336
 30
0.0
 40
52.00749785598945
100
AcDbArc
 50
34.05373124591843
 51
84.36517702943801
  0
ARC
  5
E3B1
330
1F
100
AcDbEntity
  8
0
 62
     0
100
AcDbCircle
 10
5450.374649927045
 20
1618.168438951066
 30
0.0
 40
28.33929559045225
100
AcDbArc
 50
157.208038552044
 51
202.7919614479559
  0
LINE
  5
E3B2
330
1F
100
AcDbEntity
  8
0
 62
     0
100
AcDbLine
 10
5422.074388068646
 20
1618.204418780118
 30
0.0
 11
5422.074388068646
 21
1644.204418780118
 31
0.0
  0
LINE
  5
E3B3
330
1F
100
AcDbEntity
  8
0
 62
     0
100
AcDbLine
 10
5441.676876333961
 20
1618.204418780118
 30
0.0
 11
5441.676876333961
 21
1630.204418780118
 31
0.0
  0
LINE
  5
E3B4
330
1F
100
AcDbEntity
  8
0
 62
     0
100
AcDbLine
 10
5441.676876333961
 20
1618.204418780118
 30
0.0
 11
5441.676876333961
 21
1623.693545446313
 31
0.0
  0
LINE
  5
E3B5
330
1F
100
AcDbEntity
  8
0
 62
     0
100
AcDbLine
 10
5441.676876333961
 20
1618.204418780118
 30
0.0
 11
5441.676876333961
 21
1629.182672112507
 31
0.0
  0
LINE
  5
E3B6
330
1F
100
AcDbEntity
  8
0
 62
     0
100
AcDbLine
 10
5441.622111429559
 20
1590.240108696543
 30
0.0
 11
5441.622111429559
 21
1645.379637462618
 31
0.0
  0
LINE
  5
E3B7
330
1F
100
AcDbEntity
  8
0
 62
     0
100
AcDbLine
 10
5422.074388068646
 20
1644.204418780118
 30
0.0
 11
5422.074388068646
 21
1592.168438951066
 31
0.0
  0
LINE
  5
E3B8
330
1F
100
AcDbEntity
  8
0
 62
     0
100
AcDbLine
 10
5422.042855058968
 20
1601.701058952479
 30
0.0
 11
5422.105783584844
 21
1634.635818949649
 31
0.0
  0
LINE
  5
E3B9
330
1F
100
AcDbEntity
  8
0
 62
     0
100
AcDbLine
 10
5441.676876333961
 20
1596.760844952907
 30
0.0
 11
5441.676876333961
 21
1639.647992607329
 31
0.0
  0
ARC
  5
E3BA
330
1F
100
AcDbEntity
  8
0
 62
     0
 48
12.0
100
AcDbCircle
 10
5360.08234751943
 20
1618.20435026336
 30
0.0
 40
32.0
100
AcDbArc
 50
98.76007631895539
 51
80.81759089576376
  0
LINE
  5
E3BB
330
1F
100
AcDbEntity
  8
0
 62
     0
100
AcDbLine
 10
5424.248157082937
 20
1607.190185618674
 30
0.0
 11
5438.614507583607
 21
1607.190185618674
 31
0.0
  0
LINE
  5
E3BC
330
1F
100
AcDbEntity
  8
0
 62
     0
100
AcDbLine
 10
5438.614507583607
 20
1607.190185618674
 30
0.0
 11
5441.676876333961
 21
1607.190185618674
 31
0.0
  0
LWPOLYLINE
  5
E3BD
330
1F
100
AcDbEntity
  8
0
 62
     0
100
AcDbPolyline
 90
        3
 70
     0
 43
0.0
 10
5414.07438806865
 20
1592.168438951064
 10
5403.648134115051
 20
1589.886114654787
 10
5403.648134115051
 20
1589.886114654787
  0
LINE
  5
E3BE
330
1F
100
AcDbEntity
  8
0
 62
     0
100
AcDbLine
 10
5424.248157082937
 20
1596.211932286285
 30
0.0
 11
5438.614507583607
 21
1596.211932286285
 31
0.0
  0
LINE
  5
E3BF
330
1F
100
AcDbEntity
  8
0
 62
     0
100
AcDbLine
 10
5424.248157082937
 20
1596.211932286285
 30
0.0
 11
5441.127963667339
 21
1596.211932286285
 31
0.0
  0
LINE
  5
E3C0
330
1F
100
AcDbEntity
  8
0
 62
     0
100
AcDbLine
 10
5441.127963667339
 20
1596.211932286285
 30
0.0
 11
5441.676876333961
 21
1596.760844952907
 31
0.0
  0
LINE
  5
E3C1
330
1F
100
AcDbEntity
  8
0
 62
     0
100
AcDbLine
 10
5422.074319321906
 20
1592.168438951066
 30
0.0
 11
5414.074388068645
 21
1592.168438951066
 31
0.0
  0
LINE
  5
E3C2
330
1F
100
AcDbEntity
  8
0
 62
     0
100
AcDbLine
 10
5422.074319321906
 20
1592.168438951066
 30
0.0
 11
5414.074319321906
 21
1592.168438951066
 31
0.0
  0
LINE
  5
E3C3
330
1F
100
AcDbEntity
  8
0
 62
     0
100
AcDbLine
 10
5422.074319321906
 20
1618.168438951066
 30
0.0
 11
5422.074319321906
 21
1592.168438951066
 31
0.0
  0
ARC
  5
E3C4
330
1F
100
AcDbEntity
  8
0
 62
     0
100
AcDbCircle
 10
5429.976885906882
 20
1601.701058952479
 30
0.0
 40
7.93403084792544
100
AcDbArc
 50
136.2235944163069
 51
223.776405583693
  0
LWPOLYLINE
  5
E3C5
330
1F
100
AcDbEntity
  8
0
 62
     0
100
AcDbPolyline
 90
        3
 70
     0
 43
0.0
 10
5414.07438806865
 20
1644.204418780118
 10
5403.132789042397
 20
1647.301016855855
 10
5414.07438806865
 20
1644.204418780118
  0
ARC
  5
E3C6
330
1F
100
AcDbEntity
  8
0
 62
     0
100
AcDbCircle
 10
5430.20901016828
 20
1634.635818949649
 30
0.0
 40
8.103226583435498
100
AcDbArc
 50
137.3591881473751
 51
222.6408118526248
  0
LINE
  5
E3C7
330
1F
100
AcDbEntity
  8
0
 62
     0
100
AcDbLine
 10
5441.127968345925
 20
1640.194638943841
 30
0.0
 11
5424.268980085671
 21
1640.194638943841
 31
0.0
  0
LINE
  5
E3C8
330
1F
100
AcDbEntity
  8
0
 62
     0
100
AcDbLine
 10
5424.248157082937
 20
1629.146692283455
 30
0.0
 11
5438.614507583607
 21
1629.146692283455
 31
0.0
  0
LINE
  5
E3C9
330
1F
100
AcDbEntity
  8
0
 62
     0
100
AcDbLine
 10
5441.127968345925
 20
1640.194638943841
 30
0.0
 11
5441.676876333961
 21
1639.647992607329
 31
0.0
  0
LINE
  5
E3CA
330
1F
100
AcDbEntity
  8
0
 62
     0
100
AcDbLine
 10
5438.614507583607
 20
1629.146692283455
 30
0.0
 11
5441.676876333961
 21
1629.146692283455
 31
0.0
  0
LINE
  5
E3CB
330
1F
100
AcDbEntity
  8
0
 62
     0
100
AcDbLine
 10
5422.074388068646
 20
1644.204418780118
 30
0.0
 11
5414.074388068645
 21
1644.204418780118
 31
0.0
  0
LINE
  5
E3CC
330
1F
100
AcDbEntity
  8
0
 62
     0
100
AcDbLine
 10
5422.074388068646
 20
1644.204418780118
 30
0.0
 11
5414.074388068645
 21
1644.204418780118
 31
0.0
  0
ARC
  5
E3CD
330
1F
100
AcDbEntity
  8
0
 62
     0
100
AcDbCircle
 10
5842.274568053134
 20
1633.509973675416
 30
0.0
 40
4.621430596438699
100
AcDbArc
 50
21.11048458335583
 51
93.84814721197772
  0
ARC
  5
E3CE
330
1F
100
AcDbEntity
  8
0
 62
     0
100
AcDbCircle
 10
5843.080458801149
 20
1601.886202342208
 30
0.0
 40
3.927138993174281
100
AcDbArc
 50
253.4896813575782
 51
338.8429642585263
  0
ARC
  5
E3CF
330
1F
100
AcDbEntity
  8
0
 62
     0
100
AcDbCircle
 10
5820.826472269338
 20
1651.59806874908
 30
0.0
 40
30.54963237478725
100
AcDbArc
 50
273.9494346700785
 51
328.0313641311591
  0
ARC
  5
E3D0
330
1F
100
AcDbEntity
  8
0
 62
     0
100
AcDbCircle
 10
5822.702372453914
 20
1588.07448044193
 30
0.0
 40
27.04746746849392
100
AcDbArc
 50
27.27380201547615
 51
89.51650758353483
  0
LINE
  5
E3D1
330
1F
100
AcDbEntity
  8
0
 62
     0
100
AcDbLine
 10
5868.060118448786
 20
1638.120984906398
 30
0.0
 11
5846.570796543525
 21
1635.423414450853
 31
0.0
  0
ARC
  5
E3D2
330
1F
100
AcDbEntity
  8
0
 62
     0
100
AcDbCircle
 10
5842.102476746306
 20
1633.509973675418
 30
0.0
 40
4.621430596438699
100
AcDbArc
 50
21.11048458335583
 51
93.84814721197772
  0
ARC
  5
E3D3
330
1F
100
AcDbEntity
  8
0
 62
     0
100
AcDbCircle
 10
5822.530281147087
 20
1588.074480441932
 30
0.0
 40
27.04746746849392
100
AcDbArc
 50
27.27380201547615
 51
89.51650758353483
  0
LINE
  5
E3D4
330
1F
100
AcDbEntity
  8
0
 62
     0
100
AcDbLine
 10
5868.060118448786
 20
1598.120984906397
 30
0.0
 11
5846.570796543525
 21
1600.468798330899
 31
0.0
  0
ARC
  5
E3D5
330
1F
100
AcDbEntity
  8
0
 62
     0
100
AcDbCircle
 10
5842.908367494321
 20
1601.886202342206
 30
0.0
 40
3.927138993174281
100
AcDbArc
 50
253.4896813575782
 51
338.8429642585263
  0
ARC
  5
E3D6
330
1F
100
AcDbEntity
  8
0
 62
     0
100
AcDbCircle
 10
5820.654380962511
 20
1651.598068749082
 30
0.0
 40
30.54963237478725
100
AcDbArc
 50
273.9494346700785
 51
328.0313641311591
  0
LINE
  5
E3D8
330
1F
100
AcDbEntity
  8
0
 62
     0
 48
12.0
100
AcDbLine
 10
5697.257771991452
 20
1507.689455598794
 30
0.0
 11
5725.542043238911
 21
1535.973726846256
 31
0.0
  0
LINE
  5
E3DA
330
1F
100
AcDbEntity
  8
0
 62
     0
 48
12.0
100
AcDbLine
 10
5697.257771991452
 20
1475.689455598794
 30
0.0
 11
5725.542043238911
 21
1503.973726846256
 31
0.0
  0
LINE
  5
E3DB
330
1F
100
AcDbEntity
  8
0
 62
     0
 48
12.0
100
AcDbLine
 10
5697.257771991452
 20
1491.689455598794
 30
0.0
 11
5725.542043238911
 21
1519.973726846256
 31
0.0
  0
LINE
  5
E3DC
330
1F
100
AcDbEntity
  8
0
 62
     0
 48
12.0
100
AcDbLine
 10
5697.257771991452
 20
1463.197155157837
 30
0.0
 11
5697.257771991452
 21
1492.502737165827
 31
0.0
  0
LINE
  5
E3DD
330
1F
100
AcDbEntity
  8
0
 62
     0
 48
12.0
100
AcDbLine
 10
5697.257771991452
 20
1481.085462737535
 30
0.0
 11
5697.257771991452
 21
1463.197155157837
 31
0.0
  0
LINE
  5
E3DE
330
1F
100
AcDbEntity
  8
0
 62
     0
100
AcDbLine
 10
5771.942887850349
 20
1636.120984906396
 30
0.0
 11
5705.942887850349
 21
1636.120984906396
 31
0.0
  0
LINE
  5
E3DF
330
1F
100
AcDbEntity
  8
0
 62
     0
100
AcDbLine
 10
5771.942887850349
 20
1600.120984906396
 30
0.0
 11
5705.942887850349
 21
1600.120984906396
 31
0.0
  0
LINE
  5
E3E0
330
1F
100
AcDbEntity
  8
0
 62
     0
100
AcDbLine
 10
5771.770796543522
 20
1600.120984906397
 30
0.0
 11
5705.770796543522
 21
1600.120984906397
 31
0.0
  0
LINE
  5
E3E1
330
1F
100
AcDbEntity
  8
0
 62
     0
100
AcDbLine
 10
5771.770796543522
 20
1636.120984906398
 30
0.0
 11
5705.770796543522
 21
1636.120984906398
 31
0.0
  0
LINE
  5
E3E2
330
1F
100
AcDbEntity
  8
0
 62
     0
100
AcDbLine
 10
5677.257771991452
 20
1579.276571935264
 30
0.0
 11
5677.257771991452
 21
1657.253204034215
 31
0.0
  0
LINE
  5
E3E3
330
1F
100
AcDbEntity
  8
0
 62
     0
100
AcDbLine
 10
5677.257771991452
 20
1618.26488798474
 30
0.0
 11
5677.257771991452
 21
1638.225348589083
 31
0.0
  0
LINE
  5
E3E4
330
1F
100
AcDbEntity
  8
0
 62
     0
100
AcDbLine
 10
5677.257771991452
 20
1618.26488798474
 30
0.0
 11
5677.257771991452
 21
1628.245118286911
 31
0.0
  0
LINE
  5
E3E5
330
1F
100
AcDbEntity
  8
0
 48
0.5
100
AcDbLine
 10
5697.429863298279
 20
1600.277955321071
 30
0.0
 11
5697.429863298279
 21
1636.120984906396
 31
0.0
  0
LINE
  5
E3E6
330
1F
100
AcDbEntity
  8
0
 62
     0
100
AcDbLine
 10
5641.622111429558
 20
1618.240108696543
 30
0.0
 11
5641.622111429558
 21
1646.240108696543
 31
0.0
  0
LINE
  5
E3E7
330
1F
100
AcDbEntity
  8
0
 62
     0
100
AcDbLine
 10
5641.622111429558
 20
1618.240108696554
 30
0.0
 11
5641.622111429558
 21
1638.240108696554
 31
0.0
  0
LINE
  5
E3E8
330
1F
100
AcDbEntity
  8
0
 62
     0
100
AcDbLine
 10
5641.622111429558
 20
1618.240108696554
 30
0.0
 11
5641.622111429558
 21
1638.240108696554
 31
0.0
  0
LINE
  5
E3E9
330
1F
100
AcDbEntity
  8
0
 62
     0
100
AcDbLine
 10
5641.545913814432
 20
1618.199470113733
 30
0.0
 11
5641.545913814432
 21
1638.199470113733
 31
0.0
  0
LINE
  5
E3EA
330
1F
100
AcDbEntity
  8
0
 62
     0
100
AcDbLine
 10
5641.559551491457
 20
1585.498255649585
 30
0.0
 11
5641.673966993065
 21
1645.379637462618
 31
0.0
  0
LINE
  5
E3EB
330
1F
100
AcDbEntity
  8
0
 62
     0
100
AcDbLine
 10
5641.616759242268
 20
1618.199470113733
 30
0.0
 11
5645.501592549914
 21
1637.818544255289
 31
0.0
  0
ARC
  5
E3EC
330
1F
100
AcDbEntity
  8
0
 62
     0
100
AcDbCircle
 10
5693.071905797068
 20
1618.199470113733
 30
0.0
 40
51.52599198264046
100
AcDbArc
 50
157.208038552044
 51
202.7919614479559
  0
LINE
  5
E3ED
330
1F
100
AcDbEntity
  8
0
 62
     0
100
AcDbLine
 10
5685.257771991452
 20
1618.26488798474
 30
0.0
 11
5685.257771991452
 21
1678.26488798474
 31
0.0
  0
LINE
  5
E3EE
330
1F
100
AcDbEntity
  8
0
 62
     0
100
AcDbLine
 10
5677.257771991452
 20
1618.26488798474
 30
0.0
 11
5677.257771991452
 21
1698.26488798474
 31
0.0
  0
LINE
  5
E3EF
330
1F
100
AcDbEntity
  8
0
 62
     0
100
AcDbLine
 10
5685.257771991452
 20
1618.26488798474
 30
0.0
 11
5685.257771991452
 21
1668.26488798474
 31
0.0
  0
LINE
  5
E3F0
330
1F
100
AcDbEntity
  8
0
 62
     0
100
AcDbLine
 10
5685.257771991452
 20
1698.26488798474
 30
0.0
 11
5685.257771991452
 21
1538.26488798474
 31
0.0
  0
LINE
  5
E3F3
330
1F
100
AcDbEntity
  8
0
 48
0.5
100
AcDbLine
 10
5697.257771991452
 20
1600.277955321073
 30
0.0
 11
5697.257771991452
 21
1636.120984906398
 31
0.0
  0
LINE
  5
E3F4
330
1F
100
AcDbEntity
  8
0
 62
     0
100
AcDbLine
 10
5645.569191535058
 20
1578.278548905047
 30
0.0
 11
5671.689828808998
 21
1578.278548905047
 31
0.0
  0
LINE
  5
E3F5
330
1F
100
AcDbEntity
  8
0
 62
     0
100
AcDbLine
 10
5645.569191535058
 20
1578.278548905047
 30
0.0
 11
5676.259748961235
 21
1578.278548905047
 31
0.0
  0
LINE
  5
E3F6
330
1F
100
AcDbEntity
  8
0
 62
     0
100
AcDbLine
 10
5645.569191535058
 20
1598.23900950939
 30
0.0
 11
5671.689828808998
 21
1598.23900950939
 31
0.0
  0
ARC
  5
E3F7
330
1F
100
AcDbEntity
  8
0
 62
     0
100
AcDbCircle
 10
5655.985062124059
 20
1588.258779207219
 30
0.0
 40
14.42551063259171
100
AcDbArc
 50
136.2235944163069
 51
223.776405583693
  0
LINE
  5
E3F8
330
1F
100
AcDbEntity
  8
0
 62
     0
100
AcDbLine
 10
5676.259748961235
 20
1578.278548905047
 30
0.0
 11
5677.257771991452
 21
1579.276571935264
 31
0.0
  0
LINE
  5
E3F9
330
1F
100
AcDbEntity
  8
0
 62
     0
100
AcDbLine
 10
5671.689828808998
 20
1598.23900950939
 30
0.0
 11
5677.257771991452
 21
1598.23900950939
 31
0.0
  0
LINE
  5
E3FA
330
1F
100
AcDbEntity
  8
0
 62
     0
100
AcDbLine
 10
5705.942887850349
 20
1600.120984906396
 30
0.0
 11
5698.742887850352
 21
1600.120984906396
 31
0.0
  0
LINE
  5
E3FB
330
1F
100
AcDbEntity
  8
0
 62
     0
100
AcDbLine
 10
5698.742887850352
 20
1600.120984906396
 30
0.0
 11
5697.503425848274
 21
1600.120984906396
 31
0.0
  0
LINE
  5
E3FC
330
1F
100
AcDbEntity
  8
0
 62
     0
100
AcDbLine
 10
5697.429863298279
 20
1600.277955321071
 30
0.0
 11
5697.503425848274
 21
1600.120984906396
 31
0.0
  0
LINE
  5
E3FD
330
1F
100
AcDbEntity
  8
0
 62
     0
100
AcDbLine
 10
5685.257771991452
 20
1558.26488798474
 30
0.0
 11
5697.257771991452
 21
1558.26488798474
 31
0.0
  0
LINE
  5
E3FE
330
1F
100
AcDbEntity
  8
0
 62
     0
100
AcDbLine
 10
5685.257771991452
 20
1538.26488798474
 30
0.0
 11
5677.257771991452
 21
1538.26488798474
 31
0.0
  0
LINE
  5
E3FF
330
1F
100
AcDbEntity
  8
0
 62
     0
100
AcDbLine
 10
5685.257771991452
 20
1618.26488798474
 30
0.0
 11
5685.257771991452
 21
1558.26488798474
 31
0.0
  0
LINE
  5
E400
330
1F
100
AcDbEntity
  8
0
 62
     0
100
AcDbLine
 10
5677.257771991452
 20
1538.26488798474
 30
0.0
 11
5677.257771991452
 21
1618.26488798474
 31
0.0
  0
LINE
  5
E401
330
1F
100
AcDbEntity
  8
0
 62
     0
100
AcDbLine
 10
5705.770796543522
 20
1600.120984906397
 30
0.0
 11
5698.570796543525
 21
1600.120984906397
 31
0.0
  0
LINE
  5
E402
330
1F
100
AcDbEntity
  8
0
 62
     0
100
AcDbLine
 10
5698.570796543525
 20
1600.120984906397
 30
0.0
 11
5697.331334541446
 21
1600.120984906397
 31
0.0
  0
LINE
  5
E403
330
1F
100
AcDbEntity
  8
0
 62
     0
100
AcDbLine
 10
5697.257771991452
 20
1600.277955321073
 30
0.0
 11
5697.331334541446
 21
1600.120984906397
 31
0.0
  0
LINE
  5
E404
330
1F
100
AcDbEntity
  8
0
 62
     0
100
AcDbLine
 10
5645.569191535058
 20
1638.15993071808
 30
0.0
 11
5671.689828808998
 21
1638.15993071808
 31
0.0
  0
LINE
  5
E405
330
1F
100
AcDbEntity
  8
0
 62
     0
100
AcDbLine
 10
5676.259757467761
 20
1658.247106464241
 30
0.0
 11
5645.607051540017
 21
1658.247106464241
 31
0.0
  0
ARC
  5
E406
330
1F
100
AcDbEntity
  8
0
 62
     0
100
AcDbCircle
 10
5656.407106235678
 20
1648.140161020252
 30
0.0
 40
14.73313924260999
100
AcDbArc
 50
137.3591881473751
 51
222.6408118526248
  0
LINE
  5
E407
330
1F
100
AcDbEntity
  8
0
 62
     0
100
AcDbLine
 10
5677.257771991452
 20
1698.26488798474
 30
0.0
 11
5685.257771991452
 21
1698.26488798474
 31
0.0
  0
LINE
  5
E408
330
1F
100
AcDbEntity
  8
0
 62
     0
100
AcDbLine
 10
5685.257771991452
 20
1678.26488798474
 30
0.0
 11
5697.257771991452
 21
1678.26488798474
 31
0.0
  0
LINE
  5
E409
330
1F
100
AcDbEntity
  8
0
 62
     0
100
AcDbLine
 10
5671.689828808998
 20
1638.15993071808
 30
0.0
 11
5677.257771991452
 21
1638.15993071808
 31
0.0
  0
LINE
  5
E40A
330
1F
100
AcDbEntity
  8
0
 62
     0
100
AcDbLine
 10
5676.259757467761
 20
1658.247106464241
 30
0.0
 11
5677.257771991452
 21
1657.253204034215
 31
0.0
  0
LINE
  5
E40B
330
1F
100
AcDbEntity
  8
0
 62
     0
100
AcDbLine
 10
5698.742887850352
 20
1636.120984906396
 30
0.0
 11
5697.429863298279
 21
1636.120984906396
 31
0.0
  0
LINE
  5
E40C
330
1F
100
AcDbEntity
  8
0
 62
     0
100
AcDbLine
 10
5705.942887850349
 20
1636.120984906396
 30
0.0
 11
5698.742887850352
 21
1636.120984906396
 31
0.0
  0
LINE
  5
E40D
330
1F
100
AcDbEntity
  8
0
 62
     0
100
AcDbLine
 10
5698.570796543525
 20
1636.120984906398
 30
0.0
 11
5697.257771991452
 21
1636.120984906398
 31
0.0
  0
LINE
  5
E40E
330
1F
100
AcDbEntity
  8
0
 62
     0
100
AcDbLine
 10
5705.770796543522
 20
1636.120984906398
 30
0.0
 11
5698.570796543525
 21
1636.120984906398
 31
0.0
  0
LINE
  5
E40F
330
1F
100
AcDbEntity
  8
0
 62
     0
100
AcDbLine
 10
5779.942887850349
 20
1638.120984906396
 30
0.0
 11
5779.942887850349
 21
1601.727583656083
 31
0.0
  0
ARC
  5
E410
330
1F
100
AcDbEntity
  8
0
 62
     0
100
AcDbCircle
 10
5802.681886204646
 20
1618.120984906396
 30
0.0
 40
3.0
100
AcDbArc
 50
90.0
 51
270.0
  0
LINE
  5
E411
330
1F
100
AcDbEntity
  8
0
 62
     0
100
AcDbLine
 10
5771.942887850349
 20
1638.120984906396
 30
0.0
 11
5771.942887850349
 21
1598.120984906396
 31
0.0
  0
LINE
  5
E412
330
1F
100
AcDbEntity
  8
0
 62
     0
100
AcDbLine
 10
5771.770796543522
 20
1638.120984906398
 30
0.0
 11
5771.770796543522
 21
1598.120984906397
 31
0.0
  0
LINE
  5
E413
330
1F
100
AcDbEntity
  8
0
 62
     0
100
AcDbLine
 10
5779.770796543522
 20
1638.120984906398
 30
0.0
 11
5779.770796543522
 21
1601.727583656082
 31
0.0
  0
ARC
  5
E414
330
1F
100
AcDbEntity
  8
0
 62
     0
100
AcDbCircle
 10
5802.509794897819
 20
1618.120984906397
 30
0.0
 40
3.0
100
AcDbArc
 50
90.0
 51
270.0
  0
LINE
  5
E415
330
1F
100
AcDbEntity
  8
0
 62
     0
100
AcDbLine
 10
5771.942887850349
 20
1598.120984906396
 30
0.0
 11
5844.196504648233
 21
1598.120984906396
 31
0.0
  0
LINE
  5
E416
330
1F
100
AcDbEntity
  8
0
 62
     0
100
AcDbLine
 10
5771.770796543522
 20
1598.120984906397
 30
0.0
 11
5844.024413341405
 21
1598.120984906397
 31
0.0
  0
LINE
  5
E417
330
1F
100
AcDbEntity
  8
0
 62
     0
100
AcDbLine
 10
5779.942887850349
 20
1601.727583656083
 30
0.0
 11
5779.942887850349
 21
1598.120984906396
 31
0.0
  0
LINE
  5
E418
330
1F
100
AcDbEntity
  8
0
 62
     0
100
AcDbLine
 10
5771.942887850349
 20
1598.120984906396
 30
0.0
 11
5771.942887850349
 21
1600.120984906396
 31
0.0
  0
LINE
  5
E419
330
1F
100
AcDbEntity
  8
0
 62
     0
100
AcDbLine
 10
5779.770796543522
 20
1601.727583656082
 30
0.0
 11
5779.770796543522
 21
1598.120984906397
 31
0.0
  0
LINE
  5
E41A
330
1F
100
AcDbEntity
  8
0
 62
     0
100
AcDbLine
 10
5771.770796543522
 20
1598.120984906397
 30
0.0
 11
5771.770796543522
 21
1600.120984906397
 31
0.0
  0
LINE
  5
E41B
330
1F
100
AcDbEntity
  8
0
 62
     0
100
AcDbLine
 10
5802.681886204646
 20
1615.120984906396
 30
0.0
 11
5823.335587816047
 21
1615.120984906396
 31
0.0
  0
LINE
  5
E41C
330
1F
100
AcDbEntity
  8
0
 62
     0
100
AcDbLine
 10
5802.509794897819
 20
1615.120984906398
 30
0.0
 11
5823.16349650922
 21
1615.120984906398
 31
0.0
  0
LINE
  5
E41D
330
1F
100
AcDbEntity
  8
0
 62
     0
100
AcDbLine
 10
5842.584723152217
 20
1638.120984906396
 30
0.0
 11
5771.942887850349
 21
1638.120984906396
 31
0.0
  0
LINE
  5
E41E
330
1F
100
AcDbEntity
  8
0
 62
     0
100
AcDbLine
 10
5842.584723152217
 20
1638.120984906396
 30
0.0
 11
5771.942887850349
 21
1638.120984906396
 31
0.0
  0
LINE
  5
E41F
330
1F
100
AcDbEntity
  8
0
 62
     0
100
AcDbLine
 10
5842.412631845374
 20
1638.120984906398
 30
0.0
 11
5771.770796543522
 21
1638.120984906398
 31
0.0
  0
LINE
  5
E420
330
1F
100
AcDbEntity
  8
0
 62
     0
100
AcDbLine
 10
5842.412631845374
 20
1638.120984906398
 30
0.0
 11
5771.770796543522
 21
1638.120984906398
 31
0.0
  0
LINE
  5
E421
330
1F
100
AcDbEntity
  8
0
 62
     0
100
AcDbLine
 10
5771.942887850349
 20
1638.120984906396
 30
0.0
 11
5771.942887850349
 21
1636.120984906396
 31
0.0
  0
LINE
  5
E422
330
1F
100
AcDbEntity
  8
0
 62
     0
100
AcDbLine
 10
5771.942887850349
 20
1638.120984906396
 30
0.0
 11
5779.942887850349
 21
1638.120984906396
 31
0.0
  0
LINE
  5
E423
330
1F
100
AcDbEntity
  8
0
 62
     0
100
AcDbLine
 10
5771.770796543522
 20
1638.120984906398
 30
0.0
 11
5779.770796543522
 21
1638.120984906398
 31
0.0
  0
LINE
  5
E424
330
1F
100
AcDbEntity
  8
0
 62
     0
100
AcDbLine
 10
5771.770796543522
 20
1638.120984906398
 30
0.0
 11
5771.770796543522
 21
1636.120984906398
 31
0.0
  0
LINE
  5
E425
330
1F
100
AcDbEntity
  8
0
 62
     0
100
AcDbLine
 10
5802.681886204646
 20
1621.120984906396
 30
0.0
 11
5822.930610734529
 21
1621.120984906396
 31
0.0
  0
LINE
  5
E426
330
1F
100
AcDbEntity
  8
0
 62
     0
100
AcDbLine
 10
5802.509794897819
 20
1621.120984906398
 30
0.0
 11
5822.758519427702
 21
1621.120984906398
 31
0.0
  0
LINE
  5
E427
330
1F
100
AcDbEntity
  8
0
 62
     0
100
AcDbLine
 10
5878.742887850353
 20
1602.120984906396
 30
0.0
 11
5878.742887850353
 21
1634.120984906396
 31
0.0
  0
LINE
  5
E428
330
1F
100
AcDbEntity
  8
0
 62
     0
100
AcDbLine
 10
5878.570796543525
 20
1602.120984906397
 30
0.0
 11
5878.570796543525
 21
1634.120984906398
 31
0.0
  0
LINE
  5
E429
330
1F
100
AcDbEntity
  8
0
 62
     0
100
AcDbLine
 10
5868.232209755614
 20
1598.120984906396
 30
0.0
 11
5846.742887850353
 21
1600.468798330897
 31
0.0
  0
ARC
  5
E42A
330
1F
100
AcDbEntity
  8
0
 62
     0
100
AcDbCircle
 10
5869.966181301755
 20
1609.373974971065
 30
0.0
 40
11.38580004735585
100
AcDbArc
 50
261.2401983393213
 51
320.4299839966683
  0
LINE
  5
E42B
330
1F
100
AcDbEntity
  8
0
 62
     0
100
AcDbLine
 10
5868.232209755614
 20
1598.120984906396
 30
0.0
 11
5869.966181301755
 21
1598.120984906396
 31
0.0
  0
ARC
  5
E42C
330
1F
100
AcDbEntity
  8
0
 62
     0
100
AcDbCircle
 10
5869.794089994928
 20
1609.373974971067
 30
0.0
 40
11.38580004735585
100
AcDbArc
 50
261.2401983393213
 51
320.4299839966683
  0
LINE
  5
E42D
330
1F
100
AcDbEntity
  8
0
 62
     0
100
AcDbLine
 10
5868.060118448786
 20
1598.120984906397
 30
0.0
 11
5869.794089994928
 21
1598.120984906397
 31
0.0
  0
LINE
  5
E42E
330
1F
100
AcDbEntity
  8
0
 62
     0
100
AcDbLine
 10
5868.232209755614
 20
1638.120984906396
 30
0.0
 11
5846.742887850353
 21
1635.423414450855
 31
0.0
  0
ARC
  5
E42F
330
1F
100
AcDbEntity
  8
0
 62
     0
100
AcDbCircle
 10
5869.01906383919
 20
1624.379283149992
 30
0.0
 40
13.76421107477037
100
AcDbArc
 50
45.05262221396842
 51
93.27719545011417
  0
LINE
  5
E430
330
1F
100
AcDbEntity
  8
0
 62
     0
100
AcDbLine
 10
5869.805917922768
 20
1638.120984906396
 30
0.0
 11
5868.232209755614
 21
1638.120984906396
 31
0.0
  0
LINE
  5
E431
330
1F
100
AcDbEntity
  8
0
 62
     0
100
AcDbLine
 10
5869.805917922768
 20
1638.120984906396
 30
0.0
 11
5868.232209755614
 21
1638.120984906396
 31
0.0
  0
LINE
  5
E432
330
1F
100
AcDbEntity
  8
0
 62
     0
100
AcDbLine
 10
5869.63382661594
 20
1638.120984906398
 30
0.0
 11
5868.060118448786
 21
1638.120984906398
 31
0.0
  0
LINE
  5
E433
330
1F
100
AcDbEntity
  8
0
 62
     0
100
AcDbLine
 10
5869.63382661594
 20
1638.120984906398
 30
0.0
 11
5868.060118448786
 21
1638.120984906398
 31
0.0
  0
ARC
  5
E434
330
1F
100
AcDbEntity
  8
0
 62
     0
100
AcDbCircle
 10
5868.846972532363
 20
1624.379283149994
 30
0.0
 40
13.76421107477037
100
AcDbArc
 50
45.05262221396842
 51
93.27719545011417
  0
LINE
  5
E435
330
1F
100
AcDbEntity
  8
0
 62
     0
 48
12.0
100
AcDbLine
 10
5697.257771991452
 20
1730.372860100975
 30
0.0
 11
5725.542043238911
 21
1758.657131348436
 31
0.0
  0
LINE
  5
E436
330
1F
100
AcDbEntity
  8
0
 62
     0
 48
12.0
100
AcDbLine
 10
5697.257771991452
 20
1746.372860100975
 30
0.0
 11
5725.542043238911
 21
1774.657131348436
 31
0.0
  0
LINE
  5
E437
330
1F
100
AcDbEntity
  8
0
 62
     0
 48
12.0
100
AcDbLine
 10
5697.257771991452
 20
1714.372860100975
 30
0.0
 11
5725.542043238911
 21
1742.657131348436
 31
0.0
  0
LINE
  5
E78A
330
1F
100
AcDbEntity
  8
0
 62
     0
100
AcDbLine
 10
5364.676345248835
 20
2085.790034303132
 30
0.0
 11
5364.676345248835
 21
2135.955179880704
 31
0.0
  0
LINE
  5
E78B
330
1F
100
AcDbEntity
  8
0
 62
     0
100
AcDbLine
 10
5364.676345248835
 20
2018.9837071955
 30
0.0
 11
5364.676345248835
 21
2068.547381047461
 31
0.0
  0
ARC
  5
E78C
330
1F
100
AcDbEntity
  8
0
 62
     0
100
AcDbCircle
 10
5373.076345248835
 20
2119.887606612123
 30
0.0
 40
25.2
100
AcDbArc
 50
121.5881355051873
 51
224.415308597207
  0
LINE
  5
E78D
330
1F
100
AcDbEntity
  8
0
 62
     0
100
AcDbLine
 10
5355.076345248836
 20
2119.887606612123
 30
0.0
 11
5355.076345248836
 21
2070.323932760162
 31
0.0
  0
LINE
  5
E78E
330
1F
100
AcDbEntity
  8
0
 62
     0
100
AcDbLine
 10
5355.076345248836
 20
2052.687606612122
 30
0.0
 11
5355.076345248836
 21
2003.123932760161
 31
0.0
  0
ARC
  5
E78F
330
1F
100
AcDbEntity
  8
0
 62
     0
100
AcDbCircle
 10
5373.076345248835
 20
2052.687606612122
 30
0.0
 40
25.2
100
AcDbArc
 50
121.8373637122389
 51
224.415308597207
  0
ARC
  5
E790
330
1F
100
AcDbEntity
  8
0
 62
     0
100
AcDbCircle
 10
5373.076345248835
 20
2052.687606612122
 30
0.0
 40
18.0
100
AcDbArc
 50
137.6554563558053
 51
180.2444422109307
  0
ARC
  5
E791
330
1F
100
AcDbEntity
  8
0
 62
     0
100
AcDbCircle
 10
5373.076345248835
 20
2119.887606612123
 30
0.0
 40
18.0
100
AcDbArc
 50
137.1665719339427
 51
180.0
  0
LINE
  5
E792
330
1F
100
AcDbEntity
  8
0
 62
     0
100
AcDbLine
 10
5355.076345248836
 20
2153.775986773936
 30
0.0
 11
5355.076345248836
 21
2137.523932760159
 31
0.0
  0
ARC
  5
E793
330
1F
100
AcDbEntity
  8
0
 62
     0
100
AcDbCircle
 10
5346.676345248834
 20
2018.9837071955
 30
0.0
 40
25.2
100
AcDbArc
 50
301.5881355051873
 51
44.41530859720703
  0
ARC
  5
E794
330
1F
100
AcDbEntity
  8
0
 62
     0
100
AcDbCircle
 10
5346.676345248834
 20
2018.9837071955
 30
0.0
 40
18.0
100
AcDbArc
 50
317.1665719339427
 51
0.0
  0
ARC
  5
E795
330
1F
100
AcDbEntity
  8
0
 62
     0
100
AcDbCircle
 10
5346.676345248834
 20
2086.183707195501
 30
0.0
 40
25.2
100
AcDbArc
 50
301.5881355051873
 51
44.41530859720703
  0
ARC
  5
E796
330
1F
100
AcDbEntity
  8
0
 62
     0
100
AcDbCircle
 10
5346.676345248834
 20
2086.183707195501
 30
0.0
 40
18.0
100
AcDbArc
 50
317.1665719339427
 51
0.0
  0
ARC
  5
E797
330
1F
100
AcDbEntity
  8
0
 62
     0
100
AcDbCircle
 10
5346.676345248834
 20
2153.59150602874
 30
0.0
 40
25.2
100
AcDbArc
 50
301.5881355051873
 51
0.0
  0
ARC
  5
E798
330
1F
100
AcDbEntity
  8
0
 62
     0
100
AcDbCircle
 10
5346.676345248834
 20
2153.59150602874
 30
0.0
 40
18.0
100
AcDbArc
 50
317.1665719339427
 51
0.25332220701005
  0
LINE
  5
E799
330
1F
100
AcDbEntity
  8
0
 62
     0
100
AcDbLine
 10
5364.676345248835
 20
1880.727399024421
 30
0.0
 11
5364.676345248835
 21
1930.892544601993
 31
0.0
  0
ARC
  5
E79B
330
1F
100
AcDbEntity
  8
0
 62
     0
100
AcDbCircle
 10
5346.676345248834
 20
1951.7837071955
 30
0.0
 40
25.2
100
AcDbArc
 50
353.0017220512044
 51
44.41530859720703
  0
ARC
  5
E79C
330
1F
100
AcDbEntity
  8
0
 62
     0
100
AcDbCircle
 10
5346.676345248834
 20
1951.7837071955
 30
0.0
 40
18.0
100
AcDbArc
 50
349.586040674614
 51
0.0
  0
ARC
  5
E79D
330
1F
100
AcDbEntity
  8
0
 62
     0
100
AcDbCircle
 10
5373.076345248835
 20
1914.824971333411
 30
0.0
 40
25.2
100
AcDbArc
 50
121.5881355051873
 51
224.415308597207
  0
LINE
  5
E79F
330
1F
100
AcDbEntity
  8
0
 62
     0
100
AcDbLine
 10
5355.076345248836
 20
1914.824971333411
 30
0.0
 11
5355.076345248836
 21
1869.631448801264
 31
0.0
  0
ARC
  5
E7A1
330
1F
100
AcDbEntity
  8
0
 62
     0
100
AcDbCircle
 10
5373.076345248835
 20
1914.824971333411
 30
0.0
 40
18.0
100
AcDbArc
 50
137.1665719339427
 51
180.0
  0
LINE
  5
E7A2
330
1F
100
AcDbEntity
  8
0
 62
     0
100
AcDbLine
 10
5355.076345248836
 20
1985.487606612121
 30
0.0
 11
5355.076345248836
 21
1948.713351495225
 31
0.0
  0
LINE
  5
E7A3
330
1F
100
AcDbEntity
  8
0
 62
     0
100
AcDbLine
 10
5355.076345248836
 20
1948.713351495225
 30
0.0
 11
5355.076345248836
 21
1932.461297481448
 31
0.0
  0
ARC
  5
E7A7
330
1F
100
AcDbEntity
  8
0
 62
     0
100
AcDbCircle
 10
5346.676345248834
 20
1948.528870750029
 30
0.0
 40
25.2
100
AcDbArc
 50
301.5881355051873
 51
0.0
  0
ARC
  5
E7AB
330
1F
100
AcDbEntity
  8
0
 62
     0
100
AcDbCircle
 10
5346.676345248834
 20
1881.12107191679
 30
0.0
 40
18.0
100
AcDbArc
 50
320.3339061329614
 51
0.0
  0
ARC
  5
E7AC
330
1F
100
AcDbEntity
  8
0
 62
     0
100
AcDbCircle
 10
5346.676345248834
 20
1948.528870750029
 30
0.0
 40
18.0
100
AcDbArc
 50
317.1665719339427
 51
0.25332220701005
  0
ARC
  5
E7AD
330
1F
100
AcDbEntity
  8
0
 62
     0
100
AcDbCircle
 10
5373.076345248835
 20
1985.487606612121
 30
0.0
 40
25.2
100
AcDbArc
 50
121.8373637122389
 51
224.415308597207
  0
ARC
  5
E7AE
330
1F
100
AcDbEntity
  8
0
 62
     0
100
AcDbCircle
 10
5373.076345248835
 20
1985.487606612121
 30
0.0
 40
18.0
100
AcDbArc
 50
137.6554563558053
 51
180.2444422109307
  0
LINE
  5
E7AF
330
1F
100
AcDbEntity
  8
0
 62
     0
100
AcDbLine
 10
5364.676345248835
 20
1951.7837071955
 30
0.0
 11
5364.676345248835
 21
2001.34738104746
 31
0.0
  0
ARC
  5
E7B0
330
1F
100
AcDbEntity
  8
0
 62
     0
100
AcDbCircle
 10
5346.676345248834
 20
2849.263143172142
 30
0.0
 40
25.2
100
AcDbArc
 50
353.0017220512044
 51
44.41530859720703
  0
LINE
  5
E7B1
330
1F
100
AcDbEntity
  8
0
 62
     0
100
AcDbLine
 10
5364.676345248835
 20
2849.263143172142
 30
0.0
 11
5364.676345248835
 21
2898.826817024106
 31
0.0
  0
LINE
  5
E7B2
330
1F
100
AcDbEntity
  8
0
 62
     0
100
AcDbLine
 10
5355.076345248836
 20
2882.967042588763
 30
0.0
 11
5355.076345248836
 21
2846.192787471867
 31
0.0
  0
ARC
  5
E7B3
330
1F
100
AcDbEntity
  8
0
 62
     0
100
AcDbCircle
 10
5346.676345248834
 20
2849.263143172142
 30
0.0
 40
18.0
100
AcDbArc
 50
349.586040674614
 51
0.0
  0
LINE
  5
E7B4
330
1F
100
AcDbEntity
  8
0
 62
     0
100
AcDbLine
 10
5364.676345248835
 20
2778.206835001063
 30
0.0
 11
5364.676345248835
 21
2828.371980578635
 31
0.0
  0
LINE
  5
E7B9
330
1F
100
AcDbEntity
  8
0
 62
     0
100
AcDbLine
 10
5364.676345248835
 20
2156.835801359364
 30
0.0
 11
5364.676345248835
 21
2188.941078135998
 31
0.0
  0
ARC
  5
E7BA
330
1F
100
AcDbEntity
  8
0
 62
     0
100
AcDbCircle
 10
5346.676345248834
 20
2156.835801359364
 30
0.0
 40
25.2
100
AcDbArc
 50
353.0017220512044
 51
44.41530859720703
  0
ARC
  5
E7BB
330
1F
100
AcDbEntity
  8
0
 62
     0
100
AcDbCircle
 10
5346.676345248834
 20
2156.835801359364
 30
0.0
 40
18.0
100
AcDbArc
 50
349.586040674614
 51
0.0
  0
LINE
  5
E7BF
330
1F
100
AcDbEntity
  8
0
 62
     0
100
AcDbLine
 10
5355.076345248836
 20
2812.304407310053
 30
0.0
 11
5355.076345248836
 21
2762.740733458093
 31
0.0
  0
ARC
  5
E7C0
330
1F
100
AcDbEntity
  8
0
 62
     0
100
AcDbCircle
 10
5373.076345248835
 20
2812.304407310053
 30
0.0
 40
25.2
100
AcDbArc
 50
121.5881355051873
 51
224.415308597207
  0
ARC
  5
E7C1
330
1F
100
AcDbEntity
  8
0
 62
     0
100
AcDbCircle
 10
5373.076345248835
 20
2812.304407310053
 30
0.0
 40
18.0
100
AcDbArc
 50
137.1665719339427
 51
180.0
  0
LINE
  5
E7C2
330
1F
100
AcDbEntity
  8
0
 62
     0
100
AcDbLine
 10
5355.076345248836
 20
2846.192787471867
 30
0.0
 11
5355.076345248836
 21
2829.94073345809
 31
0.0
  0
ARC
  5
E7C9
330
1F
100
AcDbEntity
  8
0
 62
     0
100
AcDbCircle
 10
5373.076345248835
 20
2190.539700775985
 30
0.0
 40
25.2
100
AcDbArc
 50
183.6371379261311
 51
224.415308597207
  0
LINE
  5
E7CB
330
1F
100
AcDbEntity
  8
0
 62
     0
100
AcDbLine
 10
5355.076345248836
 20
2188.941078135998
 30
0.0
 11
5355.076345248836
 21
2153.76544565909
 31
0.0
  0
ARC
  5
E7DA
330
1F
100
AcDbEntity
  8
0
 62
     0
100
AcDbCircle
 10
5346.676345248834
 20
2778.600507893432
 30
0.0
 40
25.2
100
AcDbArc
 50
301.5881355051873
 51
44.41530859720703
  0
ARC
  5
E7DC
330
1F
100
AcDbEntity
  8
0
 62
     0
100
AcDbCircle
 10
5346.676345248834
 20
2846.008306726675
 30
0.0
 40
25.2
100
AcDbArc
 50
301.5881355051873
 51
0.0
  0
ARC
  5
E7DD
330
1F
100
AcDbEntity
  8
0
 62
     0
100
AcDbCircle
 10
5346.676345248834
 20
2846.008306726675
 30
0.0
 40
18.0
100
AcDbArc
 50
317.1665719339427
 51
0.25332220701005
  0
LINE
  5
E7DE
330
1F
100
AcDbEntity
  8
0
 62
     0
100
AcDbLine
 10
5364.676345248835
 20
3188.332105558485
 30
0.0
 11
5364.676345248835
 21
3238.497251136057
 31
0.0
  0
LINE
  5
E7DF
330
1F
100
AcDbEntity
  8
0
 62
     0
100
AcDbLine
 10
5364.676345248835
 20
3123.661667030749
 30
0.0
 11
5364.676345248835
 21
3171.089452302818
 31
0.0
  0
ARC
  5
E7E0
330
1F
100
AcDbEntity
  8
0
 62
     0
100
AcDbCircle
 10
5373.076345248835
 20
3222.429677867476
 30
0.0
 40
25.2
100
AcDbArc
 50
121.5881355051873
 51
224.415308597207
  0
LINE
  5
E7E1
330
1F
100
AcDbEntity
  8
0
 62
     0
100
AcDbLine
 10
5355.076345248836
 20
3222.429677867476
 30
0.0
 11
5355.076345248836
 21
3172.866004015515
 31
0.0
  0
LINE
  5
E7E2
330
1F
100
AcDbEntity
  8
0
 62
     0
100
AcDbLine
 10
5355.076345248836
 20
3155.229677867475
 30
0.0
 11
5355.076345248836
 21
3123.661667030749
 31
0.0
  0
ARC
  5
E7E3
330
1F
100
AcDbEntity
  8
0
 62
     0
100
AcDbCircle
 10
5373.076345248835
 20
3155.229677867475
 30
0.0
 40
25.2
100
AcDbArc
 50
121.8373637122389
 51
224.415308597207
  0
ARC
  5
E7E4
330
1F
100
AcDbEntity
  8
0
 62
     0
100
AcDbCircle
 10
5373.076345248835
 20
3155.229677867475
 30
0.0
 40
18.0
100
AcDbArc
 50
137.6554563558053
 51
180.2444422109307
  0
ARC
  5
E7E5
330
1F
100
AcDbEntity
  8
0
 62
     0
100
AcDbCircle
 10
5373.076345248835
 20
3222.429677867476
 30
0.0
 40
18.0
100
AcDbArc
 50
137.1665719339427
 51
180.0
  0
LINE
  5
E7E6
330
1F
100
AcDbEntity
  8
0
 62
     0
100
AcDbLine
 10
5355.076345248836
 20
3256.31805802929
 30
0.0
 11
5355.076345248836
 21
3240.066004015516
 31
0.0
  0
ARC
  5
E7E7
330
1F
100
AcDbEntity
  8
0
 62
     0
100
AcDbCircle
 10
5346.676345248834
 20
3121.525778450854
 30
0.0
 40
25.2
100
AcDbArc
 50
4.862079362562374
 51
44.41530859720703
  0
ARC
  5
E7E9
330
1F
100
AcDbEntity
  8
0
 62
     0
100
AcDbCircle
 10
5346.676345248834
 20
3188.725778450855
 30
0.0
 40
25.2
100
AcDbArc
 50
301.5881355051873
 51
44.41530859720703
  0
ARC
  5
E7EA
330
1F
100
AcDbEntity
  8
0
 62
     0
100
AcDbCircle
 10
5346.676345248834
 20
3188.725778450855
 30
0.0
 40
18.0
100
AcDbArc
 50
317.1665719339427
 51
0.0
  0
ARC
  5
E7EB
330
1F
100
AcDbEntity
  8
0
 62
     0
100
AcDbCircle
 10
5346.676345248834
 20
3256.133577284098
 30
0.0
 40
25.2
100
AcDbArc
 50
301.5881355051873
 51
0.0
  0
ARC
  5
E7EC
330
1F
100
AcDbEntity
  8
0
 62
     0
100
AcDbCircle
 10
5346.676345248834
 20
3256.133577284098
 30
0.0
 40
18.0
100
AcDbArc
 50
317.1665719339427
 51
0.25332220701005
  0
LINE
  5
E7ED
330
1F
100
AcDbEntity
  8
0
 62
     0
100
AcDbLine
 10
5364.676345248835
 20
2983.269470279774
 30
0.0
 11
5364.676345248835
 21
3033.434615857346
 31
0.0
  0
LINE
  5
E7EE
330
1F
100
AcDbEntity
  8
0
 62
     0
100
AcDbLine
 10
5364.676345248835
 20
2916.463143172142
 30
0.0
 11
5364.676345248835
 21
2966.026817024103
 31
0.0
  0
ARC
  5
E7EF
330
1F
100
AcDbEntity
  8
0
 62
     0
100
AcDbCircle
 10
5346.676345248834
 20
3054.325778450857
 30
0.0
 40
25.2
100
AcDbArc
 50
353.0017220512044
 51
44.41530859720703
  0
ARC
  5
E7F0
330
1F
100
AcDbEntity
  8
0
 62
     0
100
AcDbCircle
 10
5346.676345248834
 20
3054.325778450857
 30
0.0
 40
18.0
100
AcDbArc
 50
349.586040674614
 51
0.0
  0
ARC
  5
E7F1
330
1F
100
AcDbEntity
  8
0
 62
     0
100
AcDbCircle
 10
5373.076345248835
 20
3017.367042588765
 30
0.0
 40
25.2
100
AcDbArc
 50
121.5881355051873
 51
224.415308597207
  0
ARC
  5
E7F2
330
1F
100
AcDbEntity
  8
0
 62
     0
100
AcDbCircle
 10
5373.076345248835
 20
2950.167042588764
 30
0.0
 40
25.2
100
AcDbArc
 50
121.8373637122389
 51
224.415308597207
  0
LINE
  5
E7F3
330
1F
100
AcDbEntity
  8
0
 62
     0
100
AcDbLine
 10
5355.076345248836
 20
3017.367042588765
 30
0.0
 11
5355.076345248836
 21
2967.803368736804
 31
0.0
  0
ARC
  5
E7F4
330
1F
100
AcDbEntity
  8
0
 62
     0
100
AcDbCircle
 10
5373.076345248835
 20
2950.167042588764
 30
0.0
 40
18.0
100
AcDbArc
 50
137.6554563558053
 51
180.2444422109307
  0
ARC
  5
E7F5
330
1F
100
AcDbEntity
  8
0
 62
     0
100
AcDbCircle
 10
5373.076345248835
 20
3017.367042588765
 30
0.0
 40
18.0
100
AcDbArc
 50
137.1665719339427
 51
180.0
  0
LINE
  5
E7F6
330
1F
100
AcDbEntity
  8
0
 62
     0
100
AcDbLine
 10
5355.076345248836
 20
3088.029677867474
 30
0.0
 11
5355.076345248836
 21
3051.255422750578
 31
0.0
  0
LINE
  5
E7F7
330
1F
100
AcDbEntity
  8
0
 62
     0
100
AcDbLine
 10
5355.076345248836
 20
3051.255422750578
 30
0.0
 11
5355.076345248836
 21
3035.003368736805
 31
0.0
  0
ARC
  5
E7F8
330
1F
100
AcDbEntity
  8
0
 62
     0
100
AcDbCircle
 10
5373.076345248835
 20
2882.967042588763
 30
0.0
 40
25.2
100
AcDbArc
 50
121.8373637122389
 51
224.415308597207
  0
ARC
  5
E7F9
330
1F
100
AcDbEntity
  8
0
 62
     0
100
AcDbCircle
 10
5373.076345248835
 20
2882.967042588763
 30
0.0
 40
18.0
100
AcDbArc
 50
137.6554563558053
 51
180.2444422109307
  0
LINE
  5
E7FA
330
1F
100
AcDbEntity
  8
0
 62
     0
100
AcDbLine
 10
5355.076345248836
 20
2950.167042588764
 30
0.0
 11
5355.076345248836
 21
2900.603368736803
 31
0.0
  0
ARC
  5
E7FB
330
1F
100
AcDbEntity
  8
0
 62
     0
100
AcDbCircle
 10
5346.676345248834
 20
3051.070942005386
 30
0.0
 40
25.2
100
AcDbArc
 50
301.5881355051873
 51
0.0
  0
ARC
  5
E7FC
330
1F
100
AcDbEntity
  8
0
 62
     0
100
AcDbCircle
 10
5346.676345248834
 20
2916.463143172142
 30
0.0
 40
25.2
100
AcDbArc
 50
301.5881355051873
 51
44.41530859720703
  0
ARC
  5
E7FD
330
1F
100
AcDbEntity
  8
0
 62
     0
100
AcDbCircle
 10
5346.676345248834
 20
2916.463143172142
 30
0.0
 40
18.0
100
AcDbArc
 50
317.1665719339427
 51
0.0
  0
ARC
  5
E7FE
330
1F
100
AcDbEntity
  8
0
 62
     0
100
AcDbCircle
 10
5346.676345248834
 20
2983.663143172143
 30
0.0
 40
25.2
100
AcDbArc
 50
301.5881355051873
 51
44.41530859720703
  0
ARC
  5
E7FF
330
1F
100
AcDbEntity
  8
0
 62
     0
100
AcDbCircle
 10
5346.676345248834
 20
2983.663143172143
 30
0.0
 40
18.0
100
AcDbArc
 50
317.1665719339427
 51
0.0
  0
ARC
  5
E800
330
1F
100
AcDbEntity
  8
0
 62
     0
100
AcDbCircle
 10
5346.676345248834
 20
3051.070942005386
 30
0.0
 40
18.0
100
AcDbArc
 50
317.1665719339427
 51
0.25332220701005
  0
ARC
  5
E801
330
1F
100
AcDbEntity
  8
0
 62
     0
100
AcDbCircle
 10
5373.076345248835
 20
3088.029677867474
 30
0.0
 40
25.2
100
AcDbArc
 50
152.5104470828902
 51
224.415308597207
  0
ARC
  5
E802
330
1F
100
AcDbEntity
  8
0
 62
     0
100
AcDbCircle
 10
5373.076345248835
 20
3088.029677867474
 30
0.0
 40
18.0
100
AcDbArc
 50
137.6554563558053
 51
180.2444422109307
  0
LINE
  5
E803
330
1F
100
AcDbEntity
  8
0
 62
     0
100
AcDbLine
 10
5364.676345248835
 20
3054.325778450857
 30
0.0
 11
5364.676345248835
 21
3099.66166703075
 31
0.0
  0
LINE
  5
E80B
330
1F
100
AcDbEntity
  8
0
 62
     0
100
AcDbLine
 10
5364.676345248835
 20
3393.384199722349
 30
0.0
 11
5364.676345248835
 21
3443.549345299921
 31
0.0
  0
LINE
  5
E80D
330
1F
100
AcDbEntity
  8
0
 62
     0
100
AcDbLine
 10
5364.676345248835
 20
3259.377872614721
 30
0.0
 11
5364.676345248835
 21
3308.941546466682
 31
0.0
  0
ARC
  5
E80E
330
1F
100
AcDbEntity
  8
0
 62
     0
100
AcDbCircle
 10
5346.676345248834
 20
3259.377872614721
 30
0.0
 40
25.2
100
AcDbArc
 50
353.0017220512044
 51
44.41530859720703
  0
ARC
  5
E80F
330
1F
100
AcDbEntity
  8
0
 62
     0
100
AcDbCircle
 10
5346.676345248834
 20
3259.377872614721
 30
0.0
 40
18.0
100
AcDbArc
 50
349.586040674614
 51
0.0
  0
LINE
  5
E810
330
1F
100
AcDbEntity
  8
0
 62
     0
100
AcDbLine
 10
5364.676345248835
 20
3326.577872614722
 30
0.0
 11
5364.676345248835
 21
3376.141546466682
 31
0.0
  0
ARC
  5
E81A
330
1F
100
AcDbEntity
  8
0
 62
     0
100
AcDbCircle
 10
5373.076345248835
 20
3427.48177203134
 30
0.0
 40
25.2
100
AcDbArc
 50
121.5881355051873
 51
224.415308597207
  0
ARC
  5
E81D
330
1F
100
AcDbEntity
  8
0
 62
     0
100
AcDbCircle
 10
5373.076345248835
 20
3293.081772031342
 30
0.0
 40
25.2
100
AcDbArc
 50
121.8373637122389
 51
224.415308597207
  0
ARC
  5
E81E
330
1F
100
AcDbEntity
  8
0
 62
     0
100
AcDbCircle
 10
5373.076345248835
 20
3293.081772031342
 30
0.0
 40
18.0
100
AcDbArc
 50
137.6554563558053
 51
180.2444422109307
  0
LINE
  5
E81F
330
1F
100
AcDbEntity
  8
0
 62
     0
100
AcDbLine
 10
5355.076345248836
 20
3293.081772031342
 30
0.0
 11
5355.076345248836
 21
3256.307516914443
 31
0.0
  0
LINE
  5
E820
330
1F
100
AcDbEntity
  8
0
 62
     0
100
AcDbLine
 10
5355.076345248836
 20
3360.281772031339
 30
0.0
 11
5355.076345248836
 21
3310.718098179378
 31
0.0
  0
ARC
  5
E821
330
1F
100
AcDbEntity
  8
0
 62
     0
100
AcDbCircle
 10
5373.076345248835
 20
3360.281772031339
 30
0.0
 40
18.0
100
AcDbArc
 50
137.6554563558053
 51
180.2444422109307
  0
LINE
  5
E822
330
1F
100
AcDbEntity
  8
0
 62
     0
100
AcDbLine
 10
5355.076345248836
 20
3427.48177203134
 30
0.0
 11
5355.076345248836
 21
3377.91809817938
 31
0.0
  0
ARC
  5
E823
330
1F
100
AcDbEntity
  8
0
 62
     0
100
AcDbCircle
 10
5373.076345248835
 20
3360.281772031339
 30
0.0
 40
25.2
100
AcDbArc
 50
121.8373637122389
 51
224.415308597207
  0
ARC
  5
E826
330
1F
100
AcDbEntity
  8
0
 62
     0
100
AcDbCircle
 10
5346.676345248834
 20
3393.777872614718
 30
0.0
 40
18.0
100
AcDbArc
 50
317.1665719339427
 51
0.0
  0
ARC
  5
E827
330
1F
100
AcDbEntity
  8
0
 62
     0
100
AcDbCircle
 10
5346.676345248834
 20
3393.777872614718
 30
0.0
 40
25.2
100
AcDbArc
 50
301.5881355051873
 51
44.41530859720703
  0
ARC
  5
E828
330
1F
100
AcDbEntity
  8
0
 62
     0
100
AcDbCircle
 10
5346.676345248834
 20
3326.577872614722
 30
0.0
 40
25.2
100
AcDbArc
 50
301.5881355051873
 51
44.41530859720703
  0
ARC
  5
E829
330
1F
100
AcDbEntity
  8
0
 62
     0
100
AcDbCircle
 10
5346.676345248834
 20
3326.577872614722
 30
0.0
 40
18.0
100
AcDbArc
 50
317.1665719339427
 51
0.0
  0
ARC
  5
E85D
330
1F
100
AcDbEntity
  8
0
 62
     0
 48
12.0
100
AcDbCircle
 10
5360.08234751943
 20
1618.20435026336
 30
0.0
 40
52.00749785598945
100
AcDbArc
 50
95.37695291405141
 51
327.0280509678186
  0
MTEXT
  5
E865
330
1F
100
AcDbEntity
  8
0
 62
     0
 48
12.0
100
AcDbMText
 10
6454.891880880892
 20
4423.109143659922
 30
0.0
 40
30.0
 41
3.9737
 71
     1
 72
     1
  1

 73
     1
 44
1.0
  0
LINE
  5
E866
330
1F
100
AcDbEntity
  8
0
 62
     0
 48
12.0
100
AcDbLine
 10
5695.649292295496
 20
3309.773202940225
 30
0.0
 11
5695.649292295496
 21
2947.480054388614
 31
0.0
  0
LINE
  5
E867
330
1F
100
AcDbEntity
  8
0
 62
     0
 48
12.0
100
AcDbLine
 10
5697.257771991452
 20
1463.197155157837
 30
0.0
 11
5697.257771991452
 21
1446.867791956018
 31
0.0
  0
LINE
  5
E868
330
1F
100
AcDbEntity
  8
0
 62
     0
 48
12.0
100
AcDbLine
 10
5697.257771991452
 20
1446.867791956018
 30
0.0
 11
5697.257771991452
 21
1787.861853900012
 31
0.0
  0
LINE
  5
E95B
330
1F
100
AcDbEntity
  8
0
 62
     0
100
AcDbLine
 10
5364.882347519429
 20
4498.842060894506
 30
0.0
 11
5364.882347519429
 21
4548.405734746466
 31
0.0
  0
ARC
  5
E95C
330
1F
100
AcDbEntity
  8
0
 62
     0
100
AcDbCircle
 10
5373.282347519431
 20
4532.545960311124
 30
0.0
 40
18.0
100
AcDbArc
 50
137.6554563558053
 51
180.2444422109177
  0
ARC
  5
E95D
330
1F
100
AcDbEntity
  8
0
 62
     0
100
AcDbCircle
 10
5373.282347519431
 20
4532.545960311124
 30
0.0
 40
25.2
100
AcDbArc
 50
121.8373637122389
 51
224.415308597207
  0
ARC
  5
E95E
330
1F
100
AcDbEntity
  8
0
 62
     0
100
AcDbCircle
 10
5346.88234751943
 20
4495.587224449034
 30
0.0
 40
18.0
100
AcDbArc
 50
317.1665719339523
 51
0.25332220701005
  0
ARC
  5
E95F
330
1F
100
AcDbEntity
  8
0
 62
     0
100
AcDbCircle
 10
5346.88234751943
 20
4428.179425615794
 30
0.0
 40
18.0
100
AcDbArc
 50
317.1665719339523
 51
0.0
  0
ARC
  5
E960
330
1F
100
AcDbEntity
  8
0
 62
     0
100
AcDbCircle
 10
5346.88234751943
 20
4428.179425615794
 30
0.0
 40
25.2
100
AcDbArc
 50
301.5881355051805
 51
44.41530859720703
  0
ARC
  5
E961
330
1F
100
AcDbEntity
  8
0
 62
     0
100
AcDbCircle
 10
5346.88234751943
 20
4360.979425615793
 30
0.0
 40
18.0
100
AcDbArc
 50
317.1665719339523
 51
0.0
  0
ARC
  5
E962
330
1F
100
AcDbEntity
  8
0
 62
     0
100
AcDbCircle
 10
5346.88234751943
 20
4360.979425615793
 30
0.0
 40
25.2
100
AcDbArc
 50
301.5881355051805
 51
44.41530859720703
  0
ARC
  5
E963
330
1F
100
AcDbEntity
  8
0
 62
     0
100
AcDbCircle
 10
5346.88234751943
 20
4495.587224449034
 30
0.0
 40
25.2
100
AcDbArc
 50
301.5881355051805
 51
0.0
  0
ARC
  5
E964
330
1F
100
AcDbEntity
  8
0
 62
     0
100
AcDbCircle
 10
5346.88234751943
 20
4290.524589170323
 30
0.0
 40
18.0
100
AcDbArc
 50
317.1665719339523
 51
0.25332220701005
  0
ARC
  5
E965
330
1F
100
AcDbEntity
  8
0
 62
     0
100
AcDbCircle
 10
5346.88234751943
 20
4290.524589170323
 30
0.0
 40
25.2
100
AcDbArc
 50
301.5881355051805
 51
0.0
  0
ARC
  5
E966
330
1F
100
AcDbEntity
  8
0
 62
     0
100
AcDbCircle
 10
5346.88234751943
 20
4223.116790337082
 30
0.0
 40
18.0
100
AcDbArc
 50
317.1665719339523
 51
0.0
  0
ARC
  5
E967
330
1F
100
AcDbEntity
  8
0
 62
     0
100
AcDbCircle
 10
5346.88234751943
 20
4223.116790337082
 30
0.0
 40
25.2
100
AcDbArc
 50
301.5881355051805
 51
44.41530859720703
  0
ARC
  5
E968
330
1F
100
AcDbEntity
  8
0
 62
     0
100
AcDbCircle
 10
5346.88234751943
 20
4155.916790337082
 30
0.0
 40
25.2
100
AcDbArc
 50
301.5881355051805
 51
44.41530859720703
  0
ARC
  5
E969
330
1F
100
AcDbEntity
  8
0
 62
     0
100
AcDbCircle
 10
5346.88234751943
 20
4155.916790337082
 30
0.0
 40
18.0
100
AcDbArc
 50
317.1665719339523
 51
0.0
  0
ARC
  5
E96A
330
1F
100
AcDbEntity
  8
0
 62
     0
100
AcDbCircle
 10
5346.88234751943
 20
4085.46195389161
 30
0.0
 40
25.2
100
AcDbArc
 50
301.5881355051805
 51
0.0
  0
ARC
  5
E96B
330
1F
100
AcDbEntity
  8
0
 62
     0
100
AcDbCircle
 10
5346.88234751943
 20
4085.46195389161
 30
0.0
 40
18.0
100
AcDbArc
 50
317.1665719339523
 51
0.25332220701005
  0
ARC
  5
E96E
330
1F
100
AcDbEntity
  8
0
 62
     0
100
AcDbCircle
 10
5346.88234751943
 20
4018.054155058369
 30
0.0
 40
25.2
100
AcDbArc
 50
301.5881355051805
 51
44.41530859720703
  0
LINE
  5
E970
330
1F
100
AcDbEntity
  8
0
 62
     0
100
AcDbLine
 10
5355.28234751943
 20
4189.620689753701
 30
0.0
 11
5355.28234751943
 21
4140.05701590174
 31
0.0
  0
ARC
  5
E971
330
1F
100
AcDbEntity
  8
0
 62
     0
100
AcDbCircle
 10
5373.282347519431
 20
4189.620689753701
 30
0.0
 40
25.2
100
AcDbArc
 50
121.8373637122389
 51
224.415308597207
  0
LINE
  5
E973
330
1F
100
AcDbEntity
  8
0
 62
     0
100
AcDbLine
 10
5355.28234751943
 20
4051.758054474991
 30
0.0
 11
5355.28234751943
 21
4002.19438062303
 31
0.0
  0
ARC
  5
E979
330
1F
100
AcDbEntity
  8
0
 62
     0
100
AcDbCircle
 10
5373.282347519431
 20
4122.420689753702
 30
0.0
 40
18.0
100
AcDbArc
 50
137.6554563558053
 51
180.2444422109177
  0
LINE
  5
E97A
330
1F
100
AcDbEntity
  8
0
 62
     0
100
AcDbLine
 10
5355.28234751943
 20
4085.646434636806
 30
0.0
 11
5355.28234751943
 21
4069.394380623029
 31
0.0
  0
ARC
  5
E97B
330
1F
100
AcDbEntity
  8
0
 62
     0
100
AcDbCircle
 10
5373.282347519431
 20
4051.758054474991
 30
0.0
 40
25.2
100
AcDbArc
 50
121.5881355051805
 51
224.415308597207
  0
ARC
  5
E97C
330
1F
100
AcDbEntity
  8
0
 62
     0
100
AcDbCircle
 10
5373.282347519431
 20
4051.758054474991
 30
0.0
 40
18.0
100
AcDbArc
 50
137.1665719339523
 51
180.0
  0
ARC
  5
E97D
330
1F
100
AcDbEntity
  8
0
 62
     0
100
AcDbCircle
 10
5373.282347519431
 20
4122.420689753702
 30
0.0
 40
25.2
100
AcDbArc
 50
121.8373637122389
 51
224.415308597207
  0
LINE
  5
E97E
330
1F
100
AcDbEntity
  8
0
 62
     0
100
AcDbLine
 10
5355.28234751943
 20
4122.420689753702
 30
0.0
 11
5355.28234751943
 21
4085.646434636806
 31
0.0
  0
LINE
  5
E97F
330
1F
100
AcDbEntity
  8
0
 62
     0
100
AcDbLine
 10
5355.28234751943
 20
4394.683325032414
 30
0.0
 11
5355.28234751943
 21
4345.119651180453
 31
0.0
  0
ARC
  5
E980
330
1F
100
AcDbEntity
  8
0
 62
     0
100
AcDbCircle
 10
5373.282347519431
 20
4327.483325032413
 30
0.0
 40
18.0
100
AcDbArc
 50
137.6554563558053
 51
180.2444422109177
  0
ARC
  5
E981
330
1F
100
AcDbEntity
  8
0
 62
     0
100
AcDbCircle
 10
5373.282347519431
 20
4327.483325032413
 30
0.0
 40
25.2
100
AcDbArc
 50
121.8373637122389
 51
224.415308597207
  0
LINE
  5
E982
330
1F
100
AcDbEntity
  8
0
 62
     0
100
AcDbLine
 10
5355.28234751943
 20
4290.709069915517
 30
0.0
 11
5355.28234751943
 21
4274.457015901741
 31
0.0
  0
ARC
  5
E983
330
1F
100
AcDbEntity
  8
0
 62
     0
100
AcDbCircle
 10
5373.282347519431
 20
4256.820689753702
 30
0.0
 40
18.0
100
AcDbArc
 50
137.1665719339523
 51
180.0
  0
ARC
  5
E984
330
1F
100
AcDbEntity
  8
0
 62
     0
100
AcDbCircle
 10
5373.282347519431
 20
4256.820689753702
 30
0.0
 40
25.2
100
AcDbArc
 50
121.5881355051805
 51
224.415308597207
  0
LINE
  5
E985
330
1F
100
AcDbEntity
  8
0
 62
     0
100
AcDbLine
 10
5355.28234751943
 20
4256.820689753702
 30
0.0
 11
5355.28234751943
 21
4207.257015901741
 31
0.0
  0
ARC
  5
E986
330
1F
100
AcDbEntity
  8
0
 62
     0
100
AcDbCircle
 10
5373.282347519431
 20
4189.620689753701
 30
0.0
 40
18.0
100
AcDbArc
 50
137.6554563558053
 51
180.2444422109177
  0
LINE
  5
E987
330
1F
100
AcDbEntity
  8
0
 62
     0
100
AcDbLine
 10
5355.28234751943
 20
4327.483325032413
 30
0.0
 11
5355.28234751943
 21
4290.709069915517
 31
0.0
  0
LINE
  5
E988
330
1F
100
AcDbEntity
  8
0
 62
     0
100
AcDbLine
 10
5355.28234751943
 20
4495.771705194228
 30
0.0
 11
5355.28234751943
 21
4479.519651180453
 31
0.0
  0
LINE
  5
E989
330
1F
100
AcDbEntity
  8
0
 62
     0
100
AcDbLine
 10
5355.28234751943
 20
4532.545960311124
 30
0.0
 11
5355.28234751943
 21
4495.771705194228
 31
0.0
  0
ARC
  5
E98A
330
1F
100
AcDbEntity
  8
0
 62
     0
100
AcDbCircle
 10
5373.282347519431
 20
4461.883325032415
 30
0.0
 40
18.0
100
AcDbArc
 50
137.1665719339523
 51
180.0
  0
ARC
  5
E98B
330
1F
100
AcDbEntity
  8
0
 62
     0
100
AcDbCircle
 10
5373.282347519431
 20
4394.683325032414
 30
0.0
 40
18.0
100
AcDbArc
 50
137.6554563558053
 51
180.2444422109177
  0
LINE
  5
E98C
330
1F
100
AcDbEntity
  8
0
 62
     0
100
AcDbLine
 10
5355.28234751943
 20
4461.883325032415
 30
0.0
 11
5355.28234751943
 21
4412.319651180452
 31
0.0
  0
ARC
  5
E98D
330
1F
100
AcDbEntity
  8
0
 62
     0
100
AcDbCircle
 10
5373.282347519431
 20
4394.683325032414
 30
0.0
 40
25.2
100
AcDbArc
 50
121.8373637122389
 51
224.415308597207
  0
ARC
  5
E98E
330
1F
100
AcDbEntity
  8
0
 62
     0
100
AcDbCircle
 10
5373.282347519431
 20
4461.883325032415
 30
0.0
 40
25.2
100
AcDbArc
 50
121.5881355051805
 51
224.415308597207
  0
LINE
  5
E98F
330
1F
100
AcDbEntity
  8
0
 62
     0
100
AcDbLine
 10
5364.882347519429
 20
4155.916790337082
 30
0.0
 11
5364.882347519429
 21
4205.480464189042
 31
0.0
  0
ARC
  5
E994
330
1F
100
AcDbEntity
  8
0
 62
     0
100
AcDbCircle
 10
5346.88234751943
 20
4088.71679033708
 30
0.0
 40
18.0
100
AcDbArc
 50
349.586040674614
 51
0.0
  0
LINE
  5
E995
330
1F
100
AcDbEntity
  8
0
 62
     0
100
AcDbLine
 10
5364.882347519429
 20
4017.660482166
 30
0.0
 11
5364.882347519429
 21
4067.825627743572
 31
0.0
  0
LINE
  5
E996
330
1F
100
AcDbEntity
  8
0
 62
     0
100
AcDbLine
 10
5364.882347519429
 20
4088.71679033708
 30
0.0
 11
5364.882347519429
 21
4138.280464189041
 31
0.0
  0
ARC
  5
E997
330
1F
100
AcDbEntity
  8
0
 62
     0
100
AcDbCircle
 10
5346.88234751943
 20
4088.71679033708
 30
0.0
 40
25.2
100
AcDbArc
 50
353.0017220511914
 51
44.41530859720703
  0
LINE
  5
E998
330
1F
100
AcDbEntity
  8
0
 62
     0
100
AcDbLine
 10
5364.882347519429
 20
4293.779425615792
 30
0.0
 11
5364.882347519429
 21
4343.343099467754
 31
0.0
  0
LINE
  5
E999
330
1F
100
AcDbEntity
  8
0
 62
     0
100
AcDbLine
 10
5364.882347519429
 20
4222.723117444711
 30
0.0
 11
5364.882347519429
 21
4272.888263022285
 31
0.0
  0
ARC
  5
E99A
330
1F
100
AcDbEntity
  8
0
 62
     0
100
AcDbCircle
 10
5346.88234751943
 20
4293.779425615792
 30
0.0
 40
18.0
100
AcDbArc
 50
349.586040674614
 51
0.0
  0
ARC
  5
E99B
330
1F
100
AcDbEntity
  8
0
 62
     0
100
AcDbCircle
 10
5346.88234751943
 20
4293.779425615792
 30
0.0
 40
25.2
100
AcDbArc
 50
353.0017220511914
 51
44.41530859720703
  0
ARC
  5
E99C
330
1F
100
AcDbEntity
  8
0
 62
     0
100
AcDbCircle
 10
5346.88234751943
 20
4498.842060894506
 30
0.0
 40
18.0
100
AcDbArc
 50
349.586040674614
 51
0.0
  0
ARC
  5
E99D
330
1F
100
AcDbEntity
  8
0
 62
     0
100
AcDbCircle
 10
5346.88234751943
 20
4498.842060894506
 30
0.0
 40
25.2
100
AcDbArc
 50
353.0017220511914
 51
44.41530859720703
  0
LINE
  5
E99E
330
1F
100
AcDbEntity
  8
0
 62
     0
100
AcDbLine
 10
5364.882347519429
 20
4360.979425615793
 30
0.0
 11
5364.882347519429
 21
4410.543099467753
 31
0.0
  0
LINE
  5
E99F
330
1F
100
AcDbEntity
  8
0
 62
     0
100
AcDbLine
 10
5364.882347519429
 20
4427.785752723425
 30
0.0
 11
5364.882347519429
 21
4477.950898300997
 31
0.0
  0
ARC
  5
E9A4
330
1F
100
AcDbEntity
  8
0
 62
     0
100
AcDbCircle
 10
5346.88234751943
 20
4566.042060894504
 30
0.0
 40
18.0
100
AcDbArc
 50
317.1665719339523
 51
0.0
  0
ARC
  5
E9A5
330
1F
100
AcDbEntity
  8
0
 62
     0
100
AcDbCircle
 10
5346.88234751943
 20
4566.042060894504
 30
0.0
 40
25.2
100
AcDbArc
 50
301.5881355051805
 51
31.63987279379181
  0
LINE
  5
E9AD
330
1F
100
AcDbEntity
  8
0
 62
     0
100
AcDbLine
 10
5364.882347519429
 20
4566.042060894504
 30
0.0
 11
5364.882347519429
 21
4574.964123385146
 31
0.0
  0
LINE
  5
E9B0
330
1F
100
AcDbEntity
  8
0
 62
     0
100
AcDbLine
 10
5355.28234751943
 20
4574.964123385146
 30
0.0
 11
5355.28234751943
 21
4550.182286459165
 31
0.0
  0
ARC
  5
E9B3
330
1F
100
AcDbEntity
  8
0
 62
     0
 48
12.0
100
AcDbCircle
 10
5360.08234751943
 20
4574.964123385146
 30
0.0
 40
4.799999999999272
100
AcDbArc
 50
0.0
 51
180.0
  0
ARC
  5
E9B4
330
1F
100
AcDbEntity
  8
0
 62
     0
 48
12.0
100
AcDbCircle
 10
5360.08234751943
 20
4587.018066694787
 30
0.0
 40
32.0
100
AcDbArc
 50
288.5858096155375
 51
261.3479665784619
  0
ARC
  5
E9B5
330
1F
100
AcDbEntity
  8
0
 62
     0
 48
12.0
100
AcDbCircle
 10
5360.08234751943
 20
4587.018066694787
 30
0.0
 40
52.00749785598945
100
AcDbArc
 50
275.2956151573324
 51
327.0280509678186
  0
ARC
  5
E9B7
330
1F
100
AcDbEntity
  8
0
 62
     0
 48
12.0
100
AcDbCircle
 10
5364.192555234851
 20
4576.839395316198
 30
0.0
 40
4.799999999999179
100
AcDbArc
 50
30.30430424131875
 51
142.5981967096615
  0
DIMENSION
  5
EB58
330
1F
100
AcDbEntity
  8
0
 62
     0
 48
12.0
100
AcDbDimension
  2
*D4
 10
3442.297706154015
 20
4692.185114904122
 30
0.0
 11
3317.297706154015
 21
4732.185114904122
 31
0.0
 70
    33
 71
     5
 42
250.0
  3
ISO-25
100
AcDbAlignedDimension
 13
3192.297706154015
 23
4622.03390813683
 33
0.0
 14
3442.297706154015
 24
4622.03390813683
 34
0.0
  0
DIMENSION
  5
EB65
330
1F
100
AcDbEntity
  8
0
 62
     0
 48
12.0
100
AcDbDimension
  2
*D5
 10
2823.259896302348
 20
3602.033908136831
 30
0.0
 11
2783.259896302348
 21
3852.033908136831
 31
0.0
 70
    33
 71
     5
 42
500.0000000000004
  3
ISO-25
100
AcDbAlignedDimension
 13
2922.297706154015
 23
4102.033908136831
 33
0.0
 14
2922.297706154015
 24
3602.033908136831
 34
0.0
  0
DIMENSION
  5
EB7B
330
1F
100
AcDbEntity
  8
0
 62
     0
 48
12.0
100
AcDbDimension
  2
*D6
 10
5641.622111429558
 20
4713.26025901286
 30
0.0
 11
5541.393361105955
 21
4713.26025901286
 31
0.0
 70
   161
  1
50
 71
     5
 42
200.0
  3
ISO-25
100
AcDbAlignedDimension
 13
5441.622111429559
 23
4615.053825127968
 33
0.0
 14
5641.622111429558
 24
4615.053825127968
 34
0.0
  0
DIMENSION
  5
EB91
330
1F
100
AcDbEntity
  8
0
 62
     0
 48
12.0
100
AcDbDimension
  2
*D7
 10
5541.622111429559
 20
4559.053825127969
 30
0.0
 11
5513.099835714587
 21
4505.198460012639
 31
0.0
 70
   161
  1
%%c14
 71
     5
 42
56.0
  3
ISO-25
100
AcDbAlignedDimension
 13
5541.622111429559
 23
4615.053825127968
 33
0.0
 14
5541.622111429559
 24
4559.053825127969
 34
0.0
1001
ACAD
1000
DSTYLE
1002
{
1070
   279
1070
     2
1002
}
  0
LEADER
  5
EBC8
330
1F
100
AcDbEntity
  8
0
 62
     0
 48
12.0
100
AcDbLeader
  3
ISO-25
 73
     0
 40
30.0
 41
281.1428571428571
 76
     3
 10
5376.641492469367
 20
1847.548575006562
 30
0.0
 10
5454.611443760132
 20
1938.146930008605
 30
0.0
 10
5470.596092880048
 20
1938.146930008605
 30
0.0
340
EBC9
213
0.0
223
-15.0
233
0.0
1001
ACAD
1000
DSTYLE
1002
{
1070
   147
1040
25.0
1070
    77
1070
     0
1002
}
  0
MTEXT
  5
EBC9
102
{ACAD_REACTORS
330
EBC8
102
}
330
1F
100
AcDbEntity
  8
0
 62
     0
 48
12.0
100
AcDbMText
 10
5495.596092880049
 20
1953.146930008605
 30
0.0
 40
30.0
 41
0.0
 71
     1
 72
     1
  1
ワイヤーグリップ
 73
     1
 44
1.0
  0
LEADER
  5
EBDE
330
1F
100
AcDbEntity
  8
0
 62
     0
 48
12.0
100
AcDbLeader
  3
ISO-25
 73
     0
 40
30.0
 41
231.4285714285714
 76
     3
 10
5386.993996705921
 20
4542.514775004128
 30
0.0
 10
5513.196910836421
 20
4378.184815588402
 30
0.0
 10
5531.448092742067
 20
4378.184815588402
 30
0.0
340
EBDF
213
0.0
223
-15.0
233
0.0
1001
ACAD
1000
DSTYLE
1002
{
1070
   147
1040
25.0
1070
    77
1070
     0
1002
}
  0
MTEXT
  5
EBDF
102
{ACAD_REACTORS
330
EBDE
102
}
330
1F
100
AcDbEntity
  8
0
 62
     0
 48
12.0
100
AcDbMText
 10
5556.448092742066
 20
4393.184815588401
 30
0.0
 40
30.0
 41
0.0
 71
     1
 72
     1
  1
M6アイボルト
 73
     1
 44
1.0
  0
MTEXT
  5
EC12
330
1F
100
AcDbEntity
  8
0
 62
     0
 48
12.0
100
AcDbMText
 10
5126.44539523753
 20
351.3194746261671
 30
0.0
 40
60.0
 41
1814.3541
 71
     4
 72
     5
  1
　アイボルト支柱　ダイヤクロスH=5000まで
 73
     1
 44
1.0
  0
LINE
  5
ED5A
330
1F
100
AcDbEntity
  8
0
 62
     0
100
AcDbLine
 10
5356.08234751943
 20
1662.169679189654
 30
0.0
 11
5356.08234751943
 21
1618.24886096908
 31
0.0
  0
LINE
  5
ED5B
330
1F
100
AcDbEntity
  8
0
 62
     0
100
AcDbLine
 10
5364.08234751943
 20
1662.169679189654
 30
0.0
 11
5364.08234751943
 21
1618.123238885194
 31
0.0
  0
ARC
  5
ED5C
330
1F
100
AcDbEntity
  8
0
 62
     0
100
AcDbCircle
 10
5360.08234751943
 20
1618.20435026336
 30
0.0
 40
4.0
100
AcDbArc
 50
180.0
 51
0.0
  0
ARC
  5
ED5D
330
1F
100
AcDbEntity
  8
0
 62
     0
 48
0.2
100
AcDbCircle
 10
5342.634669836887
 20
1831.984378138318
 30
0.0
 40
4.0
100
AcDbArc
 50
90.0
 51
270.0
  0
LINE
  5
ED5E
330
1F
100
AcDbEntity
  8
0
 62
     0
 48
0.2
100
AcDbLine
 10
5379.409310715484
 20
1829.348763416699
 30
0.0
 11
5339.456472388935
 21
1827.860434502423
 31
0.0
  0
ARC
  5
ED5F
330
1F
100
AcDbEntity
  8
0
 62
     0
 48
0.2
100
AcDbCircle
 10
5379.409310715484
 20
1825.348763416699
 30
0.0
 40
4.0
100
AcDbArc
 50
270.0
 51
94.26680835238785
  0
ARC
  5
ED60
330
1F
100
AcDbEntity
  8
0
 62
     0
100
AcDbCircle
 10
5367.792576098359
 20
1705.3321229154
 30
0.0
 40
11.71852207022702
100
AcDbArc
 50
101.5039880445706
 51
182.1557357426926
  0
ARC
  5
ED61
330
1F
100
AcDbEntity
  8
0
 62
     0
100
AcDbCircle
 10
5368.667600172997
 20
1704.712347142589
 30
0.0
 40
4.593131454910462
100
AcDbArc
 50
91.06161137581509
 51
181.8740066675358
  0
LINE
  5
ED62
330
1F
100
AcDbEntity
  8
0
 62
     0
100
AcDbLine
 10
5393.844362007378
 20
1726.037953098226
 30
0.0
 11
5326.313704154792
 21
1723.358381823967
 31
0.0
  0
LINE
  5
ED63
330
1F
100
AcDbEntity
  8
0
 62
     0
 48
0.2
100
AcDbLine
 10
5383.704348746232
 20
1773.503213830186
 30
0.0
 11
5335.608380509405
 21
1771.71431033794
 31
0.0
  0
LINE
  5
ED64
330
1F
100
AcDbEntity
  8
0
 62
     0
 48
0.2
100
AcDbLine
 10
5383.704348746232
 20
1765.503213830186
 30
0.0
 11
5335.608380509405
 21
1763.71431033794
 31
0.0
  0
LINE
  5
ED65
330
1F
100
AcDbEntity
  8
0
 62
     0
 48
0.2
100
AcDbLine
 10
5384.062894948737
 20
1757.519315661224
 30
0.0
 11
5335.96692671191
 21
1755.730412168975
 31
0.0
  0
LINE
  5
ED66
330
1F
100
AcDbEntity
  8
0
 62
     0
 48
0.2
100
AcDbLine
 10
5384.062894948737
 20
1749.519315661224
 30
0.0
 11
5335.96692671191
 21
1747.730412168976
 31
0.0
  0
LINE
  5
ED67
330
1F
100
AcDbEntity
  8
0
 62
     0
 48
0.2
100
AcDbLine
 10
5388.060238039106
 20
1741.849525879268
 30
0.0
 11
5335.953021300945
 21
1739.729870741308
 31
0.0
  0
LINE
  5
ED68
330
1F
100
AcDbEntity
  8
0
 62
     0
 48
0.2
100
AcDbLine
 10
5390.866924964383
 20
1733.763127746029
 30
0.0
 11
5329.196398636643
 21
1731.47093605552
 31
0.0
  0
LINE
  5
ED69
330
1F
100
AcDbEntity
  8
0
 62
     0
 48
0.2
100
AcDbLine
 10
5389.844279859634
 20
1717.724707345329
 30
0.0
 11
5326.462763734908
 21
1715.361160133647
 31
0.0
  0
LINE
  5
ED6A
330
1F
100
AcDbEntity
  8
0
 62
     0
 48
0.2
100
AcDbLine
 10
5383.704348746232
 20
1781.503213830186
 30
0.0
 11
5335.608380509405
 21
1779.71431033794
 31
0.0
  0
LINE
  5
ED6B
330
1F
100
AcDbEntity
  8
0
 62
     0
 48
0.2
100
AcDbLine
 10
5383.704348746232
 20
1789.503213830187
 30
0.0
 11
5335.608380509405
 21
1787.71431033794
 31
0.0
  0
LINE
  5
ED6C
330
1F
100
AcDbEntity
  8
0
 62
     0
 48
0.2
100
AcDbLine
 10
5383.704348746232
 20
1821.503213830187
 30
0.0
 11
5335.608380509405
 21
1819.71431033794
 31
0.0
  0
LINE
  5
ED6D
330
1F
100
AcDbEntity
  8
0
 62
     0
 48
0.2
100
AcDbLine
 10
5383.704348746232
 20
1797.503213830186
 30
0.0
 11
5335.608380509405
 21
1795.71431033794
 31
0.0
  0
LINE
  5
ED6E
330
1F
100
AcDbEntity
  8
0
 62
     0
 48
0.2
100
AcDbLine
 10
5383.704348746232
 20
1813.503213830186
 30
0.0
 11
5335.608380509405
 21
1811.71431033794
 31
0.0
  0
LINE
  5
ED6F
330
1F
100
AcDbEntity
  8
0
 62
     0
 48
0.2
100
AcDbLine
 10
5383.704348746232
 20
1805.503213830187
 30
0.0
 11
5335.608380509405
 21
1803.71431033794
 31
0.0
  0
ARC
  5
ED70
330
1F
100
AcDbEntity
  8
0
 62
     0
 48
0.2
100
AcDbCircle
 10
5329.344969446712
 20
1727.473696168499
 30
0.0
 40
4.0
100
AcDbArc
 50
90.0
 51
272.9242238193086
  0
LINE
  5
ED71
330
1F
100
AcDbEntity
  8
0
 62
     0
 48
0.2
100
AcDbLine
 10
5356.08234751943
 20
1705.772924616441
 30
0.0
 11
5356.08234751943
 21
1662.169679189654
 31
0.0
  0
ARC
  5
ED72
330
1F
100
AcDbEntity
  8
0
 62
     0
 48
0.2
100
AcDbCircle
 10
5326.313704154792
 20
1719.358381823967
 30
0.0
 40
4.0
100
AcDbArc
 50
90.0
 51
272.1356156821904
  0
ARC
  5
ED73
330
1F
100
AcDbEntity
  8
0
 62
     0
 48
0.2
100
AcDbCircle
 10
5335.757055538175
 20
1775.717074325916
 30
0.0
 40
4.0
100
AcDbArc
 50
84.8983204758697
 51
269.1175086759233
  0
ARC
  5
ED74
330
1F
100
AcDbEntity
  8
0
 62
     0
 48
0.2
100
AcDbCircle
 10
5334.117254448502
 20
1743.651885937084
 30
0.0
 40
4.0
100
AcDbArc
 50
90.0
 51
270.0
  0
ARC
  5
ED75
330
1F
100
AcDbEntity
  8
0
 62
     0
 48
0.2
100
AcDbCircle
 10
5332.118443237702
 20
1735.582431664275
 30
0.0
 40
4.0
100
AcDbArc
 50
90.0
 51
270.0
  0
ARC
  5
ED76
330
1F
100
AcDbEntity
  8
0
 62
     0
 48
0.2
100
AcDbCircle
 10
5335.757055538175
 20
1767.717074325915
 30
0.0
 40
4.0
100
AcDbArc
 50
92.13010357119623
 51
270.0
  0
ARC
  5
ED77
330
1F
100
AcDbEntity
  8
0
 62
     0
 48
0.2
100
AcDbCircle
 10
5335.757055538175
 20
1759.717074325916
 30
0.0
 40
4.0
100
AcDbArc
 50
92.13010357119623
 51
273.0134589612451
  0
ARC
  5
ED78
330
1F
100
AcDbEntity
  8
0
 62
     0
 48
0.2
100
AcDbCircle
 10
5336.115601740679
 20
1751.733176156951
 30
0.0
 40
4.0
100
AcDbArc
 50
89.32661439396643
 51
270.0
  0
LINE
  5
ED79
330
1F
100
AcDbEntity
  8
0
 62
     0
100
AcDbLine
 10
5336.795473346832
 20
1739.764140616371
 30
0.0
 11
5331.965648009719
 21
1739.579512301228
 31
0.0
  0
LINE
  5
ED7A
330
1F
100
AcDbEntity
  8
0
 62
     0
100
AcDbLine
 10
5334.117254448502
 20
1747.651885937084
 30
0.0
 11
5335.96692671191
 21
1747.730412168976
 31
0.0
  0
ARC
  5
ED7B
330
1F
100
AcDbEntity
  8
0
 62
     0
 48
0.2
100
AcDbCircle
 10
5335.757055538175
 20
1815.717074325915
 30
0.0
 40
4.0
100
AcDbArc
 50
90.0
 51
275.1426984664364
  0
ARC
  5
ED7C
330
1F
100
AcDbEntity
  8
0
 62
     0
 48
0.2
100
AcDbCircle
 10
5335.757055538175
 20
1807.717074325915
 30
0.0
 40
4.0
100
AcDbArc
 50
92.13010357119623
 51
275.1426984664364
  0
ARC
  5
ED7D
330
1F
100
AcDbEntity
  8
0
 62
     0
 48
0.2
100
AcDbCircle
 10
5335.757055538175
 20
1799.717074325915
 30
0.0
 40
4.0
100
AcDbArc
 50
92.13010357119623
 51
267.8728354820999
  0
ARC
  5
ED7E
330
1F
100
AcDbEntity
  8
0
 62
     0
 48
0.2
100
AcDbCircle
 10
5335.757055538175
 20
1791.717074325916
 30
0.0
 40
4.0
100
AcDbArc
 50
84.8983204758697
 51
267.8728354820999
  0
ARC
  5
ED7F
330
1F
100
AcDbEntity
  8
0
 62
     0
 48
0.2
100
AcDbCircle
 10
5335.757055538175
 20
1783.717074325915
 30
0.0
 40
4.0
100
AcDbArc
 50
84.8983204758697
 51
267.8728354820999
  0
ARC
  5
ED80
330
1F
100
AcDbEntity
  8
0
 62
     0
 48
0.2
100
AcDbCircle
 10
5339.456472388935
 20
1823.860434502423
 30
0.0
 40
4.0
100
AcDbArc
 50
90.0
 51
270.0
  0
ARC
  5
ED81
330
1F
100
AcDbEntity
  8
0
 62
     0
 48
0.2
100
AcDbCircle
 10
5390.866924964383
 20
1729.763127746029
 30
0.0
 40
4.0
100
AcDbArc
 50
288.5173538062159
 51
94.25721943357585
  0
LINE
  5
ED82
330
1F
100
AcDbEntity
  8
0
 62
     0
 48
0.2
100
AcDbLine
 10
5364.08234751943
 20
1704.981261004342
 30
0.0
 11
5364.08234751943
 21
1662.169679189654
 31
0.0
  0
ARC
  5
ED83
330
1F
100
AcDbEntity
  8
0
 62
     0
100
AcDbCircle
 10
5395.618720953451
 20
1714.398567210493
 30
0.0
 40
3.999999999999886
100
AcDbArc
 50
270.0
 51
102.4915386141354
  0
ARC
  5
ED84
330
1F
100
AcDbEntity
  8
0
 62
     0
100
AcDbCircle
 10
5393.844362007378
 20
1722.037953098226
 30
0.0
 40
3.999999999999886
100
AcDbArc
 50
295.9912474877387
 51
90.0
  0
LINE
  5
ED85
330
1F
100
AcDbEntity
  8
0
 62
     0
100
AcDbLine
 10
5371.401957682905
 20
1709.412114894305
 30
0.0
 11
5368.582500683191
 21
1709.304690187151
 31
0.0
  0
LINE
  5
ED86
330
1F
100
AcDbEntity
  8
0
 62
     0
100
AcDbLine
 10
5395.618720953451
 20
1710.398567210493
 30
0.0
 11
5371.401957682905
 21
1709.412114894305
 31
0.0
  0
LINE
  5
ED87
330
1F
100
AcDbEntity
  8
0
 62
     0
100
AcDbLine
 10
5394.753539220972
 20
1718.303879050767
 30
0.0
 11
5389.844279859634
 21
1717.724707345329
 31
0.0
  0
ARC
  5
ED88
330
1F
100
AcDbEntity
  8
0
 62
     0
 48
0.2
100
AcDbCircle
 10
5383.704348746232
 20
1777.503213830186
 30
0.0
 40
4.0
100
AcDbArc
 50
270.0
 51
90.0
  0
ARC
  5
ED89
330
1F
100
AcDbEntity
  8
0
 62
     0
 48
0.2
100
AcDbCircle
 10
5386.035085097818
 20
1745.851679943107
 30
0.0
 40
4.0
100
AcDbArc
 50
292.9496503955767
 51
96.17417521048039
  0
ARC
  5
ED8A
330
1F
100
AcDbEntity
  8
0
 62
     0
 48
0.2
100
AcDbCircle
 10
5383.704348746232
 20
1769.503213830186
 30
0.0
 40
4.0
100
AcDbArc
 50
270.0
 51
94.26020714237543
  0
ARC
  5
ED8B
330
1F
100
AcDbEntity
  8
0
 62
     0
 48
0.2
100
AcDbCircle
 10
5383.704348746232
 20
1761.503213830186
 30
0.0
 40
4.0
100
AcDbArc
 50
275.1426984689463
 51
94.26020714237543
  0
ARC
  5
ED8C
330
1F
100
AcDbEntity
  8
0
 62
     0
 48
0.2
100
AcDbCircle
 10
5384.062894948737
 20
1753.519315661224
 30
0.0
 40
4.0
100
AcDbArc
 50
292.6745536208226
 51
95.14269846643648
  0
ARC
  5
ED8D
330
1F
100
AcDbEntity
  8
0
 62
     0
 48
0.2
100
AcDbCircle
 10
5388.060238039106
 20
1737.849525879268
 30
0.0
 40
4.0
100
AcDbArc
 50
270.0
 51
96.15144066770922
  0
LINE
  5
ED8E
330
1F
100
AcDbEntity
  8
0
 62
     0
100
AcDbLine
 10
5386.035085097818
 20
1749.851679943107
 30
0.0
 11
5384.062894948737
 21
1749.519315661224
 31
0.0
  0
ARC
  5
ED8F
330
1F
100
AcDbEntity
  8
0
 62
     0
 48
0.2
100
AcDbCircle
 10
5383.704348746232
 20
1817.503213830186
 30
0.0
 40
4.0
100
AcDbArc
 50
265.7631844494414
 51
94.26020714237543
  0
ARC
  5
ED90
330
1F
100
AcDbEntity
  8
0
 62
     0
 48
0.2
100
AcDbCircle
 10
5383.704348746232
 20
1809.503213830186
 30
0.0
 40
4.0
100
AcDbArc
 50
270.0
 51
94.26020714237543
  0
ARC
  5
ED91
330
1F
100
AcDbEntity
  8
0
 62
     0
 48
0.2
100
AcDbCircle
 10
5383.704348746232
 20
1801.503213830186
 30
0.0
 40
4.0
100
AcDbArc
 50
265.7631844494414
 51
90.0
  0
ARC
  5
ED92
330
1F
100
AcDbEntity
  8
0
 62
     0
 48
0.2
100
AcDbCircle
 10
5383.704348746232
 20
1793.503213830186
 30
0.0
 40
4.0
100
AcDbArc
 50
265.7631844494414
 51
94.26020714237543
  0
ARC
  5
ED93
330
1F
100
AcDbEntity
  8
0
 62
     0
 48
0.2
100
AcDbCircle
 10
5383.704348746232
 20
1785.503213830186
 30
0.0
 40
4.0
100
AcDbArc
 50
265.7631844494414
 51
94.26020714237543
  0
LINE
  5
ED94
330
1F
100
AcDbEntity
  8
0
 62
     0
100
AcDbLine
 10
5368.08234751943
 20
1869.631448801264
 30
0.0
 11
5352.082347519431
 21
1869.631448801264
 31
0.0
  0
LINE
  5
ED95
330
1F
100
AcDbEntity
  8
0
 62
     0
 48
0.2
100
AcDbLine
 10
5374.444147986928
 20
1837.172123903354
 30
0.0
 11
5342.485764541889
 21
1835.981605579074
 31
0.0
  0
LINE
  5
ED96
330
1F
100
AcDbEntity
  8
0
 62
     0
100
AcDbLine
 10
5352.082347519431
 20
1837.631448801264
 30
0.0
 11
5352.082347519431
 21
1836.33909887672
 31
0.0
  0
LINE
  5
ED97
330
1F
100
AcDbEntity
  8
0
 62
     0
100
AcDbLine
 10
5352.082347519431
 20
1837.631448801264
 30
0.0
 11
5352.082347519431
 21
1836.831448801265
 31
0.0
  0
LINE
  5
ED98
330
1F
100
AcDbEntity
  8
0
 62
     0
100
AcDbLine
 10
5352.082347519431
 20
1869.631448801264
 30
0.0
 11
5352.082347519431
 21
1837.631448801264
 31
0.0
  0
LINE
  5
ED99
330
1F
100
AcDbEntity
  8
0
 62
     0
100
AcDbLine
 10
5368.08234751943
 20
1837.631448801264
 30
0.0
 11
5368.08234751943
 21
1836.935133191824
 31
0.0
  0
LINE
  5
ED9A
330
1F
100
AcDbEntity
  8
0
 62
     0
100
AcDbLine
 10
5368.08234751943
 20
1837.631448801264
 30
0.0
 11
5368.08234751943
 21
1869.631448801264
 31
0.0
  0
ARC
  5
ED9B
330
1F
100
AcDbEntity
  8
0
 62
     0
 48
0.2
100
AcDbCircle
 10
5374.593053281926
 20
1833.1748964626
 30
0.0
 40
4.0
100
AcDbArc
 50
270.0
 51
92.13340417620861
  0
ARC
  5
ED9C
330
1F
100
AcDbEntity
  8
0
 62
     0
100
AcDbCircle
 10
5346.676345248834
 20
1881.12107191679
 30
0.0
 40
25.2
100
AcDbArc
 50
328.1513052061355
 51
44.41530859720706
  0
ENDSEC
  0
SECTION
  2
OBJECTS
  0
DICTIONARY
  5
C
330
0
100
AcDbDictionary
281
     1
  3
ACAD_GROUP
350
D
  3
ACAD_LAYOUT
350
1A
  3
ACAD_MLINESTYLE
350
17
  3
ACAD_PLOTSETTINGS
350
19
  3
ACAD_PLOTSTYLENAME
350
E
  3
AcadDim
350
E863
  3
AcDbVariableDictionary
350
739
  0
DICTIONARY
  5
D
102
{ACAD_REACTORS
330
C
102
}
330
C
100
AcDbDictionary
281
     1
  0
DICTIONARY
  5
1A
102
{ACAD_REACTORS
330
C
102
}
330
C
100
AcDbDictionary
281
     1
  3
Model
350
22
  3
ﾚｲｱｳﾄ1
350
1E
  3
ﾚｲｱｳﾄ2
350
26
  0
DICTIONARY
  5
17
102
{ACAD_REACTORS
330
C
102
}
330
C
100
AcDbDictionary
281
     1
  3
Standard
350
18
  0
DICTIONARY
  5
19
102
{ACAD_REACTORS
330
C
102
}
330
C
100
AcDbDictionary
281
     1
  0
ACDBDICTIONARYWDFLT
  5
E
102
{ACAD_REACTORS
330
C
102
}
330
C
100
AcDbDictionary
281
     1
  3
Normal
350
F
100
AcDbDictionaryWithDefault
340
F
  0
XRECORD
  5
E863
102
{ACAD_REACTORS
330
C
102
}
330
C
100
AcDbXrecord
280
     1
 90
   990106
  3

 60
     0
 61
     0
 62
     1
 63
     3
 64
     0
 65
     0
 66
     0
 67
     3
 68
     1
 69
     0
 70
     0
 71
     0
 72
     0
 40
3.973685914683301
170
     0
340
EBDF
  0
DICTIONARY
  5
739
102
{ACAD_REACTORS
330
C
102
}
330
C
100
AcDbDictionary
281
     1
  3
SORTENTS
350
73A
  0
LAYOUT
  5
22
102
{ACAD_REACTORS
330
1A
102
}
330
1A
100
AcDbPlotSettings
  1

  2
RICOH imagio MP C3301 RPCS
  4
A3
  6

 40
5.873749732971191
 41
5.873747825622558
 42
5.873748779296875
 43
5.873748779296875
 44
296.9259948730469
 45
419.9466552734374
 46
0.0
 47
0.0
 48
0.0
 49
0.0
140
0.0
141
0.0
142
1.0
143
19.28707545924392
 70
 11952
 72
     1
 73
     1
 74
     1
  7

 75
     0
147
0.051848192439187
148
-572.7672977048496
149
-301.2373516898587
100
AcDbLayout
  1
Model
 70
     1
 71
     0
 10
0.0
 20
0.0
 11
12.0
 21
9.0
 12
0.0
 22
0.0
 32
0.0
 14
0.0
 24
0.0
 34
0.0
 15
0.0
 25
0.0
 35
0.0
146
0.0
 13
0.0
 23
0.0
 33
0.0
 16
1.0
 26
0.0
 36
0.0
 17
0.0
 27
1.0
 37
0.0
 76
     0
330
1F
  0
LAYOUT
  5
1E
102
{ACAD_REACTORS
330
1A
102
}
330
1A
100
AcDbPlotSettings
  1

  2
RICOH imagio MP C3300 RPCS
  4

  6

 40
0.0
 41
0.0
 42
0.0
 43
0.0
 44
0.0
 45
0.0
 46
0.0
 47
0.0
 48
0.0
 49
0.0
140
0.0
141
0.0
142
1.0
143
1.0
 70
   688
 72
     0
 73
     0
 74
     5
  7

 75
    16
147
1.0
148
0.0
149
0.0
100
AcDbLayout
  1
ﾚｲｱｳﾄ1
 70
     1
 71
     1
 10
0.0
 20
0.0
 11
420.0
 21
297.0
 12
0.0
 22
0.0
 32
0.0
 14
1.000000000000000E+20
 24
1.000000000000000E+20
 34
1.000000000000000E+20
 15
-1.000000000000000E+20
 25
-1.000000000000000E+20
 35
-1.000000000000000E+20
146
0.0
 13
0.0
 23
0.0
 33
0.0
 16
1.0
 26
0.0
 36
0.0
 17
0.0
 27
1.0
 37
0.0
 76
     0
330
1B
  0
LAYOUT
  5
26
102
{ACAD_REACTORS
330
1A
102
}
330
1A
100
AcDbPlotSettings
  1

  2
RICOH imagio MP C3300 RPCS
  4

  6

 40
0.0
 41
0.0
 42
0.0
 43
0.0
 44
0.0
 45
0.0
 46
0.0
 47
0.0
 48
0.0
 49
0.0
140
0.0
141
0.0
142
1.0
143
1.0
 70
   688
 72
     0
 73
     0
 74
     5
  7

 75
    16
147
1.0
148
0.0
149
0.0
100
AcDbLayout
  1
ﾚｲｱｳﾄ2
 70
     1
 71
     2
 10
0.0
 20
0.0
 11
12.0
 21
9.0
 12
0.0
 22
0.0
 32
0.0
 14
0.0
 24
0.0
 34
0.0
 15
0.0
 25
0.0
 35
0.0
146
0.0
 13
0.0
 23
0.0
 33
0.0
 16
1.0
 26
0.0
 36
0.0
 17
0.0
 27
1.0
 37
0.0
 76
     0
330
23
  0
MLINESTYLE
  5
18
102
{ACAD_REACTORS
330
17
102
}
330
17
100
AcDbMlineStyle
  2
STANDARD
 70
     0
  3

 62
   256
 51
90.0
 52
90.0
 71
     2
 49
0.5
 62
   256
  6
BYLAYER
 49
-0.5
 62
   256
  6
BYLAYER
  0
ACDBPLACEHOLDER
  5
F
102
{ACAD_REACTORS
330
E
102
}
330
E
  0
DICTIONARYVAR
  5
73A
102
{ACAD_REACTORS
330
739
102
}
330
739
100
DictionaryVariables
280
     0
  1
96
  0
ENDSEC
  0
EOF
