  0
SECTION
  2
HEADER
  9
$ACADVER
  1
AC1015
  9
$ACADMAINTVER
 70
     6
  9
$DWGCODEPAGE
  3
ANSI_932
  9
$INSBASE
 10
0.0
 20
0.0
 30
0.0
  9
$EXTMIN
 10
573.1600046940402
 20
301.319474626167
 30
0.0
  9
$EXTMAX
 10
8373.160004694041
 20
5801.319474626168
 30
0.0
  9
$LIMMIN
 10
0.0
 20
0.0
  9
$LIMMAX
 10
420.0
 20
297.0
  9
$ORTHOMODE
 70
     0
  9
$REGENMODE
 70
     1
  9
$FILLMODE
 70
     1
  9
$QTEXTMODE
 70
     0
  9
$MIRRTEXT
 70
     1
  9
$LTSCALE
 40
1.0
  9
$ATTMODE
 70
     1
  9
$TEXTSIZE
 40
2.5
  9
$TRACEWID
 40
1.0
  9
$TEXTSTYLE
  7
Standard
  9
$CLAYER
  8
0
  9
$CELTYPE
  6
ByLayer
  9
$CECOLOR
 62
   256
  9
$CELTSCALE
 40
12.0
  9
$DISPSILH
 70
     0
  9
$DIMSCALE
 40
1.0
  9
$DIMASZ
 40
40.0
  9
$DIMEXO
 40
20.0
  9
$DIMDLI
 40
3.75
  9
$DIMRND
 40
0.0
  9
$DIMDLE
 40
0.0
  9
$DIMEXE
 40
25.0
  9
$DIMTP
 40
0.0
  9
$DIMTM
 40
0.0
  9
$DIMTXT
 40
45.0
  9
$DIMCEN
 40
2.5
  9
$DIMTSZ
 40
0.0
  9
$DIMTOL
 70
     0
  9
$DIMLIM
 70
     0
  9
$DIMTIH
 70
     0
  9
$DIMTOH
 70
     0
  9
$DIMSE1
 70
     0
  9
$DIMSE2
 70
     0
  9
$DIMTAD
 70
     1
  9
$DIMZIN
 70
     8
  9
$DIMBLK
  1

  9
$DIMASO
 70
     1
  9
$DIMSHO
 70
     1
  9
$DIMPOST
  1

  9
$DIMAPOST
  1

  9
$DIMALT
 70
     0
  9
$DIMALTD
 70
     3
  9
$DIMALTF
 40
0.03937007874016
  9
$DIMLFAC
 40
1.0
  9
$DIMTOFL
 70
     1
  9
$DIMTVP
 40
0.0
  9
$DIMTIX
 70
     0
  9
$DIMSOXD
 70
     0
  9
$DIMSAH
 70
     0
  9
$DIMBLK1
  1

  9
$DIMBLK2
  1

  9
$DIMSTYLE
  2
ISO-25
  9
$DIMCLRD
 70
   256
  9
$DIMCLRE
 70
     0
  9
$DIMCLRT
 70
     0
  9
$DIMTFAC
 40
1.0
  9
$DIMGAP
 40
25.0
  9
$DIMJUST
 70
     0
  9
$DIMSD1
 70
     0
  9
$DIMSD2
 70
     0
  9
$DIMTOLJ
 70
     0
  9
$DIMTZIN
 70
     8
  9
$DIMALTZ
 70
     0
  9
$DIMALTTZ
 70
     0
  9
$DIMUPT
 70
     0
  9
$DIMDEC
 70
     2
  9
$DIMTDEC
 70
     2
  9
$DIMALTU
 70
     2
  9
$DIMALTTD
 70
     3
  9
$DIMTXSTY
  7
Standard
  9
$DIMAUNIT
 70
     0
  9
$DIMADEC
 70
     0
  9
$DIMALTRND
 40
0.0
  9
$DIMAZIN
 70
     0
  9
$DIMDSEP
 70
    46
  9
$DIMATFIT
 70
     3
  9
$DIMFRAC
 70
     0
  9
$DIMLDRBLK
  1

  9
$DIMLUNIT
 70
     2
  9
$DIMLWD
 70
     5
  9
$DIMLWE
 70
     5
  9
$DIMTMOVE
 70
     0
  9
$LUNITS
 70
     2
  9
$LUPREC
 70
     4
  9
$SKETCHINC
 40
1.0
  9
$FILLETRAD
 40
10.0
  9
$AUNITS
 70
     0
  9
$AUPREC
 70
     0
  9
$MENU
  1
.
  9
$ELEVATION
 40
0.0
  9
$PELEVATION
 40
0.0
  9
$THICKNESS
 40
0.0
  9
$LIMCHECK
 70
     0
  9
$CHAMFERA
 40
0.875
  9
$CHAMFERB
 40
0.875
  9
$CHAMFERC
 40
20.0
  9
$CHAMFERD
 40
0.0
  9
$SKPOLY
 70
     0
  9
$TDCREATE
 40
2455268.596983136
  9
$TDUCREATE
 40
2455268.221983136
  9
$TDUPDATE
 40
2460216.605828819
  9
$TDUUPDATE
 40
2460216.230828819
  9
$TDINDWG
 40
0.3956103819
  9
$TDUSRTIMER
 40
0.3956103819
  9
$USRTIMER
 70
     1
  9
$ANGBASE
 50
0.0
  9
$ANGDIR
 70
     0
  9
$PDMODE
 70
     0
  9
$PDSIZE
 40
0.0
  9
$PLINEWID
 40
0.0
  9
$SPLFRAME
 70
     0
  9
$SPLINETYPE
 70
     6
  9
$SPLINESEGS
 70
     8
  9
$HANDSEED
  5
1C52B
  9
$SURFTAB1
 70
     6
  9
$SURFTAB2
 70
     6
  9
$SURFTYPE
 70
     6
  9
$SURFU
 70
     6
  9
$SURFV
 70
     6
  9
$UCSBASE
  2

  9
$UCSNAME
  2

  9
$UCSORG
 10
0.0
 20
0.0
 30
0.0
  9
$UCSXDIR
 10
1.0
 20
0.0
 30
0.0
  9
$UCSYDIR
 10
0.0
 20
1.0
 30
0.0
  9
$UCSORTHOREF
  2

  9
$UCSORTHOVIEW
 70
     0
  9
$UCSORGTOP
 10
0.0
 20
0.0
 30
0.0
  9
$UCSORGBOTTOM
 10
0.0
 20
0.0
 30
0.0
  9
$UCSORGLEFT
 10
0.0
 20
0.0
 30
0.0
  9
$UCSORGRIGHT
 10
0.0
 20
0.0
 30
0.0
  9
$UCSORGFRONT
 10
0.0
 20
0.0
 30
0.0
  9
$UCSORGBACK
 10
0.0
 20
0.0
 30
0.0
  9
$PUCSBASE
  2

  9
$PUCSNAME
  2

  9
$PUCSORG
 10
0.0
 20
0.0
 30
0.0
  9
$PUCSXDIR
 10
1.0
 20
0.0
 30
0.0
  9
$PUCSYDIR
 10
0.0
 20
1.0
 30
0.0
  9
$PUCSORTHOREF
  2

  9
$PUCSORTHOVIEW
 70
     0
  9
$PUCSORGTOP
 10
0.0
 20
0.0
 30
0.0
  9
$PUCSORGBOTTOM
 10
0.0
 20
0.0
 30
0.0
  9
$PUCSORGLEFT
 10
0.0
 20
0.0
 30
0.0
  9
$PUCSORGRIGHT
 10
0.0
 20
0.0
 30
0.0
  9
$PUCSORGFRONT
 10
0.0
 20
0.0
 30
0.0
  9
$PUCSORGBACK
 10
0.0
 20
0.0
 30
0.0
  9
$USERI1
 70
     0
  9
$USERI2
 70
     0
  9
$USERI3
 70
     0
  9
$USERI4
 70
     0
  9
$USERI5
 70
     0
  9
$USERR1
 40
0.0
  9
$USERR2
 40
0.0
  9
$USERR3
 40
0.0
  9
$USERR4
 40
0.0
  9
$USERR5
 40
0.0
  9
$WORLDVIEW
 70
     1
  9
$SHADEDGE
 70
     3
  9
$SHADEDIF
 70
    70
  9
$TILEMODE
 70
     1
  9
$MAXACTVP
 70
    64
  9
$PINSBASE
 10
0.0
 20
0.0
 30
0.0
  9
$PLIMCHECK
 70
     0
  9
$PEXTMIN
 10
1.000000000000000E+20
 20
1.000000000000000E+20
 30
1.000000000000000E+20
  9
$PEXTMAX
 10
-1.000000000000000E+20
 20
-1.000000000000000E+20
 30
-1.000000000000000E+20
  9
$PLIMMIN
 10
0.0
 20
0.0
  9
$PLIMMAX
 10
420.0
 20
297.0
  9
$UNITMODE
 70
     0
  9
$VISRETAIN
 70
     1
  9
$PLINEGEN
 70
     0
  9
$PSLTSCALE
 70
     1
  9
$TREEDEPTH
 70
  3020
  9
$CMLSTYLE
  2
Standard
  9
$CMLJUST
 70
     0
  9
$CMLSCALE
 40
20.0
  9
$PROXYGRAPHICS
 70
     1
  9
$MEASUREMENT
 70
     1
  9
$CELWEIGHT
370
    -1
  9
$ENDCAPS
280
     0
  9
$JOINSTYLE
280
     0
  9
$LWDISPLAY
290
     0
  9
$INSUNITS
 70
     4
  9
$HYPERLINKBASE
  1

  9
$STYLESHEET
  1

  9
$XEDIT
290
     1
  9
$CEPSNTYPE
380
     0
  9
$PSTYLEMODE
290
     1
  9
$FINGERPRINTGUID
  2
{2241DC55-7DC5-4086-8419-A1BFBEBACFBB}
  9
$VERSIONGUID
  2
{89FCA75C-36A1-4A01-990B-218EC6AE6717}
  9
$EXTNAMES
290
     1
  9
$PSVPSCALE
 40
0.0
  9
$OLESTARTUP
290
     0
  0
ENDSEC
  0
SECTION
  2
CLASSES
  0
CLASS
  1
ACDBDICTIONARYWDFLT
  2
AcDbDictionaryWithDefault
  3
AutoCAD 2000
 90
        0
280
     0
281
     0
  0
CLASS
  1
ACDBPLACEHOLDER
  2
AcDbPlaceHolder
  3
AutoCAD 2000
 90
        0
280
     0
281
     0
  0
CLASS
  1
LAYOUT
  2
AcDbLayout
  3
AutoCAD 2000
 90
        0
280
     0
281
     0
  0
CLASS
  1
DICTIONARYVAR
  2
AcDbDictionaryVar
  3
AutoCAD 2000
 90
        0
280
     0
281
     0
  0
ENDSEC
  0
SECTION
  2
TABLES
  0
TABLE
  2
VPORT
  5
8
330
0
100
AcDbSymbolTable
 70
     2
  0
VPORT
  5
1C52A
330
8
100
AcDbSymbolTableRecord
100
AcDbViewportTableRecord
  2
*Active
 70
     0
 10
0.0
 20
0.0
 11
1.0
 21
1.0
 12
4280.028050696199
 22
2837.393991535463
 13
0.0
 23
0.0
 14
10.0
 24
10.0
 15
10.0
 25
10.0
 16
0.0
 26
0.0
 36
1.0
 17
0.0
 27
0.0
 37
0.0
 40
8231.773947696986
 41
1.477300613496932
 42
50.0
 43
0.0
 44
0.0
 50
0.0
 51
0.0
 71
     0
 72
   100
 73
     1
 74
     3
 75
     0
 76
     0
 77
     0
 78
     0
281
     0
 65
     1
110
0.0
120
0.0
130
0.0
111
1.0
121
0.0
131
0.0
112
0.0
122
1.0
132
0.0
 79
     0
146
0.0
  0
ENDTAB
  0
TABLE
  2
LTYPE
  5
5
330
0
100
AcDbSymbolTable
 70
     5
  0
LTYPE
  5
14
330
5
100
AcDbSymbolTableRecord
100
AcDbLinetypeTableRecord
  2
ByBlock
 70
     0
  3

 72
    65
 73
     0
 40
0.0
  0
LTYPE
  5
15
330
5
100
AcDbSymbolTableRecord
100
AcDbLinetypeTableRecord
  2
ByLayer
 70
     0
  3

 72
    65
 73
     0
 40
0.0
  0
LTYPE
  5
16
330
5
100
AcDbSymbolTableRecord
100
AcDbLinetypeTableRecord
  2
Continuous
 70
     0
  3
Solid line
 72
    65
 73
     0
 40
0.0
  0
LTYPE
  5
9B
330
5
100
AcDbSymbolTableRecord
100
AcDbLinetypeTableRecord
  2
HIDDEN
 70
     0
  3
Hidden __ __ __ __ __ __ __ __ __ __ __ __ __ _
 72
    65
 73
     2
 40
9.524999999999998
 49
6.349999999999999
 74
     0
 49
-3.174999999999999
 74
     0
  0
LTYPE
  5
9C
330
5
100
AcDbSymbolTableRecord
100
AcDbLinetypeTableRecord
  2
HIDDEN2
 70
     0
  3
Hidden (.5x) _ _ _ _ _ _ _ _ _ _ _ _ _ _ _ _ _
 72
    65
 73
     2
 40
4.762499999999999
 49
3.174999999999999
 74
     0
 49
-1.587499999999999
 74
     0
  0
LTYPE
  5
9D
330
5
100
AcDbSymbolTableRecord
100
AcDbLinetypeTableRecord
  2
CENTER
 70
     0
  3
Center ____ _ ____ _ ____ _ ____ _ ____ _ ____
 72
    65
 73
     4
 40
50.8
 49
31.75
 74
     0
 49
-6.349999999999999
 74
     0
 49
6.349999999999999
 74
     0
 49
-6.349999999999999
 74
     0
  0
LTYPE
  5
9E
330
5
100
AcDbSymbolTableRecord
100
AcDbLinetypeTableRecord
  2
PHANTOM2
 70
     0
  3
Phantom (.5x) ___ _ _ ___ _ _ ___ _ _ ___ _ _
 72
    65
 73
     6
 40
31.75
 49
15.875
 74
     0
 49
-3.174999999999999
 74
     0
 49
3.174999999999999
 74
     0
 49
-3.174999999999999
 74
     0
 49
3.174999999999999
 74
     0
 49
-3.174999999999999
 74
     0
  0
ENDTAB
  0
TABLE
  2
LAYER
  5
2
330
0
100
AcDbSymbolTable
 70
    15
  0
LAYER
  5
10
330
2
100
AcDbSymbolTableRecord
100
AcDbLayerTableRecord
  2
0
 70
     0
 62
     7
  6
Continuous
370
    15
390
F
  0
LAYER
  5
32
330
2
100
AcDbSymbolTableRecord
100
AcDbLayerTableRecord
  2
6
 70
     0
 62
     5
  6
PHANTOM2
370
    15
390
F
  0
LAYER
  5
9F
330
2
100
AcDbSymbolTableRecord
100
AcDbLayerTableRecord
  2
1
 70
     0
 62
     7
  6
Continuous
370
     9
390
F
  0
LAYER
  5
A0
330
2
100
AcDbSymbolTableRecord
100
AcDbLayerTableRecord
  2
2
 70
     0
 62
     3
  6
Continuous
370
    20
390
F
  0
LAYER
  5
A1
330
2
100
AcDbSymbolTableRecord
100
AcDbLayerTableRecord
  2
3
 70
     0
 62
     4
  6
HIDDEN
370
    15
390
F
  0
LAYER
  5
A2
330
2
100
AcDbSymbolTableRecord
100
AcDbLayerTableRecord
  2
4
 70
     0
 62
     4
  6
HIDDEN2
370
    15
390
F
  0
LAYER
  5
A3
330
2
100
AcDbSymbolTableRecord
100
AcDbLayerTableRecord
  2
5
 70
     0
 62
     6
  6
CENTER
370
    15
390
F
  0
LAYER
  5
E1
330
2
100
AcDbSymbolTableRecord
100
AcDbLayerTableRecord
  2
１
 70
     0
 62
     7
  6
Continuous
370
     9
390
F
  0
LAYER
  5
E2
330
2
100
AcDbSymbolTableRecord
100
AcDbLayerTableRecord
  2
２
 70
     0
 62
     3
  6
Continuous
370
    20
390
F
  0
LAYER
  5
219
330
2
100
AcDbSymbolTableRecord
100
AcDbLayerTableRecord
  2
Object
 70
     0
 62
     3
  6
Continuous
370
    20
390
F
  0
LAYER
  5
31D
330
2
100
AcDbSymbolTableRecord
100
AcDbLayerTableRecord
  2
HIDDEN2
 70
     0
 62
     7
  6
HIDDEN2
370
     9
390
F
  0
LAYER
  5
9E1
330
2
100
AcDbSymbolTableRecord
100
AcDbLayerTableRecord
  2
４
 70
     0
 62
     4
  6
HIDDEN2
370
    15
390
F
  0
LAYER
  5
295B
330
2
100
AcDbSymbolTableRecord
100
AcDbLayerTableRecord
  2
Defpoints
 70
     0
 62
     7
  6
Continuous
290
     0
370
    -3
390
F
  0
LAYER
  5
3232
330
2
100
AcDbSymbolTableRecord
100
AcDbLayerTableRecord
  2
CENTER
 70
     0
 62
     7
  6
CENTER
370
     5
390
F
  0
LAYER
  5
1103D
330
2
100
AcDbSymbolTableRecord
100
AcDbLayerTableRecord
  2
３
 70
     0
 62
     4
  6
HIDDEN
370
    15
390
F
  0
ENDTAB
  0
TABLE
  2
STYLE
  5
3
330
0
100
AcDbSymbolTable
 70
     2
  0
STYLE
  5
11
330
3
100
AcDbSymbolTableRecord
100
AcDbTextStyleTableRecord
  2
Standard
 70
     0
 40
0.0
 41
1.0
 50
0.0
 71
     0
 42
2.5
  3
romans.shx
  4
bigfont.shx
  0
STYLE
  5
9A
330
3
100
AcDbSymbolTableRecord
100
AcDbTextStyleTableRecord
  2

 70
     1
 40
0.0
 41
1.0
 50
0.0
 71
     0
 42
2.5
  3
ltypeshp.shx
  4

  0
ENDTAB
  0
TABLE
  2
VIEW
  5
6
330
0
100
AcDbSymbolTable
 70
     0
  0
ENDTAB
  0
TABLE
  2
UCS
  5
7
330
0
100
AcDbSymbolTable
 70
     0
  0
ENDTAB
  0
TABLE
  2
APPID
  5
9
330
0
100
AcDbSymbolTable
 70
     1
  0
APPID
  5
12
330
9
100
AcDbSymbolTableRecord
100
AcDbRegAppTableRecord
  2
ACAD
 70
     0
  0
ENDTAB
  0
TABLE
  2
DIMSTYLE
  5
A
330
0
100
AcDbSymbolTable
 70
     3
100
AcDbDimStyleTable
 71
     1
340
27
  0
DIMSTYLE
105
27
102
{ACAD_REACTORS
330
1B96F
330
1B985
330
1BD01
330
1BF91
330
1BFBC
330
1C481
102
}
330
A
100
AcDbSymbolTableRecord
100
AcDbDimStyleTableRecord
  2
ISO-25
 70
     0
 41
40.0
 42
20.0
 43
3.75
 44
25.0
 73
     0
 74
     0
 77
     1
 78
     8
140
45.0
141
2.5
143
0.03937007874016
147
25.0
171
     3
172
     1
176
   256
271
     2
272
     2
274
     3
283
     0
284
     8
340
11
371
     5
372
     5
  0
DIMSTYLE
105
31E
330
A
100
AcDbSymbolTableRecord
100
AcDbDimStyleTableRecord
  2
ｺﾋﾟｰ - ISO-25
 70
     0
 41
2.5
 42
0.625
 43
3.75
 44
1.25
 73
     0
 74
     0
 77
     1
 78
     8
140
2.5
141
2.5
143
0.03937007874016
147
0.625
171
     3
172
     1
271
     2
272
     2
274
     3
283
     0
284
     8
340
11
343
2D0
  0
DIMSTYLE
105
1156
330
A
100
AcDbSymbolTableRecord
100
AcDbDimStyleTableRecord
  2
JIS
 70
     0
 41
2.5
 42
1.0
 43
7.0
 44
1.0
 73
     0
 74
     0
 77
     1
 78
     8
140
2.5
141
0.0
143
0.0394
147
0.0
172
     1
174
     1
175
     1
340
11
  0
ENDTAB
  0
TABLE
  2
BLOCK_RECORD
  5
1
330
0
100
AcDbSymbolTable
 70
     9
  0
BLOCK_RECORD
  5
1F
330
1
100
AcDbSymbolTableRecord
100
AcDbBlockTableRecord
  2
*Model_Space
340
22
  0
BLOCK_RECORD
  5
1B
330
1
100
AcDbSymbolTableRecord
100
AcDbBlockTableRecord
  2
*Paper_Space
340
1E
  0
BLOCK_RECORD
  5
23
330
1
100
AcDbSymbolTableRecord
100
AcDbBlockTableRecord
  2
*Paper_Space0
340
26
  0
BLOCK_RECORD
  5
2D0
330
1
100
AcDbSymbolTableRecord
100
AcDbBlockTableRecord
  2
_Dot
340
0
  0
BLOCK_RECORD
  5
1B970
330
1
100
AcDbSymbolTableRecord
100
AcDbBlockTableRecord
  2
*D2
340
0
  0
BLOCK_RECORD
  5
1B986
330
1
100
AcDbSymbolTableRecord
100
AcDbBlockTableRecord
  2
*D3
340
0
  0
BLOCK_RECORD
  5
1BD02
330
1
100
AcDbSymbolTableRecord
100
AcDbBlockTableRecord
  2
*D4
340
0
  0
BLOCK_RECORD
  5
1C051
330
1
100
AcDbSymbolTableRecord
100
AcDbBlockTableRecord
  2
*D6
340
0
  0
BLOCK_RECORD
  5
1C05F
330
1
100
AcDbSymbolTableRecord
100
AcDbBlockTableRecord
  2
*D7
340
0
  0
BLOCK_RECORD
  5
1C482
330
1
100
AcDbSymbolTableRecord
100
AcDbBlockTableRecord
  2
*D8
340
0
  0
ENDTAB
  0
ENDSEC
  0
SECTION
  2
BLOCKS
  0
BLOCK
  5
20
330
1F
100
AcDbEntity
  8
0
100
AcDbBlockBegin
  2
*Model_Space
 70
     0
 10
0.0
 20
0.0
 30
0.0
  3
*Model_Space
  1

  0
ENDBLK
  5
21
330
1F
100
AcDbEntity
  8
0
100
AcDbBlockEnd
  0
BLOCK
  5
1C
330
1B
100
AcDbEntity
 67
     1
  8
0
100
AcDbBlockBegin
  2
*Paper_Space
 70
     0
 10
0.0
 20
0.0
 30
0.0
  3
*Paper_Space
  1

  0
ENDBLK
  5
1D
330
1B
100
AcDbEntity
 67
     1
  8
0
100
AcDbBlockEnd
  0
BLOCK
  5
24
330
23
100
AcDbEntity
  8
0
100
AcDbBlockBegin
  2
*Paper_Space0
 70
     0
 10
0.0
 20
0.0
 30
0.0
  3
*Paper_Space0
  1

  0
ENDBLK
  5
25
330
23
100
AcDbEntity
  8
0
100
AcDbBlockEnd
  0
BLOCK
  5
2D3
330
2D0
100
AcDbEntity
  8
0
100
AcDbBlockBegin
  2
_Dot
 70
     0
 10
0.0
 20
0.0
 30
0.0
  3
_Dot
  1

  0
LWPOLYLINE
  5
2D1
330
2D0
100
AcDbEntity
  8
0
 62
     0
100
AcDbPolyline
 90
        2
 70
     1
 43
0.5
 10
-0.25
 20
0.0
 42
1.0
 10
0.25
 20
0.0
 42
1.0
  0
LINE
  5
2D2
330
2D0
100
AcDbEntity
  8
0
 62
     0
370
    -2
100
AcDbLine
 10
-0.5
 20
0.0
 30
0.0
 11
-1.0
 21
0.0
 31
0.0
  0
ENDBLK
  5
2D4
330
2D0
100
AcDbEntity
  8
0
100
AcDbBlockEnd
  0
BLOCK
  5
1B97A
330
1B970
100
AcDbEntity
  8
0
 48
12.0
100
AcDbBlockBegin
  2
*D2
 70
     1
 10
0.0
 20
0.0
 30
0.0
  3
*D2
  1

  0
LINE
  5
1C510
330
1B970
100
AcDbEntity
  8
0
 62
     0
 48
12.0
370
     5
100
AcDbLine
 10
2630.787487775343
 20
4650.22077056475
 30
0.0
 11
2630.787487775343
 21
4885.013778803208
 31
0.0
  0
LINE
  5
1C511
330
1B970
100
AcDbEntity
  8
0
 62
     0
 48
12.0
370
     5
100
AcDbLine
 10
3030.787487775343
 20
4650.22077056475
 30
0.0
 11
3030.787487775343
 21
4885.013778803208
 31
0.0
  0
LINE
  5
1C512
330
1B970
100
AcDbEntity
  8
0
 48
12.0
370
     5
100
AcDbLine
 10
2670.787487775343
 20
4860.013778803208
 30
0.0
 11
2990.787487775342
 21
4860.013778803208
 31
0.0
  0
SOLID
  5
1C513
330
1B970
100
AcDbEntity
  8
0
 48
12.0
100
AcDbTrace
 10
2670.787487775343
 20
4866.680445469874
 30
0.0
 11
2670.787487775343
 21
4853.347112136541
 31
0.0
 12
2630.787487775343
 22
4860.013778803208
 32
0.0
 13
2630.787487775343
 23
4860.013778803208
 33
0.0
  0
SOLID
  5
1C514
330
1B970
100
AcDbEntity
  8
0
 48
12.0
100
AcDbTrace
 10
2990.787487775342
 20
4866.680445469874
 30
0.0
 11
2990.787487775342
 21
4853.347112136541
 31
0.0
 12
3030.787487775343
 22
4860.013778803208
 32
0.0
 13
3030.787487775343
 23
4860.013778803208
 33
0.0
  0
MTEXT
  5
1C515
330
1B970
100
AcDbEntity
  8
0
 62
     0
 48
12.0
100
AcDbMText
 10
2830.787487775343
 20
4907.513778803208
 30
0.0
 40
45.0
 41
0.0
 71
     5
 72
     1
  1
100
 73
     1
 44
1.0
  0
POINT
  5
1C516
330
1B970
100
AcDbEntity
  8
Defpoints
 62
     0
 48
12.0
100
AcDbPoint
 10
2630.787487775343
 20
4630.22077056475
 30
0.0
  0
POINT
  5
1C517
330
1B970
100
AcDbEntity
  8
Defpoints
 62
     0
 48
12.0
100
AcDbPoint
 10
3030.787487775343
 20
4630.22077056475
 30
0.0
  0
POINT
  5
1C518
330
1B970
100
AcDbEntity
  8
Defpoints
 62
     0
 48
12.0
100
AcDbPoint
 10
3030.787487775343
 20
4860.013778803208
 30
0.0
  0
ENDBLK
  5
1B97B
330
1B970
100
AcDbEntity
  8
0
 48
12.0
100
AcDbBlockEnd
  0
BLOCK
  5
1B991
330
1B986
100
AcDbEntity
  8
0
 48
12.0
100
AcDbBlockBegin
  2
*D3
 70
     1
 10
0.0
 20
0.0
 30
0.0
  3
*D3
  1

  0
LINE
  5
1C519
330
1B986
100
AcDbEntity
  8
0
 62
     0
 48
12.0
370
     5
100
AcDbLine
 10
2619.461419932871
 20
4614.220770564751
 30
0.0
 11
2526.885123763437
 21
4614.220770564751
 31
0.0
  0
LINE
  5
1C51A
330
1B986
100
AcDbEntity
  8
0
 62
     0
 48
12.0
370
     5
100
AcDbLine
 10
2619.461419932871
 20
4481.848236733882
 30
0.0
 11
2526.885123763437
 21
4481.848236733882
 31
0.0
  0
LINE
  5
1C51B
330
1B986
100
AcDbEntity
  8
0
 48
12.0
370
     5
100
AcDbLine
 10
2551.885123763437
 20
4574.220770564751
 30
0.0
 11
2551.885123763437
 21
4521.848236733882
 31
0.0
  0
SOLID
  5
1C51C
330
1B986
100
AcDbEntity
  8
0
 48
12.0
100
AcDbTrace
 10
2545.21845709677
 20
4574.220770564751
 30
0.0
 11
2558.551790430104
 21
4574.220770564751
 31
0.0
 12
2551.885123763437
 22
4614.220770564751
 32
0.0
 13
2551.885123763437
 23
4614.220770564751
 33
0.0
  0
SOLID
  5
1C51D
330
1B986
100
AcDbEntity
  8
0
 48
12.0
100
AcDbTrace
 10
2545.21845709677
 20
4521.848236733882
 30
0.0
 11
2558.551790430104
 21
4521.848236733882
 31
0.0
 12
2551.885123763437
 22
4481.848236733882
 32
0.0
 13
2551.885123763437
 23
4481.848236733882
 33
0.0
  0
MTEXT
  5
1C51E
330
1B986
100
AcDbEntity
  8
0
 62
     0
 48
12.0
100
AcDbMText
 10
2504.385123763436
 20
4548.034503649318
 30
0.0
 40
45.0
 41
0.0
 71
     5
 72
     1
  1
31
 11
0.0000000000000001
 21
1.0
 31
0.0
 73
     1
 44
1.0
  0
POINT
  5
1C51F
330
1B986
100
AcDbEntity
  8
Defpoints
 62
     0
 48
12.0
100
AcDbPoint
 10
2639.461419932871
 20
4614.220770564751
 30
0.0
  0
POINT
  5
1C520
330
1B986
100
AcDbEntity
  8
Defpoints
 62
     0
 48
12.0
100
AcDbPoint
 10
2639.461419932871
 20
4481.848236733882
 30
0.0
  0
POINT
  5
1C521
330
1B986
100
AcDbEntity
  8
Defpoints
 62
     0
 48
12.0
100
AcDbPoint
 10
2551.885123763437
 20
4481.848236733882
 30
0.0
  0
ENDBLK
  5
1B992
330
1B986
100
AcDbEntity
  8
0
 48
12.0
100
AcDbBlockEnd
  0
BLOCK
  5
1BD0C
330
1BD02
100
AcDbEntity
  8
0
 48
12.0
100
AcDbBlockBegin
  2
*D4
 70
     1
 10
0.0
 20
0.0
 30
0.0
  3
*D4
  1

  0
LINE
  5
1C4E8
330
1BD02
100
AcDbEntity
  8
0
 62
     0
 48
12.0
370
     5
100
AcDbLine
 10
3937.972414097352
 20
4741.057154648706
 30
0.0
 11
3937.972414097352
 21
5028.693604599215
 31
0.0
  0
LINE
  5
1C4E9
330
1BD02
100
AcDbEntity
  8
0
 62
     0
 48
12.0
370
     5
100
AcDbLine
 10
5937.972414097352
 20
4741.057154648706
 30
0.0
 11
5937.972414097352
 21
5028.693604599215
 31
0.0
  0
LINE
  5
1C4EA
330
1BD02
100
AcDbEntity
  8
0
 48
12.0
370
     5
100
AcDbLine
 10
3977.972414097352
 20
5003.693604599215
 30
0.0
 11
5897.972414097353
 21
5003.693604599215
 31
0.0
  0
SOLID
  5
1C4EB
330
1BD02
100
AcDbEntity
  8
0
 48
12.0
100
AcDbTrace
 10
3977.972414097352
 20
5010.360271265882
 30
0.0
 11
3977.972414097352
 21
4997.026937932549
 31
0.0
 12
3937.972414097352
 22
5003.693604599215
 32
0.0
 13
3937.972414097352
 23
5003.693604599215
 33
0.0
  0
SOLID
  5
1C4EC
330
1BD02
100
AcDbEntity
  8
0
 48
12.0
100
AcDbTrace
 10
5897.972414097353
 20
5010.360271265882
 30
0.0
 11
5897.972414097353
 21
4997.026937932549
 31
0.0
 12
5937.972414097352
 22
5003.693604599215
 32
0.0
 13
5937.972414097352
 23
5003.693604599215
 33
0.0
  0
MTEXT
  5
1C4ED
330
1BD02
100
AcDbEntity
  8
0
 62
     0
 48
12.0
100
AcDbMText
 10
4937.972414097352
 20
5051.193604599215
 30
0.0
 40
45.0
 41
0.0
 71
     5
 72
     1
  1
4000
 73
     1
 44
1.0
  0
POINT
  5
1C4EE
330
1BD02
100
AcDbEntity
  8
Defpoints
 62
     0
 48
12.0
100
AcDbPoint
 10
3937.972414097352
 20
4721.057154648707
 30
0.0
  0
POINT
  5
1C4EF
330
1BD02
100
AcDbEntity
  8
Defpoints
 62
     0
 48
12.0
100
AcDbPoint
 10
5937.972414097352
 20
4721.057154648707
 30
0.0
  0
POINT
  5
1C4F0
330
1BD02
100
AcDbEntity
  8
Defpoints
 62
     0
 48
12.0
100
AcDbPoint
 10
5937.972414097352
 20
5003.693604599215
 30
0.0
  0
ENDBLK
  5
1BD0D
330
1BD02
100
AcDbEntity
  8
0
 48
12.0
100
AcDbBlockEnd
  0
BLOCK
  5
1C05D
330
1C051
100
AcDbEntity
  8
0
 48
12.0
100
AcDbBlockBegin
  2
*D6
 70
     1
 10
0.0
 20
0.0
 30
0.0
  3
*D6
  1

  0
LINE
  5
1C505
330
1C051
100
AcDbEntity
  8
0
 62
     0
 48
12.0
370
     5
100
AcDbLine
 10
2694.889487307253
 20
3303.097382372369
 30
0.0
 11
2642.572804269507
 21
3303.097382372369
 31
0.0
  0
LINE
  5
1C506
330
1C051
100
AcDbEntity
  8
0
 62
     0
 48
12.0
370
     5
100
AcDbLine
 10
2694.889487307253
 20
3223.897382372371
 30
0.0
 11
2642.572804269507
 21
3223.897382372371
 31
0.0
  0
LINE
  5
1C507
330
1C051
100
AcDbEntity
  8
0
 48
12.0
370
     5
100
AcDbLine
 10
2667.572804269507
 20
3343.097382372369
 30
0.0
 11
2667.572804269507
 21
3383.097382372369
 31
0.0
  0
LINE
  5
1C508
330
1C051
100
AcDbEntity
  8
0
 48
12.0
370
     5
100
AcDbLine
 10
2667.572804269507
 20
3183.897382372371
 30
0.0
 11
2667.572804269507
 21
3143.897382372371
 31
0.0
  0
MTEXT
  5
1C509
330
1C051
100
AcDbEntity
  8
0
 62
     0
 48
12.0
100
AcDbMText
 10
2588.07080558882
 20
3265.461218127647
 30
0.0
 40
45.0
 41
0.0
 71
     5
 72
     1
  1
%%c20
 11
0.0000000000000001
 21
1.0
 31
0.0
 73
     1
 44
1.0
  0
LINE
  5
1C50A
330
1C051
100
AcDbEntity
  8
0
 48
12.0
370
     5
100
AcDbLine
 10
2667.572804269507
 20
3303.097382372369
 30
0.0
 11
2667.572804269507
 21
3223.897382372371
 31
0.0
  0
SOLID
  5
1C50B
330
1C051
100
AcDbEntity
  8
0
 48
12.0
100
AcDbTrace
 10
2660.90613760284
 20
3343.097382372369
 30
0.0
 11
2674.239470936174
 21
3343.097382372369
 31
0.0
 12
2667.572804269507
 22
3303.097382372369
 32
0.0
 13
2667.572804269507
 23
3303.097382372369
 33
0.0
  0
SOLID
  5
1C50C
330
1C051
100
AcDbEntity
  8
0
 48
12.0
100
AcDbTrace
 10
2660.90613760284
 20
3183.897382372371
 30
0.0
 11
2674.239470936174
 21
3183.897382372371
 31
0.0
 12
2667.572804269507
 22
3223.897382372371
 32
0.0
 13
2667.572804269507
 23
3223.897382372371
 33
0.0
  0
POINT
  5
1C50D
330
1C051
100
AcDbEntity
  8
Defpoints
 62
     0
 48
12.0
100
AcDbPoint
 10
2714.889487307253
 20
3303.097382372369
 30
0.0
  0
POINT
  5
1C50E
330
1C051
100
AcDbEntity
  8
Defpoints
 62
     0
 48
12.0
100
AcDbPoint
 10
2714.889487307253
 20
3223.897382372371
 30
0.0
  0
POINT
  5
1C50F
330
1C051
100
AcDbEntity
  8
Defpoints
 62
     0
 48
12.0
100
AcDbPoint
 10
2667.572804269507
 20
3223.897382372371
 30
0.0
  0
ENDBLK
  5
1C05E
330
1C051
100
AcDbEntity
  8
0
 48
12.0
100
AcDbBlockEnd
  0
BLOCK
  5
1C06B
330
1C05F
100
AcDbEntity
  8
0
 48
12.0
100
AcDbBlockBegin
  2
*D7
 70
     1
 10
0.0
 20
0.0
 30
0.0
  3
*D7
  1

  0
LINE
  5
1C4FA
330
1C05F
100
AcDbEntity
  8
0
 62
     0
 48
12.0
370
     5
100
AcDbLine
 10
2859.889487307254
 20
3291.497382372371
 30
0.0
 11
2881.823557919108
 21
3291.497382372371
 31
0.0
  0
LINE
  5
1C4FB
330
1C05F
100
AcDbEntity
  8
0
 62
     0
 48
12.0
370
     5
100
AcDbLine
 10
2859.889487307254
 20
3235.497382372371
 30
0.0
 11
2881.823557919108
 21
3235.497382372371
 31
0.0
  0
LINE
  5
1C4FC
330
1C05F
100
AcDbEntity
  8
0
 48
12.0
370
     5
100
AcDbLine
 10
2856.823557919108
 20
3331.497382372371
 30
0.0
 11
2856.823557919108
 21
3371.497382372371
 31
0.0
  0
LINE
  5
1C4FD
330
1C05F
100
AcDbEntity
  8
0
 48
12.0
370
     5
100
AcDbLine
 10
2856.823557919108
 20
3195.497382372371
 30
0.0
 11
2856.823557919108
 21
3155.497382372371
 31
0.0
  0
MTEXT
  5
1C4FE
330
1C05F
100
AcDbEntity
  8
0
 62
     0
 48
12.0
100
AcDbMText
 10
2820.969406501666
 20
3402.364055342018
 30
0.0
 40
45.0
 41
0.0
 71
     5
 72
     1
  1
%%c14
 11
0.0000000000000001
 21
1.0
 31
0.0
 73
     1
 44
1.0
  0
LINE
  5
1C4FF
330
1C05F
100
AcDbEntity
  8
0
 48
12.0
370
     5
100
AcDbLine
 10
2856.823557919108
 20
3291.497382372371
 30
0.0
 11
2856.823557919108
 21
3235.497382372371
 31
0.0
  0
SOLID
  5
1C500
330
1C05F
100
AcDbEntity
  8
0
 48
12.0
100
AcDbTrace
 10
2850.156891252442
 20
3331.497382372371
 30
0.0
 11
2863.490224585775
 21
3331.497382372371
 31
0.0
 12
2856.823557919108
 22
3291.497382372371
 32
0.0
 13
2856.823557919108
 23
3291.497382372371
 33
0.0
  0
SOLID
  5
1C501
330
1C05F
100
AcDbEntity
  8
0
 48
12.0
100
AcDbTrace
 10
2850.156891252442
 20
3195.497382372371
 30
0.0
 11
2863.490224585775
 21
3195.497382372371
 31
0.0
 12
2856.823557919108
 22
3235.497382372371
 32
0.0
 13
2856.823557919108
 23
3235.497382372371
 33
0.0
  0
POINT
  5
1C502
330
1C05F
100
AcDbEntity
  8
Defpoints
 62
     0
 48
12.0
100
AcDbPoint
 10
2839.889487307255
 20
3291.497382372371
 30
0.0
  0
POINT
  5
1C503
330
1C05F
100
AcDbEntity
  8
Defpoints
 62
     0
 48
12.0
100
AcDbPoint
 10
2839.889487307255
 20
3235.497382372371
 30
0.0
  0
POINT
  5
1C504
330
1C05F
100
AcDbEntity
  8
Defpoints
 62
     0
 48
12.0
100
AcDbPoint
 10
2856.823557919108
 20
3235.497382372371
 30
0.0
  0
ENDBLK
  5
1C06C
330
1C05F
100
AcDbEntity
  8
0
 48
12.0
100
AcDbBlockEnd
  0
BLOCK
  5
1C48C
330
1C482
100
AcDbEntity
  8
0
 48
12.0
100
AcDbBlockBegin
  2
*D8
 70
     1
 10
0.0
 20
0.0
 30
0.0
  3
*D8
  1

  0
LINE
  5
1C4F1
330
1C482
100
AcDbEntity
  8
0
 62
     0
 48
12.0
370
     5
100
AcDbLine
 10
3917.972414097352
 20
4690.057154648706
 30
0.0
 11
3747.86095098034
 21
4690.057154648706
 31
0.0
  0
LINE
  5
1C4F2
330
1C482
100
AcDbEntity
  8
0
 62
     0
 48
12.0
370
     5
100
AcDbLine
 10
3917.972414097352
 20
1711.057154648707
 30
0.0
 11
3747.86095098034
 21
1711.057154648707
 31
0.0
  0
LINE
  5
1C4F3
330
1C482
100
AcDbEntity
  8
0
 48
12.0
370
     5
100
AcDbLine
 10
3772.86095098034
 20
4650.057154648706
 30
0.0
 11
3772.860950980339
 21
1751.057154648707
 31
0.0
  0
SOLID
  5
1C4F4
330
1C482
100
AcDbEntity
  8
0
 48
12.0
100
AcDbTrace
 10
3766.194284313674
 20
4650.057154648706
 30
0.0
 11
3779.527617647007
 21
4650.057154648706
 31
0.0
 12
3772.86095098034
 22
4690.057154648706
 32
0.0
 13
3772.86095098034
 23
4690.057154648706
 33
0.0
  0
SOLID
  5
1C4F5
330
1C482
100
AcDbEntity
  8
0
 48
12.0
100
AcDbTrace
 10
3766.194284313673
 20
1751.057154648707
 30
0.0
 11
3779.527617647007
 21
1751.057154648707
 31
0.0
 12
3772.860950980339
 22
1711.057154648707
 32
0.0
 13
3772.860950980339
 23
1711.057154648707
 33
0.0
  0
MTEXT
  5
1C4F6
330
1C482
100
AcDbEntity
  8
0
 62
     0
 48
12.0
100
AcDbMText
 10
3725.36095098034
 20
3200.557154648707
 30
0.0
 40
45.0
 41
0.0
 71
     5
 72
     1
  1
6000
 11
0.0000000000000001
 21
1.0
 31
0.0
 73
     1
 44
1.0
  0
POINT
  5
1C4F7
330
1C482
100
AcDbEntity
  8
Defpoints
 62
     0
 48
12.0
100
AcDbPoint
 10
3937.972414097352
 20
4690.057154648706
 30
0.0
  0
POINT
  5
1C4F8
330
1C482
100
AcDbEntity
  8
Defpoints
 62
     0
 48
12.0
100
AcDbPoint
 10
3937.972414097351
 20
1711.057154648707
 30
0.0
  0
POINT
  5
1C4F9
330
1C482
100
AcDbEntity
  8
Defpoints
 62
     0
 48
12.0
100
AcDbPoint
 10
3772.860950980339
 20
1711.057154648707
 30
0.0
  0
ENDBLK
  5
1C48D
330
1C482
100
AcDbEntity
  8
0
 48
12.0
100
AcDbBlockEnd
  0
ENDSEC
  0
SECTION
  2
ENTITIES
  0
LINE
  5
2B
330
1F
100
AcDbEntity
  8
0
100
AcDbLine
 10
573.1600046940402
 20
301.319474626167
 30
0.0
 11
8373.160004694041
 21
301.319474626167
 31
0.0
  0
LINE
  5
2C
330
1F
100
AcDbEntity
  8
2
 62
     0
100
AcDbLine
 10
8373.160004694041
 20
301.319474626167
 30
0.0
 11
8373.160004694041
 21
5801.319474626167
 31
0.0
  0
LINE
  5
2D
330
1F
100
AcDbEntity
  8
2
 62
     0
100
AcDbLine
 10
8373.160004694041
 20
5801.319474626167
 30
0.0
 11
573.1600046940402
 21
5801.319474626168
 31
0.0
  0
LINE
  5
2E
330
1F
100
AcDbEntity
  8
2
 62
     0
100
AcDbLine
 10
573.1600046940402
 20
5801.319474626168
 30
0.0
 11
573.1600046940402
 21
301.319474626167
 31
0.0
  0
LINE
  5
110
330
1F
100
AcDbEntity
  8
0
 62
     0
 48
25.0
100
AcDbLine
 10
4340.445395237529
 20
501.3194746261669
 30
0.0
 11
4733.44539523753
 21
501.3194746261669
 31
0.0
  0
LINE
  5
112
330
1F
100
AcDbEntity
  8
２
 62
     0
370
    20
100
AcDbLine
 10
8373.160004694041
 20
301.319474626167
 30
0.0
 11
873.1600046940402
 21
301.3194746261688
 31
0.0
  0
LINE
  5
115
330
1F
100
AcDbEntity
  8
１
 62
     0
 48
25.0
100
AcDbLine
 10
3285.86752289331
 20
351.3194746261642
 30
0.0
 11
666.1579842031423
 21
351.3194746261634
 31
0.0
  0
LINE
  5
116
330
1F
100
AcDbEntity
  8
１
 62
     0
 48
25.0
100
AcDbLine
 10
3285.86752289331
 20
451.3194746261669
 30
0.0
 11
666.1579842031423
 21
451.319474626167
 31
0.0
  0
LINE
  5
117
330
1F
100
AcDbEntity
  8
0
 62
     0
100
AcDbLine
 10
873.1600046940402
 20
301.319474626167
 30
0.0
 11
573.1600046940402
 21
301.319474626167
 31
0.0
  0
LINE
  5
119
330
1F
100
AcDbEntity
  8
２
 62
     0
 48
25.0
100
AcDbLine
 10
666.1579842031423
 20
501.3194746261669
 30
0.0
 11
666.1579842031423
 21
301.319474626167
 31
0.0
  0
LINE
  5
120
330
1F
100
AcDbEntity
  8
２
 62
     0
 48
25.0
100
AcDbLine
 10
3285.86752289331
 20
501.3194746261669
 30
0.0
 11
4340.445395237529
 21
501.3194746261669
 31
0.0
  0
LINE
  5
121
330
1F
100
AcDbEntity
  8
１
 62
     0
 48
25.0
100
AcDbLine
 10
3285.86752289331
 20
401.3194746261669
 30
0.0
 11
4340.445395237529
 21
401.3194746261669
 31
0.0
  0
MTEXT
  5
122
330
1F
100
AcDbEntity
  8
１
 62
     0
 48
25.0
100
AcDbMText
 10
3482.347372893309
 20
351.319474626167
 30
0.0
 40
45.0
 41
392.9597
 71
     5
 72
     5
  1
{\fMS UI Gothic|b0|i0|c128|p17;作図者}
 73
     1
 44
1.0
  0
MTEXT
  5
123
330
1F
100
AcDbEntity
  8
１
 62
     0
 48
25.0
100
AcDbMText
 10
3489.57747289331
 20
451.3194746261669
 30
0.0
 40
45.0
 41
407.4199
 71
     5
 72
     5
  1
{\fMS UI Gothic|b0|i0|c128|p17;作図日}
 73
     1
 44
1.0
  0
LINE
  5
124
330
1F
100
AcDbEntity
  8
２
 62
     0
 48
25.0
100
AcDbLine
 10
3285.86752289331
 20
401.3194746261606
 30
0.0
 11
3285.86752289331
 21
301.3194746261688
 31
0.0
  0
LINE
  5
125
330
1F
100
AcDbEntity
  8
２
 62
     0
 48
25.0
100
AcDbLine
 10
3285.86752289331
 20
501.3194746261669
 30
0.0
 11
3285.86752289331
 21
301.3194746261688
 31
0.0
  0
LINE
  5
126
330
1F
100
AcDbEntity
  8
0
 62
     0
 48
25.0
100
AcDbLine
 10
3285.86752289331
 20
501.3194746261669
 30
0.0
 11
3285.86752289331
 21
401.3194746261669
 31
0.0
  0
LINE
  5
127
330
1F
100
AcDbEntity
  8
２
 62
     0
 48
25.0
100
AcDbLine
 10
3678.827200362372
 20
501.3194746261669
 30
0.0
 11
3678.827200362372
 21
301.3194746261679
 31
0.0
  0
LINE
  5
12A
330
1F
100
AcDbEntity
  8
２
 62
     0
 48
25.0
100
AcDbLine
 10
4340.445395237529
 20
501.3194746261679
 30
0.0
 11
4340.445395237529
 21
301.3194746261688
 31
0.0
  0
LINE
  5
12B
330
1F
100
AcDbEntity
  8
１
 62
     0
 48
25.0
100
AcDbLine
 10
4733.44539523753
 20
401.3194746261669
 30
0.0
 11
6940.799542333171
 21
401.3194746261669
 31
0.0
  0
LINE
  5
12C
330
1F
100
AcDbEntity
  8
0
 62
     0
 48
25.0
100
AcDbLine
 10
4963.195390442862
 20
501.3194746261669
 30
0.0
 11
6152.110390442862
 21
501.3194746261669
 31
0.0
  0
MTEXT
  5
12D
330
1F
100
AcDbEntity
  8
１
 62
     0
 48
25.0
100
AcDbMText
 10
4929.94539523753
 20
351.319474626167
 30
0.0
 40
45.0
 41
393.0
 71
     5
 72
     5
  1
{\fMS UI Gothic|b0|i0|c128|p17;図　　　名}
 73
     1
 44
1.0
  0
MTEXT
  5
12E
330
1F
100
AcDbEntity
  8
１
 62
     0
 48
25.0
100
AcDbMText
 10
4929.94539523753
 20
451.3194746261669
 30
0.0
 40
45.0
 41
393.0
 71
     5
 72
     5
  1
{\fMS UI Gothic|b0|i0|c128|p17;物件名称}
 73
     1
 44
1.0
  0
LINE
  5
12F
330
1F
100
AcDbEntity
  8
0
 62
     0
 48
25.0
100
AcDbLine
 10
4733.44539523753
 20
501.3194746261669
 30
0.0
 11
5126.44539523753
 21
501.3194746261669
 31
0.0
  0
LINE
  5
131
330
1F
100
AcDbEntity
  8
２
 62
     0
 48
25.0
100
AcDbLine
 10
4733.44539523753
 20
501.3194746261669
 30
0.0
 11
4733.44539523753
 21
301.3194746261679
 31
0.0
  0
LINE
  5
132
330
1F
100
AcDbEntity
  8
0
 62
     0
 48
25.0
100
AcDbLine
 10
4733.44539523753
 20
501.3194746261669
 30
0.0
 11
4733.44539523753
 21
301.3194746261679
 31
0.0
  0
LINE
  5
133
330
1F
100
AcDbEntity
  8
２
 62
     0
 48
25.0
100
AcDbLine
 10
5126.44539523753
 20
501.3194746261669
 30
0.0
 11
5126.44539523753
 21
301.319474626167
 31
0.0
  0
MTEXT
  5
134
330
1F
100
AcDbEntity
  8
１
 62
     0
 48
25.0
100
AcDbMText
 10
7857.093234368085
 20
401.3194746261669
 30
0.0
 40
75.0
 41
1032.1335
 71
     5
 72
     5
  1
{\fMS UI Gothic|b0|i0|c128|p17;株式会社 アルティマ}
 73
     1
 44
1.0
  0
LINE
  5
138
330
1F
100
AcDbEntity
  8
2
 62
     0
 48
25.0
100
AcDbLine
 10
573.1600046940402
 20
501.3194746261669
 30
0.0
 11
8373.160004694041
 21
501.3194746261669
 31
0.0
  0
LINE
  5
13A
330
1F
100
AcDbEntity
  8
１
 62
     0
 48
25.0
100
AcDbLine
 10
666.1579842031423
 20
401.3194746261665
 30
0.0
 11
3285.86752289331
 21
401.3194746261606
 31
0.0
  0
LINE
  5
13D
330
1F
100
AcDbEntity
  8
２
 62
     0
370
    20
100
AcDbLine
 10
573.1600046940402
 20
301.319474626167
 30
0.0
 11
8373.160004694041
 21
301.319474626167
 31
0.0
  0
MTEXT
  5
140
330
1F
100
AcDbEntity
  8
１
 62
     0
 48
20.0
100
AcDbMText
 10
619.6590046940403
 20
401.3194746261669
 30
0.0
 40
45.0
 41
92.99799999999999
 71
     5
 72
     5
  1
{\fMS UI Gothic|b0|i0|c128|p17;記\P事}
 73
     1
 44
1.0
  0
LINE
  5
148
330
1F
100
AcDbEntity
  8
1
 48
20.0
100
AcDbLine
 10
6940.799542333171
 20
501.319474626167
 30
0.0
 11
6940.799542333171
 21
301.3194746261673
 31
0.0
  0
LINE
  5
149
330
1F
100
AcDbEntity
  8
２
 62
     0
 48
20.0
100
AcDbLine
 10
6940.799542333171
 20
501.3194746261669
 30
0.0
 11
6940.799542333171
 21
301.3194746261673
 31
0.0
  0
ARC
  5
246
102
{ACAD_REACTORS
330
25D
102
}
330
1F
100
AcDbEntity
  8
Object
 62
     0
 48
0.3
100
AcDbCircle
 10
7297.209912067147
 20
376.0429704794555
 30
0.0
 40
32.4
100
AcDbArc
 50
180.0
 51
257.3448222610501
  0
LINE
  5
247
102
{ACAD_REACTORS
330
249
102
}
330
1F
100
AcDbEntity
  8
Object
 62
     0
 48
0.3
100
AcDbLine
 10
7123.213589567001
 20
460.1503417338672
 30
0.0
 11
7144.813589567002
 21
460.1503417338672
 31
0.0
  0
ARC
  5
248
102
{ACAD_REACTORS
330
249
102
}
330
1F
100
AcDbEntity
  8
Object
 62
     0
 48
0.3
100
AcDbCircle
 10
7112.413589567002
 20
375.9103417338685
 30
0.0
 40
32.4
100
AcDbArc
 50
180.0
 51
0.0
  0
HATCH
  5
249
330
1F
100
AcDbEntity
  8
Object
 62
     0
 48
0.3
100
AcDbHatch
 10
0.0
 20
0.0
 30
0.0
210
0.0
220
0.0
230
1.0
  2
ANSI31
 70
     0
 71
     1
 91
        1
 92
        1
 93
        8
 72
     1
 10
7101.613589567001
 20
460.1503417338672
 11
7080.013589567002
 21
460.1503417338672
 72
     1
 10
7080.013589567002
 20
460.1503417338672
 11
7080.013589567002
 21
375.9103417338685
 72
     2
 10
7112.413589567002
 20
375.9103417338685
 40
32.4
 50
180.0
 51
360.0
 73
     1
 72
     1
 10
7144.813589567002
 20
375.9103417338685
 11
7144.813589567002
 21
460.1503417338672
 72
     1
 10
7144.813589567002
 20
460.1503417338672
 11
7123.213589567001
 21
460.1503417338672
 72
     1
 10
7123.213589567001
 20
460.1503417338672
 11
7123.213589567001
 21
375.9103417338685
 72
     2
 10
7112.413589567002
 20
375.9103417338685
 40
10.8
 50
360.0
 51
540.0
 73
     0
 72
     1
 10
7101.613589567001
 20
375.9103417338685
 11
7101.613589567001
 21
460.1503417338672
 97
        8
330
24F
330
24A
330
248
330
251
330
247
330
24C
330
24D
330
24B
 75
     0
 76
     1
 52
0.0
 41
0.09
 77
     0
 78
     1
 53
45.0
 43
5859.711144608137
 44
-477.3585758446554
 45
-0.2020557627240559
 46
0.202055762724056
 79
     0
 98
        1
 10
5859.711144608137
 20
-477.3585758446554
  0
LINE
  5
24A
102
{ACAD_REACTORS
330
249
102
}
330
1F
100
AcDbEntity
  8
Object
 62
     0
 48
0.3
100
AcDbLine
 10
7080.013589567002
 20
375.9103417338685
 30
0.0
 11
7080.013589567002
 21
460.1503417338672
 31
0.0
  0
LINE
  5
24B
102
{ACAD_REACTORS
330
249
102
}
330
1F
100
AcDbEntity
  8
Object
 62
     0
 48
0.3
100
AcDbLine
 10
7101.613589567001
 20
460.1503417338672
 30
0.0
 11
7101.613589567001
 21
375.9103417338685
 31
0.0
  0
LINE
  5
24C
102
{ACAD_REACTORS
330
249
102
}
330
1F
100
AcDbEntity
  8
Object
 62
     0
 48
0.3
100
AcDbLine
 10
7123.213589567001
 20
460.1503417338672
 30
0.0
 11
7123.213589567001
 21
375.9103417338685
 31
0.0
  0
ARC
  5
24D
102
{ACAD_REACTORS
330
249
102
}
330
1F
100
AcDbEntity
  8
Object
 62
     0
 48
0.3
100
AcDbCircle
 10
7112.413589567002
 20
375.9103417338685
 30
0.0
 40
10.8
100
AcDbArc
 50
180.0
 51
0.0
  0
LINE
  5
24E
330
1F
100
AcDbEntity
  8
Object
 62
     0
 48
0.3
100
AcDbLine
 10
7080.013589567002
 20
460.1503417338672
 30
0.0
 11
7101.613589567001
 21
460.1503417338672
 31
0.0
  0
LINE
  5
24F
102
{ACAD_REACTORS
330
249
102
}
330
1F
100
AcDbEntity
  8
Object
 62
     0
 48
0.3
100
AcDbLine
 10
7101.613589567001
 20
460.1503417338672
 30
0.0
 11
7080.013589567002
 21
460.1503417338672
 31
0.0
  0
LINE
  5
250
102
{ACAD_REACTORS
330
253
102
}
330
1F
100
AcDbEntity
  8
Object
 62
     0
 48
0.3
100
AcDbLine
 10
7202.413589567003
 20
460.1503417338672
 30
0.0
 11
7202.413589567003
 21
365.1103417338686
 31
0.0
  0
LINE
  5
251
102
{ACAD_REACTORS
330
249
102
}
330
1F
100
AcDbEntity
  8
Object
 62
     0
 48
0.3
100
AcDbLine
 10
7144.813589567002
 20
460.1503417338672
 30
0.0
 11
7144.813589567002
 21
375.9103417338685
 31
0.0
  0
LINE
  5
252
102
{ACAD_REACTORS
330
253
102
}
330
1F
100
AcDbEntity
  8
Object
 62
     0
 48
0.3
100
AcDbLine
 10
7180.813589567001
 20
460.1503417338672
 30
0.0
 11
7180.813589567001
 21
343.5103417338684
 31
0.0
  0
HATCH
  5
253
330
1F
100
AcDbEntity
  8
Object
 62
     0
 48
0.3
100
AcDbHatch
 10
0.0
 20
0.0
 30
0.0
210
0.0
220
0.0
230
1.0
  2
ANSI31
 70
     0
 71
     1
 91
        1
 92
        1
 93
        6
 72
     1
 10
7180.813589567001
 20
460.1503417338672
 11
7202.413589567003
 21
460.1503417338672
 72
     1
 10
7202.413589567003
 20
460.1503417338672
 11
7202.413589567003
 21
365.1103417338686
 72
     1
 10
7202.413589567003
 20
365.1103417338686
 11
7245.613589567003
 21
365.1103417338686
 72
     1
 10
7245.613589567003
 20
365.1103417338686
 11
7245.613589567003
 21
343.5103417338684
 72
     1
 10
7245.613589567003
 20
343.5103417338684
 11
7180.813589567001
 21
343.5103417338684
 72
     1
 10
7180.813589567001
 20
343.5103417338684
 11
7180.813589567001
 21
460.1503417338672
 97
        6
330
257
330
250
330
256
330
255
330
254
330
252
 75
     0
 76
     1
 52
0.0
 41
0.09
 77
     0
 78
     1
 53
45.0
 43
5859.711144608137
 44
-477.3585758446554
 45
-0.2020557627240559
 46
0.202055762724056
 79
     0
 98
        1
 10
5859.711144608137
 20
-477.3585758446554
  0
LINE
  5
254
102
{ACAD_REACTORS
330
253
102
}
330
1F
100
AcDbEntity
  8
Object
 62
     0
 48
0.3
100
AcDbLine
 10
7180.813589567001
 20
343.5103417338684
 30
0.0
 11
7245.613589567003
 21
343.5103417338684
 31
0.0
  0
LINE
  5
255
102
{ACAD_REACTORS
330
253
102
}
330
1F
100
AcDbEntity
  8
Object
 62
     0
 48
0.3
100
AcDbLine
 10
7245.613589567003
 20
343.5103417338684
 30
0.0
 11
7245.613589567003
 21
365.1103417338686
 31
0.0
  0
LINE
  5
256
102
{ACAD_REACTORS
330
253
102
}
330
1F
100
AcDbEntity
  8
Object
 62
     0
 48
0.3
100
AcDbLine
 10
7245.613589567003
 20
365.1103417338686
 30
0.0
 11
7202.413589567003
 21
365.1103417338686
 31
0.0
  0
LINE
  5
257
102
{ACAD_REACTORS
330
253
102
}
330
1F
100
AcDbEntity
  8
Object
 62
     0
 48
0.3
100
AcDbLine
 10
7180.813589567001
 20
460.1503417338672
 30
0.0
 11
7202.413589567003
 21
460.1503417338672
 31
0.0
  0
LINE
  5
258
102
{ACAD_REACTORS
330
25D
102
}
330
1F
100
AcDbEntity
  8
Object
 62
     0
 48
0.3
100
AcDbLine
 10
7329.609912067148
 20
427.7503417338671
 30
0.0
 11
7329.609912067148
 21
415.2725519677517
 31
0.0
  0
LINE
  5
259
330
1F
100
AcDbEntity
  8
Object
 62
     0
 48
0.3
100
AcDbLine
 10
7286.409912067147
 20
376.0429704794555
 30
0.0
 11
7286.409912067147
 21
427.7503417338671
 31
0.0
  0
LINE
  5
25A
102
{ACAD_REACTORS
330
25D
102
}
330
1F
100
AcDbEntity
  8
Object
 62
     0
 48
0.3
100
AcDbLine
 10
7264.809912067147
 20
374.8035131265828
 30
0.0
 11
7264.809912067147
 21
427.7503417338671
 31
0.0
  0
LINE
  5
25B
102
{ACAD_REACTORS
330
25D
102
}
330
1F
100
AcDbEntity
  8
Object
 62
     0
 48
0.3
100
AcDbLine
 10
7308.009912067148
 20
415.2725519677517
 30
0.0
 11
7308.009912067148
 21
427.7503417338671
 31
0.0
  0
LINE
  5
25C
102
{ACAD_REACTORS
330
25D
102
}
330
1F
100
AcDbEntity
  8
Object
 62
     0
 48
0.3
100
AcDbLine
 10
7286.409912067147
 20
376.0429704794555
 30
0.0
 11
7286.409912067147
 21
427.7503417338671
 31
0.0
  0
HATCH
  5
25D
330
1F
100
AcDbEntity
  8
Object
 62
     0
 48
0.3
100
AcDbHatch
 10
0.0
 20
0.0
 30
0.0
210
0.0
220
0.0
230
1.0
  2
ANSI31
 70
     0
 71
     1
 91
        1
 92
        7
 72
     1
 73
     1
 93
       17
 10
7286.409912067147
 20
376.0429704794555
 42
0.0
 10
7286.409912067147
 20
427.7503417338671
 42
-1.0
 10
7308.009912067148
 20
427.7503417338671
 42
0.0
 10
7308.009912067148
 20
415.2725519677518
 42
0.0
 10
7329.609912067148
 20
415.2725519677517
 42
0.0
 10
7329.609912067148
 20
427.7503417338671
 42
1.0
 10
7264.809912067147
 20
427.7503417338671
 42
0.0
 10
7264.809912067147
 20
376.042970479455
 42
0.3509045778194451
 10
7290.111623503576
 20
344.4300886198675
 42
0.407199901548665
 10
7308.009912067148
 20
354.9558236483938
 42
0.0
 10
7308.009912067146
 20
343.5103417338684
 42
0.0
 10
7329.609912067148
 20
343.5103417338684
 42
0.0
 10
7329.609912067148
 20
402.2906781893873
 42
0.0
 10
7297.240342503669
 20
402.2906781893873
 42
0.0
 10
7297.240342503669
 20
380.6906781893871
 42
0.0
 10
7308.009912067148
 20
380.6906781893871
 42
0.0
 10
7308.009912067148
 20
376.0429704794555
 42
-1.0
 97
       17
330
25F
330
262
330
266
330
267
330
268
330
25C
330
26D
330
25B
330
25E
330
258
330
26C
330
25A
330
246
330
269
330
26A
330
261
330
26B
 75
     0
 76
     1
 52
0.0
 41
0.09
 77
     0
 78
     1
 53
45.0
 43
5859.711144608137
 44
-477.3585758446554
 45
-0.2020557627240559
 46
0.202055762724056
 79
     0
 47
0.0407053698821989
 98
        1
 10
7295.019301946647
 20
358.4035315374867
  0
LINE
  5
25E
102
{ACAD_REACTORS
330
25D
102
}
330
1F
100
AcDbEntity
  8
Object
 62
     0
 48
0.3
100
AcDbLine
 10
7308.009912067148
 20
415.2725519677517
 30
0.0
 11
7329.609912067148
 21
415.2725519677517
 31
0.0
  0
LINE
  5
25F
102
{ACAD_REACTORS
330
25D
102
}
330
1F
100
AcDbEntity
  8
Object
 62
     0
 48
0.3
100
AcDbLine
 10
7329.609912067148
 20
402.2906781893873
 30
0.0
 11
7297.240342503669
 21
402.2906781893873
 31
0.0
  0
LINE
  5
260
330
1F
100
AcDbEntity
  8
Object
 62
     0
 48
0.3
100
AcDbLine
 10
7308.009912067148
 20
343.5103417338684
 30
0.0
 11
7329.609912067148
 21
343.5103417338684
 31
0.0
  0
LINE
  5
261
102
{ACAD_REACTORS
330
25D
102
}
330
1F
100
AcDbEntity
  8
Object
 62
     0
 48
0.3
100
AcDbLine
 10
7329.609912067148
 20
343.5103417338684
 30
0.0
 11
7308.009912067148
 21
343.5103417338684
 31
0.0
  0
LINE
  5
262
102
{ACAD_REACTORS
330
25D
102
}
330
1F
100
AcDbEntity
  8
Object
 62
     0
 48
0.3
100
AcDbLine
 10
7297.240342503669
 20
402.2906781893873
 30
0.0
 11
7297.240342503669
 21
380.6906781893871
 31
0.0
  0
LINE
  5
263
330
1F
100
AcDbEntity
  8
Object
 62
     0
 48
0.3
100
AcDbLine
 10
7297.240342503669
 20
380.6906781893871
 30
0.0
 11
7308.009912067148
 21
380.6906781893871
 31
0.0
  0
LINE
  5
264
330
1F
100
AcDbEntity
  8
Object
 62
     0
 48
0.3
100
AcDbLine
 10
7308.009912067148
 20
376.0429704794555
 30
0.0
 11
7308.009912067148
 21
380.6906781893871
 31
0.0
  0
LINE
  5
265
330
1F
100
AcDbEntity
  8
Object
 62
     0
 48
0.3
100
AcDbLine
 10
7308.009912067148
 20
380.6906781893871
 30
0.0
 11
7308.009912067148
 21
375.694500600521
 31
0.0
  0
LINE
  5
266
102
{ACAD_REACTORS
330
25D
102
}
330
1F
100
AcDbEntity
  8
Object
 62
     0
 48
0.3
100
AcDbLine
 10
7297.240342503669
 20
380.6906781893871
 30
0.0
 11
7308.009912067148
 21
380.6906781893871
 31
0.0
  0
LINE
  5
267
102
{ACAD_REACTORS
330
25D
102
}
330
1F
100
AcDbEntity
  8
Object
 62
     0
 48
0.3
100
AcDbLine
 10
7308.009912067148
 20
380.6906781893871
 30
0.0
 11
7308.009912067148
 21
376.0429704794555
 31
0.0
  0
ARC
  5
268
102
{ACAD_REACTORS
330
25D
102
}
330
1F
100
AcDbEntity
  8
Object
 62
     0
 48
0.3
100
AcDbCircle
 10
7297.209912067147
 20
376.0429704794555
 30
0.0
 40
10.8
100
AcDbArc
 50
180.0
 51
0.0
  0
ARC
  5
269
102
{ACAD_REACTORS
330
25D
102
}
330
1F
100
AcDbEntity
  8
Object
 62
     0
 48
0.3
100
AcDbCircle
 10
7293.670022142595
 20
358.8595483792871
 30
0.0
 40
14.86174652666639
100
AcDbArc
 50
256.1468978562162
 51
344.7714912032799
  0
LINE
  5
26A
102
{ACAD_REACTORS
330
25D
102
}
330
1F
100
AcDbEntity
  8
Object
 62
     0
 48
0.3
100
AcDbLine
 10
7308.009912067148
 20
354.9558236483567
 30
0.0
 11
7308.009912067148
 21
343.5103417338684
 31
0.0
  0
LINE
  5
26B
102
{ACAD_REACTORS
330
25D
102
}
330
1F
100
AcDbEntity
  8
Object
 62
     0
 48
0.3
100
AcDbLine
 10
7329.609912067148
 20
402.2906781893839
 30
0.0
 11
7329.609912067148
 21
343.5103417338684
 31
0.0
  0
ARC
  5
26C
102
{ACAD_REACTORS
330
25D
102
}
330
1F
100
AcDbEntity
  8
Object
 62
     0
 48
0.3
100
AcDbCircle
 10
7297.209912067147
 20
427.7503417338671
 30
0.0
 40
32.4
100
AcDbArc
 50
0.0
 51
180.0
  0
ARC
  5
26D
102
{ACAD_REACTORS
330
25D
102
}
330
1F
100
AcDbEntity
  8
Object
 62
     0
 48
0.3
100
AcDbCircle
 10
7297.209912067147
 20
427.7503417338671
 30
0.0
 40
10.8
100
AcDbArc
 50
0.0
 51
180.0
  0
MTEXT
  5
286
330
1F
100
AcDbEntity
  8
0
 48
20.0
100
AcDbMText
 10
2284.364107166581
 20
4748.824262872029
 30
0.0
 40
2.5
 41
0.0
 71
     1
 72
     5
  1

 73
     1
 44
1.0
  0
MTEXT
  5
28E
330
1F
100
AcDbEntity
  8
0
 48
20.0
100
AcDbMText
 10
2363.422322777649
 20
3919.355080373121
 30
0.0
 40
2.5
 41
2713.437
 71
     1
 72
     5
  1

 73
     1
 44
1.0
  0
MTEXT
  5
28F
330
1F
100
AcDbEntity
  8
0
 48
20.0
100
AcDbMText
 10
2513.751252987534
 20
4182.31548624136
 30
0.0
 40
2.5
 41
0.0
 71
     1
 72
     5
  1

 73
     1
 44
1.0
  0
MTEXT
  5
290
330
1F
100
AcDbEntity
  8
0
 48
20.0
100
AcDbMText
 10
3274.762888724799
 20
3877.197467654254
 30
0.0
 40
2.5
 41
0.0
 71
     1
 72
     5
  1

 73
     1
 44
1.0
  0
MTEXT
  5
406
330
1F
100
AcDbEntity
  8
0
100
AcDbMText
 10
3085.025203387708
 20
3282.374582518992
 30
0.0
 40
2.5
 41
0.625
 71
     1
 72
     1
  1

 73
     1
 44
1.0
  0
MTEXT
  5
5B9
330
1F
100
AcDbEntity
  8
0
 48
20.0
100
AcDbMText
 10
2533.682300930144
 20
4903.882850892638
 30
0.0
 40
45.0
 41
0.0
 71
     1
 72
     1
  1

 73
     1
 44
1.0
  0
MTEXT
  5
67D
330
1F
100
AcDbEntity
  8
１
 62
     1
 48
20.0
100
AcDbMText
 10
3236.590647920576
 20
326.3194746261665
 30
0.0
 40
24.0
 41
98.5538
 71
     5
 72
     5
  1
60
 73
     1
 44
1.0
  0
MTEXT
  5
2F35
330
1F
100
AcDbEntity
  8
2
 48
0.5
100
AcDbMText
 10
4200.585498167547
 20
3394.764089031266
 30
0.0
 40
12.0
 41
5.5082
 71
     1
 72
     1
  1

 73
     1
 44
1.0
  0
MTEXT
  5
1A75F
330
1F
100
AcDbEntity
  8
0
 48
12.0
100
AcDbMText
 10
6445.956961556086
 20
3864.335069358405
 30
0.0
 40
45.0
 41
3.9737
 71
     9
 72
     1
  1

 73
     1
 44
1.0
  0
MTEXT
  5
1B1FA
102
{ACAD_REACTORS
330
1B21E
102
}
330
1F
100
AcDbEntity
  8
0
 48
25.0
100
AcDbMText
 10
2548.726156917897
 20
1795.328944888168
 30
0.0
 40
20.0
 41
0.0
 71
     9
 72
     1
  1
M8ボルト附属角ナット\P材質：ステンレス
 73
     1
 44
1.0
  0
MTEXT
  5
1B1FC
102
{ACAD_REACTORS
330
1B261
102
}
330
1F
100
AcDbEntity
  8
0
 48
25.0
100
AcDbMText
 10
2565.811289269864
 20
1927.924713144331
 30
0.0
 40
20.0
 41
0.0
 71
     9
 72
     1
  1
アイランナー\P材質：ステンレス
 73
     1
 44
1.0
  0
MTEXT
  5
1B1FD
102
{ACAD_REACTORS
330
1B385
102
}
330
1F
100
AcDbEntity
  8
0
 48
25.0
100
AcDbMText
 10
2594.772852212065
 20
2151.896414174975
 30
0.0
 40
20.0
 41
0.0
 71
     9
 72
     1
  1
ワイヤーグリップ（調節器）付き\P%%c2スプリング
 73
     1
 44
1.0
  0
ARC
  5
1B201
330
1F
100
AcDbEntity
  8
0
 62
     0
 48
0.2
100
AcDbCircle
 10
2718.003785662188
 20
2155.604501532166
 30
0.0
 40
4.0
100
AcDbArc
 50
85.73979285765053
 51
274.2368155505585
  0
ARC
  5
1B202
330
1F
100
AcDbEntity
  8
0
 62
     0
 48
0.2
100
AcDbCircle
 10
2765.951078870249
 20
2153.818362027894
 30
0.0
 40
4.0
100
AcDbArc
 50
272.1271645178741
 51
95.10167952413029
  0
LINE
  5
1B203
330
1F
100
AcDbEntity
  8
0
 62
     0
 48
0.3
100
AcDbLine
 10
3080.601345484283
 20
1760.37641809303
 30
0.0
 11
3092.601345484286
 21
1760.37641809303
 31
0.0
  0
LINE
  5
1B204
330
1F
100
AcDbEntity
  8
0
 62
     0
 48
0.3
100
AcDbLine
 10
3080.601345484283
 20
1760.37641809303
 30
0.0
 11
3092.601345484286
 21
1760.37641809303
 31
0.0
  0
LINE
  5
1B205
330
1F
100
AcDbEntity
  8
0
 62
     0
 48
0.3
100
AcDbLine
 10
3092.601345484286
 20
1608.376418093027
 30
0.0
 11
3080.601345484283
 21
1608.376418093027
 31
0.0
  0
LINE
  5
1B206
330
1F
100
AcDbEntity
  8
0
 62
     0
 48
0.3
100
AcDbLine
 10
3092.601345484286
 20
1608.376418093027
 30
0.0
 11
3080.601345484283
 21
1608.376418093027
 31
0.0
  0
LINE
  5
1B207
330
1F
100
AcDbEntity
  8
0
 48
25.0
100
AcDbLine
 10
3080.601345484283
 20
1598.855138140774
 30
0.0
 11
3080.601345484283
 21
1662.855138140774
 31
0.0
  0
LINE
  5
1B208
330
1F
100
AcDbEntity
  8
0
 62
     0
100
AcDbLine
 10
3080.601345484283
 20
1588.077885005782
 30
0.0
 11
3080.601345484283
 21
1768.077885005782
 31
0.0
  0
LINE
  5
1B209
330
1F
100
AcDbEntity
  8
0
 62
     0
100
AcDbLine
 10
3064.601345484284
 20
1768.077885005782
 30
0.0
 11
3064.601345484284
 21
1588.077885005782
 31
0.0
  0
LINE
  5
1B20A
330
1F
100
AcDbEntity
  8
0
 62
     0
100
AcDbLine
 10
3064.601345484284
 20
1588.077885005782
 30
0.0
 11
3080.601345484283
 21
1588.077885005782
 31
0.0
  0
ARC
  5
1B20B
330
1F
100
AcDbEntity
  8
0
 62
     0
 48
0.2
100
AcDbCircle
 10
2743.829101327336
 20
2024.270966891634
 30
0.0
 40
39.96532892629329
100
AcDbArc
 50
273.5360709976832
 51
354.5291631650519
  0
ARC
  5
1B20C
330
1F
100
AcDbEntity
  8
0
 62
     0
 48
0.2
100
AcDbCircle
 10
2743.829101327336
 20
2024.270966891634
 30
0.0
 40
31.96532892629329
100
AcDbArc
 50
274.4226321179617
 51
353.09125913759
  0
ARC
  5
1B20D
330
1F
100
AcDbEntity
  8
0
 62
     0
 48
0.2
100
AcDbCircle
 10
2775.394430253628
 20
2089.459669525946
 30
0.0
 40
4.0
100
AcDbArc
 50
267.8643843178095
 51
90.0
  0
ARC
  5
1B20E
330
1F
100
AcDbEntity
  8
0
 62
     0
 48
0.2
100
AcDbCircle
 10
2767.562330086023
 20
2035.398403231392
 30
0.0
 40
8.0
100
AcDbArc
 50
0.0
 51
90.0
  0
ARC
  5
1B20F
330
1F
100
AcDbEntity
  8
0
 62
     0
 48
0.2
100
AcDbCircle
 10
2767.562330086023
 20
2035.398403231392
 30
0.0
 40
16.0
100
AcDbArc
 50
1.895427478049112
 51
90.0
  0
LINE
  5
1B210
330
1F
100
AcDbEntity
  8
0
 62
     0
 48
0.1
100
AcDbLine
 10
2758.690908044854
 20
1906.477885005779
 30
0.0
 11
2780.601345484283
 21
1906.477885005779
 31
0.0
  0
LINE
  5
1B211
330
1F
100
AcDbEntity
  8
0
 62
     0
 48
0.3
100
AcDbLine
 10
2780.601345484283
 20
1914.477885005781
 30
0.0
 11
2756.601345484282
 21
1914.477885005781
 31
0.0
  0
LINE
  5
1B212
330
1F
100
AcDbEntity
  8
0
 62
     0
100
AcDbLine
 10
2690.26959109422
 20
1872.477885005778
 30
0.0
 11
2791.269591094219
 21
1872.477885005778
 31
0.0
  0
LINE
  5
1B213
330
1F
100
AcDbEntity
  8
0
 62
     0
100
AcDbLine
 10
2790.769591094218
 20
1878.477885005781
 30
0.0
 11
2690.769591094217
 21
1878.477885005781
 31
0.0
  0
LINE
  5
1B214
330
1F
100
AcDbEntity
  8
0
 62
     0
 48
4.0
100
AcDbLine
 10
2688.601345484284
 20
1810.565536902718
 30
0.0
 11
2792.601345484285
 21
1810.565536902718
 31
0.0
  0
LINE
  5
1B215
330
1F
100
AcDbEntity
  8
0
 62
     0
 48
4.0
100
AcDbLine
 10
2792.601345484285
 20
1794.565536902719
 30
0.0
 11
2688.601345484284
 21
1794.565536902719
 31
0.0
  0
LINE
  5
1B216
330
1F
100
AcDbEntity
  8
0
 62
     0
100
AcDbLine
 10
2792.76959109422
 20
1794.077885005781
 30
0.0
 11
2759.769591094218
 21
1794.077885005781
 31
0.0
  0
LINE
  5
1B217
330
1F
100
AcDbEntity
  8
0
 62
     0
100
AcDbLine
 10
2799.569591094218
 20
1788.077885005777
 30
0.0
 11
2759.769591094218
 21
1788.077885005777
 31
0.0
  0
LINE
  5
1B218
330
1F
100
AcDbEntity
  8
0
 62
     0
100
AcDbLine
 10
2758.569591094219
 20
1914.477885005781
 30
0.0
 11
2790.769591094218
 21
1914.477885005781
 31
0.0
  0
LINE
  5
1B219
330
1F
100
AcDbEntity
  8
0
 62
     0
100
AcDbLine
 10
2758.569591094219
 20
1920.47788500578
 30
0.0
 11
2799.569591094218
 21
1920.47788500578
 31
0.0
  0
LINE
  5
1B21A
330
1F
100
AcDbEntity
  8
0
 62
     0
100
AcDbLine
 10
3060.601345484283
 20
1788.077885005782
 30
0.0
 11
2680.601345484283
 21
1788.077885005782
 31
0.0
  0
LINE
  5
1B21B
330
1F
100
AcDbEntity
  8
0
 62
     0
100
AcDbLine
 10
2680.601345484283
 20
1772.077885005778
 30
0.0
 11
3060.601345484283
 21
1772.077885005778
 31
0.0
  0
ARC
  5
1B21C
330
1F
100
AcDbEntity
  8
0
 62
     0
100
AcDbCircle
 10
2690.769591094217
 20
1882.477885005778
 30
0.0
 40
4.0
100
AcDbArc
 50
180.0
 51
270.0
  0
LINE
  5
1B21D
330
1F
100
AcDbEntity
  8
0
 62
     0
100
AcDbLine
 10
2680.769591094217
 20
1862.577461652658
 30
0.0
 11
2680.769591094217
 21
1919.277885005781
 31
0.0
  0
LEADER
  5
1B21E
330
1F
100
AcDbEntity
  8
0
 48
25.0
100
AcDbLeader
  3
ISO-25
 73
     0
 40
53.33333333333333
 41
250.2857142857143
 76
     2
 10
2704.095796584171
 20
1803.328944888169
 30
0.0
 10
2558.726156917896
 20
1803.328944888169
 30
0.0
340
1B1FA
213
0.0
223
8.0
233
0.0
1001
ACAD
1000
DSTYLE
1002
{
1070
   147
1040
10.0
1070
    77
1070
     0
1002
}
  0
LINE
  5
1B21F
330
1F
100
AcDbEntity
  8
0
 62
     0
 48
0.3
100
AcDbLine
 10
2710.601345484283
 20
1753.009970891535
 30
0.0
 11
2710.601345484283
 21
1732.197737986093
 31
0.0
  0
LINE
  5
1B220
330
1F
100
AcDbEntity
  8
0
 62
     0
 48
0.3
100
AcDbLine
 10
2725.601345484283
 20
1732.197737986093
 30
0.0
 11
2725.601345484283
 21
1753.009970891535
 31
0.0
  0
LINE
  5
1B221
330
1F
100
AcDbEntity
  8
0
 62
     0
 48
0.3
100
AcDbLine
 10
2755.601345484283
 20
1732.197737986093
 30
0.0
 11
2755.601345484283
 21
1753.009970891535
 31
0.0
  0
LINE
  5
1B222
330
1F
100
AcDbEntity
  8
0
 62
     0
 48
0.3
100
AcDbLine
 10
2770.601345484283
 20
1732.197737986093
 30
0.0
 11
2770.601345484283
 21
1753.009970891535
 31
0.0
  0
ARC
  5
1B223
330
1F
100
AcDbEntity
  8
0
 62
     0
 48
0.3
100
AcDbCircle
 10
2740.601345484283
 20
1798.009970891535
 30
0.0
 40
67.5
100
AcDbArc
 50
257.1604112288577
 51
282.8395884069012
  0
LINE
  5
1B224
330
1F
100
AcDbEntity
  8
0
 62
     0
 48
0.3
100
AcDbLine
 10
2740.601345484283
 20
1730.509970891534
 30
0.0
 11
2725.601345484283
 21
1730.509970891534
 31
0.0
  0
LINE
  5
1B225
330
1F
100
AcDbEntity
  8
0
 62
     0
 48
4.0
100
AcDbLine
 10
2740.601345484283
 20
1730.509970891534
 30
0.0
 11
2725.601345484283
 21
1732.197737986093
 31
0.0
  0
LINE
  5
1B226
330
1F
100
AcDbEntity
  8
0
 62
     0
 48
0.3
100
AcDbLine
 10
2717.786255263404
 20
1730.509970891534
 30
0.0
 11
2763.215176422327
 21
1730.509970891534
 31
0.0
  0
ARC
  5
1B227
330
1F
100
AcDbEntity
  8
0
 62
     0
 48
0.3
100
AcDbCircle
 10
2718.101345484283
 20
1746.965120618933
 30
0.0
 40
16.56277703837987
100
AcDbArc
 50
243.0750753098899
 51
296.92492469011
  0
LINE
  5
1B228
330
1F
100
AcDbEntity
  8
0
 62
     0
 48
0.3
100
AcDbLine
 10
2755.601345484283
 20
1730.509970891534
 30
0.0
 11
2740.601345484283
 21
1730.509970891534
 31
0.0
  0
LINE
  5
1B229
330
1F
100
AcDbEntity
  8
0
 62
     0
 48
4.0
100
AcDbLine
 10
2740.601345484283
 20
1730.509970891534
 30
0.0
 11
2755.601345484283
 21
1732.197737986093
 31
0.0
  0
ARC
  5
1B22A
330
1F
100
AcDbEntity
  8
0
 62
     0
 48
0.3
100
AcDbCircle
 10
2763.101345974623
 20
1747.674321175978
 30
0.0
 40
17.1980991089057
100
AcDbArc
 50
244.1450295252061
 51
295.8549704747937
  0
LINE
  5
1B22B
330
1F
100
AcDbEntity
  8
0
 62
     0
 48
0.3
100
AcDbLine
 10
2762.805443941902
 20
1730.509970891534
 30
0.0
 11
2755.601345484283
 21
1730.509970891534
 31
0.0
  0
LINE
  5
1B22C
330
1F
100
AcDbEntity
  8
0
 62
     0
100
AcDbLine
 10
2721.769591094221
 20
1788.077885005777
 30
0.0
 11
2681.969591094221
 21
1788.077885005777
 31
0.0
  0
LINE
  5
1B22D
330
1F
100
AcDbEntity
  8
0
 62
     0
100
AcDbLine
 10
2721.769591094221
 20
1794.077885005781
 30
0.0
 11
2688.769591094219
 21
1794.077885005781
 31
0.0
  0
LINE
  5
1B22E
330
1F
100
AcDbEntity
  8
0
 62
     0
100
AcDbLine
 10
2686.769591094221
 20
1796.077885005779
 30
0.0
 11
2686.769591094221
 21
1862.577461652658
 31
0.0
  0
LINE
  5
1B22F
330
1F
100
AcDbEntity
  8
0
 62
     0
100
AcDbLine
 10
2680.769591094217
 20
1789.277885005781
 30
0.0
 11
2680.769591094217
 21
1862.577461652658
 31
0.0
  0
LINE
  5
1B230
330
1F
100
AcDbEntity
  8
0
 62
     0
 48
4.0
100
AcDbLine
 10
2688.601345484284
 20
1794.565536902719
 30
0.0
 11
2688.601345484284
 21
1810.565536902718
 31
0.0
  0
LINE
  5
1B231
330
1F
100
AcDbEntity
  8
0
 48
25.0
100
AcDbLine
 10
2680.601345484283
 20
1772.077885005778
 30
0.0
 11
2680.601345484283
 21
1788.077885005782
 31
0.0
  0
ARC
  5
1B232
330
1F
100
AcDbEntity
  8
0
 62
     0
100
AcDbCircle
 10
2688.769591094219
 20
1796.077885005779
 30
0.0
 40
2.0
100
AcDbArc
 50
180.0
 51
270.0
  0
LINE
  5
1B233
330
1F
100
AcDbEntity
  8
0
 62
     0
100
AcDbLine
 10
2680.601345484283
 20
1772.077885005778
 30
0.0
 11
2680.601345484283
 21
1788.077885005782
 31
0.0
  0
ARC
  5
1B234
330
1F
100
AcDbEntity
  8
0
 62
     0
100
AcDbCircle
 10
2690.26959109422
 20
1868.977885005779
 30
0.0
 40
3.5
100
AcDbArc
 50
90.0
 51
180.0
  0
LINE
  5
1B235
330
1F
100
AcDbEntity
  8
0
 62
     0
100
AcDbLine
 10
2686.769591094221
 20
1862.577461652658
 30
0.0
 11
2686.769591094221
 21
1868.977885005779
 31
0.0
  0
LINE
  5
1B236
330
1F
100
AcDbEntity
  8
0
 62
     0
 48
4.0
100
AcDbLine
 10
2740.601345484283
 20
1753.009970891535
 30
0.0
 11
2726.601345484282
 21
1753.009970891535
 31
0.0
  0
LINE
  5
1B237
330
1F
100
AcDbEntity
  8
0
 62
     0
 48
0.3
100
AcDbLine
 10
2770.601345484283
 20
1753.009970891535
 30
0.0
 11
2710.601345484283
 21
1753.009970891535
 31
0.0
  0
LINE
  5
1B238
330
1F
100
AcDbEntity
  8
0
 62
     0
 48
4.0
100
AcDbLine
 10
2740.601345484283
 20
1767.277885005778
 30
0.0
 11
2706.601345484282
 21
1767.277885005778
 31
0.0
  0
LINE
  5
1B239
330
1F
100
AcDbEntity
  8
0
 62
     0
 48
4.0
100
AcDbLine
 10
2740.601345484283
 20
1753.009970891535
 30
0.0
 11
2712.601345484285
 21
1755.009970891538
 31
0.0
  0
LINE
  5
1B23A
330
1F
100
AcDbEntity
  8
0
 62
     0
 48
4.0
100
AcDbLine
 10
2740.601345484283
 20
1761.009970891536
 30
0.0
 11
2712.601345484285
 21
1763.009970891534
 31
0.0
  0
LINE
  5
1B23B
330
1F
100
AcDbEntity
  8
0
 62
     0
 48
0.3
100
AcDbLine
 10
2740.601345484283
 20
1753.009970891535
 30
0.0
 11
2724.601345484284
 21
1753.009970891535
 31
0.0
  0
LINE
  5
1B23C
330
1F
100
AcDbEntity
  8
0
 62
     0
 48
4.0
100
AcDbLine
 10
2706.601345484282
 20
1772.077885005778
 30
0.0
 11
2774.601345484284
 21
1772.077885005778
 31
0.0
  0
ARC
  5
1B23D
330
1F
100
AcDbEntity
  8
0
 62
     0
100
AcDbCircle
 10
2721.685468289251
 20
1790.07788500578
 30
0.0
 40
2.0
100
AcDbArc
 50
270.0
 51
0.0
  0
ARC
  5
1B23E
330
1F
100
AcDbEntity
  8
0
 62
     0
100
AcDbCircle
 10
2721.685468289251
 20
1792.077885005778
 30
0.0
 40
2.0
100
AcDbArc
 50
0.0
 51
90.0
  0
LINE
  5
1B23F
330
1F
100
AcDbEntity
  8
0
 62
     0
100
AcDbLine
 10
2723.68546828925
 20
1790.07788500578
 30
0.0
 11
2723.68546828925
 21
1792.077885005778
 31
0.0
  0
LINE
  5
1B240
330
1F
100
AcDbEntity
  8
0
 62
     0
 48
0.3
100
AcDbLine
 10
2724.601345484284
 20
1788.077885005782
 30
0.0
 11
2724.601345484284
 21
1794.565536902719
 31
0.0
  0
LINE
  5
1B241
330
1F
100
AcDbEntity
  8
0
 62
     0
 48
4.0
100
AcDbLine
 10
2726.601345484282
 20
1788.077885005782
 30
0.0
 11
2726.601345484282
 21
1794.565536902719
 31
0.0
  0
LINE
  5
1B242
330
1F
100
AcDbEntity
  8
0
 62
     0
 48
4.0
100
AcDbLine
 10
2706.601345484282
 20
1767.277885005778
 30
0.0
 11
2706.601345484282
 21
1772.077885005778
 31
0.0
  0
LINE
  5
1B243
330
1F
100
AcDbEntity
  8
0
 62
     0
 48
4.0
100
AcDbLine
 10
2712.601345484285
 20
1755.009970891538
 30
0.0
 11
2712.601345484285
 21
1763.009970891534
 31
0.0
  0
LINE
  5
1B244
330
1F
100
AcDbEntity
  8
0
 62
     0
 48
4.0
100
AcDbLine
 10
2726.601345484282
 20
1753.009970891535
 30
0.0
 11
2726.601345484282
 21
1754.03375600315
 31
0.0
  0
LINE
  5
1B245
330
1F
100
AcDbEntity
  8
0
 62
     0
 48
4.0
100
AcDbLine
 10
2726.601345484282
 20
1762.009970891535
 30
0.0
 11
2726.601345484282
 21
1767.277885005778
 31
0.0
  0
LINE
  5
1B246
330
1F
100
AcDbEntity
  8
0
 62
     0
 48
4.0
100
AcDbLine
 10
2712.601345484285
 20
1763.009970891534
 30
0.0
 11
2726.601345484282
 21
1763.009970891534
 31
0.0
  0
ARC
  5
1B247
330
1F
100
AcDbEntity
  8
0
 62
     0
100
AcDbCircle
 10
2759.769591094218
 20
1790.07788500578
 30
0.0
 40
2.0
100
AcDbArc
 50
180.0
 51
270.0
  0
ARC
  5
1B248
330
1F
100
AcDbEntity
  8
0
 62
     0
100
AcDbCircle
 10
2759.769591094218
 20
1792.077885005778
 30
0.0
 40
2.0
100
AcDbArc
 50
90.0
 51
180.0
  0
LINE
  5
1B249
330
1F
100
AcDbEntity
  8
0
 62
     0
100
AcDbLine
 10
2757.76959109422
 20
1790.07788500578
 30
0.0
 11
2757.76959109422
 21
1792.077885005778
 31
0.0
  0
LINE
  5
1B24A
330
1F
100
AcDbEntity
  8
0
 62
     0
 48
4.0
100
AcDbLine
 10
2754.601345484284
 20
1788.077885005782
 30
0.0
 11
2754.601345484284
 21
1794.565536902719
 31
0.0
  0
LINE
  5
1B24B
330
1F
100
AcDbEntity
  8
0
 62
     0
 48
0.3
100
AcDbLine
 10
2756.601345484282
 20
1794.565536902719
 30
0.0
 11
2756.601345484282
 21
1788.077885005782
 31
0.0
  0
LINE
  5
1B24C
330
1F
100
AcDbEntity
  8
0
 62
     0
 48
4.0
100
AcDbLine
 10
2740.601345484283
 20
1753.009970891535
 30
0.0
 11
2754.601345484284
 21
1753.009970891535
 31
0.0
  0
LINE
  5
1B24D
330
1F
100
AcDbEntity
  8
0
 62
     0
 48
4.0
100
AcDbLine
 10
2768.601345484285
 20
1755.009970891538
 30
0.0
 11
2740.601345484283
 21
1759.009970891538
 31
0.0
  0
LINE
  5
1B24E
330
1F
100
AcDbEntity
  8
0
 62
     0
 48
4.0
100
AcDbLine
 10
2740.601345484283
 20
1767.009970891535
 30
0.0
 11
2768.601345484285
 21
1763.009970891534
 31
0.0
  0
LINE
  5
1B24F
330
1F
100
AcDbEntity
  8
0
 62
     0
 48
4.0
100
AcDbLine
 10
2768.601345484285
 20
1755.009970891538
 30
0.0
 11
2754.601345484284
 21
1755.009970891538
 31
0.0
  0
LINE
  5
1B250
330
1F
100
AcDbEntity
  8
0
 62
     0
 48
4.0
100
AcDbLine
 10
2768.601345484285
 20
1763.009970891534
 30
0.0
 11
2768.601345484285
 21
1755.009970891538
 31
0.0
  0
LINE
  5
1B251
330
1F
100
AcDbEntity
  8
0
 62
     0
 48
4.0
100
AcDbLine
 10
2754.601345484284
 20
1753.009970891535
 30
0.0
 11
2754.601345484284
 21
1757.095502030629
 31
0.0
  0
LINE
  5
1B252
330
1F
100
AcDbEntity
  8
0
 62
     0
 48
4.0
100
AcDbLine
 10
2754.601345484284
 20
1765.009970891537
 30
0.0
 11
2754.601345484284
 21
1767.277885005778
 31
0.0
  0
LINE
  5
1B253
330
1F
100
AcDbEntity
  8
0
 62
     0
 48
4.0
100
AcDbLine
 10
2740.601345484283
 20
1755.009970891538
 30
0.0
 11
2740.601345484283
 21
1763.009970891534
 31
0.0
  0
LINE
  5
1B254
330
1F
100
AcDbEntity
  8
0
 62
     0
 48
4.0
100
AcDbLine
 10
2740.601345484283
 20
1759.009970891538
 30
0.0
 11
2740.601345484283
 21
1753.009970891535
 31
0.0
  0
LINE
  5
1B255
330
1F
100
AcDbEntity
  8
0
 62
     0
 48
4.0
100
AcDbLine
 10
2740.601345484283
 20
1753.009970891535
 30
0.0
 11
2740.601345484283
 21
1761.009970891536
 31
0.0
  0
LINE
  5
1B256
330
1F
100
AcDbEntity
  8
0
 62
     0
 48
4.0
100
AcDbLine
 10
2740.601345484283
 20
1759.009970891538
 30
0.0
 11
2740.601345484283
 21
1767.009970891535
 31
0.0
  0
LINE
  5
1B257
330
1F
100
AcDbEntity
  8
0
 62
     0
 48
4.0
100
AcDbLine
 10
2774.601345484284
 20
1772.077885005778
 30
0.0
 11
2774.601345484284
 21
1767.277885005778
 31
0.0
  0
LINE
  5
1B258
330
1F
100
AcDbEntity
  8
0
 62
     0
 48
4.0
100
AcDbLine
 10
2774.601345484284
 20
1767.277885005778
 30
0.0
 11
2740.601345484283
 21
1767.277885005778
 31
0.0
  0
LINE
  5
1B259
330
1F
100
AcDbEntity
  8
0
 62
     0
 48
4.0
100
AcDbLine
 10
2754.601345484284
 20
1813.009970891535
 30
0.0
 11
2726.601345484282
 21
1813.009970891535
 31
0.0
  0
LINE
  5
1B25A
330
1F
100
AcDbEntity
  8
0
 62
     0
 48
4.0
100
AcDbLine
 10
2756.601345484282
 20
1811.009970891536
 30
0.0
 11
2724.601345484284
 21
1811.009970891536
 31
0.0
  0
LINE
  5
1B25B
330
1F
100
AcDbEntity
  8
0
 62
     0
 48
0.3
100
AcDbLine
 10
2724.601345484284
 20
1810.565536902718
 30
0.0
 11
2724.601345484284
 21
1811.009970891536
 31
0.0
  0
LINE
  5
1B25C
330
1F
100
AcDbEntity
  8
0
 62
     0
 48
4.0
100
AcDbLine
 10
2726.601345484282
 20
1810.565536902718
 30
0.0
 11
2726.601345484282
 21
1813.009970891535
 31
0.0
  0
LINE
  5
1B25D
330
1F
100
AcDbEntity
  8
0
 62
     0
 48
4.0
100
AcDbLine
 10
2724.601345484284
 20
1811.009970891536
 30
0.0
 11
2726.601345484282
 21
1813.009970891535
 31
0.0
  0
LINE
  5
1B25E
330
1F
100
AcDbEntity
  8
0
 62
     0
 48
4.0
100
AcDbLine
 10
2754.601345484284
 20
1810.565536902718
 30
0.0
 11
2754.601345484284
 21
1813.009970891535
 31
0.0
  0
LINE
  5
1B25F
330
1F
100
AcDbEntity
  8
0
 62
     0
 48
4.0
100
AcDbLine
 10
2756.601345484282
 20
1811.009970891536
 30
0.0
 11
2754.601345484284
 21
1813.009970891535
 31
0.0
  0
LINE
  5
1B260
330
1F
100
AcDbEntity
  8
0
 62
     0
 48
0.3
100
AcDbLine
 10
2756.601345484282
 20
1811.009970891536
 30
0.0
 11
2756.601345484282
 21
1810.565536902718
 31
0.0
  0
LEADER
  5
1B261
330
1F
100
AcDbEntity
  8
0
 48
25.0
100
AcDbLeader
  3
ISO-25
 73
     0
 40
53.33333333333333
 41
189.1428571428571
 76
     2
 10
2717.651291399746
 20
1935.92471314433
 30
0.0
 10
2575.811289269864
 20
1935.92471314433
 30
0.0
340
1B1FC
213
0.0
223
8.0
233
0.0
1001
ACAD
1000
DSTYLE
1002
{
1070
   147
1040
10.0
1070
    77
1070
     0
1002
}
  0
ARC
  5
1B262
330
1F
100
AcDbEntity
  8
0
 62
     0
 48
0.2
100
AcDbCircle
 10
2743.829101327336
 20
2024.270966891634
 30
0.0
 40
31.96532892629329
100
AcDbArc
 50
180.0
 51
240.5467057146508
  0
ARC
  5
1B263
330
1F
100
AcDbEntity
  8
0
 62
     0
 48
0.2
100
AcDbCircle
 10
2743.829101327336
 20
2024.270966891634
 30
0.0
 40
39.96532892629329
100
AcDbArc
 50
180.0
 51
242.9724067579644
  0
ARC
  5
1B264
330
1F
100
AcDbEntity
  8
0
 62
     0
 48
0.3
100
AcDbCircle
 10
2536.146631035985
 20
2052.557916774612
 30
0.0
 40
200.0
100
AcDbArc
 50
327.782070325206
 51
0.0
  0
ARC
  5
1B265
330
1F
100
AcDbEntity
  8
0
 62
     0
 48
0.3
100
AcDbCircle
 10
2536.146631035985
 20
2052.557916774612
 30
0.0
 40
209.6
100
AcDbArc
 50
327.5142977443679
 51
0.0
  0
LINE
  5
1B266
330
1F
100
AcDbEntity
  8
0
 62
     0
100
AcDbLine
 10
2681.969591094221
 20
1920.47788500578
 30
0.0
 11
2722.96959109422
 21
1920.47788500578
 31
0.0
  0
LINE
  5
1B267
330
1F
100
AcDbEntity
  8
0
 62
     0
100
AcDbLine
 10
2690.769591094217
 20
1914.477885005781
 30
0.0
 11
2722.96959109422
 21
1914.477885005781
 31
0.0
  0
ARC
  5
1B268
330
1F
100
AcDbEntity
  8
0
 62
     0
100
AcDbCircle
 10
2681.969591094221
 20
1919.277885005781
 30
0.0
 40
1.199999999999999
100
AcDbArc
 50
90.0
 51
180.0
  0
LINE
  5
1B269
330
1F
100
AcDbEntity
  8
0
 62
     0
100
AcDbLine
 10
2686.769591094221
 20
1882.477885005778
 30
0.0
 11
2686.769591094221
 21
1910.47788500578
 31
0.0
  0
ARC
  5
1B26A
330
1F
100
AcDbEntity
  8
0
 62
     0
100
AcDbCircle
 10
2690.769591094217
 20
1910.47788500578
 30
0.0
 40
4.0
100
AcDbArc
 50
90.0
 51
180.0
  0
ARC
  5
1B26B
330
1F
100
AcDbEntity
  8
0
 62
     0
 48
4.0
100
AcDbCircle
 10
2749.960476585311
 20
1948.861474726268
 30
0.0
 40
0.4000000000000001
100
AcDbArc
 50
303.6900675259653
 51
56.30993247403466
  0
ARC
  5
1B26C
330
1F
100
AcDbEntity
  8
0
 62
     0
 48
4.0
100
AcDbCircle
 10
2731.402697095495
 20
1948.861474726268
 30
0.0
 40
0.4000000000000001
100
AcDbArc
 50
123.6900675259653
 51
236.3099324740347
  0
ARC
  5
1B26D
330
1F
100
AcDbEntity
  8
0
 62
     0
 48
4.0
100
AcDbCircle
 10
2758.637127980128
 20
1940.924527319243
 30
0.0
 40
7.538696475642643
100
AcDbArc
 50
52.33685578559134
 51
141.6192287191389
  0
ARC
  5
1B26E
330
1F
100
AcDbEntity
  8
0
 62
     0
 48
4.0
100
AcDbCircle
 10
2722.758713628186
 20
1941.128007155275
 30
0.0
 40
7.394239035917166
100
AcDbArc
 50
37.26453785458935
 51
128.7793776406789
  0
LINE
  5
1B26F
330
1F
100
AcDbEntity
  8
0
 62
     0
100
AcDbLine
 10
2760.685468289253
 20
1920.47788500578
 30
0.0
 11
2732.68546828925
 21
1920.47788500578
 31
0.0
  0
LINE
  5
1B270
330
1F
100
AcDbEntity
  8
0
 62
     0
 48
0.3
100
AcDbLine
 10
2763.243406886767
 20
1926.477885005779
 30
0.0
 11
2718.127529691737
 21
1926.477885005779
 31
0.0
  0
LINE
  5
1B271
330
1F
100
AcDbEntity
  8
0
 62
     0
100
AcDbLine
 10
2755.801345484283
 20
1918.477885005782
 30
0.0
 11
2725.401345484283
 21
1918.477885005782
 31
0.0
  0
LINE
  5
1B272
330
1F
100
AcDbEntity
  8
0
 62
     0
 48
4.0
100
AcDbLine
 10
2772.68546828925
 20
1926.477885005779
 30
0.0
 11
2708.68546828925
 21
1926.477885005779
 31
0.0
  0
LINE
  5
1B273
330
1F
100
AcDbEntity
  8
0
 62
     0
 48
4.0
100
AcDbLine
 10
2720.685468289252
 20
1920.47788500578
 30
0.0
 11
2760.685468289253
 21
1920.47788500578
 31
0.0
  0
LINE
  5
1B274
330
1F
100
AcDbEntity
  8
0
 62
     0
 48
4.0
100
AcDbLine
 10
2759.685468289253
 20
1920.47788500578
 30
0.0
 11
2721.685468289251
 21
1920.47788500578
 31
0.0
  0
LINE
  5
1B275
330
1F
100
AcDbEntity
  8
0
 62
     0
 48
4.0
100
AcDbLine
 10
2740.601345484283
 20
1910.47788500578
 30
0.0
 11
2726.724283330882
 21
1910.47788500578
 31
0.0
  0
ARC
  5
1B276
330
1F
100
AcDbEntity
  8
0
 62
     0
 48
4.0
100
AcDbCircle
 10
2740.685468289252
 20
1921.648714773168
 30
0.0
 40
26.8127561866816
100
AcDbArc
 50
63.31296200628972
 51
116.6870379937102
  0
LINE
  5
1B277
330
1F
100
AcDbEntity
  8
0
 62
     0
100
AcDbLine
 10
2700.517222679314
 20
1914.477885005781
 30
0.0
 11
2700.517222679314
 21
1914.477885005781
 31
0.0
  0
LINE
  5
1B278
330
1F
100
AcDbEntity
  8
0
 62
     0
 48
4.0
100
AcDbLine
 10
2708.601345484285
 20
1920.47788500578
 30
0.0
 11
2720.601345484283
 21
1920.47788500578
 31
0.0
  0
LINE
  5
1B279
330
1F
100
AcDbEntity
  8
0
 62
     0
 48
4.0
100
AcDbLine
 10
2708.68546828925
 20
1920.47788500578
 30
0.0
 11
2720.685468289252
 21
1920.47788500578
 31
0.0
  0
LINE
  5
1B27A
330
1F
100
AcDbEntity
  8
0
 62
     0
 48
4.0
100
AcDbLine
 10
2708.68546828925
 20
1926.477885005779
 30
0.0
 11
2708.68546828925
 21
1920.47788500578
 31
0.0
  0
LINE
  5
1B27B
330
1F
100
AcDbEntity
  8
0
 62
     0
100
AcDbLine
 10
2724.601345484284
 20
1917.677885005778
 30
0.0
 11
2724.601345484284
 21
1914.477885005781
 31
0.0
  0
ARC
  5
1B27C
330
1F
100
AcDbEntity
  8
0
 62
     0
100
AcDbCircle
 10
2725.401345484283
 20
1917.677885005778
 30
0.0
 40
0.8000000000000001
100
AcDbArc
 50
90.0
 51
180.0
  0
LINE
  5
1B27D
330
1F
100
AcDbEntity
  8
0
 62
     0
 48
0.1
100
AcDbLine
 10
2700.601345484283
 20
1906.477885005779
 30
0.0
 11
2722.724283330881
 21
1906.477885005779
 31
0.0
  0
ARC
  5
1B27E
330
1F
100
AcDbEntity
  8
0
 62
     0
 48
0.1
100
AcDbCircle
 10
2722.724283330881
 20
1908.477885005781
 30
0.0
 40
2.0
100
AcDbArc
 50
270.0
 51
0.0
  0
ARC
  5
1B27F
330
1F
100
AcDbEntity
  8
0
 62
     0
 48
4.0
100
AcDbCircle
 10
2726.724283330882
 20
1908.477885005781
 30
0.0
 40
2.0
100
AcDbArc
 50
90.0
 51
180.0
  0
LINE
  5
1B280
330
1F
100
AcDbEntity
  8
0
 62
     0
 48
4.0
100
AcDbLine
 10
2724.724283330884
 20
1908.477885005781
 30
0.0
 11
2724.724283330884
 21
1908.477885005781
 31
0.0
  0
LINE
  5
1B281
330
1F
100
AcDbEntity
  8
0
 62
     0
 48
0.1
100
AcDbLine
 10
2700.601345484283
 20
1914.477885005781
 30
0.0
 11
2700.601345484283
 21
1906.477885005779
 31
0.0
  0
LINE
  5
1B282
330
1F
100
AcDbEntity
  8
0
 62
     0
100
AcDbLine
 10
2700.601345484283
 20
1906.477885005779
 30
0.0
 11
2700.601345484283
 21
1914.477885005781
 31
0.0
  0
LINE
  5
1B283
330
1F
100
AcDbEntity
  8
0
 62
     0
100
AcDbLine
 10
2700.601345484283
 20
1914.477885005781
 30
0.0
 11
2700.601345484283
 21
1914.477885005781
 31
0.0
  0
LINE
  5
1B284
330
1F
100
AcDbEntity
  8
0
 62
     0
 48
4.0
100
AcDbLine
 10
2728.643406886767
 20
1926.477885005779
 30
0.0
 11
2728.643406886767
 21
1945.605188877371
 31
0.0
  0
LINE
  5
1B285
330
1F
100
AcDbEntity
  8
0
 62
     0
 48
0.3
100
AcDbLine
 10
2724.601345484284
 20
1914.477885005781
 30
0.0
 11
2700.517222679314
 21
1914.477885005781
 31
0.0
  0
LINE
  5
1B286
330
1F
100
AcDbEntity
  8
0
 62
     0
 48
4.0
100
AcDbLine
 10
2731.180817017007
 20
1948.52865460853
 30
0.0
 11
2731.256971421135
 21
1948.477885005782
 31
0.0
  0
LINE
  5
1B287
330
1F
100
AcDbEntity
  8
0
 62
     0
 48
4.0
100
AcDbLine
 10
2718.127529691737
 20
1926.477885005779
 30
0.0
 11
2718.127529691737
 21
1946.89228562418
 31
0.0
  0
ARC
  5
1B288
330
1F
100
AcDbEntity
  8
0
 62
     0
100
AcDbCircle
 10
2722.96959109422
 20
1919.277885005781
 30
0.0
 40
1.199999999999999
100
AcDbArc
 50
0.0
 51
90.0
  0
LINE
  5
1B289
330
1F
100
AcDbEntity
  8
0
 62
     0
100
AcDbLine
 10
2724.169591094219
 20
1919.277885005781
 30
0.0
 11
2724.169591094219
 21
1915.67788500578
 31
0.0
  0
ARC
  5
1B28A
330
1F
100
AcDbEntity
  8
0
 62
     0
100
AcDbCircle
 10
2722.96959109422
 20
1915.67788500578
 30
0.0
 40
1.199999999999999
100
AcDbArc
 50
270.0
 51
0.0
  0
LINE
  5
1B28B
330
1F
100
AcDbEntity
  8
0
 62
     0
 48
0.3
100
AcDbLine
 10
2712.949575575003
 20
1939.984035246375
 30
0.0
 11
2705.351905182842
 21
1945.929706619476
 31
0.0
  0
LINE
  5
1B28C
330
1F
100
AcDbEntity
  8
0
 62
     0
 48
4.0
100
AcDbLine
 10
2740.685468289252
 20
1920.47788500578
 30
0.0
 11
2772.68546828925
 21
1920.47788500578
 31
0.0
  0
LINE
  5
1B28D
330
1F
100
AcDbEntity
  8
0
 62
     0
 48
4.0
100
AcDbLine
 10
2772.68546828925
 20
1920.47788500578
 30
0.0
 11
2772.68546828925
 21
1926.477885005779
 31
0.0
  0
LINE
  5
1B28E
330
1F
100
AcDbEntity
  8
0
 62
     0
 48
4.0
100
AcDbLine
 10
2740.601345484283
 20
1910.47788500578
 30
0.0
 11
2754.690908044854
 21
1910.47788500578
 31
0.0
  0
LINE
  5
1B28F
330
1F
100
AcDbEntity
  8
0
 62
     0
100
AcDbLine
 10
2756.601345484282
 20
1914.477885005781
 30
0.0
 11
2756.601345484282
 21
1917.677885005778
 31
0.0
  0
ARC
  5
1B290
330
1F
100
AcDbEntity
  8
0
 62
     0
100
AcDbCircle
 10
2755.801345484283
 20
1917.677885005778
 30
0.0
 40
0.8000000000000001
100
AcDbArc
 50
0.0
 51
90.0
  0
ARC
  5
1B291
330
1F
100
AcDbEntity
  8
0
 62
     0
 48
0.1
100
AcDbCircle
 10
2758.690908044854
 20
1908.477885005781
 30
0.0
 40
2.0
100
AcDbArc
 50
180.0
 51
270.0
  0
ARC
  5
1B292
330
1F
100
AcDbEntity
  8
0
 62
     0
 48
4.0
100
AcDbCircle
 10
2754.690908044854
 20
1908.477885005781
 30
0.0
 40
2.0
100
AcDbArc
 50
0.0
 51
90.0
  0
LINE
  5
1B293
330
1F
100
AcDbEntity
  8
0
 62
     0
 48
4.0
100
AcDbLine
 10
2756.690908044856
 20
1908.477885005781
 30
0.0
 11
2756.690908044856
 21
1908.477885005781
 31
0.0
  0
LINE
  5
1B294
330
1F
100
AcDbEntity
  8
0
 62
     0
 48
4.0
100
AcDbLine
 10
2752.727529691733
 20
1926.477885005779
 30
0.0
 11
2752.727529691733
 21
1945.605188877371
 31
0.0
  0
LINE
  5
1B295
330
1F
100
AcDbEntity
  8
0
 62
     0
 48
4.0
100
AcDbLine
 10
2750.182356663799
 20
1948.52865460853
 30
0.0
 11
2750.106202259671
 21
1948.477885005782
 31
0.0
  0
LINE
  5
1B296
330
1F
100
AcDbEntity
  8
0
 62
     0
 48
4.0
100
AcDbLine
 10
2763.243406886767
 20
1926.477885005779
 30
0.0
 11
2763.243406886767
 21
1946.89228562418
 31
0.0
  0
ARC
  5
1B297
330
1F
100
AcDbEntity
  8
0
 62
     0
100
AcDbCircle
 10
2758.569591094219
 20
1919.277885005781
 30
0.0
 40
1.199999999999999
100
AcDbArc
 50
90.0
 51
180.0
  0
ARC
  5
1B298
330
1F
100
AcDbEntity
  8
0
 62
     0
100
AcDbCircle
 10
2758.569591094219
 20
1915.67788500578
 30
0.0
 40
1.199999999999999
100
AcDbArc
 50
180.0
 51
270.0
  0
LINE
  5
1B299
330
1F
100
AcDbEntity
  8
0
 62
     0
100
AcDbLine
 10
2757.36959109422
 20
1919.277885005781
 30
0.0
 11
2757.36959109422
 21
1915.67788500578
 31
0.0
  0
LINE
  5
1B29A
330
1F
100
AcDbEntity
  8
0
 62
     0
 48
4.0
100
AcDbLine
 10
2748.281586840403
 20
1960.061474726267
 30
0.0
 11
2733.081586840403
 21
1960.061474726267
 31
0.0
  0
LINE
  5
1B29B
330
1F
100
AcDbEntity
  8
0
 62
     0
 48
4.0
100
AcDbLine
 10
2748.281586840403
 20
1960.061474726267
 30
0.0
 11
2733.081586840403
 21
1960.061474726267
 31
0.0
  0
LINE
  5
1B29C
330
1F
100
AcDbEntity
  8
0
 62
     0
 48
4.0
100
AcDbLine
 10
2748.281586840403
 20
1963.261474726269
 30
0.0
 11
2733.081586840403
 21
1963.261474726269
 31
0.0
  0
LINE
  5
1B29D
330
1F
100
AcDbEntity
  8
0
 62
     0
 48
4.0
100
AcDbLine
 10
2748.281586840403
 20
1963.261474726269
 30
0.0
 11
2733.081586840403
 21
1963.261474726269
 31
0.0
  0
LINE
  5
1B29E
330
1F
100
AcDbEntity
  8
0
 62
     0
 48
4.0
100
AcDbLine
 10
2748.281586840403
 20
1966.461474726265
 30
0.0
 11
2733.081586840403
 21
1966.461474726265
 31
0.0
  0
LINE
  5
1B29F
330
1F
100
AcDbEntity
  8
0
 62
     0
 48
4.0
100
AcDbLine
 10
2748.281586840403
 20
1966.461474726265
 30
0.0
 11
2733.081586840403
 21
1966.461474726265
 31
0.0
  0
LINE
  5
1B2A0
330
1F
100
AcDbEntity
  8
0
 62
     0
 48
4.0
100
AcDbLine
 10
2748.281586840403
 20
1963.261474726269
 30
0.0
 11
2733.081586840403
 21
1963.261474726269
 31
0.0
  0
LINE
  5
1B2A1
330
1F
100
AcDbEntity
  8
0
 62
     0
 48
4.0
100
AcDbLine
 10
2748.281586840403
 20
1963.261474726269
 30
0.0
 11
2733.081586840403
 21
1963.261474726269
 31
0.0
  0
LINE
  5
1B2A2
330
1F
100
AcDbEntity
  8
0
 62
     0
 48
4.0
100
AcDbLine
 10
2748.281586840403
 20
1956.861474726265
 30
0.0
 11
2733.081586840403
 21
1956.861474726265
 31
0.0
  0
LINE
  5
1B2A3
330
1F
100
AcDbEntity
  8
0
 62
     0
 48
4.0
100
AcDbLine
 10
2748.281586840403
 20
1956.861474726265
 30
0.0
 11
2733.081586840403
 21
1956.861474726265
 31
0.0
  0
LINE
  5
1B2A4
330
1F
100
AcDbEntity
  8
0
 62
     0
 48
4.0
100
AcDbLine
 10
2748.281586840403
 20
1960.061474726267
 30
0.0
 11
2733.081586840403
 21
1960.061474726267
 31
0.0
  0
LINE
  5
1B2A5
330
1F
100
AcDbEntity
  8
0
 62
     0
 48
4.0
100
AcDbLine
 10
2748.281586840403
 20
1960.061474726267
 30
0.0
 11
2733.081586840403
 21
1960.061474726267
 31
0.0
  0
LINE
  5
1B2A6
330
1F
100
AcDbEntity
  8
0
 62
     0
 48
4.0
100
AcDbLine
 10
2748.281586840403
 20
1956.861474726265
 30
0.0
 11
2733.081586840403
 21
1956.861474726265
 31
0.0
  0
LINE
  5
1B2A7
330
1F
100
AcDbEntity
  8
0
 62
     0
 48
4.0
100
AcDbLine
 10
2748.281586840403
 20
1956.861474726265
 30
0.0
 11
2733.081586840403
 21
1956.861474726265
 31
0.0
  0
LINE
  5
1B2A8
330
1F
100
AcDbEntity
  8
0
 62
     0
 48
4.0
100
AcDbLine
 10
2748.281586840403
 20
1950.461474726266
 30
0.0
 11
2733.081586840403
 21
1950.461474726266
 31
0.0
  0
LINE
  5
1B2A9
330
1F
100
AcDbEntity
  8
0
 62
     0
 48
4.0
100
AcDbLine
 10
2748.281586840403
 20
1950.461474726266
 30
0.0
 11
2733.081586840403
 21
1950.461474726266
 31
0.0
  0
LINE
  5
1B2AA
330
1F
100
AcDbEntity
  8
0
 62
     0
 48
4.0
100
AcDbLine
 10
2748.281586840403
 20
1953.661474726268
 30
0.0
 11
2733.081586840403
 21
1953.661474726268
 31
0.0
  0
LINE
  5
1B2AB
330
1F
100
AcDbEntity
  8
0
 62
     0
 48
4.0
100
AcDbLine
 10
2748.281586840403
 20
1953.661474726268
 30
0.0
 11
2733.081586840403
 21
1953.661474726268
 31
0.0
  0
LINE
  5
1B2AC
330
1F
100
AcDbEntity
  8
0
 62
     0
 48
4.0
100
AcDbLine
 10
2748.281586840403
 20
1950.461474726266
 30
0.0
 11
2733.081586840403
 21
1950.461474726266
 31
0.0
  0
LINE
  5
1B2AD
330
1F
100
AcDbEntity
  8
0
 62
     0
 48
4.0
100
AcDbLine
 10
2748.281586840403
 20
1950.461474726266
 30
0.0
 11
2733.081586840403
 21
1950.461474726266
 31
0.0
  0
LINE
  5
1B2AE
330
1F
100
AcDbEntity
  8
0
 62
     0
 48
4.0
100
AcDbLine
 10
2748.281586840403
 20
1953.661474726268
 30
0.0
 11
2733.081586840403
 21
1953.661474726268
 31
0.0
  0
LINE
  5
1B2AF
330
1F
100
AcDbEntity
  8
0
 62
     0
 48
4.0
100
AcDbLine
 10
2748.281586840403
 20
1953.661474726268
 30
0.0
 11
2733.081586840403
 21
1953.661474726268
 31
0.0
  0
LINE
  5
1B2B0
330
1F
100
AcDbEntity
  8
0
 62
     0
 48
4.0
100
AcDbLine
 10
2751.681586840405
 20
1966.461474726265
 30
0.0
 11
2729.681586840402
 21
1966.461474726265
 31
0.0
  0
ARC
  5
1B2B1
330
1F
100
AcDbEntity
  8
0
 62
     0
 48
4.0
100
AcDbCircle
 10
2731.402697095495
 20
1955.261474726267
 30
0.0
 40
0.4000000000000001
100
AcDbArc
 50
123.6900675259653
 51
236.3099324740347
  0
LINE
  5
1B2B2
330
1F
100
AcDbEntity
  8
0
 62
     0
 48
4.0
100
AcDbLine
 10
2729.681586840402
 20
1966.461474726265
 30
0.0
 11
2729.681586840402
 21
1967.661474726264
 31
0.0
  0
ARC
  5
1B2B3
330
1F
100
AcDbEntity
  8
0
 62
     0
 48
4.0
100
AcDbCircle
 10
2731.402697095495
 20
1964.861474726267
 30
0.0
 40
0.4000000000000001
100
AcDbArc
 50
123.6900675259653
 51
236.3099324740347
  0
ARC
  5
1B2B4
330
1F
100
AcDbEntity
  8
0
 62
     0
 48
4.0
100
AcDbCircle
 10
2731.402697095495
 20
1961.661474726265
 30
0.0
 40
0.4000000000000001
100
AcDbArc
 50
123.6900675259653
 51
236.3099324740347
  0
ARC
  5
1B2B5
330
1F
100
AcDbEntity
  8
0
 62
     0
 48
4.0
100
AcDbCircle
 10
2731.402697095495
 20
1958.461474726268
 30
0.0
 40
0.4000000000000001
100
AcDbArc
 50
123.6900675259653
 51
236.3099324740347
  0
ARC
  5
1B2B6
330
1F
100
AcDbEntity
  8
0
 62
     0
 48
4.0
100
AcDbCircle
 10
2731.402697095495
 20
1952.061474726265
 30
0.0
 40
0.4000000000000001
100
AcDbArc
 50
123.6900675259653
 51
236.3099324740347
  0
LINE
  5
1B2B7
330
1F
100
AcDbEntity
  8
0
 62
     0
 48
4.0
100
AcDbLine
 10
2735.094039355308
 20
1974.084602411026
 30
0.0
 11
2735.099052880018
 21
1974.084602411026
 31
0.0
  0
LINE
  5
1B2B8
330
1F
100
AcDbEntity
  8
0
 62
     0
 48
4.0
100
AcDbLine
 10
2735.094039355308
 20
1986.587554315212
 30
0.0
 11
2735.094039355308
 21
1974.084602411026
 31
0.0
  0
LINE
  5
1B2B9
330
1F
100
AcDbEntity
  8
0
 62
     0
 48
4.0
100
AcDbLine
 10
2731.180817017007
 20
1961.994294844003
 30
0.0
 11
2733.081586840403
 21
1963.261474726269
 31
0.0
  0
ARC
  5
1B2BA
330
1F
100
AcDbEntity
  8
0
 62
     0
 48
4.0
100
AcDbCircle
 10
2728.873003619451
 20
1973.834794948788
 30
0.0
 40
6.2260492605666
100
AcDbArc
 50
277.4621377567904
 51
2.299492943147577
  0
LINE
  5
1B2BB
330
1F
100
AcDbEntity
  8
0
 62
     0
 48
4.0
100
AcDbLine
 10
2731.180817017007
 20
1964.528654608529
 30
0.0
 11
2733.081586840403
 21
1963.261474726269
 31
0.0
  0
LINE
  5
1B2BC
330
1F
100
AcDbEntity
  8
0
 62
     0
 48
4.0
100
AcDbLine
 10
2731.180817017007
 20
1965.194294844
 30
0.0
 11
2733.081586840403
 21
1966.461474726265
 31
0.0
  0
LINE
  5
1B2BD
330
1F
100
AcDbEntity
  8
0
 62
     0
 48
4.0
100
AcDbLine
 10
2731.180817017007
 20
1961.328654608533
 30
0.0
 11
2733.081586840403
 21
1960.061474726267
 31
0.0
  0
LINE
  5
1B2BE
330
1F
100
AcDbEntity
  8
0
 62
     0
 48
4.0
100
AcDbLine
 10
2731.180817017007
 20
1958.794294844001
 30
0.0
 11
2733.081586840403
 21
1960.061474726267
 31
0.0
  0
LINE
  5
1B2BF
330
1F
100
AcDbEntity
  8
0
 62
     0
 48
4.0
100
AcDbLine
 10
2731.180817017007
 20
1958.128654608531
 30
0.0
 11
2733.081586840403
 21
1956.861474726265
 31
0.0
  0
LINE
  5
1B2C0
330
1F
100
AcDbEntity
  8
0
 62
     0
 48
4.0
100
AcDbLine
 10
2731.180817017007
 20
1955.594294844004
 30
0.0
 11
2733.081586840403
 21
1956.861474726265
 31
0.0
  0
LINE
  5
1B2C1
330
1F
100
AcDbEntity
  8
0
 62
     0
 48
4.0
100
AcDbLine
 10
2731.180817017007
 20
1952.394294844002
 30
0.0
 11
2733.081586840403
 21
1953.661474726268
 31
0.0
  0
LINE
  5
1B2C2
330
1F
100
AcDbEntity
  8
0
 62
     0
 48
4.0
100
AcDbLine
 10
2731.180817017007
 20
1951.728654608532
 30
0.0
 11
2733.081586840403
 21
1950.461474726266
 31
0.0
  0
LINE
  5
1B2C3
330
1F
100
AcDbEntity
  8
0
 62
     0
 48
4.0
100
AcDbLine
 10
2731.180817017007
 20
1949.194294844001
 30
0.0
 11
2733.081586840403
 21
1950.461474726266
 31
0.0
  0
LINE
  5
1B2C4
330
1F
100
AcDbEntity
  8
0
 62
     0
 48
4.0
100
AcDbLine
 10
2731.180817017007
 20
1954.928654608529
 30
0.0
 11
2733.081586840403
 21
1953.661474726268
 31
0.0
  0
ARC
  5
1B2C5
330
1F
100
AcDbEntity
  8
0
 62
     0
 48
4.0
100
AcDbCircle
 10
2749.960476585311
 20
1955.261474726267
 30
0.0
 40
0.4000000000000001
100
AcDbArc
 50
303.6900675259653
 51
56.30993247403466
  0
LINE
  5
1B2C6
330
1F
100
AcDbEntity
  8
0
 62
     0
 48
4.0
100
AcDbLine
 10
2750.182356663799
 20
1961.994294844003
 30
0.0
 11
2748.281586840403
 21
1963.261474726269
 31
0.0
  0
LINE
  5
1B2C7
330
1F
100
AcDbEntity
  8
0
 62
     0
 48
4.0
100
AcDbLine
 10
2740.694039355307
 20
1966.477888772196
 30
0.0
 11
2746.294039355307
 21
1966.477888772196
 31
0.0
  0
LINE
  5
1B2C8
330
1F
100
AcDbEntity
  8
0
 62
     0
 48
4.0
100
AcDbLine
 10
2740.681586840405
 20
1966.461474726265
 30
0.0
 11
2751.681586840405
 21
1966.461474726265
 31
0.0
  0
ARC
  5
1B2C9
330
1F
100
AcDbEntity
  8
0
 62
     0
 48
4.0
100
AcDbCircle
 10
2752.623517877277
 20
1973.922570370327
 30
0.0
 40
6.331552159012858
100
AcDbArc
 50
178.5335719456969
 51
261.4444749202349
  0
LINE
  5
1B2CA
330
1F
100
AcDbEntity
  8
0
 62
     0
 48
4.0
100
AcDbLine
 10
2751.681586840405
 20
1966.461474726265
 30
0.0
 11
2751.681586840405
 21
1967.661474726264
 31
0.0
  0
ARC
  5
1B2CB
330
1F
100
AcDbEntity
  8
0
 62
     0
 48
4.0
100
AcDbCircle
 10
2749.960476585311
 20
1964.861474726267
 30
0.0
 40
0.4000000000000001
100
AcDbArc
 50
303.6900675259653
 51
56.30993247403466
  0
LINE
  5
1B2CC
330
1F
100
AcDbEntity
  8
0
 62
     0
 48
4.0
100
AcDbLine
 10
2750.182356663799
 20
1964.528654608529
 30
0.0
 11
2748.281586840403
 21
1963.261474726269
 31
0.0
  0
LINE
  5
1B2CD
330
1F
100
AcDbEntity
  8
0
 62
     0
 48
4.0
100
AcDbLine
 10
2750.182356663799
 20
1965.194294844
 30
0.0
 11
2748.281586840403
 21
1966.461474726265
 31
0.0
  0
LINE
  5
1B2CE
330
1F
100
AcDbEntity
  8
0
 62
     0
 48
4.0
100
AcDbLine
 10
2746.294039355307
 20
1974.084602411026
 30
0.0
 11
2746.294039355307
 21
2000.23868966864
 31
0.0
  0
LINE
  5
1B2CF
330
1F
100
AcDbEntity
  8
0
 62
     0
 48
4.0
100
AcDbLine
 10
2750.182356663799
 20
1961.328654608533
 30
0.0
 11
2748.281586840403
 21
1960.061474726267
 31
0.0
  0
ARC
  5
1B2D0
330
1F
100
AcDbEntity
  8
0
 62
     0
 48
4.0
100
AcDbCircle
 10
2749.960476585311
 20
1961.661474726265
 30
0.0
 40
0.4000000000000001
100
AcDbArc
 50
303.6900675259653
 51
56.30993247403466
  0
LINE
  5
1B2D1
330
1F
100
AcDbEntity
  8
0
 62
     0
 48
4.0
100
AcDbLine
 10
2750.182356663799
 20
1958.794294844001
 30
0.0
 11
2748.281586840403
 21
1960.061474726267
 31
0.0
  0
LINE
  5
1B2D2
330
1F
100
AcDbEntity
  8
0
 62
     0
 48
4.0
100
AcDbLine
 10
2750.182356663799
 20
1958.128654608531
 30
0.0
 11
2748.281586840403
 21
1956.861474726265
 31
0.0
  0
ARC
  5
1B2D3
330
1F
100
AcDbEntity
  8
0
 62
     0
 48
4.0
100
AcDbCircle
 10
2749.960476585311
 20
1958.461474726268
 30
0.0
 40
0.4000000000000001
100
AcDbArc
 50
303.6900675259653
 51
56.30993247403466
  0
LINE
  5
1B2D4
330
1F
100
AcDbEntity
  8
0
 62
     0
 48
4.0
100
AcDbLine
 10
2750.182356663799
 20
1955.594294844004
 30
0.0
 11
2748.281586840403
 21
1956.861474726265
 31
0.0
  0
LINE
  5
1B2D5
330
1F
100
AcDbEntity
  8
0
 62
     0
 48
4.0
100
AcDbLine
 10
2750.182356663799
 20
1952.394294844002
 30
0.0
 11
2748.281586840403
 21
1953.661474726268
 31
0.0
  0
LINE
  5
1B2D6
330
1F
100
AcDbEntity
  8
0
 62
     0
 48
4.0
100
AcDbLine
 10
2750.182356663799
 20
1951.728654608532
 30
0.0
 11
2748.281586840403
 21
1950.461474726266
 31
0.0
  0
ARC
  5
1B2D7
330
1F
100
AcDbEntity
  8
0
 62
     0
 48
4.0
100
AcDbCircle
 10
2749.960476585311
 20
1952.061474726265
 30
0.0
 40
0.4000000000000001
100
AcDbArc
 50
303.6900675259653
 51
56.30993247403466
  0
LINE
  5
1B2D8
330
1F
100
AcDbEntity
  8
0
 62
     0
 48
4.0
100
AcDbLine
 10
2750.182356663799
 20
1949.194294844001
 30
0.0
 11
2748.281586840403
 21
1950.461474726266
 31
0.0
  0
LINE
  5
1B2D9
330
1F
100
AcDbEntity
  8
0
 62
     0
 48
4.0
100
AcDbLine
 10
2750.182356663799
 20
1954.928654608529
 30
0.0
 11
2748.281586840403
 21
1953.661474726268
 31
0.0
  0
ARC
  5
1B2DA
330
1F
100
AcDbEntity
  8
0
 62
     0
 48
4.0
100
AcDbCircle
 10
2740.694039355307
 20
2000.877888772192
 30
0.0
 40
5.600000000000022
100
AcDbArc
 50
353.488287014549
 51
90.77292445978214
  0
ARC
  5
1B2DB
330
1F
100
AcDbEntity
  8
0
 62
     0
100
AcDbCircle
 10
2707.863772401043
 20
2084.139240800204
 30
0.0
 40
3.999999999999886
100
AcDbArc
 50
90.0
 51
180.0
  0
LINE
  5
1B2DC
330
1F
100
AcDbEntity
  8
0
 62
     0
100
AcDbLine
 10
2707.863772401043
 20
2088.139240800205
 30
0.0
 11
2711.863854548787
 21
2087.825995047307
 31
0.0
  0
LINE
  5
1B2DD
330
1F
100
AcDbEntity
  8
0
 62
     0
 48
0.2
100
AcDbLine
 10
2711.863854548787
 20
2087.825995047307
 30
0.0
 11
2775.245370673513
 21
2085.462447835625
 31
0.0
  0
LINE
  5
1B2DE
330
1F
100
AcDbEntity
  8
0
 62
     0
 48
0.2
100
AcDbLine
 10
2775.394430253628
 20
2085.459669525945
 30
0.0
 11
2715.494776116035
 21
2083.228278942891
 31
0.0
  0
LINE
  5
1B2DF
330
1F
100
AcDbEntity
  8
0
 48
25.0
100
AcDbLine
 10
2736.146631035985
 20
2070.182346865636
 30
0.0
 11
2735.632696246051
 21
2083.978459657412
 31
0.0
  0
ARC
  5
1B2E0
330
1F
100
AcDbEntity
  8
0
 62
     0
100
AcDbCircle
 10
2715.828092732549
 20
2079.271512407833
 30
0.0
 40
3.970780953389556
100
AcDbArc
 50
94.81520763819306
 51
183.2688555483837
  0
LINE
  5
1B2E1
330
1F
100
AcDbEntity
  8
0
 62
     0
 48
0.2
100
AcDbLine
 10
2703.863772401043
 20
2032.270966891632
 30
0.0
 11
2703.894422030901
 21
2024.271084318332
 31
0.0
  0
LINE
  5
1B2E2
330
1F
100
AcDbEntity
  8
0
 62
     0
 48
0.2
100
AcDbLine
 10
2711.863772401043
 20
2032.270966891632
 30
0.0
 11
2711.863772401043
 21
2024.270966891632
 31
0.0
  0
LINE
  5
1B2E3
330
1F
100
AcDbEntity
  8
0
 62
     0
 48
0.2
100
AcDbLine
 10
2703.863772401043
 20
2084.139240800204
 30
0.0
 11
2703.863772401043
 21
2032.270966891632
 31
0.0
  0
LINE
  5
1B2E4
330
1F
100
AcDbEntity
  8
0
 62
     0
 48
0.2
100
AcDbLine
 10
2711.863772401043
 20
2079.045093130811
 30
0.0
 11
2711.863772401043
 21
2032.270966891632
 31
0.0
  0
LINE
  5
1B2E5
330
1F
100
AcDbEntity
  8
0
 48
25.0
100
AcDbLine
 10
2736.146631035985
 20
2061.851668299
 30
0.0
 11
2736.146631035985
 21
2070.182346865636
 31
0.0
  0
LINE
  5
1B2E6
330
1F
100
AcDbEntity
  8
0
 62
     0
 48
0.3
100
AcDbLine
 10
2736.146631035985
 20
2061.851668299
 30
0.0
 11
2736.146631035985
 21
2052.557916774612
 31
0.0
  0
LINE
  5
1B2E7
330
1F
100
AcDbEntity
  8
0
 48
25.0
100
AcDbLine
 10
2745.746631035986
 20
2069.964182922406
 30
0.0
 11
2745.746631035986
 21
2084.355225419632
 31
0.0
  0
LINE
  5
1B2E8
330
1F
100
AcDbEntity
  8
0
 62
     0
 48
0.2
100
AcDbLine
 10
2755.81331307267
 20
2051.398403231392
 30
0.0
 11
2767.851610006192
 21
2051.398403231392
 31
0.0
  0
LINE
  5
1B2E9
330
1F
100
AcDbEntity
  8
0
 62
     0
 48
0.2
100
AcDbLine
 10
2762.478873721639
 20
2051.398403231392
 30
0.0
 11
2755.81331307267
 21
2051.398403231392
 31
0.0
  0
ARC
  5
1B2EA
330
1F
100
AcDbEntity
  8
0
 62
     0
 48
0.2
100
AcDbCircle
 10
2762.478873721639
 20
2031.398403231392
 30
0.0
 40
20.02518713913716
100
AcDbArc
 50
87.12601637041727
 51
90.0
  0
LINE
  5
1B2EB
330
1F
100
AcDbEntity
  8
0
 62
     0
 48
0.2
100
AcDbLine
 10
2755.81331307267
 20
2043.398403231392
 30
0.0
 11
2767.562330086023
 21
2043.398403231392
 31
0.0
  0
LINE
  5
1B2EC
330
1F
100
AcDbEntity
  8
0
 62
     0
 48
0.2
100
AcDbLine
 10
2762.478873721639
 20
2043.398403231392
 30
0.0
 11
2755.81331307267
 21
2043.398403231392
 31
0.0
  0
LINE
  5
1B2ED
330
1F
100
AcDbEntity
  8
0
 62
     0
 48
0.2
100
AcDbLine
 10
2775.562330086023
 20
2020.425912156659
 30
0.0
 11
2775.562330086023
 21
2035.398403231392
 31
0.0
  0
LINE
  5
1B2EE
330
1F
100
AcDbEntity
  8
0
 62
     0
 48
0.2
100
AcDbLine
 10
2755.81331307267
 20
2051.398403231392
 30
0.0
 11
2755.81331307267
 21
2043.398403231392
 31
0.0
  0
LINE
  5
1B2EF
330
1F
100
AcDbEntity
  8
0
 48
25.0
100
AcDbLine
 10
2745.746631035986
 20
2061.672229046662
 30
0.0
 11
2745.746631035986
 21
2069.964182922406
 31
0.0
  0
LINE
  5
1B2F0
330
1F
100
AcDbEntity
  8
0
 62
     0
 48
0.3
100
AcDbLine
 10
2745.746631035986
 20
2061.672229046662
 30
0.0
 11
2745.746631035986
 21
2053.252095121274
 31
0.0
  0
LINE
  5
1B2F1
330
1F
100
AcDbEntity
  8
0
 62
     0
 48
0.2
100
AcDbLine
 10
2717.645239459685
 20
2119.620603363202
 30
0.0
 11
2765.741207696511
 21
2117.831699870954
 31
0.0
  0
LINE
  5
1B2F2
330
1F
100
AcDbEntity
  8
0
 62
     0
 48
0.2
100
AcDbLine
 10
2713.647896369314
 20
2111.950813581246
 30
0.0
 11
2765.755113107475
 21
2109.831158443286
 31
0.0
  0
LINE
  5
1B2F3
330
1F
100
AcDbEntity
  8
0
 62
     0
 48
0.2
100
AcDbLine
 10
2717.645239459685
 20
2127.620603363202
 30
0.0
 11
2765.741207696511
 21
2125.831699870954
 31
0.0
  0
LINE
  5
1B2F4
330
1F
100
AcDbEntity
  8
0
 62
     0
 48
0.2
100
AcDbLine
 10
2710.841209444038
 20
2103.864415448008
 30
0.0
 11
2772.511735771778
 21
2101.572223757499
 31
0.0
  0
LINE
  5
1B2F5
330
1F
100
AcDbEntity
  8
0
 62
     0
 48
0.2
100
AcDbLine
 10
2718.003785662188
 20
2151.604501532165
 30
0.0
 11
2766.099753899015
 21
2149.815598039918
 31
0.0
  0
LINE
  5
1B2F6
330
1F
100
AcDbEntity
  8
0
 62
     0
 48
0.2
100
AcDbLine
 10
2718.003785662188
 20
2135.604501532165
 30
0.0
 11
2766.099753899015
 21
2133.815598039919
 31
0.0
  0
LINE
  5
1B2F7
330
1F
100
AcDbEntity
  8
0
 62
     0
 48
0.2
100
AcDbLine
 10
2718.003785662188
 20
2143.604501532165
 30
0.0
 11
2766.099753899015
 21
2141.815598039918
 31
0.0
  0
LINE
  5
1B2F8
330
1F
100
AcDbEntity
  8
0
 62
     0
 48
0.2
100
AcDbLine
 10
2709.147964527567
 20
2095.927492452639
 30
0.0
 11
2775.394430253628
 21
2093.459669525948
 31
0.0
  0
ARC
  5
1B2F9
330
1F
100
AcDbEntity
  8
0
 62
     0
 48
0.2
100
AcDbCircle
 10
2718.003785662188
 20
2131.604501532167
 30
0.0
 40
4.0
100
AcDbArc
 50
85.73979285765053
 51
264.8573015310536
  0
ARC
  5
1B2FA
330
1F
100
AcDbEntity
  8
0
 62
     0
 48
0.2
100
AcDbCircle
 10
2715.673049310603
 20
2115.952967645085
 30
0.0
 40
4.0
100
AcDbArc
 50
83.8258247895196
 51
247.0503496044232
  0
ARC
  5
1B2FB
330
1F
100
AcDbEntity
  8
0
 62
     0
 48
0.2
100
AcDbCircle
 10
2713.647896369314
 20
2107.950813581248
 30
0.0
 40
4.0
100
AcDbArc
 50
83.84855933229079
 51
270.0
  0
ARC
  5
1B2FC
330
1F
100
AcDbEntity
  8
0
 62
     0
 48
0.2
100
AcDbCircle
 10
2717.645239459685
 20
2123.620603363202
 30
0.0
 40
4.0
100
AcDbArc
 50
84.85730153356353
 51
247.3254463791533
  0
LINE
  5
1B2FD
330
1F
100
AcDbEntity
  8
0
 62
     0
100
AcDbLine
 10
2715.673049310603
 20
2119.952967645085
 30
0.0
 11
2717.645239459685
 21
2119.620603363202
 31
0.0
  0
ARC
  5
1B2FE
330
1F
100
AcDbEntity
  8
0
 62
     0
 48
0.2
100
AcDbCircle
 10
2718.003785662188
 20
2139.604501532167
 30
0.0
 40
4.0
100
AcDbArc
 50
85.73979285765053
 51
270.0
  0
ARC
  5
1B2FF
330
1F
100
AcDbEntity
  8
0
 62
     0
 48
0.2
100
AcDbCircle
 10
2718.003785662188
 20
2147.604501532167
 30
0.0
 40
4.0
100
AcDbArc
 50
90.0
 51
270.0
  0
ARC
  5
1B300
330
1F
100
AcDbEntity
  8
0
 62
     0
100
AcDbCircle
 10
2707.863772401043
 20
2092.139240800205
 30
0.0
 40
3.999999999999886
100
AcDbArc
 50
71.27368276606097
 51
270.0
  0
ARC
  5
1B301
330
1F
100
AcDbEntity
  8
0
 62
     0
 48
0.2
100
AcDbCircle
 10
2710.841209444038
 20
2099.864415448008
 30
0.0
 40
4.0
100
AcDbArc
 50
85.74278056645209
 51
270.0
  0
ARC
  5
1B302
330
1F
100
AcDbEntity
  8
0
 62
     0
 48
0.2
100
AcDbCircle
 10
2767.590879959919
 20
2113.753173639064
 30
0.0
 40
4.0
100
AcDbArc
 50
270.0
 51
90.0
  0
ARC
  5
1B303
330
1F
100
AcDbEntity
  8
0
 62
     0
 48
0.2
100
AcDbCircle
 10
2769.589691170719
 20
2105.683719366254
 30
0.0
 40
4.0
100
AcDbArc
 50
270.0
 51
90.0
  0
ARC
  5
1B304
330
1F
100
AcDbEntity
  8
0
 62
     0
 48
0.2
100
AcDbCircle
 10
2765.592532667741
 20
2121.834463858931
 30
0.0
 40
4.0
100
AcDbArc
 50
270.0
 51
90.67338560605964
  0
ARC
  5
1B305
330
1F
100
AcDbEntity
  8
0
 62
     0
 48
0.2
100
AcDbCircle
 10
2765.951078870249
 20
2129.818362027894
 30
0.0
 40
4.0
100
AcDbArc
 50
266.9865410387287
 51
87.86989642882982
  0
ARC
  5
1B306
330
1F
100
AcDbEntity
  8
0
 62
     0
 48
0.2
100
AcDbCircle
 10
2765.951078870249
 20
2137.818362027894
 30
0.0
 40
4.0
100
AcDbArc
 50
270.0
 51
87.86989642882982
  0
LINE
  5
1B307
330
1F
100
AcDbEntity
  8
0
 62
     0
100
AcDbLine
 10
2764.912661061588
 20
2109.865428318351
 30
0.0
 11
2769.742486398703
 21
2109.680800003207
 31
0.0
  0
LINE
  5
1B308
330
1F
100
AcDbEntity
  8
0
 62
     0
100
AcDbLine
 10
2767.590879959919
 20
2117.753173639064
 30
0.0
 11
2765.741207696511
 21
2117.831699870954
 31
0.0
  0
ARC
  5
1B309
330
1F
100
AcDbEntity
  8
0
 62
     0
 48
0.2
100
AcDbCircle
 10
2765.951078870249
 20
2145.818362027894
 30
0.0
 40
4.0
100
AcDbArc
 50
270.8824913241027
 51
95.10167952413029
  0
ARC
  5
1B30A
330
1F
100
AcDbEntity
  8
0
 62
     0
 48
0.2
100
AcDbCircle
 10
2772.363164961708
 20
2097.574983870477
 30
0.0
 40
4.0
100
AcDbArc
 50
267.0757761806654
 51
90.0
  0
ARC
  5
1B30B
330
1F
100
AcDbEntity
  8
0
 62
     0
100
AcDbCircle
 10
2790.769591094218
 20
1882.477885005778
 30
0.0
 40
4.0
100
AcDbArc
 50
270.0
 51
0.0
  0
LINE
  5
1B30C
330
1F
100
AcDbEntity
  8
0
 62
     0
100
AcDbLine
 10
2800.769591094217
 20
1919.277885005781
 30
0.0
 11
2800.769591094217
 21
1862.577461652658
 31
0.0
  0
LINE
  5
1B30D
330
1F
100
AcDbEntity
  8
0
 62
     0
 48
4.0
100
AcDbLine
 10
2792.601345484285
 20
1810.565536902718
 30
0.0
 11
2792.601345484285
 21
1794.565536902719
 31
0.0
  0
LINE
  5
1B30E
330
1F
100
AcDbEntity
  8
0
 62
     0
100
AcDbLine
 10
2800.769591094217
 20
1862.577461652658
 30
0.0
 11
2800.769591094217
 21
1789.277885005781
 31
0.0
  0
LINE
  5
1B30F
330
1F
100
AcDbEntity
  8
0
 62
     0
100
AcDbLine
 10
2794.769591094218
 20
1862.577461652658
 30
0.0
 11
2794.769591094218
 21
1796.077885005779
 31
0.0
  0
ARC
  5
1B310
330
1F
100
AcDbEntity
  8
0
 62
     0
100
AcDbCircle
 10
2799.569591094218
 20
1789.277885005781
 30
0.0
 40
1.199999999999999
100
AcDbArc
 50
270.0
 51
0.0
  0
ARC
  5
1B311
330
1F
100
AcDbEntity
  8
0
 62
     0
100
AcDbCircle
 10
2792.76959109422
 20
1796.077885005779
 30
0.0
 40
2.0
100
AcDbArc
 50
270.0
 51
0.0
  0
ARC
  5
1B312
330
1F
100
AcDbEntity
  8
0
 62
     0
100
AcDbCircle
 10
2791.269591094219
 20
1868.977885005779
 30
0.0
 40
3.5
100
AcDbArc
 50
0.0
 51
90.0
  0
LINE
  5
1B313
330
1F
100
AcDbEntity
  8
0
 62
     0
100
AcDbLine
 10
2794.769591094218
 20
1868.977885005779
 30
0.0
 11
2794.769591094218
 21
1862.577461652658
 31
0.0
  0
LINE
  5
1B314
330
1F
100
AcDbEntity
  8
0
 62
     0
 48
0.3
100
AcDbLine
 10
3080.601345484283
 20
1608.376418093027
 30
0.0
 11
3080.601345484283
 21
1760.37641809303
 31
0.0
  0
LINE
  5
1B315
330
1F
100
AcDbEntity
  8
0
 62
     0
 48
0.3
100
AcDbLine
 10
3080.601345484283
 20
1608.376418093027
 30
0.0
 11
3080.601345484283
 21
1760.37641809303
 31
0.0
  0
LINE
  5
1B316
330
1F
100
AcDbEntity
  8
0
 62
     0
100
AcDbLine
 10
3012.794292970438
 20
1659.119558821217
 30
0.0
 11
3007.179438784219
 21
1659.119558821217
 31
0.0
  0
LINE
  5
1B317
330
1F
100
AcDbEntity
  8
0
 62
     0
100
AcDbLine
 10
3012.798239880717
 20
1661.185244306585
 30
0.0
 11
3005.179438784216
 21
1661.185244306585
 31
0.0
  0
LINE
  5
1B318
330
1F
100
AcDbEntity
  8
0
 62
     0
100
AcDbLine
 10
3012.870851424864
 20
1699.187783634825
 30
0.0
 11
3007.179438784219
 21
1699.187783634825
 31
0.0
  0
LINE
  5
1B319
330
1F
100
AcDbEntity
  8
0
 62
     0
100
AcDbLine
 10
3012.867029764638
 20
1697.187649985973
 30
0.0
 11
3005.179438784216
 21
1697.187649985973
 31
0.0
  0
LINE
  5
1B31A
330
1F
100
AcDbEntity
  8
0
 62
     0
100
AcDbLine
 10
3005.179438784216
 20
1661.119558821216
 30
0.0
 11
3005.179438784216
 21
1697.187783634827
 31
0.0
  0
LINE
  5
1B31B
330
1F
100
AcDbEntity
  8
0
 62
     0
100
AcDbLine
 10
3007.179438784219
 20
1659.119558821217
 30
0.0
 11
3007.179438784219
 21
1699.187783634825
 31
0.0
  0
LINE
  5
1B31C
330
1F
100
AcDbEntity
  8
0
 62
     0
100
AcDbLine
 10
3005.179438784216
 20
1661.119558821216
 30
0.0
 11
3007.179438784219
 21
1659.119558821217
 31
0.0
  0
LINE
  5
1B31D
330
1F
100
AcDbEntity
  8
0
 62
     0
100
AcDbLine
 10
3005.179438784216
 20
1697.187783634827
 30
0.0
 11
3007.179438784219
 21
1699.187783634825
 31
0.0
  0
ARC
  5
1B31E
330
1F
100
AcDbEntity
  8
0
 62
     0
100
AcDbCircle
 10
3064.393028175396
 20
1679.120895309762
 30
0.0
 40
51.63150911090409
100
AcDbArc
 50
157.2080385520339
 51
202.7919614479661
  0
LINE
  5
1B31F
330
1F
100
AcDbEntity
  8
0
 62
     0
100
AcDbLine
 10
3012.775184669349
 20
1649.118890576938
 30
0.0
 11
3012.8898344759
 21
1709.122900042585
 31
0.0
  0
LINE
  5
1B320
330
1F
100
AcDbEntity
  8
0
 62
     0
 48
0.5
100
AcDbLine
 10
3064.601345484284
 20
1679.410449750945
 30
0.0
 11
3064.601345484284
 21
1635.410449750944
 31
0.0
  0
LINE
  5
1B321
330
1F
100
AcDbEntity
  8
0
 62
     0
100
AcDbLine
 10
3080.601345484283
 20
1688.633196615953
 30
0.0
 11
3080.601345484283
 21
1648.633196615953
 31
0.0
  0
LINE
  5
1B322
330
1F
100
AcDbEntity
  8
0
 62
     0
100
AcDbLine
 10
3080.601345484283
 20
1688.633196615953
 30
0.0
 11
3080.601345484283
 21
1648.633196615953
 31
0.0
  0
LINE
  5
1B323
330
1F
100
AcDbEntity
  8
0
 62
     0
100
AcDbLine
 10
3058.601345484285
 20
1714.519748572198
 30
0.0
 11
3058.601345484285
 21
1656.519748572196
 31
0.0
  0
LINE
  5
1B324
330
1F
100
AcDbEntity
  8
0
 62
     0
 48
0.5
100
AcDbLine
 10
3058.601345484285
 20
1635.410449750944
 30
0.0
 11
3058.601345484285
 21
1723.410449750946
 31
0.0
  0
LINE
  5
1B325
330
1F
100
AcDbEntity
  8
0
 62
     0
 48
25.0
100
AcDbLine
 10
3064.601345484284
 20
1635.410449750944
 30
0.0
 11
3064.601345484284
 21
1723.410449750946
 31
0.0
  0
LINE
  5
1B326
330
1F
100
AcDbEntity
  8
0
 62
     0
 48
2.0
100
AcDbLine
 10
3048.601345484285
 20
1643.319748572194
 30
0.0
 11
3048.49247766062
 21
1714.527190815957
 31
0.0
  0
LINE
  5
1B327
330
1F
100
AcDbEntity
  8
0
 62
     0
100
AcDbLine
 10
3057.801345484281
 20
1642.519748572195
 30
0.0
 11
3049.401345484279
 21
1642.519748572195
 31
0.0
  0
LINE
  5
1B328
330
1F
100
AcDbEntity
  8
0
 48
25.0
100
AcDbLine
 10
3048.546509510788
 20
1640.118289157095
 30
0.0
 11
3048.601345484285
 21
1643.319748572194
 31
0.0
  0
ARC
  5
1B329
330
1F
100
AcDbEntity
  8
0
 62
     0
100
AcDbCircle
 10
3027.230236479058
 20
1649.118890576938
 30
0.0
 40
14.45505180971646
100
AcDbArc
 50
136.2235944163429
 51
223.7764055836569
  0
LINE
  5
1B32A
330
1F
100
AcDbEntity
  8
0
 62
     0
100
AcDbLine
 10
3047.546442686357
 20
1639.118222332668
 30
0.0
 11
3048.546509510788
 21
1640.118289157095
 31
0.0
  0
LINE
  5
1B32B
330
1F
100
AcDbEntity
  8
0
 62
     0
100
AcDbLine
 10
3049.401345484279
 20
1642.519748572195
 30
0.0
 11
3048.601345484285
 21
1643.319748572194
 31
0.0
  0
LINE
  5
1B32C
330
1F
100
AcDbEntity
  8
0
 62
     0
100
AcDbLine
 10
3042.96716405634
 20
1659.119558821217
 30
0.0
 11
3048.546509510788
 21
1659.119558821217
 31
0.0
  0
LINE
  5
1B32D
330
1F
100
AcDbEntity
  8
0
 62
     0
100
AcDbLine
 10
3016.793035825171
 20
1639.118222332668
 30
0.0
 11
3047.546442686357
 21
1639.118222332668
 31
0.0
  0
LINE
  5
1B32E
330
1F
100
AcDbEntity
  8
0
 62
     0
100
AcDbLine
 10
3016.793035825171
 20
1639.118222332668
 30
0.0
 11
3042.96716405634
 21
1639.118222332668
 31
0.0
  0
LINE
  5
1B32F
330
1F
100
AcDbEntity
  8
0
 62
     0
100
AcDbLine
 10
3016.793035825171
 20
1659.119558821217
 30
0.0
 11
3042.96716405634
 21
1659.119558821217
 31
0.0
  0
LINE
  5
1B330
330
1F
100
AcDbEntity
  8
0
 62
     0
100
AcDbLine
 10
3058.601345484285
 20
1643.319748572194
 30
0.0
 11
3057.801345484281
 21
1642.519748572195
 31
0.0
  0
LINE
  5
1B331
330
1F
100
AcDbEntity
  8
0
 62
     0
 48
0.5
100
AcDbLine
 10
3064.601345484284
 20
1635.410449750944
 30
0.0
 11
3058.601345484285
 21
1635.410449750944
 31
0.0
  0
LINE
  5
1B332
330
1F
100
AcDbEntity
  8
0
 62
     0
100
AcDbLine
 10
3058.601345484285
 20
1656.519748572196
 30
0.0
 11
3058.601345484285
 21
1643.319748572194
 31
0.0
  0
LINE
  5
1B333
330
1F
100
AcDbEntity
  8
0
 62
     0
100
AcDbLine
 10
3057.801345484281
 20
1715.319748572197
 30
0.0
 11
3049.401345484279
 21
1715.319748572197
 31
0.0
  0
LINE
  5
1B334
330
1F
100
AcDbEntity
  8
0
 62
     0
 48
2.0
100
AcDbLine
 10
3058.601345484285
 20
1671.948345019642
 30
0.0
 11
3048.541933438496
 21
1682.179529881119
 31
0.0
  0
LINE
  5
1B335
330
1F
100
AcDbEntity
  8
0
 48
25.0
100
AcDbLine
 10
3048.546509510788
 20
1718.254605135467
 30
0.0
 11
3048.49247766062
 21
1714.527190815957
 31
0.0
  0
ARC
  5
1B336
330
1F
100
AcDbEntity
  8
0
 62
     0
100
AcDbCircle
 10
3027.653144870646
 20
1709.122900042585
 30
0.0
 40
14.76331039474835
100
AcDbArc
 50
137.3591881474104
 51
222.6408118525896
  0
LINE
  5
1B337
330
1F
100
AcDbEntity
  8
0
 62
     0
100
AcDbLine
 10
3047.546451210305
 20
1719.250542921359
 30
0.0
 11
3048.546509510788
 21
1718.254605135467
 31
0.0
  0
LINE
  5
1B338
330
1F
100
AcDbEntity
  8
0
 62
     0
100
AcDbLine
 10
3049.401345484279
 20
1715.319748572197
 30
0.0
 11
3048.49247766062
 21
1714.527190815957
 31
0.0
  0
LINE
  5
1B339
330
1F
100
AcDbEntity
  8
0
 62
     0
100
AcDbLine
 10
3048.546509510788
 20
1679.186447146281
 30
0.0
 11
3048.546509510788
 21
1689.187115390556
 31
0.0
  0
LINE
  5
1B33A
330
1F
100
AcDbEntity
  8
0
 62
     0
100
AcDbLine
 10
3042.96716405634
 20
1699.122231798311
 30
0.0
 11
3048.546509510788
 21
1699.122231798311
 31
0.0
  0
LINE
  5
1B33B
330
1F
100
AcDbEntity
  8
0
 62
     0
100
AcDbLine
 10
3048.546509510788
 20
1679.186447146281
 30
0.0
 11
3048.546509510788
 21
1699.187783634825
 31
0.0
  0
LINE
  5
1B33C
330
1F
100
AcDbEntity
  8
0
 62
     0
100
AcDbLine
 10
3047.546451210305
 20
1719.250542921359
 30
0.0
 11
3016.830973361466
 21
1719.250542921359
 31
0.0
  0
LINE
  5
1B33D
330
1F
100
AcDbEntity
  8
0
 62
     0
100
AcDbLine
 10
3016.793035825171
 20
1699.122231798311
 30
0.0
 11
3042.96716405634
 21
1699.122231798311
 31
0.0
  0
LINE
  5
1B33E
330
1F
100
AcDbEntity
  8
0
 62
     0
 48
0.5
100
AcDbLine
 10
3058.601345484285
 20
1723.410449750946
 30
0.0
 11
3064.601345484284
 21
1723.410449750946
 31
0.0
  0
LINE
  5
1B33F
330
1F
100
AcDbEntity
  8
0
 62
     0
100
AcDbLine
 10
3057.801345484281
 20
1715.319748572197
 30
0.0
 11
3058.601345484285
 21
1714.519748572198
 31
0.0
  0
LINE
  5
1B340
330
1F
100
AcDbEntity
  8
0
 62
     0
 48
25.0
100
AcDbLine
 10
3064.601345484284
 20
1723.410449750946
 30
0.0
 11
3064.601345484284
 21
1679.410449750945
 31
0.0
  0
ARC
  5
1B341
330
1F
100
AcDbEntity
  8
0
 62
     0
100
AcDbCircle
 10
3060.601345484283
 20
1768.077885005782
 30
0.0
 40
4.0
100
AcDbArc
 50
0.0
 51
90.0
  0
ARC
  5
1B342
330
1F
100
AcDbEntity
  8
0
 62
     0
100
AcDbCircle
 10
3060.601345484283
 20
1768.077885005782
 30
0.0
 40
20.0
100
AcDbArc
 50
0.0
 51
90.0
  0
LINE
  5
1B343
330
1F
100
AcDbEntity
  8
0
 62
     0
100
AcDbLine
 10
2780.601345484283
 20
1914.477885005781
 30
0.0
 11
2780.601345484283
 21
1906.477885005779
 31
0.0
  0
ARC
  5
1B344
330
1F
100
AcDbEntity
  8
0
 62
     0
100
AcDbCircle
 10
2799.569591094218
 20
1919.277885005781
 30
0.0
 40
1.199999999999999
100
AcDbArc
 50
0.0
 51
90.0
  0
ARC
  5
1B345
330
1F
100
AcDbEntity
  8
0
 62
     0
100
AcDbCircle
 10
2790.769591094218
 20
1910.47788500578
 30
0.0
 40
4.0
100
AcDbArc
 50
0.0
 51
90.0
  0
LINE
  5
1B346
330
1F
100
AcDbEntity
  8
0
 62
     0
100
AcDbLine
 10
2794.769591094218
 20
1910.47788500578
 30
0.0
 11
2794.769591094218
 21
1882.477885005778
 31
0.0
  0
LINE
  5
1B347
330
1F
100
AcDbEntity
  8
0
 62
     0
 48
0.2
100
AcDbLine
 10
2783.61238235604
 20
2020.460708793043
 30
0.0
 11
2783.61238235604
 21
2035.929556012217
 31
0.0
  0
LINE
  5
1B348
330
1F
100
AcDbEntity
  8
0
 62
     0
 48
0.3
100
AcDbLine
 10
3092.601345484286
 20
1971.280058316366
 30
0.0
 11
3092.601345484286
 21
1534.554251860879
 31
0.0
  0
LINE
  5
1B349
330
1F
100
AcDbEntity
  8
0
 62
     0
 48
0.3
100
AcDbLine
 10
3092.601345484286
 20
1534.554251860879
 30
0.0
 11
3092.601345484286
 21
1485.710112597409
 31
0.0
  0
LINE
  5
1B34A
330
1F
100
AcDbEntity
  8
0
 62
     0
 48
0.3
100
AcDbLine
 10
3092.601345484286
 20
1504.444830070012
 30
0.0
 11
3145.634354073277
 21
1557.477838659003
 31
0.0
  0
LINE
  5
1B34B
330
1F
100
AcDbEntity
  8
0
 62
     0
 48
0.3
100
AcDbLine
 10
3092.601345484286
 20
1519.444830070012
 30
0.0
 11
3145.634354073277
 21
1572.477838659003
 31
0.0
  0
LINE
  5
1B34C
330
1F
100
AcDbEntity
  8
0
 62
     0
 48
0.3
100
AcDbLine
 10
3092.601345484286
 20
1534.444830070012
 30
0.0
 11
3145.634354073277
 21
1587.477838659003
 31
0.0
  0
LINE
  5
1B34D
330
1F
100
AcDbEntity
  8
0
 62
     0
100
AcDbLine
 10
3254.89066738955
 20
1699.120895309762
 30
0.0
 11
3233.401345484286
 21
1696.423324854218
 31
0.0
  0
LINE
  5
1B34E
330
1F
100
AcDbEntity
  8
0
 62
     0
100
AcDbLine
 10
3254.89066738955
 20
1659.120895309762
 30
0.0
 11
3233.401345484286
 21
1661.46870873426
 31
0.0
  0
LINE
  5
1B34F
330
1F
100
AcDbEntity
  8
0
 62
     0
 48
0.3
100
AcDbLine
 10
3092.601345484286
 20
1760.37641809303
 30
0.0
 11
3092.601345484286
 21
1608.376418093027
 31
0.0
  0
LINE
  5
1B350
330
1F
100
AcDbEntity
  8
0
 62
     0
100
AcDbLine
 10
3158.601345484284
 20
1659.120895309762
 30
0.0
 11
3230.854962282164
 21
1659.120895309762
 31
0.0
  0
LINE
  5
1B351
330
1F
100
AcDbEntity
  8
0
 62
     0
100
AcDbLine
 10
3229.243180786139
 20
1699.120895309762
 30
0.0
 11
3158.601345484284
 21
1699.120895309762
 31
0.0
  0
LINE
  5
1B352
330
1F
100
AcDbEntity
  8
0
 62
     0
100
AcDbLine
 10
3229.243180786139
 20
1699.120895309762
 30
0.0
 11
3158.601345484284
 21
1699.120895309762
 31
0.0
  0
LINE
  5
1B353
330
1F
100
AcDbEntity
  8
0
 62
     0
100
AcDbLine
 10
3166.601345484282
 20
1699.120895309762
 30
0.0
 11
3166.601345484282
 21
1662.727494059446
 31
0.0
  0
LINE
  5
1B354
330
1F
100
AcDbEntity
  8
0
 62
     0
100
AcDbLine
 10
3158.601345484284
 20
1699.120895309762
 30
0.0
 11
3158.601345484284
 21
1659.120895309762
 31
0.0
  0
LINE
  5
1B355
330
1F
100
AcDbEntity
  8
0
 62
     0
100
AcDbLine
 10
3158.601345484284
 20
1661.12089530976
 30
0.0
 11
3092.601345484286
 21
1661.12089530976
 31
0.0
  0
LINE
  5
1B356
330
1F
100
AcDbEntity
  8
0
 62
     0
100
AcDbLine
 10
3166.601345484282
 20
1662.727494059446
 30
0.0
 11
3166.601345484282
 21
1659.120895309762
 31
0.0
  0
LINE
  5
1B357
330
1F
100
AcDbEntity
  8
0
 62
     0
100
AcDbLine
 10
3158.601345484284
 20
1659.120895309762
 30
0.0
 11
3158.601345484284
 21
1661.12089530976
 31
0.0
  0
LINE
  5
1B358
330
1F
100
AcDbEntity
  8
0
 62
     0
100
AcDbLine
 10
3158.601345484284
 20
1697.120895309764
 30
0.0
 11
3092.601345484286
 21
1697.120895309764
 31
0.0
  0
LINE
  5
1B359
330
1F
100
AcDbEntity
  8
0
 62
     0
100
AcDbLine
 10
3158.601345484284
 20
1699.120895309762
 30
0.0
 11
3166.601345484282
 21
1699.120895309762
 31
0.0
  0
LINE
  5
1B35A
330
1F
100
AcDbEntity
  8
0
 62
     0
100
AcDbLine
 10
3158.601345484284
 20
1699.120895309762
 30
0.0
 11
3158.601345484284
 21
1697.120895309764
 31
0.0
  0
ARC
  5
1B35B
330
1F
100
AcDbEntity
  8
0
 62
     0
100
AcDbCircle
 10
3209.360830087844
 20
1649.074390845295
 30
0.0
 40
27.04746746849392
100
AcDbArc
 50
27.27380201547615
 51
89.51650758356089
  0
ARC
  5
1B35C
330
1F
100
AcDbEntity
  8
0
 62
     0
100
AcDbCircle
 10
3229.73891643508
 20
1662.886112745569
 30
0.0
 40
3.927138993174281
100
AcDbArc
 50
253.4896813575782
 51
338.8429642585357
  0
LINE
  5
1B35D
330
1F
100
AcDbEntity
  8
0
 62
     0
100
AcDbLine
 10
3189.34034383858
 20
1676.12089530976
 30
0.0
 11
3209.994045449975
 21
1676.12089530976
 31
0.0
  0
LINE
  5
1B35E
330
1F
100
AcDbEntity
  8
0
 62
     0
100
AcDbLine
 10
3189.34034383858
 20
1682.120895309763
 30
0.0
 11
3209.589068368468
 21
1682.120895309763
 31
0.0
  0
ARC
  5
1B35F
330
1F
100
AcDbEntity
  8
0
 62
     0
100
AcDbCircle
 10
3189.34034383858
 20
1679.120895309762
 30
0.0
 40
3.0
100
AcDbArc
 50
90.0
 51
270.0
  0
ARC
  5
1B360
330
1F
100
AcDbEntity
  8
0
 62
     0
100
AcDbCircle
 10
3207.484929903275
 20
1712.597979152447
 30
0.0
 40
30.54963237478725
100
AcDbArc
 50
273.9494346700525
 51
328.0313641311729
  0
ARC
  5
1B361
330
1F
100
AcDbEntity
  8
0
 62
     0
100
AcDbCircle
 10
3228.93302568707
 20
1694.50988407878
 30
0.0
 40
4.621430596438699
100
AcDbArc
 50
21.1104845833652
 51
93.84814721200372
  0
LINE
  5
1B362
330
1F
100
AcDbEntity
  8
0
 62
     0
 48
0.3
100
AcDbLine
 10
3092.601345484286
 20
1789.257873848957
 30
0.0
 11
3145.634354073277
 21
1842.290882437948
 31
0.0
  0
LINE
  5
1B363
330
1F
100
AcDbEntity
  8
0
 62
     0
 48
0.3
100
AcDbLine
 10
3092.601345484286
 20
1804.257873848957
 30
0.0
 11
3145.634354073277
 21
1857.290882437948
 31
0.0
  0
LINE
  5
1B364
330
1F
100
AcDbEntity
  8
0
 62
     0
 48
0.3
100
AcDbLine
 10
3092.601345484286
 20
1819.257873848957
 30
0.0
 11
3145.634354073277
 21
1872.290882437948
 31
0.0
  0
LINE
  5
1B365
330
1F
100
AcDbEntity
  8
0
 62
     0
100
AcDbLine
 10
3265.401345484284
 20
1663.120895309763
 30
0.0
 11
3265.401345484284
 21
1695.120895309761
 31
0.0
  0
ARC
  5
1B366
330
1F
100
AcDbEntity
  8
0
 62
     0
100
AcDbCircle
 10
3256.624638935686
 20
1670.373885374429
 30
0.0
 40
11.38580004735585
100
AcDbArc
 50
261.2401983392956
 51
320.4299839966517
  0
LINE
  5
1B367
330
1F
100
AcDbEntity
  8
0
 62
     0
100
AcDbLine
 10
3254.89066738955
 20
1659.120895309762
 30
0.0
 11
3256.624638935686
 21
1659.120895309762
 31
0.0
  0
ARC
  5
1B368
330
1F
100
AcDbEntity
  8
0
 62
     0
100
AcDbCircle
 10
3255.677521473121
 20
1685.379193553354
 30
0.0
 40
13.76421107477037
100
AcDbArc
 50
45.05262221394995
 51
93.27719545008818
  0
LINE
  5
1B369
330
1F
100
AcDbEntity
  8
0
 62
     0
100
AcDbLine
 10
3256.464375556693
 20
1699.120895309762
 30
0.0
 11
3254.890667389545
 21
1699.120895309762
 31
0.0
  0
LINE
  5
1B36A
330
1F
100
AcDbEntity
  8
0
 62
     0
100
AcDbLine
 10
3256.464375556693
 20
1699.120895309762
 30
0.0
 11
3254.89066738955
 21
1699.120895309762
 31
0.0
  0
MTEXT
  5
1B384
330
1F
100
AcDbEntity
  8
0
 48
25.0
100
AcDbMText
 10
3328.30676280437
 20
2938.649472722759
 30
0.0
 40
16.0
 41
22.13169999999999
 71
     9
 72
     1
  1

 73
     1
 44
1.0
  0
LEADER
  5
1B385
330
1F
100
AcDbEntity
  8
0
 48
25.0
100
AcDbLeader
  3
ISO-25
 73
     0
 40
53.33333333333334
 41
354.6666666666667
 76
     2
 10
2712.826378181612
 20
2161.896414174975
 30
0.0
 10
2604.772852212065
 20
2161.896414174975
 30
0.0
340
1B1FD
213
0.0
223
10.0
233
0.0
1001
ACAD
1000
DSTYLE
1002
{
1070
   147
1040
10.0
1070
    77
1070
     0
1002
}
  0
ARC
  5
1B386
330
1F
100
AcDbEntity
  8
0
 62
     0
100
AcDbCircle
 10
2754.146631035983
 20
2313.932320403197
 30
0.0
 40
25.2
100
AcDbArc
 50
121.8373637122167
 51
224.4153085971888
  0
LINE
  5
1B387
330
1F
100
AcDbEntity
  8
0
 62
     0
100
AcDbLine
 10
2736.146631035985
 20
2313.932320403197
 30
0.0
 11
2736.146631035985
 21
2264.368646551234
 31
0.0
  0
ARC
  5
1B388
330
1F
100
AcDbEntity
  8
0
 62
     0
100
AcDbCircle
 10
2727.746631035984
 20
2280.228420986574
 30
0.0
 40
25.2
100
AcDbArc
 50
301.5881355052028
 51
44.4153085971888
  0
LINE
  5
1B389
330
1F
100
AcDbEntity
  8
0
 62
     0
100
AcDbLine
 10
2745.746631035986
 20
2280.228420986574
 30
0.0
 11
2745.746631035986
 21
2329.792094838536
 31
0.0
  0
LINE
  5
1B38A
330
1F
100
AcDbEntity
  8
0
 62
     0
100
AcDbLine
 10
2733.62578688899
 20
2207.732736503245
 30
0.0
 11
2733.62578688899
 21
2239.732736503245
 31
0.0
  0
LINE
  5
1B38B
330
1F
100
AcDbEntity
  8
0
 62
     0
100
AcDbLine
 10
2749.62578688899
 20
2239.732736503245
 30
0.0
 11
2749.62578688899
 21
2207.732736503245
 31
0.0
  0
LINE
  5
1B38C
330
1F
100
AcDbEntity
  8
0
 62
     0
 48
0.2
100
AcDbLine
 10
2727.263986421493
 20
2207.273411605334
 30
0.0
 11
2759.222369866532
 21
2206.082893281052
 31
0.0
  0
LINE
  5
1B38D
330
1F
100
AcDbEntity
  8
0
 62
     0
 48
0.2
100
AcDbLine
 10
2718.003785662188
 20
2183.604501532165
 30
0.0
 11
2766.099753899015
 21
2181.815598039918
 31
0.0
  0
LINE
  5
1B38E
330
1F
100
AcDbEntity
  8
0
 62
     0
 48
0.2
100
AcDbLine
 10
2718.003785662188
 20
2191.604501532165
 30
0.0
 11
2766.099753899015
 21
2189.815598039918
 31
0.0
  0
LINE
  5
1B38F
330
1F
100
AcDbEntity
  8
0
 62
     0
 48
0.2
100
AcDbLine
 10
2718.003785662188
 20
2167.604501532165
 30
0.0
 11
2766.099753899015
 21
2165.815598039918
 31
0.0
  0
LINE
  5
1B390
330
1F
100
AcDbEntity
  8
0
 62
     0
 48
0.2
100
AcDbLine
 10
2718.003785662188
 20
2175.604501532165
 30
0.0
 11
2766.099753899015
 21
2173.815598039918
 31
0.0
  0
LINE
  5
1B391
330
1F
100
AcDbEntity
  8
0
 62
     0
 48
0.2
100
AcDbLine
 10
2718.003785662188
 20
2159.604501532165
 30
0.0
 11
2766.099753899015
 21
2157.815598039918
 31
0.0
  0
LINE
  5
1B392
330
1F
100
AcDbEntity
  8
0
 62
     0
 48
0.2
100
AcDbLine
 10
2722.298823692936
 20
2199.450051118677
 30
0.0
 11
2762.251662019486
 21
2197.961722204401
 31
0.0
  0
ARC
  5
1B393
330
1F
100
AcDbEntity
  8
0
 62
     0
 48
0.2
100
AcDbCircle
 10
2727.115081126495
 20
2203.276184164578
 30
0.0
 40
4.0
100
AcDbArc
 50
87.86659582379138
 51
270.0
  0
LINE
  5
1B394
330
1F
100
AcDbEntity
  8
0
 62
     0
100
AcDbLine
 10
2733.62578688899
 20
2207.732736503245
 30
0.0
 11
2733.62578688899
 21
2207.036420893802
 31
0.0
  0
ARC
  5
1B395
330
1F
100
AcDbEntity
  8
0
 62
     0
 48
0.2
100
AcDbCircle
 10
2718.003785662188
 20
2179.604501532167
 30
0.0
 40
4.0
100
AcDbArc
 50
85.73979285765053
 51
270.0
  0
ARC
  5
1B396
330
1F
100
AcDbEntity
  8
0
 62
     0
 48
0.2
100
AcDbCircle
 10
2718.003785662188
 20
2187.604501532166
 30
0.0
 40
4.0
100
AcDbArc
 50
85.73979285765053
 51
274.2368155505585
  0
ARC
  5
1B397
330
1F
100
AcDbEntity
  8
0
 62
     0
 48
0.2
100
AcDbCircle
 10
2718.003785662188
 20
2163.604501532167
 30
0.0
 40
4.0
100
AcDbArc
 50
85.73979285765053
 51
274.2368155505585
  0
ARC
  5
1B398
330
1F
100
AcDbEntity
  8
0
 62
     0
 48
0.2
100
AcDbCircle
 10
2718.003785662188
 20
2171.604501532166
 30
0.0
 40
4.0
100
AcDbArc
 50
90.0
 51
274.2368155505585
  0
ARC
  5
1B399
330
1F
100
AcDbEntity
  8
0
 62
     0
 48
0.2
100
AcDbCircle
 10
2722.298823692936
 20
2195.450051118677
 30
0.0
 40
4.0
100
AcDbArc
 50
85.73319164758615
 51
270.0
  0
LINE
  5
1B39A
330
1F
100
AcDbEntity
  8
0
 62
     0
100
AcDbLine
 10
2749.62578688899
 20
2207.732736503245
 30
0.0
 11
2749.62578688899
 21
2206.4403865787
 31
0.0
  0
LINE
  5
1B39B
330
1F
100
AcDbEntity
  8
0
 62
     0
100
AcDbLine
 10
2749.62578688899
 20
2207.732736503245
 30
0.0
 11
2749.62578688899
 21
2206.932736503244
 31
0.0
  0
ARC
  5
1B39C
330
1F
100
AcDbEntity
  8
0
 62
     0
 48
0.2
100
AcDbCircle
 10
2765.951078870245
 20
2169.818362027894
 30
0.0
 40
4.0
100
AcDbArc
 50
272.1271645178741
 51
87.86989642882982
  0
ARC
  5
1B39D
330
1F
100
AcDbEntity
  8
0
 62
     0
 48
0.2
100
AcDbCircle
 10
2765.951078870245
 20
2185.818362027894
 30
0.0
 40
4.0
100
AcDbArc
 50
264.8573015335635
 51
90.0
  0
ARC
  5
1B39E
330
1F
100
AcDbEntity
  8
0
 62
     0
 48
0.2
100
AcDbCircle
 10
2762.251662019486
 20
2193.961722204401
 30
0.0
 40
4.0
100
AcDbArc
 50
270.0
 51
90.0
  0
ARC
  5
1B39F
330
1F
100
AcDbEntity
  8
0
 62
     0
 48
0.2
100
AcDbCircle
 10
2765.951078870245
 20
2177.818362027894
 30
0.0
 40
4.0
100
AcDbArc
 50
264.8573015335635
 51
87.86989642882982
  0
ARC
  5
1B3A0
330
1F
100
AcDbEntity
  8
0
 62
     0
 48
0.2
100
AcDbCircle
 10
2765.951078870245
 20
2161.818362027894
 30
0.0
 40
4.0
100
AcDbArc
 50
272.1271645178741
 51
95.10167952413029
  0
ARC
  5
1B3A1
330
1F
100
AcDbEntity
  8
0
 62
     0
 48
0.2
100
AcDbCircle
 10
2759.073464571534
 20
2202.085665840297
 30
0.0
 40
4.0
100
AcDbArc
 50
270.0
 51
90.0
  0
LINE
  5
1B3A2
330
1F
100
AcDbEntity
  8
0
 62
     0
100
AcDbLine
 10
2733.62578688899
 20
2239.732736503245
 30
0.0
 11
2749.62578688899
 21
2239.732736503245
 31
0.0
  0
ARC
  5
1B3A3
330
1F
100
AcDbEntity
  8
0
 62
     0
100
AcDbCircle
 10
2754.146631035983
 20
2246.732320403194
 30
0.0
 40
18.0
100
AcDbArc
 50
137.6554563558053
 51
180.2444422109438
  0
ARC
  5
1B3A4
330
1F
100
AcDbEntity
  8
0
 62
     0
100
AcDbCircle
 10
2754.146631035983
 20
2246.732320403194
 30
0.0
 40
25.2
100
AcDbArc
 50
121.8373637122167
 51
195.1815497688631
  0
LINE
  5
1B3A5
330
1F
100
AcDbEntity
  8
0
 62
     0
100
AcDbLine
 10
2736.146631035985
 20
2246.732320403194
 30
0.0
 11
2736.146631035985
 21
2239.732736503245
 31
0.0
  0
LINE
  5
1B3A6
330
1F
100
AcDbEntity
  8
0
 62
     0
100
AcDbLine
 10
2745.746631035986
 20
2239.732736503245
 30
0.0
 11
2745.746631035986
 21
2262.592094838538
 31
0.0
  0
ARC
  5
1B3A7
330
1F
100
AcDbEntity
  8
0
 62
     0
100
AcDbCircle
 10
2727.746631035984
 20
2280.228420986574
 30
0.0
 40
18.0
100
AcDbArc
 50
317.1665719339346
 51
0.0
  0
ARC
  5
1B3A8
330
1F
100
AcDbEntity
  8
0
 62
     0
100
AcDbCircle
 10
2754.146631035983
 20
2381.132320403195
 30
0.0
 40
25.2
100
AcDbArc
 50
121.5881355052027
 51
224.4153085971888
  0
LINE
  5
1B3A9
330
1F
100
AcDbEntity
  8
0
 62
     0
100
AcDbLine
 10
2745.746631035986
 20
2347.034748094207
 30
0.0
 11
2745.746631035986
 21
2397.199893671778
 31
0.0
  0
LINE
  5
1B3AA
330
1F
100
AcDbEntity
  8
0
 62
     0
100
AcDbLine
 10
2736.146631035985
 20
2381.132320403195
 30
0.0
 11
2736.146631035985
 21
2331.568646551237
 31
0.0
  0
ARC
  5
1B3AB
330
1F
100
AcDbEntity
  8
0
 62
     0
100
AcDbCircle
 10
2754.146631035983
 20
2313.932320403197
 30
0.0
 40
18.0
100
AcDbArc
 50
137.6554563558053
 51
180.2444422109438
  0
ARC
  5
1B3AC
330
1F
100
AcDbEntity
  8
0
 62
     0
100
AcDbCircle
 10
2727.746631035984
 20
2347.428420986576
 30
0.0
 40
25.2
100
AcDbArc
 50
301.5881355052028
 51
44.4153085971888
  0
ARC
  5
1B3AD
330
1F
100
AcDbEntity
  8
0
 62
     0
100
AcDbCircle
 10
2727.746631035984
 20
2347.428420986576
 30
0.0
 40
18.0
100
AcDbArc
 50
317.1665719339346
 51
0.0
  0
ARC
  5
1B3AE
330
1F
100
AcDbEntity
  8
0
 62
     0
100
AcDbCircle
 10
2754.146631035983
 20
2381.132320403195
 30
0.0
 40
18.0
100
AcDbArc
 50
137.1665719339346
 51
180.0
  0
LINE
  5
1B3AF
330
1F
100
AcDbEntity
  8
0
 62
     0
100
AcDbLine
 10
2736.146631035985
 20
2415.020700565011
 30
0.0
 11
2736.146631035985
 21
2398.768646551235
 31
0.0
  0
ARC
  5
1B3B0
330
1F
100
AcDbEntity
  8
0
 62
     0
100
AcDbCircle
 10
2727.746631035984
 20
2418.091056265289
 30
0.0
 40
18.0
100
AcDbArc
 50
349.5860406746093
 51
0.0
  0
ARC
  5
1B3B1
330
1F
100
AcDbEntity
  8
0
 62
     0
100
AcDbCircle
 10
2727.746631035984
 20
2414.836219819818
 30
0.0
 40
25.2
100
AcDbArc
 50
301.5881355052028
 51
0.0
  0
ARC
  5
1B3B2
330
1F
100
AcDbEntity
  8
0
 62
     0
100
AcDbCircle
 10
2727.746631035984
 20
2414.836219819818
 30
0.0
 40
18.0
100
AcDbArc
 50
317.1665719339346
 51
0.2533222070099348
  0
MTEXT
  5
1B5D8
330
1F
100
AcDbEntity
  8
0
 48
25.0
100
AcDbMText
 10
3746.225801791652
 20
4257.896844491258
 30
0.0
 40
16.0
 41
22.13169999999999
 71
     9
 72
     1
  1

 73
     1
 44
1.0
  0
MTEXT
  5
1B5E0
330
1F
100
AcDbEntity
  8
0
 48
25.0
100
AcDbMText
 10
3738.474016771277
 20
4389.838294650187
 30
0.0
 40
16.0
 41
22.13169999999999
 71
     9
 72
     1
  1

 73
     1
 44
1.0
  0
LINE
  5
1B712
330
1F
100
AcDbEntity
  8
0
 62
     0
100
AcDbLine
 10
3108.787487775344
 20
4691.674785613519
 30
0.0
 11
3042.787487775341
 21
4691.674785613519
 31
0.0
  0
LINE
  5
1B713
330
1F
100
AcDbEntity
  8
0
 62
     0
100
AcDbLine
 10
3108.787487775344
 20
4727.674785613518
 30
0.0
 11
3042.787487775341
 21
4727.674785613518
 31
0.0
  0
ARC
  5
1B714
330
1F
100
AcDbEntity
  8
0
 62
     0
 48
0.2
100
AcDbCircle
 10
2664.62964621675
 20
4266.197188872038
 30
0.0
 40
3.995763436799999
100
AcDbArc
 50
90.88055570857871
 51
270.0
  0
ARC
  5
1B715
330
1F
100
AcDbEntity
  8
0
 62
     0
 48
0.2
100
AcDbCircle
 10
2712.526156490323
 20
4267.981436603089
 30
0.0
 40
3.995763436799999
100
AcDbArc
 50
272.1301035711962
 51
87.87283548209989
  0
LINE
  5
1B716
330
1F
100
AcDbEntity
  8
2
 62
     0
100
AcDbLine
 10
2688.234401821826
 20
4041.311886404182
 30
0.0
 11
2688.234401821826
 21
4090.872626086647
 31
0.0
  0
ARC
  5
1B717
330
1F
100
AcDbEntity
  8
2
 62
     0
100
AcDbCircle
 10
2706.233336221833
 20
4041.311886404182
 30
0.0
 40
25.19850815999999
100
AcDbArc
 50
135.5846914027929
 51
186.9982779488085
  0
LINE
  5
1B718
330
1F
100
AcDbEntity
  8
2
 62
     0
100
AcDbLine
 10
2697.833833501827
 20
4075.013790549953
 30
0.0
 11
2697.833833501827
 21
4038.241712468964
 31
0.0
  0
LINE
  5
1B719
330
1F
100
AcDbEntity
  8
2
 62
     0
100
AcDbLine
 10
2688.234401821826
 20
3903.457412593476
 30
0.0
 11
2688.234401821826
 21
3953.018152275944
 31
0.0
  0
ARC
  5
1B71A
330
1F
100
AcDbEntity
  8
2
 62
     0
100
AcDbCircle
 10
2679.834899101834
 20
3937.159316739251
 30
0.0
 40
25.19850815999999
100
AcDbArc
 50
315.5846914027929
 51
58.16263628776106
  0
LINE
  5
1B71B
330
1F
100
AcDbEntity
  8
2
 62
     0
100
AcDbLine
 10
2697.833833501827
 20
3937.159316739251
 30
0.0
 11
2697.833833501827
 21
3887.598577056782
 31
0.0
  0
ARC
  5
1B71C
330
1F
100
AcDbEntity
  8
2
 62
     0
100
AcDbCircle
 10
2706.233336221833
 20
3903.457412593476
 30
0.0
 40
17.99893439999999
100
AcDbArc
 50
180.0
 51
222.8334280660476
  0
ARC
  5
1B71D
330
1F
100
AcDbEntity
  8
2
 62
     0
100
AcDbCircle
 10
2706.233336221833
 20
3903.457412593476
 30
0.0
 40
25.19850815999999
100
AcDbArc
 50
135.5846914027929
 51
238.4118644948194
  0
ARC
  5
1B71E
330
1F
100
AcDbEntity
  8
2
 62
     0
100
AcDbCircle
 10
2679.834899101834
 20
4004.355338499252
 30
0.0
 40
17.99893439999999
100
AcDbArc
 50
0.0
 51
42.83342806604767
  0
ARC
  5
1B71F
330
1F
100
AcDbEntity
  8
2
 62
     0
100
AcDbCircle
 10
2679.834899101834
 20
3937.159316739251
 30
0.0
 40
17.99893439999999
100
AcDbArc
 50
359.7555577890561
 51
42.34454364419466
  0
ARC
  5
1B720
330
1F
100
AcDbEntity
  8
2
 62
     0
100
AcDbCircle
 10
2679.834899101834
 20
4004.355338499252
 30
0.0
 40
25.19850815999999
100
AcDbArc
 50
315.5846914027929
 51
58.41186449481945
  0
ARC
  5
1B721
330
1F
100
AcDbEntity
  8
2
 62
     0
100
AcDbCircle
 10
2706.233336221833
 20
4038.057242645026
 30
0.0
 40
25.19850815999999
100
AcDbArc
 50
180.0
 51
238.4118644948194
  0
ARC
  5
1B722
330
1F
100
AcDbEntity
  8
2
 62
     0
100
AcDbCircle
 10
2706.233336221833
 20
4038.057242645026
 30
0.0
 40
17.99893439999999
100
AcDbArc
 50
179.74667779299
 51
222.8334280660476
  0
ARC
  5
1B723
330
1F
100
AcDbEntity
  8
2
 62
     0
100
AcDbCircle
 10
2706.233336221833
 20
4041.311886404182
 30
0.0
 40
17.99893439999999
100
AcDbArc
 50
180.0
 51
190.4139593253906
  0
ARC
  5
1B724
330
1F
100
AcDbEntity
  8
2
 62
     0
100
AcDbCircle
 10
2706.233336221833
 20
3970.653434353477
 30
0.0
 40
25.19850815999999
100
AcDbArc
 50
135.5846914027929
 51
238.4118644948194
  0
ARC
  5
1B725
330
1F
100
AcDbEntity
  8
2
 62
     0
100
AcDbCircle
 10
2706.233336221833
 20
3970.653434353477
 30
0.0
 40
17.99893439999999
100
AcDbArc
 50
180.0
 51
222.8334280660476
  0
LINE
  5
1B726
330
1F
100
AcDbEntity
  8
2
 62
     0
100
AcDbLine
 10
2688.234401821826
 20
3970.259784766543
 30
0.0
 11
2688.234401821826
 21
4020.421960567495
 31
0.0
  0
LINE
  5
1B727
330
1F
100
AcDbEntity
  8
2
 62
     0
100
AcDbLine
 10
2697.833833501827
 20
4038.241712468964
 30
0.0
 11
2697.833833501827
 21
4021.990620576785
 31
0.0
  0
LINE
  5
1B728
330
1F
100
AcDbEntity
  8
2
 62
     0
100
AcDbLine
 10
2697.833833501827
 20
4004.355338499252
 30
0.0
 11
2697.833833501827
 21
3954.794598816783
 31
0.0
  0
ARC
  5
1B729
330
1F
100
AcDbEntity
  8
2
 62
     0
100
AcDbCircle
 10
2706.233336221833
 20
4175.703929924177
 30
0.0
 40
25.19850815999999
100
AcDbArc
 50
148.8536218121832
 51
238.4118644948194
  0
ARC
  5
1B72A
330
1F
100
AcDbEntity
  8
2
 62
     0
100
AcDbCircle
 10
2679.834899101834
 20
4142.209812309951
 30
0.0
 40
25.19850815999999
100
AcDbArc
 50
315.5846914027929
 51
58.16263628776106
  0
LINE
  5
1B72B
330
1F
100
AcDbEntity
  8
2
 62
     0
100
AcDbLine
 10
2688.234401821826
 20
4108.50790816418
 30
0.0
 11
2688.234401821826
 21
4158.068647846649
 31
0.0
  0
ARC
  5
1B72C
330
1F
100
AcDbEntity
  8
2
 62
     0
100
AcDbCircle
 10
2679.834899101834
 20
4142.209812309951
 30
0.0
 40
17.99893439999999
100
AcDbArc
 50
359.7555577890561
 51
42.34454364419466
  0
ARC
  5
1B72D
330
1F
100
AcDbEntity
  8
2
 62
     0
100
AcDbCircle
 10
2679.834899101834
 20
4075.013790549953
 30
0.0
 40
25.19850815999999
100
AcDbArc
 50
315.5846914027929
 51
58.16263628776106
  0
ARC
  5
1B72E
330
1F
100
AcDbEntity
  8
2
 62
     0
100
AcDbCircle
 10
2679.834899101834
 20
4075.013790549953
 30
0.0
 40
17.99893439999999
100
AcDbArc
 50
359.7555577890561
 51
42.34454364419466
  0
ARC
  5
1B72F
330
1F
100
AcDbEntity
  8
2
 62
     0
100
AcDbCircle
 10
2706.233336221833
 20
4108.50790816418
 30
0.0
 40
17.99893439999999
100
AcDbArc
 50
180.0
 51
222.8334280660476
  0
ARC
  5
1B730
330
1F
100
AcDbEntity
  8
2
 62
     0
100
AcDbCircle
 10
2706.233336221833
 20
4108.50790816418
 30
0.0
 40
25.19850815999999
100
AcDbArc
 50
135.5846914027929
 51
238.4118644948194
  0
LINE
  5
1B731
330
1F
100
AcDbEntity
  8
2
 62
     0
100
AcDbLine
 10
2697.833833501827
 20
4142.209812309951
 30
0.0
 11
2697.833833501827
 21
4092.649072627486
 31
0.0
  0
LINE
  5
1B732
330
1F
100
AcDbEntity
  8
0
 62
     0
 48
0.2
100
AcDbLine
 10
2664.62964621675
 20
4238.226844814438
 30
0.0
 11
2712.674674051301
 21
4240.01385360601
 31
0.0
  0
LINE
  5
1B733
330
1F
100
AcDbEntity
  8
0
 62
     0
 48
0.2
100
AcDbLine
 10
2664.62964621675
 20
4246.218371688039
 30
0.0
 11
2712.674674051301
 21
4248.00538047961
 31
0.0
  0
LINE
  5
1B734
330
1F
100
AcDbEntity
  8
0
 62
     0
 48
0.2
100
AcDbLine
 10
2664.62964621675
 20
4262.201425435238
 30
0.0
 11
2712.674674051301
 21
4263.988434226813
 31
0.0
  0
LINE
  5
1B735
330
1F
100
AcDbEntity
  8
0
 62
     0
 48
0.2
100
AcDbLine
 10
2664.62964621675
 20
4254.20989856164
 30
0.0
 11
2712.674674051301
 21
4255.996907353212
 31
0.0
  0
LINE
  5
1B736
330
1F
100
AcDbEntity
  8
0
 62
     0
 48
0.2
100
AcDbLine
 10
2664.62964621675
 20
4206.260737320037
 30
0.0
 11
2712.674674051301
 21
4208.047746111609
 31
0.0
  0
LINE
  5
1B737
330
1F
100
AcDbEntity
  8
0
 62
     0
 48
0.2
100
AcDbLine
 10
2668.920135197483
 20
4198.423497275191
 30
0.0
 11
2708.830657842883
 21
4199.910249839595
 31
0.0
  0
LINE
  5
1B738
330
1F
100
AcDbEntity
  8
0
 62
     0
 48
0.2
100
AcDbLine
 10
2664.62964621675
 20
4222.243791067239
 30
0.0
 11
2712.674674051301
 21
4224.030799858811
 31
0.0
  0
LINE
  5
1B739
330
1F
100
AcDbEntity
  8
0
 62
     0
 48
0.2
100
AcDbLine
 10
2664.62964621675
 20
4214.252264193639
 30
0.0
 11
2712.674674051301
 21
4216.039272985209
 31
0.0
  0
LINE
  5
1B73A
330
1F
100
AcDbEntity
  8
0
 62
     0
 48
0.2
100
AcDbLine
 10
2673.880039119612
 20
4190.60842282882
 30
0.0
 11
2705.804574136846
 21
4191.797680226574
 31
0.0
  0
LINE
  5
1B73B
330
1F
100
AcDbEntity
  8
0
100
AcDbLine
 10
2681.850779754631
 20
4191.2030515277
 30
0.0
 11
2697.833833501827
 21
4191.2030515277
 31
0.0
  0
LINE
  5
1B73C
330
1F
100
AcDbEntity
  8
0
 62
     0
 48
0.2
100
AcDbLine
 10
2664.62964621675
 20
4230.235317940841
 30
0.0
 11
2712.674674051301
 21
4232.022326732413
 31
0.0
  0
ARC
  5
1B73D
330
1F
100
AcDbEntity
  8
0
 62
     0
 48
0.2
100
AcDbCircle
 10
2664.62964621675
 20
4250.214135124839
 30
0.0
 40
3.995763436799999
100
AcDbArc
 50
85.76318444944138
 51
274.2602071423754
  0
ARC
  5
1B73E
330
1F
100
AcDbEntity
  8
0
 62
     0
 48
0.2
100
AcDbCircle
 10
2664.62964621675
 20
4242.222608251238
 30
0.0
 40
3.995763436799999
100
AcDbArc
 50
85.76318444944138
 51
270.0
  0
ARC
  5
1B73F
330
1F
100
AcDbEntity
  8
0
 62
     0
 48
0.2
100
AcDbCircle
 10
2664.62964621675
 20
4258.205661998441
 30
0.0
 40
3.995763436799999
100
AcDbArc
 50
90.0
 51
274.2602071423754
  0
LINE
  5
1B740
330
1F
100
AcDbEntity
  8
2
 62
     0
100
AcDbLine
 10
2688.234401821826
 20
4175.310280337244
 30
0.0
 11
2688.234401821826
 21
4191.2030515277
 31
0.0
  0
ARC
  5
1B741
330
1F
100
AcDbEntity
  8
2
 62
     0
100
AcDbCircle
 10
2706.233336221833
 20
4175.703929924177
 30
0.0
 40
17.99893439999999
100
AcDbArc
 50
180.0
 51
222.8334280660476
  0
ARC
  5
1B742
330
1F
100
AcDbEntity
  8
0
 62
     0
 48
0.2
100
AcDbCircle
 10
2664.62964621675
 20
4210.256500756837
 30
0.0
 40
3.995763436799999
100
AcDbArc
 50
85.76318444944138
 51
274.2602071423754
  0
ARC
  5
1B743
330
1F
100
AcDbEntity
  8
0
 62
     0
 48
0.2
100
AcDbCircle
 10
2668.920135197483
 20
4202.419260711991
 30
0.0
 40
3.995763436799999
100
AcDbArc
 50
90.0
 51
274.2668083523878
  0
ARC
  5
1B744
330
1F
100
AcDbEntity
  8
0
 62
     0
 48
0.2
100
AcDbCircle
 10
2673.731291536285
 20
4194.601416642908
 30
0.0
 40
3.995763436799999
100
AcDbArc
 50
90.0
 51
270.0
  0
ARC
  5
1B745
330
1F
100
AcDbEntity
  8
0
 62
     0
 48
0.2
100
AcDbCircle
 10
2664.62964621675
 20
4218.24802763044
 30
0.0
 40
3.995763436799999
100
AcDbArc
 50
90.0
 51
274.2602071423754
  0
ARC
  5
1B746
330
1F
100
AcDbEntity
  8
0
 62
     0
 48
0.2
100
AcDbCircle
 10
2664.62964621675
 20
4226.239554504039
 30
0.0
 40
3.995763436799999
100
AcDbArc
 50
85.76318444944138
 51
270.0
  0
ARC
  5
1B747
330
1F
100
AcDbEntity
  8
0
 62
     0
 48
0.2
100
AcDbCircle
 10
2664.62964621675
 20
4234.231081377638
 30
0.0
 40
3.995763436799999
100
AcDbArc
 50
90.0
 51
274.2602071423754
  0
ARC
  5
1B748
330
1F
100
AcDbEntity
  8
0
 62
     0
 48
0.2
100
AcDbCircle
 10
2712.526156490323
 20
4251.99838285589
 30
0.0
 40
3.995763436799999
100
AcDbArc
 50
270.0
 51
87.87283548209989
  0
ARC
  5
1B749
330
1F
100
AcDbEntity
  8
0
 62
     0
 48
0.2
100
AcDbCircle
 10
2712.526156490323
 20
4236.015329108687
 30
0.0
 40
3.995763436799999
100
AcDbArc
 50
270.0
 51
87.87283548209989
  0
ARC
  5
1B74A
330
1F
100
AcDbEntity
  8
0
 62
     0
 48
0.2
100
AcDbCircle
 10
2712.526156490323
 20
4244.00685598229
 30
0.0
 40
3.995763436799999
100
AcDbArc
 50
270.0
 51
90.0
  0
ARC
  5
1B74B
330
1F
100
AcDbEntity
  8
0
 62
     0
 48
0.2
100
AcDbCircle
 10
2712.526156490323
 20
4259.989909729489
 30
0.0
 40
3.995763436799999
100
AcDbArc
 50
272.1301035711962
 51
87.87283548209989
  0
LINE
  5
1B74C
330
1F
100
AcDbEntity
  8
2
 62
     0
100
AcDbLine
 10
2697.833833501827
 20
4191.2030515277
 30
0.0
 11
2697.833833501827
 21
4159.845094387483
 31
0.0
  0
ARC
  5
1B74D
330
1F
100
AcDbEntity
  8
0
 62
     0
 48
0.2
100
AcDbCircle
 10
2705.655826553519
 20
4195.790674040657
 30
0.0
 40
3.995763436799999
100
AcDbArc
 50
272.1334041762086
 51
90.0
  0
ARC
  5
1B74E
330
1F
100
AcDbEntity
  8
0
 62
     0
 48
0.2
100
AcDbCircle
 10
2712.526156490323
 20
4212.040748487889
 30
0.0
 40
3.995763436799999
100
AcDbArc
 50
272.1301035711962
 51
95.14269846643648
  0
ARC
  5
1B74F
330
1F
100
AcDbEntity
  8
0
 62
     0
 48
0.2
100
AcDbCircle
 10
2708.830657842883
 20
4203.906013276391
 30
0.0
 40
3.995763436799999
100
AcDbArc
 50
270.0
 51
90.0
  0
ARC
  5
1B750
330
1F
100
AcDbEntity
  8
0
 62
     0
 48
0.2
100
AcDbCircle
 10
2712.526156490323
 20
4220.032275361489
 30
0.0
 40
3.995763436799999
100
AcDbArc
 50
270.8822820298212
 51
89.1175086759233
  0
ARC
  5
1B751
330
1F
100
AcDbEntity
  8
0
 62
     0
 48
0.2
100
AcDbCircle
 10
2712.526156490323
 20
4228.023802235088
 30
0.0
 40
3.995763436799999
100
AcDbArc
 50
272.1301035711962
 51
87.87283548209989
  0
LINE
  5
1B752
330
1F
100
AcDbEntity
  8
0
 62
     0
100
AcDbLine
 10
3008.787487775345
 20
4744.784084434772
 30
0.0
 11
3008.787487775345
 21
4686.78408443477
 31
0.0
  0
LINE
  5
1B753
330
1F
100
AcDbEntity
  8
0
 62
     0
 48
25.0
100
AcDbLine
 10
3014.787487775343
 20
4753.674785613521
 30
0.0
 11
3014.787487775343
 21
4709.674785613518
 31
0.0
  0
LINE
  5
1B754
330
1F
100
AcDbEntity
  8
0
 62
     0
100
AcDbLine
 10
3030.787487775343
 20
4689.674785613519
 30
0.0
 11
3030.787487775343
 21
4729.674785613519
 31
0.0
  0
LINE
  5
1B755
330
1F
100
AcDbEntity
  8
0
 62
     0
100
AcDbLine
 10
3030.787487775343
 20
4689.674785613519
 30
0.0
 11
3030.787487775343
 21
4729.674785613519
 31
0.0
  0
LINE
  5
1B756
330
1F
100
AcDbEntity
  8
0
 62
     0
100
AcDbLine
 10
2998.732651801848
 20
4709.450783008855
 30
0.0
 11
2998.732651801848
 21
4729.452119497404
 31
0.0
  0
LINE
  5
1B757
330
1F
100
AcDbEntity
  8
0
 62
     0
100
AcDbLine
 10
2955.365581075276
 20
4691.38389468379
 30
0.0
 11
2955.365581075276
 21
4727.452119497402
 31
0.0
  0
LINE
  5
1B758
330
1F
100
AcDbEntity
  8
0
 62
     0
100
AcDbLine
 10
2957.365581075279
 20
4689.383894683792
 30
0.0
 11
2957.365581075279
 21
4729.452119497404
 31
0.0
  0
ARC
  5
1B759
330
1F
100
AcDbEntity
  8
0
 62
     0
100
AcDbCircle
 10
3014.579170466451
 20
4709.385231172336
 30
0.0
 40
51.63150911090409
100
AcDbArc
 50
157.2080385520339
 51
202.7919614479661
  0
LINE
  5
1B75A
330
1F
100
AcDbEntity
  8
0
 62
     0
100
AcDbLine
 10
2998.732651801848
 20
4670.382625019668
 30
0.0
 11
2998.732651801848
 21
4748.518940998041
 31
0.0
  0
LINE
  5
1B75B
330
1F
100
AcDbEntity
  8
0
 62
     0
 48
0.3
100
AcDbLine
 10
3014.787487775343
 20
4665.674785613522
 30
0.0
 11
3014.787487775343
 21
4753.674785613521
 31
0.0
  0
LINE
  5
1B75C
330
1F
100
AcDbEntity
  8
0
 62
     0
 48
0.5
100
AcDbLine
 10
3008.787487775345
 20
4665.674785613522
 30
0.0
 11
3008.787487775345
 21
4753.674785613521
 31
0.0
  0
LINE
  5
1B75D
330
1F
100
AcDbEntity
  8
0
 62
     0
 48
25.0
100
AcDbLine
 10
3014.787487775343
 20
4665.674785613522
 30
0.0
 11
3014.787487775343
 21
4753.674785613521
 31
0.0
  0
LINE
  5
1B75E
330
1F
100
AcDbEntity
  8
0
 62
     0
100
AcDbLine
 10
2962.961326960408
 20
4679.383226439517
 30
0.0
 11
2963.07597676696
 21
4739.387235905164
 31
0.0
  0
LINE
  5
1B75F
330
1F
100
AcDbEntity
  8
0
 62
     0
 48
0.3
100
AcDbLine
 10
3030.787487775343
 20
4649.674785613519
 30
0.0
 11
3030.787487775343
 21
4801.674785613522
 31
0.0
  0
LINE
  5
1B760
330
1F
100
AcDbEntity
  8
0
 62
     0
 48
0.3
100
AcDbLine
 10
3042.787487775346
 20
4801.674785613522
 30
0.0
 11
3042.787487775346
 21
4649.674785613519
 31
0.0
  0
LINE
  5
1B761
330
1F
100
AcDbEntity
  8
0
 62
     0
 48
0.3
100
AcDbLine
 10
3030.787487775343
 20
4649.674785613519
 30
0.0
 11
3030.787487775343
 21
4801.674785613522
 31
0.0
  0
LINE
  5
1B762
330
1F
100
AcDbEntity
  8
0
 62
     0
100
AcDbLine
 10
3010.787487775343
 20
4614.220770564751
 30
0.0
 11
2630.787487775343
 21
4614.220770564751
 31
0.0
  0
LINE
  5
1B763
330
1F
100
AcDbEntity
  8
0
 62
     0
100
AcDbLine
 10
2630.787487775343
 20
4630.22077056475
 30
0.0
 11
3010.787487775343
 21
4630.22077056475
 31
0.0
  0
LINE
  5
1B764
330
1F
100
AcDbEntity
  8
0
 62
     0
100
AcDbLine
 10
2750.787487775337
 20
4483.02846656475
 30
0.0
 11
2750.787487775337
 21
4556.323703876691
 31
0.0
  0
LINE
  5
1B765
330
1F
100
AcDbEntity
  8
0
 62
     0
100
AcDbLine
 10
2744.787842975335
 20
4489.828064004748
 30
0.0
 11
2744.787842975335
 21
4556.323703876691
 31
0.0
  0
LINE
  5
1B766
330
1F
100
AcDbEntity
  8
0
 62
     0
100
AcDbLine
 10
2630.794591775336
 20
4556.323703876691
 30
0.0
 11
2630.794591775336
 21
4483.02846656475
 31
0.0
  0
LINE
  5
1B767
330
1F
100
AcDbEntity
  8
0
 62
     0
100
AcDbLine
 10
2636.794236575338
 20
4556.323703876691
 30
0.0
 11
2636.794236575338
 21
4489.828064004748
 31
0.0
  0
ARC
  5
1B768
330
1F
100
AcDbEntity
  8
0
 62
     0
 48
0.2
100
AcDbCircle
 10
2690.427609236404
 20
4373.417042186828
 30
0.0
 40
39.92300001584203
100
AcDbArc
 50
146.7389598908309
 51
180.0
  0
ARC
  5
1B769
330
1F
100
AcDbEntity
  8
0
 62
     0
 48
0.2
100
AcDbCircle
 10
2690.427609236404
 20
4373.417042186828
 30
0.0
 40
31.93147314224203
100
AcDbArc
 50
155.1856215934065
 51
180.0
  0
ARC
  5
1B76A
330
1F
100
AcDbEntity
  8
0
 62
     0
 48
0.2
100
AcDbCircle
 10
2690.427609236404
 20
4373.417042186828
 30
0.0
 40
31.93147314224203
100
AcDbArc
 50
6.908740862409996
 51
79.49987327962827
  0
ARC
  5
1B76B
330
1F
100
AcDbEntity
  8
0
 62
     0
 48
0.2
100
AcDbCircle
 10
2690.427609236404
 20
4373.417042186828
 30
0.0
 40
39.92300001584203
100
AcDbArc
 50
5.470836834948036
 51
81.61879293226647
  0
LINE
  5
1B76C
330
1F
100
AcDbEntity
  8
0
 62
     0
 48
0.2
100
AcDbLine
 10
2658.501131555541
 20
4309.92951097914
 30
0.0
 11
2721.810604329932
 21
4312.290371636914
 31
0.0
  0
LINE
  5
1B76D
330
1F
100
AcDbEntity
  8
0
 62
     0
 48
0.2
100
AcDbLine
 10
2655.783204643611
 20
4301.836410975631
 30
0.0
 11
2721.959506034959
 21
4304.30162013037
 31
0.0
  0
LINE
  5
1B76E
330
1F
100
AcDbEntity
  8
0
 62
     0
 48
0.2
100
AcDbLine
 10
2657.474656175303
 20
4293.907894299229
 30
0.0
 11
2719.079864732451
 21
4296.197658235997
 31
0.0
  0
LINE
  5
1B76F
330
1F
100
AcDbEntity
  8
0
 62
     0
 48
0.2
100
AcDbLine
 10
2660.278370423945
 20
4285.830060800181
 30
0.0
 11
2712.330398282885
 21
4287.9474709249
 31
0.0
  0
LINE
  5
1B770
330
1F
100
AcDbEntity
  8
0
 62
     0
 48
0.2
100
AcDbLine
 10
2664.62964621675
 20
4270.192952308838
 30
0.0
 11
2712.674674051301
 21
4271.979961100409
 31
0.0
  0
LINE
  5
1B771
330
1F
100
AcDbEntity
  8
0
 62
     0
 48
0.2
100
AcDbLine
 10
2664.271479765154
 20
4270.176867531911
 30
0.0
 11
2712.316507599707
 21
4271.963876323481
 31
0.0
  0
LINE
  5
1B772
330
1F
100
AcDbEntity
  8
0
 62
     0
 48
0.2
100
AcDbLine
 10
2664.271479765154
 20
4278.168394405507
 30
0.0
 11
2712.316507599707
 21
4279.955403197078
 31
0.0
  0
LINE
  5
1B773
330
1F
100
AcDbEntity
  8
0
 62
     0
 48
0.2
100
AcDbLine
 10
2658.496136094157
 20
4365.425515313225
 30
0.0
 11
2658.496136094157
 21
4373.417042186828
 31
0.0
  0
LINE
  5
1B774
330
1F
100
AcDbEntity
  8
0
 62
     0
 48
0.2
100
AcDbLine
 10
2650.504609220556
 20
4365.425515313225
 30
0.0
 11
2650.541830128569
 21
4375.140572060693
 31
0.0
  0
ARC
  5
1B775
330
1F
100
AcDbEntity
  8
0
 62
     0
 48
0.2
100
AcDbCircle
 10
2654.500372657357
 20
4305.620650336176
 30
0.0
 40
3.995763436799999
100
AcDbArc
 50
180.0
 51
0.0
  0
ARC
  5
1B776
330
1F
100
AcDbEntity
  8
0
 62
     0
 48
0.2
100
AcDbCircle
 10
2657.474656175303
 20
4297.903657736029
 30
0.0
 40
3.995763436799999
100
AcDbArc
 50
113.2722249375917
 51
274.2572194335758
  0
ARC
  5
1B777
330
1F
100
AcDbEntity
  8
0
 62
     0
 48
0.2
100
AcDbCircle
 10
2660.278370423945
 20
4289.825824236977
 30
0.0
 40
3.995763436799999
100
AcDbArc
 50
90.0
 51
274.6588698765534
  0
ARC
  5
1B778
330
1F
100
AcDbEntity
  8
0
 62
     0
 48
0.2
100
AcDbCircle
 10
2664.271479765154
 20
4274.172630968711
 30
0.0
 40
3.995763436799999
100
AcDbArc
 50
90.0
 51
276.0196106221235
  0
ARC
  5
1B779
330
1F
100
AcDbEntity
  8
0
 62
     0
 48
0.2
100
AcDbCircle
 10
2662.301378443126
 20
4281.832145580996
 30
0.0
 40
3.995763436799999
100
AcDbArc
 50
90.0
 51
276.1741752109522
  0
LINE
  5
1B77A
330
1F
100
AcDbEntity
  8
0
 62
     0
 48
0.2
100
AcDbLine
 10
2658.496136094157
 20
4305.620650336176
 30
0.0
 11
2658.496136094157
 21
4365.425515313225
 31
0.0
  0
LINE
  5
1B77B
330
1F
100
AcDbEntity
  8
0
 62
     0
 48
0.2
100
AcDbLine
 10
2650.504609220556
 20
4305.620650336176
 30
0.0
 11
2650.504609220556
 21
4365.425515313225
 31
0.0
  0
LINE
  5
1B77C
330
1F
100
AcDbEntity
  8
0
 62
     0
 48
0.2
100
AcDbLine
 10
2730.168754169012
 20
4377.223264685606
 30
0.0
 11
2730.168754169012
 21
4361.77080115365
 31
0.0
  0
ARC
  5
1B77D
330
1F
100
AcDbEntity
  8
0
 62
     0
 48
0.2
100
AcDbCircle
 10
2714.135701164199
 20
4362.301391368895
 30
0.0
 40
7.991526873599999
100
AcDbArc
 50
270.0
 51
0.0
  0
LINE
  5
1B77E
330
1F
100
AcDbEntity
  8
0
 62
     0
 48
0.2
100
AcDbLine
 10
2709.057628895854
 20
4354.309864495293
 30
0.0
 11
2702.399128014123
 21
4354.309864495293
 31
0.0
  0
LINE
  5
1B77F
330
1F
100
AcDbEntity
  8
0
 62
     0
 48
0.2
100
AcDbLine
 10
2709.057628895854
 20
4346.318337621693
 30
0.0
 11
2702.399128014123
 21
4346.318337621693
 31
0.0
  0
LINE
  5
1B780
330
1F
100
AcDbEntity
  8
0
 62
     0
 48
0.2
100
AcDbLine
 10
2702.399128014123
 20
4354.309864495293
 30
0.0
 11
2714.135701164199
 21
4354.309864495293
 31
0.0
  0
LINE
  5
1B781
330
1F
100
AcDbEntity
  8
0
 62
     0
 48
0.2
100
AcDbLine
 10
2702.399128014123
 20
4346.318337621693
 30
0.0
 11
2714.424674696199
 21
4346.318337621693
 31
0.0
  0
ARC
  5
1B782
330
1F
100
AcDbEntity
  8
0
 62
     0
 48
0.2
100
AcDbCircle
 10
2709.057628895854
 20
4366.297154805695
 30
0.0
 40
20.00397764641046
100
AcDbArc
 50
270.0
 51
272.8739836295827
  0
LINE
  5
1B783
330
1F
100
AcDbEntity
  8
0
 62
     0
 48
0.2
100
AcDbLine
 10
2702.399128014123
 20
4346.318337621693
 30
0.0
 11
2702.399128014123
 21
4354.309864495293
 31
0.0
  0
LINE
  5
1B784
330
1F
100
AcDbEntity
  8
0
 62
     0
 48
0.2
100
AcDbLine
 10
2722.127228037793
 20
4377.258024467455
 30
0.0
 11
2722.127228037793
 21
4362.301391368895
 31
0.0
  0
ARC
  5
1B785
330
1F
100
AcDbEntity
  8
0
 62
     0
 48
0.2
100
AcDbCircle
 10
2716.160914988052
 20
4292.090517279991
 30
0.0
 40
3.995763436799999
100
AcDbArc
 50
270.0
 51
90.0
  0
ARC
  5
1B786
330
1F
100
AcDbEntity
  8
0
 62
     0
 48
0.2
100
AcDbCircle
 10
2718.931451279788
 20
4300.190664483169
 30
0.0
 40
3.995763436799999
100
AcDbArc
 50
270.0
 51
92.92422381936061
  0
LINE
  5
1B787
330
1F
100
AcDbEntity
  8
0
100
AcDbLine
 10
2716.160914988052
 20
4288.09475384319
 30
0.0
 11
2714.164220799755
 21
4288.025373132235
 31
0.0
  0
LINE
  5
1B788
330
1F
100
AcDbEntity
  8
0
100
AcDbLine
 10
2712.330398282885
 20
4287.9474709249
 30
0.0
 11
2714.164220799755
 21
4288.025373132235
 31
0.0
  0
LINE
  5
1B789
330
1F
100
AcDbEntity
  8
0
100
AcDbLine
 10
2714.164220799755
 20
4280.033846258638
 30
0.0
 11
2712.316302773839
 21
4279.949888689159
 31
0.0
  0
ARC
  5
1B78A
330
1F
100
AcDbEntity
  8
0
 62
     0
 48
0.2
100
AcDbCircle
 10
2712.167990038728
 20
4275.956878699759
 30
0.0
 40
3.995763436799999
100
AcDbArc
 50
277.2607207686371
 51
87.87283548209989
  0
ARC
  5
1B78B
330
1F
100
AcDbEntity
  8
0
 62
     0
 48
0.2
100
AcDbCircle
 10
2714.164220799755
 20
4284.029609695439
 30
0.0
 40
3.995763436799999
100
AcDbArc
 50
270.0
 51
90.0
  0
ARC
  5
1B78C
330
1F
100
AcDbEntity
  8
0
 62
     0
 48
0.2
100
AcDbCircle
 10
2721.959506034959
 20
4308.297383567171
 30
0.0
 40
3.995763436799999
100
AcDbArc
 50
270.0000000003647
 51
90.0
  0
ARC
  5
1B78D
330
1F
100
AcDbEntity
  8
0
 62
     0
 48
0.2
100
AcDbCircle
 10
2714.135701164199
 20
4362.301391368895
 30
0.0
 40
15.98305374719999
100
AcDbArc
 50
270.0
 51
358.1045725219248
  0
LINE
  5
1B78E
330
1F
100
AcDbEntity
  8
0
 62
     0
 48
0.3
100
AcDbLine
 10
2690.655629542717
 20
4481.848236733882
 30
0.0
 11
2720.653853542715
 21
4481.848236733882
 31
0.0
  0
LINE
  5
1B78F
330
1F
100
AcDbEntity
  8
0
 62
     0
 48
0.3
100
AcDbLine
 10
2720.653853542715
 20
4478.64842617388
 30
0.0
 11
2660.657405542714
 21
4478.64842617388
 31
0.0
  0
LINE
  5
1B790
330
1F
100
AcDbEntity
  8
0
 62
     0
 48
4.0
100
AcDbLine
 10
2710.654445542718
 20
4481.848236733882
 30
0.0
 11
2670.656813542718
 21
4481.848236733882
 31
0.0
  0
LINE
  5
1B791
330
1F
100
AcDbEntity
  8
0
 62
     0
 48
4.0
100
AcDbLine
 10
2671.656754342714
 20
4481.848236733882
 30
0.0
 11
2709.654504742721
 21
4481.848236733882
 31
0.0
  0
LINE
  5
1B792
330
1F
100
AcDbEntity
  8
0
 62
     0
 48
0.3
100
AcDbLine
 10
2668.099026375167
 20
4478.64842617388
 30
0.0
 11
2713.21223271027
 21
4478.64842617388
 31
0.0
  0
LINE
  5
1B793
330
1F
100
AcDbEntity
  8
0
 62
     0
100
AcDbLine
 10
2675.540647207613
 20
4483.848118333879
 30
0.0
 11
2705.938847527613
 21
4483.848118333879
 31
0.0
  0
LINE
  5
1B794
330
1F
100
AcDbEntity
  8
0
 62
     0
100
AcDbLine
 10
2670.656813542718
 20
4481.848236733882
 30
0.0
 11
2698.655155942721
 21
4481.848236733882
 31
0.0
  0
LINE
  5
1B795
330
1F
100
AcDbEntity
  8
0
 62
     0
 48
0.3
100
AcDbLine
 10
2690.73974736762
 20
4483.848118333879
 30
0.0
 11
2700.739155367616
 21
4483.848118333879
 31
0.0
  0
LINE
  5
1B796
330
1F
100
AcDbEntity
  8
0
 62
     0
 48
4.0
100
AcDbLine
 10
2690.73974736762
 20
4491.847644733883
 30
0.0
 11
2704.615987998939
 21
4491.847644733883
 31
0.0
  0
LINE
  5
1B797
330
1F
100
AcDbEntity
  8
0
 62
     0
 48
0.3
100
AcDbLine
 10
2700.739155367616
 20
4483.848118333879
 30
0.0
 11
2680.740339367616
 21
4483.848118333879
 31
0.0
  0
LINE
  5
1B798
330
1F
100
AcDbEntity
  8
0
 62
     0
 48
4.0
100
AcDbLine
 10
2708.581322939909
 20
4456.649728573879
 30
0.0
 11
2672.7050325901
 21
4456.649728573879
 31
0.0
  0
ARC
  5
1B799
330
1F
100
AcDbEntity
  8
0
 62
     0
 48
4.0
100
AcDbCircle
 10
2702.467394914609
 20
4431.294319759941
 30
0.0
 40
6.225680678450373
100
AcDbArc
 50
97.46213775679049
 51
182.2994929431475
  0
LINE
  5
1B79A
330
1F
100
AcDbEntity
  8
0
 62
     0
 48
4.0
100
AcDbLine
 10
2683.059960681782
 20
4448.266635161902
 30
0.0
 11
2698.259060841782
 21
4448.266635161902
 31
0.0
  0
LINE
  5
1B79B
330
1F
100
AcDbEntity
  8
0
 62
     0
 48
4.0
100
AcDbLine
 10
2683.059960681782
 20
4448.266635161902
 30
0.0
 11
2698.259060841782
 21
4448.266635161902
 31
0.0
  0
LINE
  5
1B79C
330
1F
100
AcDbEntity
  8
0
 62
     0
 48
4.0
100
AcDbLine
 10
2683.059960681782
 20
4448.266635161902
 30
0.0
 11
2698.259060841782
 21
4448.266635161902
 31
0.0
  0
LINE
  5
1B79D
330
1F
100
AcDbEntity
  8
0
 62
     0
 48
4.0
100
AcDbLine
 10
2683.059960681782
 20
4448.266635161902
 30
0.0
 11
2698.259060841782
 21
4448.266635161902
 31
0.0
  0
LINE
  5
1B79E
330
1F
100
AcDbEntity
  8
0
 62
     0
 48
4.0
100
AcDbLine
 10
2683.059960681782
 20
4454.666256281906
 30
0.0
 11
2698.259060841782
 21
4454.666256281906
 31
0.0
  0
LINE
  5
1B79F
330
1F
100
AcDbEntity
  8
0
 62
     0
 48
4.0
100
AcDbLine
 10
2683.059960681782
 20
4454.666256281906
 30
0.0
 11
2698.259060841782
 21
4454.666256281906
 31
0.0
  0
LINE
  5
1B7A0
330
1F
100
AcDbEntity
  8
0
 62
     0
 48
4.0
100
AcDbLine
 10
2683.059960681782
 20
4451.466445721902
 30
0.0
 11
2698.259060841782
 21
4451.466445721902
 31
0.0
  0
LINE
  5
1B7A1
330
1F
100
AcDbEntity
  8
0
 62
     0
 48
4.0
100
AcDbLine
 10
2683.059960681782
 20
4451.466445721902
 30
0.0
 11
2698.259060841782
 21
4451.466445721902
 31
0.0
  0
LINE
  5
1B7A2
330
1F
100
AcDbEntity
  8
0
 62
     0
 48
4.0
100
AcDbLine
 10
2683.059960681782
 20
4454.666256281906
 30
0.0
 11
2698.259060841782
 21
4454.666256281906
 31
0.0
  0
LINE
  5
1B7A3
330
1F
100
AcDbEntity
  8
0
 62
     0
 48
4.0
100
AcDbLine
 10
2683.059960681782
 20
4454.666256281906
 30
0.0
 11
2698.259060841782
 21
4454.666256281906
 31
0.0
  0
LINE
  5
1B7A4
330
1F
100
AcDbEntity
  8
0
 62
     0
 48
4.0
100
AcDbLine
 10
2683.059960681782
 20
4451.466445721902
 30
0.0
 11
2698.259060841782
 21
4451.466445721902
 31
0.0
  0
LINE
  5
1B7A5
330
1F
100
AcDbEntity
  8
0
 62
     0
 48
4.0
100
AcDbLine
 10
2683.059960681782
 20
4451.466445721902
 30
0.0
 11
2698.259060841782
 21
4451.466445721902
 31
0.0
  0
LINE
  5
1B7A6
330
1F
100
AcDbEntity
  8
0
 62
     0
 48
4.0
100
AcDbLine
 10
2683.059960681782
 20
4445.066824601904
 30
0.0
 11
2698.259060841782
 21
4445.066824601904
 31
0.0
  0
LINE
  5
1B7A7
330
1F
100
AcDbEntity
  8
0
 62
     0
 48
4.0
100
AcDbLine
 10
2683.059960681782
 20
4445.066824601904
 30
0.0
 11
2698.259060841782
 21
4445.066824601904
 31
0.0
  0
LINE
  5
1B7A8
330
1F
100
AcDbEntity
  8
0
 62
     0
 48
4.0
100
AcDbLine
 10
2683.059960681782
 20
4445.066824601904
 30
0.0
 11
2698.259060841782
 21
4445.066824601904
 31
0.0
  0
LINE
  5
1B7A9
330
1F
100
AcDbEntity
  8
0
 62
     0
 48
4.0
100
AcDbLine
 10
2683.059960681782
 20
4445.066824601904
 30
0.0
 11
2698.259060841782
 21
4445.066824601904
 31
0.0
  0
LINE
  5
1B7AA
330
1F
100
AcDbEntity
  8
0
 62
     0
 48
4.0
100
AcDbLine
 10
2683.059960681782
 20
4441.867014041905
 30
0.0
 11
2698.259060841782
 21
4441.867014041905
 31
0.0
  0
LINE
  5
1B7AB
330
1F
100
AcDbEntity
  8
0
 62
     0
 48
4.0
100
AcDbLine
 10
2683.059960681782
 20
4441.867014041905
 30
0.0
 11
2698.259060841782
 21
4441.867014041905
 31
0.0
  0
LINE
  5
1B7AC
330
1F
100
AcDbEntity
  8
0
 62
     0
 48
4.0
100
AcDbLine
 10
2683.059960681782
 20
4438.667203481902
 30
0.0
 11
2698.259060841782
 21
4438.667203481902
 31
0.0
  0
LINE
  5
1B7AD
330
1F
100
AcDbEntity
  8
0
 62
     0
 48
4.0
100
AcDbLine
 10
2683.059960681782
 20
4438.667203481902
 30
0.0
 11
2698.259060841782
 21
4438.667203481902
 31
0.0
  0
LINE
  5
1B7AE
330
1F
100
AcDbEntity
  8
0
 62
     0
 48
4.0
100
AcDbLine
 10
2683.059960681782
 20
4441.867014041905
 30
0.0
 11
2698.259060841782
 21
4441.867014041905
 31
0.0
  0
LINE
  5
1B7AF
330
1F
100
AcDbEntity
  8
0
 62
     0
 48
4.0
100
AcDbLine
 10
2683.059960681782
 20
4441.867014041905
 30
0.0
 11
2698.259060841782
 21
4441.867014041905
 31
0.0
  0
LINE
  5
1B7B0
330
1F
100
AcDbEntity
  8
0
 62
     0
 48
4.0
100
AcDbLine
 10
2679.660161961781
 20
4438.667203481902
 30
0.0
 11
2701.658859561782
 21
4438.667203481902
 31
0.0
  0
ARC
  5
1B7B1
330
1F
100
AcDbEntity
  8
0
 62
     0
 48
4.0
100
AcDbCircle
 10
2690.655629542717
 20
4483.477310519613
 30
0.0
 40
26.81116887151534
100
AcDbArc
 50
243.3129620062897
 51
296.6870379937103
  0
LINE
  5
1B7B2
330
1F
100
AcDbEntity
  8
0
 62
     0
 48
4.0
100
AcDbLine
 10
2668.099026375167
 20
4478.64842617388
 30
0.0
 11
2668.099026375167
 21
4458.235234088
 31
0.0
  0
LINE
  5
1B7B3
330
1F
100
AcDbEntity
  8
0
 62
     0
 48
4.0
100
AcDbLine
 10
2678.61428103027
 20
4478.64842617388
 30
0.0
 11
2678.61428103027
 21
4459.522254638676
 31
0.0
  0
LINE
  5
1B7B4
330
1F
100
AcDbEntity
  8
0
 62
     0
 48
4.0
100
AcDbLine
 10
2690.73974736762
 20
4491.847644733883
 30
0.0
 11
2676.651018909144
 21
4491.847644733883
 31
0.0
  0
LINE
  5
1B7B5
330
1F
100
AcDbEntity
  8
0
 62
     0
 48
4.0
100
AcDbLine
 10
2690.655629542717
 20
4481.848236733882
 30
0.0
 11
2660.657405542714
 21
4481.848236733882
 31
0.0
  0
LINE
  5
1B7B6
330
1F
100
AcDbEntity
  8
0
 62
     0
 48
0.1
100
AcDbLine
 10
2672.651255709142
 20
4495.847407933881
 30
0.0
 11
2650.74211536762
 21
4495.847407933881
 31
0.0
  0
LINE
  5
1B7B7
330
1F
100
AcDbEntity
  8
0
 62
     0
100
AcDbLine
 10
2674.740694567613
 20
4487.847881533881
 30
0.0
 11
2650.74211536762
 21
4487.847881533881
 31
0.0
  0
LINE
  5
1B7B8
330
1F
100
AcDbEntity
  8
0
 62
     0
100
AcDbLine
 10
2673.792046175341
 20
4483.828419204749
 30
0.0
 11
2673.792046175341
 21
4485.82830080475
 31
0.0
  0
ARC
  5
1B7B9
330
1F
100
AcDbEntity
  8
0
 62
     0
100
AcDbCircle
 10
2671.79216457534
 20
4485.82830080475
 30
0.0
 40
1.999881599999999
100
AcDbArc
 50
0.0
 51
90.0
  0
ARC
  5
1B7BA
330
1F
100
AcDbEntity
  8
0
 62
     0
100
AcDbCircle
 10
2671.79216457534
 20
4483.828419204749
 30
0.0
 40
1.999881599999999
100
AcDbArc
 50
270.0
 51
0.0
  0
LINE
  5
1B7BB
330
1F
100
AcDbEntity
  8
0
 62
     0
 48
0.3
100
AcDbLine
 10
2660.657405542714
 20
4478.64842617388
 30
0.0
 11
2660.657405542714
 21
4481.848236733882
 31
0.0
  0
LINE
  5
1B7BC
330
1F
100
AcDbEntity
  8
0
 62
     0
100
AcDbLine
 10
2673.792046175341
 20
4483.828419204749
 30
0.0
 11
2673.792046175341
 21
4485.82830080475
 31
0.0
  0
ARC
  5
1B7BD
330
1F
100
AcDbEntity
  8
0
 62
     0
100
AcDbCircle
 10
2675.540647207613
 20
4484.648070973879
 30
0.0
 40
0.7999526399999999
100
AcDbArc
 50
180.0
 51
270.0
  0
LINE
  5
1B7BE
330
1F
100
AcDbEntity
  8
0
 62
     0
100
AcDbLine
 10
2674.740694567613
 20
4487.847881533881
 30
0.0
 11
2674.740694567613
 21
4484.648070973879
 31
0.0
  0
ARC
  5
1B7BF
330
1F
100
AcDbEntity
  8
0
 62
     0
 48
4.0
100
AcDbCircle
 10
2676.651018909144
 20
4493.847526333881
 30
0.0
 40
1.999881599999999
100
AcDbArc
 50
180.0
 51
270.0
  0
LINE
  5
1B7C0
330
1F
100
AcDbEntity
  8
0
 62
     0
 48
4.0
100
AcDbLine
 10
2674.651137309143
 20
4493.847526333881
 30
0.0
 11
2674.651137309143
 21
4493.847526333881
 31
0.0
  0
ARC
  5
1B7C1
330
1F
100
AcDbEntity
  8
0
 62
     0
 48
0.1
100
AcDbCircle
 10
2672.651255709142
 20
4493.847526333881
 30
0.0
 40
1.999881599999999
100
AcDbArc
 50
0.0
 51
90.0
  0
LINE
  5
1B7C2
330
1F
100
AcDbEntity
  8
0
 62
     0
100
AcDbLine
 10
2650.74211536762
 20
4487.847881533881
 30
0.0
 11
2650.74211536762
 21
4495.847407933881
 31
0.0
  0
LINE
  5
1B7C3
330
1F
100
AcDbEntity
  8
0
 62
     0
 48
0.3
100
AcDbLine
 10
2680.740339367616
 20
4483.848118333879
 30
0.0
 11
2680.740339367616
 21
4481.848236733882
 31
0.0
  0
ARC
  5
1B7C4
330
1F
100
AcDbEntity
  8
0
 62
     0
100
AcDbCircle
 10
2631.994520735338
 20
4483.02846656475
 30
0.0
 40
1.199928959999999
100
AcDbArc
 50
180.0
 51
270.0
  0
ARC
  5
1B7C5
330
1F
100
AcDbEntity
  8
0
 62
     0
100
AcDbCircle
 10
2638.794118175338
 20
4489.828064004748
 30
0.0
 40
1.999881599999999
100
AcDbArc
 50
180.0
 51
270.0
  0
LINE
  5
1B7C6
330
1F
100
AcDbEntity
  8
0
 48
0.5
100
AcDbLine
 10
2650.74211536762
 20
4487.847881533881
 30
0.0
 11
2638.514111396709
 21
4487.847881533877
 31
0.0
  0
LINE
  5
1B7C7
330
1F
100
AcDbEntity
  8
0
 48
0.5
100
AcDbLine
 10
2660.657405542714
 20
4481.848236733882
 30
0.0
 11
2631.994520735338
 21
4481.848236733882
 31
0.0
  0
ARC
  5
1B7C8
330
1F
100
AcDbEntity
  8
0
 48
0.5
100
AcDbCircle
 10
2690.427609236404
 20
4373.417042186828
 30
0.0
 40
31.93147314224204
100
AcDbArc
 50
135.5994895377668
 51
155.1856215934065
  0
ARC
  5
1B7C9
330
1F
100
AcDbEntity
  8
0
 62
     0
 48
0.2
100
AcDbCircle
 10
2690.427609236404
 20
4373.417042186828
 30
0.0
 40
31.93147314224203
100
AcDbArc
 50
99.70019047165802
 51
135.5994895377668
  0
ARC
  5
1B7CA
330
1F
100
AcDbEntity
  8
0
 62
     0
 48
0.2
100
AcDbCircle
 10
2690.427609236404
 20
4373.417042186828
 30
0.0
 40
39.92300001584203
100
AcDbArc
 50
97.74502487966557
 51
131.8616953900508
  0
ARC
  5
1B7CB
330
1F
100
AcDbEntity
  8
0
 48
0.5
100
AcDbCircle
 10
2690.427609236404
 20
4373.417042186828
 30
0.0
 40
39.9230000158421
100
AcDbArc
 50
131.8616953900508
 51
146.7389598908165
  0
ARC
  5
1B7CC
330
1F
100
AcDbEntity
  8
0
 62
     0
 48
4.0
100
AcDbCircle
 10
2678.718286687228
 20
4431.206549534704
 30
0.0
 40
6.331177331125044
100
AcDbArc
 50
358.5335719456709
 51
81.44447492026458
  0
LINE
  5
1B7CD
330
1F
100
AcDbEntity
  8
0
 62
     0
 48
4.0
100
AcDbLine
 10
2681.159303383956
 20
4443.799719736686
 30
0.0
 11
2683.059960681782
 21
4445.066824601904
 31
0.0
  0
LINE
  5
1B7CE
330
1F
100
AcDbEntity
  8
0
 62
     0
 48
4.0
100
AcDbLine
 10
2681.159303383956
 20
4450.199340856687
 30
0.0
 11
2683.059960681782
 21
4451.466445721902
 31
0.0
  0
LINE
  5
1B7CF
330
1F
100
AcDbEntity
  8
0
 62
     0
 48
4.0
100
AcDbLine
 10
2681.159303383956
 20
4446.999530296689
 30
0.0
 11
2683.059960681782
 21
4448.266635161902
 31
0.0
  0
ARC
  5
1B7D0
330
1F
100
AcDbEntity
  8
0
 62
     0
 48
4.0
100
AcDbCircle
 10
2681.38117032715
 20
4449.866540441904
 30
0.0
 40
0.3999763199999999
100
AcDbArc
 50
123.6900675259653
 51
236.3099324740347
  0
LINE
  5
1B7D1
330
1F
100
AcDbEntity
  8
0
 62
     0
 48
4.0
100
AcDbLine
 10
2681.159303383956
 20
4449.533740027121
 30
0.0
 11
2683.059960681782
 21
4448.266635161902
 31
0.0
  0
LINE
  5
1B7D2
330
1F
100
AcDbEntity
  8
0
 62
     0
 48
4.0
100
AcDbLine
 10
2681.159303383956
 20
4452.733550587116
 30
0.0
 11
2683.059960681782
 21
4451.466445721902
 31
0.0
  0
LINE
  5
1B7D3
330
1F
100
AcDbEntity
  8
0
 62
     0
 48
4.0
100
AcDbLine
 10
2681.159303383956
 20
4453.399151416686
 30
0.0
 11
2683.059960681782
 21
4454.666256281906
 31
0.0
  0
ARC
  5
1B7D4
330
1F
100
AcDbEntity
  8
0
 62
     0
 48
4.0
100
AcDbCircle
 10
2681.38117032715
 20
4453.066351001903
 30
0.0
 40
0.3999763199999999
100
AcDbArc
 50
123.6900675259653
 51
236.3099324740347
  0
ARC
  5
1B7D5
330
1F
100
AcDbEntity
  8
0
 62
     0
 48
4.0
100
AcDbCircle
 10
2681.38117032715
 20
4456.266161561906
 30
0.0
 40
0.3999763199999999
100
AcDbArc
 50
123.6900675259653
 51
236.3099324740347
  0
LINE
  5
1B7D6
330
1F
100
AcDbEntity
  8
0
 62
     0
 48
4.0
100
AcDbLine
 10
2681.159303383956
 20
4456.598961976689
 30
0.0
 11
2681.235453279751
 21
4456.649728573879
 31
0.0
  0
LINE
  5
1B7D7
330
1F
100
AcDbEntity
  8
0
 62
     0
 48
4.0
100
AcDbLine
 10
2681.159303383956
 20
4455.93336114712
 30
0.0
 11
2683.059960681782
 21
4454.666256281906
 31
0.0
  0
LINE
  5
1B7D8
330
1F
100
AcDbEntity
  8
0
 62
     0
 48
4.0
100
AcDbLine
 10
2681.159303383956
 20
4446.333929467118
 30
0.0
 11
2683.059960681782
 21
4445.066824601904
 31
0.0
  0
ARC
  5
1B7D9
330
1F
100
AcDbEntity
  8
0
 62
     0
 48
4.0
100
AcDbCircle
 10
2681.38117032715
 20
4446.666729881905
 30
0.0
 40
0.3999763199999999
100
AcDbArc
 50
123.6900675259653
 51
236.3099324740347
  0
LINE
  5
1B7DA
330
1F
100
AcDbEntity
  8
0
 62
     0
 48
4.0
100
AcDbLine
 10
2679.660161961781
 20
4438.667203481902
 30
0.0
 11
2679.660161961781
 21
4437.467274521905
 31
0.0
  0
LINE
  5
1B7DB
330
1F
100
AcDbEntity
  8
0
 62
     0
 48
4.0
100
AcDbLine
 10
2681.159303383956
 20
4443.134118907119
 30
0.0
 11
2683.059960681782
 21
4441.867014041905
 31
0.0
  0
ARC
  5
1B7DC
330
1F
100
AcDbEntity
  8
0
 62
     0
 48
4.0
100
AcDbCircle
 10
2681.38117032715
 20
4443.466919321903
 30
0.0
 40
0.3999763199999999
100
AcDbArc
 50
123.6900675259653
 51
236.3099324740347
  0
ARC
  5
1B7DD
330
1F
100
AcDbEntity
  8
0
 62
     0
 48
4.0
100
AcDbCircle
 10
2681.38117032715
 20
4440.267108761903
 30
0.0
 40
0.3999763199999999
100
AcDbArc
 50
123.6900675259653
 51
236.3099324740347
  0
LINE
  5
1B7DE
330
1F
100
AcDbEntity
  8
0
 62
     0
 48
4.0
100
AcDbLine
 10
2681.159303383956
 20
4440.599909176691
 30
0.0
 11
2683.059960681782
 21
4441.867014041905
 31
0.0
  0
LINE
  5
1B7DF
330
1F
100
AcDbEntity
  8
0
 62
     0
 48
4.0
100
AcDbLine
 10
2681.159303383956
 20
4439.934308347122
 30
0.0
 11
2683.059960681782
 21
4438.667203481902
 31
0.0
  0
LINE
  5
1B7E0
330
1F
100
AcDbEntity
  8
0
 62
     0
 48
4.0
100
AcDbLine
 10
2696.24672746407
 20
4431.044527086302
 30
0.0
 11
2696.24171423616
 21
4431.044527086302
 31
0.0
  0
LINE
  5
1B7E1
330
1F
100
AcDbEntity
  8
0
 62
     0
 48
4.0
100
AcDbLine
 10
2690.659510761782
 20
4438.667203481902
 30
0.0
 11
2679.660161961781
 21
4438.667203481902
 31
0.0
  0
LINE
  5
1B7E2
330
1F
100
AcDbEntity
  8
0
 62
     0
 48
4.0
100
AcDbLine
 10
2690.647058984072
 20
4438.650790407688
 30
0.0
 11
2685.047390504072
 21
4438.650790407688
 31
0.0
  0
ARC
  5
1B7E3
330
1F
100
AcDbEntity
  8
0
 62
     0
 48
4.0
100
AcDbCircle
 10
2690.647058984072
 20
4404.252826887687
 30
0.0
 40
5.599668480000022
100
AcDbArc
 50
173.4882870145231
 51
0.0
  0
LINE
  5
1B7E4
330
1F
100
AcDbEntity
  8
0
 62
     0
 48
4.0
100
AcDbLine
 10
2696.24672746407
 20
4404.252826887687
 30
0.0
 11
2696.24672746407
 21
4431.044527086302
 31
0.0
  0
LINE
  5
1B7E5
330
1F
100
AcDbEntity
  8
0
 62
     0
 48
4.0
100
AcDbLine
 10
2685.047390504072
 20
4431.044527086302
 30
0.0
 11
2685.047390504072
 21
4404.891988150653
 31
0.0
  0
ARC
  5
1B7E6
330
1F
100
AcDbEntity
  8
0
 62
     0
 48
4.0
100
AcDbCircle
 10
2672.7050325901
 20
4464.20263910164
 30
0.0
 40
7.538250184811283
100
AcDbArc
 50
232.3368557856278
 51
321.6192287191023
  0
LINE
  5
1B7E7
330
1F
100
AcDbEntity
  8
0
 62
     0
 48
0.1
100
AcDbLine
 10
2730.73737936762
 20
4487.847881533881
 30
0.0
 11
2730.73737936762
 21
4495.847407933881
 31
0.0
  0
LINE
  5
1B7E8
330
1F
100
AcDbEntity
  8
0
 62
     0
100
AcDbLine
 10
2730.73737936762
 20
4495.847407933881
 30
0.0
 11
2730.73737936762
 21
4487.847881533881
 31
0.0
  0
LINE
  5
1B7E9
330
1F
100
AcDbEntity
  8
0
 62
     0
100
AcDbLine
 10
2730.872789600239
 20
4487.828182404746
 30
0.0
 11
2730.872789600239
 21
4487.828182404746
 31
0.0
  0
LINE
  5
1B7EA
330
1F
100
AcDbEntity
  8
0
 62
     0
100
AcDbLine
 10
2730.872789600239
 20
4487.828182404751
 30
0.0
 11
2730.872789600239
 21
4487.828182404751
 31
0.0
  0
LINE
  5
1B7EB
330
1F
100
AcDbEntity
  8
0
 62
     0
100
AcDbLine
 10
2730.73737936762
 20
4487.847881533881
 30
0.0
 11
2730.73737936762
 21
4487.847881533881
 31
0.0
  0
ARC
  5
1B7EC
330
1F
100
AcDbEntity
  8
0
 62
     0
100
AcDbCircle
 10
2742.787961375342
 20
4489.828064004748
 30
0.0
 40
1.999881599999999
100
AcDbArc
 50
270.0
 51
0.0
  0
ARC
  5
1B7ED
330
1F
100
AcDbEntity
  8
0
 62
     0
100
AcDbCircle
 10
2749.587558815343
 20
4483.02846656475
 30
0.0
 40
1.199928959999999
100
AcDbArc
 50
270.0
 51
0.0
  0
LINE
  5
1B7EE
330
1F
100
AcDbEntity
  8
0
 62
     0
 48
4.0
100
AcDbLine
 10
2722.789145375342
 20
4481.828537604747
 30
0.0
 11
2710.789855775336
 21
4481.828537604747
 31
0.0
  0
LINE
  5
1B7EF
330
1F
100
AcDbEntity
  8
0
 62
     0
 48
4.0
100
AcDbLine
 10
2720.653853542715
 20
4481.848236733882
 30
0.0
 11
2710.654445542718
 21
4481.848236733882
 31
0.0
  0
LINE
  5
1B7F0
330
1F
100
AcDbEntity
  8
0
 62
     0
 48
4.0
100
AcDbLine
 10
2713.21223271027
 20
4478.64842617388
 30
0.0
 11
2713.21223271027
 21
4458.235234088
 31
0.0
  0
LINE
  5
1B7F1
330
1F
100
AcDbEntity
  8
0
 62
     0
 48
4.0
100
AcDbLine
 10
2702.696978055166
 20
4478.64842617388
 30
0.0
 11
2702.696978055166
 21
4459.522254638676
 31
0.0
  0
ARC
  5
1B7F2
330
1F
100
AcDbEntity
  8
0
 62
     0
100
AcDbCircle
 10
2709.78991497534
 20
4485.82830080475
 30
0.0
 40
1.999881599999999
100
AcDbArc
 50
90.0
 51
180.0
  0
ARC
  5
1B7F3
330
1F
100
AcDbEntity
  8
0
 62
     0
100
AcDbCircle
 10
2709.78991497534
 20
4483.828419204749
 30
0.0
 40
1.999881599999999
100
AcDbArc
 50
180.0
 51
270.0
  0
ARC
  5
1B7F4
330
1F
100
AcDbEntity
  8
0
 62
     0
 48
0.1
100
AcDbCircle
 10
2708.615751198941
 20
4493.847526333881
 30
0.0
 40
1.999881599999999
100
AcDbArc
 50
90.0
 51
180.0
  0
LINE
  5
1B7F5
330
1F
100
AcDbEntity
  8
0
 62
     0
100
AcDbLine
 10
2707.790033375339
 20
4483.828419204749
 30
0.0
 11
2707.790033375339
 21
4485.82830080475
 31
0.0
  0
LINE
  5
1B7F6
330
1F
100
AcDbEntity
  8
0
 62
     0
100
AcDbLine
 10
2707.790033375339
 20
4483.828419204749
 30
0.0
 11
2707.790033375339
 21
4485.82830080475
 31
0.0
  0
ARC
  5
1B7F7
330
1F
100
AcDbEntity
  8
0
 62
     0
100
AcDbCircle
 10
2705.938847527613
 20
4484.648070973879
 30
0.0
 40
0.7999526399999999
100
AcDbArc
 50
270.0
 51
0.0
  0
LINE
  5
1B7F8
330
1F
100
AcDbEntity
  8
0
 62
     0
100
AcDbLine
 10
2706.738800167611
 20
4484.648070973879
 30
0.0
 11
2706.738800167611
 21
4487.847881533881
 31
0.0
  0
LINE
  5
1B7F9
330
1F
100
AcDbEntity
  8
0
 62
     0
 48
0.3
100
AcDbLine
 10
2700.739155367616
 20
4483.848118333879
 30
0.0
 11
2700.739155367616
 21
4481.848236733882
 31
0.0
  0
ARC
  5
1B7FA
330
1F
100
AcDbEntity
  8
0
 62
     0
 48
4.0
100
AcDbCircle
 10
2704.615987998939
 20
4493.847526333881
 30
0.0
 40
1.999881599999999
100
AcDbArc
 50
270.0
 51
0.0
  0
LINE
  5
1B7FB
330
1F
100
AcDbEntity
  8
0
 62
     0
 48
4.0
100
AcDbLine
 10
2706.615869598941
 20
4493.847526333881
 30
0.0
 11
2706.615869598941
 21
4493.847526333881
 31
0.0
  0
LINE
  5
1B7FC
330
1F
100
AcDbEntity
  8
0
 62
     0
 48
0.3
100
AcDbLine
 10
2720.653853542715
 20
4481.848236733882
 30
0.0
 11
2720.653853542715
 21
4478.64842617388
 31
0.0
  0
ARC
  5
1B7FD
330
1F
100
AcDbEntity
  8
0
 62
     0
 48
4.0
100
AcDbCircle
 10
2699.937851196421
 20
4449.866540441904
 30
0.0
 40
0.3999763199999999
100
AcDbArc
 50
303.6900675259653
 51
56.30993247403466
  0
ARC
  5
1B7FE
330
1F
100
AcDbEntity
  8
0
 62
     0
 48
4.0
100
AcDbCircle
 10
2699.937851196421
 20
4453.066351001903
 30
0.0
 40
0.3999763199999999
100
AcDbArc
 50
303.6900675259653
 51
56.30993247403466
  0
LINE
  5
1B7FF
330
1F
100
AcDbEntity
  8
0
 62
     0
 48
4.0
100
AcDbLine
 10
2700.159718139607
 20
4456.598961976689
 30
0.0
 11
2700.08356824382
 21
4456.649728573879
 31
0.0
  0
ARC
  5
1B800
330
1F
100
AcDbEntity
  8
0
 62
     0
 48
4.0
100
AcDbCircle
 10
2699.937851196421
 20
4456.266161561906
 30
0.0
 40
0.3999763199999999
100
AcDbArc
 50
303.6900675259653
 51
56.30993247403466
  0
ARC
  5
1B801
330
1F
100
AcDbEntity
  8
0
 62
     0
 48
4.0
100
AcDbCircle
 10
2699.937851196421
 20
4446.666729881905
 30
0.0
 40
0.3999763199999999
100
AcDbArc
 50
303.6900675259653
 51
56.30993247403466
  0
LINE
  5
1B802
330
1F
100
AcDbEntity
  8
0
 62
     0
 48
4.0
100
AcDbLine
 10
2701.658859561782
 20
4438.667203481902
 30
0.0
 11
2701.658859561782
 21
4437.467274521905
 31
0.0
  0
ARC
  5
1B803
330
1F
100
AcDbEntity
  8
0
 62
     0
 48
4.0
100
AcDbCircle
 10
2699.937851196421
 20
4443.466919321903
 30
0.0
 40
0.3999763199999999
100
AcDbArc
 50
303.6900675259653
 51
56.30993247403466
  0
ARC
  5
1B804
330
1F
100
AcDbEntity
  8
0
 62
     0
 48
4.0
100
AcDbCircle
 10
2699.937851196421
 20
4440.267108761903
 30
0.0
 40
0.3999763199999999
100
AcDbArc
 50
303.6900675259653
 51
56.30993247403466
  0
LINE
  5
1B805
330
1F
100
AcDbEntity
  8
0
 62
     0
 48
4.0
100
AcDbLine
 10
2700.159718139607
 20
4443.799719736686
 30
0.0
 11
2698.259060841782
 21
4445.066824601904
 31
0.0
  0
LINE
  5
1B806
330
1F
100
AcDbEntity
  8
0
 62
     0
 48
4.0
100
AcDbLine
 10
2700.159718139607
 20
4450.199340856687
 30
0.0
 11
2698.259060841782
 21
4451.466445721902
 31
0.0
  0
LINE
  5
1B807
330
1F
100
AcDbEntity
  8
0
 62
     0
 48
4.0
100
AcDbLine
 10
2700.159718139607
 20
4446.999530296689
 30
0.0
 11
2698.259060841782
 21
4448.266635161902
 31
0.0
  0
LINE
  5
1B808
330
1F
100
AcDbEntity
  8
0
 62
     0
 48
4.0
100
AcDbLine
 10
2700.159718139607
 20
4449.533740027121
 30
0.0
 11
2698.259060841782
 21
4448.266635161902
 31
0.0
  0
LINE
  5
1B809
330
1F
100
AcDbEntity
  8
0
 62
     0
 48
4.0
100
AcDbLine
 10
2700.159718139607
 20
4452.733550587121
 30
0.0
 11
2698.259060841782
 21
4451.466445721902
 31
0.0
  0
LINE
  5
1B80A
330
1F
100
AcDbEntity
  8
0
 62
     0
 48
4.0
100
AcDbLine
 10
2700.159718139607
 20
4453.399151416686
 30
0.0
 11
2698.259060841782
 21
4454.666256281906
 31
0.0
  0
LINE
  5
1B80B
330
1F
100
AcDbEntity
  8
0
 62
     0
 48
4.0
100
AcDbLine
 10
2700.159718139607
 20
4455.93336114712
 30
0.0
 11
2698.259060841782
 21
4454.666256281906
 31
0.0
  0
LINE
  5
1B80C
330
1F
100
AcDbEntity
  8
0
 62
     0
 48
4.0
100
AcDbLine
 10
2700.159718139607
 20
4446.333929467118
 30
0.0
 11
2698.259060841782
 21
4445.066824601904
 31
0.0
  0
LINE
  5
1B80D
330
1F
100
AcDbEntity
  8
0
 62
     0
 48
4.0
100
AcDbLine
 10
2700.159718139607
 20
4443.134118907119
 30
0.0
 11
2698.259060841782
 21
4441.867014041905
 31
0.0
  0
LINE
  5
1B80E
330
1F
100
AcDbEntity
  8
0
 62
     0
 48
4.0
100
AcDbLine
 10
2700.159718139607
 20
4440.599909176691
 30
0.0
 11
2698.259060841782
 21
4441.867014041905
 31
0.0
  0
LINE
  5
1B80F
330
1F
100
AcDbEntity
  8
0
 62
     0
 48
4.0
100
AcDbLine
 10
2700.159718139607
 20
4439.934308347122
 30
0.0
 11
2698.259060841782
 21
4438.667203481902
 31
0.0
  0
ARC
  5
1B810
330
1F
100
AcDbEntity
  8
0
 62
     0
 48
4.0
100
AcDbCircle
 10
2708.581322939909
 20
4463.999171311618
 30
0.0
 40
7.393801296966239
100
AcDbArc
 50
217.26453785461
 51
308.7793776406952
  0
LINE
  5
1B811
330
1F
100
AcDbEntity
  8
0
 62
     0
100
AcDbLine
 10
2730.73737936762
 20
4487.847881533881
 30
0.0
 11
2706.738800167611
 21
4487.847881533881
 31
0.0
  0
LINE
  5
1B812
330
1F
100
AcDbEntity
  8
0
 62
     0
 48
0.1
100
AcDbLine
 10
2730.73737936762
 20
4495.847407933881
 30
0.0
 11
2708.615751198941
 21
4495.847407933881
 31
0.0
  0
LINE
  5
1B813
330
1F
100
AcDbEntity
  8
0
 62
     0
100
AcDbLine
 10
2742.787961375342
 20
4487.828182404746
 30
0.0
 11
2709.78991497534
 21
4487.828182404746
 31
0.0
  0
LINE
  5
1B814
330
1F
100
AcDbEntity
  8
0
 62
     0
100
AcDbLine
 10
2749.587558815343
 20
4481.828537604747
 30
0.0
 11
2709.78991497534
 21
4481.828537604747
 31
0.0
  0
LINE
  5
1B815
330
1F
100
AcDbEntity
  8
0
 62
     0
 48
0.3
100
AcDbLine
 10
2674.791986975337
 20
4614.22069952475
 30
0.0
 11
2674.791986975337
 21
4607.733431696805
 31
0.0
  0
LINE
  5
1B816
330
1F
100
AcDbEntity
  8
0
 62
     0
 48
4.0
100
AcDbLine
 10
2676.791868575338
 20
4614.22069952475
 30
0.0
 11
2676.791868575338
 21
4607.733431696805
 31
0.0
  0
LINE
  5
1B817
330
1F
100
AcDbEntity
  8
0
 62
     0
100
AcDbLine
 10
2674.192022495344
 20
4613.020770564752
 30
0.0
 11
2674.192022495344
 21
4609.42098368475
 31
0.0
  0
LINE
  5
1B818
330
1F
100
AcDbEntity
  8
0
 62
     0
 48
0.3
100
AcDbLine
 10
2706.790092575343
 20
4607.733431696805
 30
0.0
 11
2706.790092575343
 21
4614.22069952475
 31
0.0
  0
LINE
  5
1B819
330
1F
100
AcDbEntity
  8
0
 62
     0
 48
4.0
100
AcDbLine
 10
2704.790210975342
 20
4614.22069952475
 30
0.0
 11
2704.790210975342
 21
4607.733431696805
 31
0.0
  0
LINE
  5
1B81A
330
1F
100
AcDbEntity
  8
0
 62
     0
100
AcDbLine
 10
2707.390057055343
 20
4613.020770564752
 30
0.0
 11
2707.390057055343
 21
4609.42098368475
 31
0.0
  0
LINE
  5
1B81B
330
1F
100
AcDbEntity
  8
0
 62
     0
100
AcDbLine
 10
2630.794591775336
 20
4613.020770564752
 30
0.0
 11
2630.794591775336
 21
4556.323703876691
 31
0.0
  0
LINE
  5
1B81C
330
1F
100
AcDbEntity
  8
0
 62
     0
100
AcDbLine
 10
2750.787487775337
 20
4556.323703876691
 30
0.0
 11
2750.787487775337
 21
4613.020770564752
 31
0.0
  0
LINE
  5
1B81D
330
1F
100
AcDbEntity
  8
0
 62
     0
 48
4.0
100
AcDbLine
 10
2704.790210975342
 20
4589.290089618476
 30
0.0
 11
2676.791868575338
 21
4589.290089618476
 31
0.0
  0
LINE
  5
1B81E
330
1F
100
AcDbEntity
  8
0
 62
     0
 48
4.0
100
AcDbLine
 10
2706.790092575343
 20
4591.289971218477
 30
0.0
 11
2674.791986975337
 21
4591.289971218477
 31
0.0
  0
LINE
  5
1B81F
330
1F
100
AcDbEntity
  8
0
 62
     0
 48
4.0
100
AcDbLine
 10
2638.794118175338
 20
4591.734378896807
 30
0.0
 11
2742.787961375342
 21
4591.734378896807
 31
0.0
  0
LINE
  5
1B820
330
1F
100
AcDbEntity
  8
0
 62
     0
 48
4.0
100
AcDbLine
 10
2742.787961375342
 20
4607.733431696805
 30
0.0
 11
2638.794118175338
 21
4607.733431696805
 31
0.0
  0
LINE
  5
1B821
330
1F
100
AcDbEntity
  8
0
 62
     0
100
AcDbLine
 10
2640.793999775339
 20
4572.223185924749
 30
0.0
 11
2740.788079775341
 21
4572.223185924749
 31
0.0
  0
LINE
  5
1B822
330
1F
100
AcDbEntity
  8
0
 62
     0
 48
0.3
100
AcDbLine
 10
2741.28805017534
 20
4566.223541124752
 30
0.0
 11
2640.294029375341
 21
4566.223541124752
 31
0.0
  0
LINE
  5
1B823
330
1F
100
AcDbEntity
  8
0
 62
     0
 48
4.0
100
AcDbLine
 10
2676.791868575338
 20
4591.734378896807
 30
0.0
 11
2676.791868575338
 21
4589.290089618476
 31
0.0
  0
LINE
  5
1B824
330
1F
100
AcDbEntity
  8
0
 62
     0
 48
4.0
100
AcDbLine
 10
2674.791986975337
 20
4591.289971218477
 30
0.0
 11
2676.791868575338
 21
4589.290089618476
 31
0.0
  0
LINE
  5
1B825
330
1F
100
AcDbEntity
  8
0
 62
     0
 48
0.3
100
AcDbLine
 10
2674.791986975337
 20
4591.734378896807
 30
0.0
 11
2674.791986975337
 21
4591.289971218477
 31
0.0
  0
ARC
  5
1B826
330
1F
100
AcDbEntity
  8
0
 62
     0
100
AcDbCircle
 10
2672.992093535341
 20
4609.42098368475
 30
0.0
 40
1.199928959999999
100
AcDbArc
 50
270.0
 51
0.0
  0
ARC
  5
1B827
330
1F
100
AcDbEntity
  8
0
 62
     0
100
AcDbCircle
 10
2640.793999775339
 20
4604.22129152475
 30
0.0
 40
3.999763199999999
100
AcDbArc
 50
90.0
 51
180.0
  0
ARC
  5
1B828
330
1F
100
AcDbEntity
  8
0
 62
     0
100
AcDbCircle
 10
2640.793999775339
 20
4576.22294912475
 30
0.0
 40
3.999763199999999
100
AcDbArc
 50
180.0
 51
270.0
  0
LINE
  5
1B829
330
1F
100
AcDbEntity
  8
0
 62
     0
100
AcDbLine
 10
2636.794236575338
 20
4604.22129152475
 30
0.0
 11
2636.794236575338
 21
4576.22294912475
 31
0.0
  0
LINE
  5
1B82A
330
1F
100
AcDbEntity
  8
0
 62
     0
 48
4.0
100
AcDbLine
 10
2638.794118175338
 20
4607.733431696805
 30
0.0
 11
2638.794118175338
 21
4591.734378896807
 31
0.0
  0
LINE
  5
1B82B
330
1F
100
AcDbEntity
  8
0
 62
     0
100
AcDbLine
 10
2672.992093535341
 20
4608.221054724753
 30
0.0
 11
2640.793999775339
 21
4608.221054724753
 31
0.0
  0
ARC
  5
1B82C
330
1F
100
AcDbEntity
  8
0
 62
     0
100
AcDbCircle
 10
2640.294029375341
 20
4562.723748324748
 30
0.0
 40
3.499792799999999
100
AcDbArc
 50
90.0
 51
180.0
  0
LINE
  5
1B82D
330
1F
100
AcDbEntity
  8
0
 62
     0
100
AcDbLine
 10
2636.794236575338
 20
4562.723748324748
 30
0.0
 11
2636.794236575338
 21
4556.323703876691
 31
0.0
  0
LINE
  5
1B82E
330
1F
100
AcDbEntity
  8
0
 62
     0
100
AcDbLine
 10
2744.787842975335
 20
4576.22294912475
 30
0.0
 11
2744.787842975335
 21
4604.22129152475
 31
0.0
  0
LINE
  5
1B82F
330
1F
100
AcDbEntity
  8
0
 62
     0
 48
4.0
100
AcDbLine
 10
2742.787961375342
 20
4591.734378896807
 30
0.0
 11
2742.787961375342
 21
4607.733431696805
 31
0.0
  0
ARC
  5
1B830
330
1F
100
AcDbEntity
  8
0
 62
     0
100
AcDbCircle
 10
2740.788079775341
 20
4576.22294912475
 30
0.0
 40
3.999763199999999
100
AcDbArc
 50
270.0
 51
0.0
  0
ARC
  5
1B831
330
1F
100
AcDbEntity
  8
0
 62
     0
100
AcDbCircle
 10
2740.788079775341
 20
4604.22129152475
 30
0.0
 40
3.999763199999999
100
AcDbArc
 50
0.0
 51
90.0
  0
LINE
  5
1B832
330
1F
100
AcDbEntity
  8
0
 62
     0
 48
4.0
100
AcDbLine
 10
2706.790092575343
 20
4591.289971218477
 30
0.0
 11
2704.790210975342
 21
4589.290089618476
 31
0.0
  0
LINE
  5
1B833
330
1F
100
AcDbEntity
  8
0
 62
     0
 48
4.0
100
AcDbLine
 10
2704.790210975342
 20
4591.734378896807
 30
0.0
 11
2704.790210975342
 21
4589.290089618476
 31
0.0
  0
LINE
  5
1B834
330
1F
100
AcDbEntity
  8
0
 62
     0
 48
0.3
100
AcDbLine
 10
2706.790092575343
 20
4591.289971218477
 30
0.0
 11
2706.790092575343
 21
4591.734378896807
 31
0.0
  0
ARC
  5
1B835
330
1F
100
AcDbEntity
  8
0
 62
     0
100
AcDbCircle
 10
2708.589986015338
 20
4609.42098368475
 30
0.0
 40
1.199928959999999
100
AcDbArc
 50
180.0
 51
270.0
  0
LINE
  5
1B836
330
1F
100
AcDbEntity
  8
0
 62
     0
100
AcDbLine
 10
2740.788079775341
 20
4608.221054724753
 30
0.0
 11
2708.589986015338
 21
4608.221054724753
 31
0.0
  0
LINE
  5
1B837
330
1F
100
AcDbEntity
  8
0
 62
     0
100
AcDbLine
 10
2744.787842975335
 20
4556.323703876691
 30
0.0
 11
2744.787842975335
 21
4562.723748324748
 31
0.0
  0
ARC
  5
1B838
330
1F
100
AcDbEntity
  8
0
 62
     0
100
AcDbCircle
 10
2741.28805017534
 20
4562.723748324748
 30
0.0
 40
3.499792799999999
100
AcDbArc
 50
0.0
 51
90.0
  0
ARC
  5
1B839
330
1F
100
AcDbEntity
  8
0
 62
     0
 48
0.3
100
AcDbCircle
 10
2690.787487775343
 20
4604.288684678993
 30
0.0
 40
67.5
100
AcDbArc
 50
77.16041159309874
 51
102.8395887711422
  0
LINE
  5
1B83A
330
1F
100
AcDbEntity
  8
0
 62
     0
 48
4.0
100
AcDbLine
 10
2690.787487775343
 20
4671.788684678993
 30
0.0
 11
2705.787487775343
 21
4670.100917584435
 31
0.0
  0
LINE
  5
1B83B
330
1F
100
AcDbEntity
  8
0
 62
     0
 48
4.0
100
AcDbLine
 10
2656.787487775342
 20
4630.22077056475
 30
0.0
 11
2724.787487775344
 21
4630.22077056475
 31
0.0
  0
LINE
  5
1B83C
330
1F
100
AcDbEntity
  8
0
 62
     0
 48
0.3
100
AcDbLine
 10
2720.787487775343
 20
4649.288684678993
 30
0.0
 11
2660.787487775343
 21
4649.288684678993
 31
0.0
  0
LINE
  5
1B83D
330
1F
100
AcDbEntity
  8
0
 62
     0
 48
4.0
100
AcDbLine
 10
2724.787487775344
 20
4635.020770564749
 30
0.0
 11
2690.787487775343
 21
4635.020770564749
 31
0.0
  0
LINE
  5
1B83E
330
1F
100
AcDbEntity
  8
0
 62
     0
 48
4.0
100
AcDbLine
 10
2718.787487775344
 20
4647.288684678995
 30
0.0
 11
2690.787487775343
 21
4643.288684678995
 31
0.0
  0
LINE
  5
1B83F
330
1F
100
AcDbEntity
  8
0
 62
     0
 48
4.0
100
AcDbLine
 10
2690.787487775343
 20
4635.288684678993
 30
0.0
 11
2718.787487775344
 21
4639.288684678994
 31
0.0
  0
LINE
  5
1B840
330
1F
100
AcDbEntity
  8
0
 62
     0
 48
4.0
100
AcDbLine
 10
2690.787487775343
 20
4649.288684678993
 30
0.0
 11
2704.787487775344
 21
4649.288684678993
 31
0.0
  0
LINE
  5
1B841
330
1F
100
AcDbEntity
  8
0
 62
     0
 48
0.3
100
AcDbLine
 10
2667.972397554464
 20
4671.788684678993
 30
0.0
 11
2713.401318713387
 21
4671.788684678993
 31
0.0
  0
LINE
  5
1B842
330
1F
100
AcDbEntity
  8
0
 62
     0
 48
0.3
100
AcDbLine
 10
2705.787487775343
 20
4671.788684678993
 30
0.0
 11
2690.787487775343
 21
4671.788684678993
 31
0.0
  0
LINE
  5
1B843
330
1F
100
AcDbEntity
  8
0
 62
     0
 48
4.0
100
AcDbLine
 10
2690.787487775343
 20
4671.788684678993
 30
0.0
 11
2675.787487775343
 21
4670.100917584435
 31
0.0
  0
ARC
  5
1B844
330
1F
100
AcDbEntity
  8
0
 62
     0
 48
0.3
100
AcDbCircle
 10
2668.287487775343
 20
4655.3335349516
 30
0.0
 40
16.56277703837987
100
AcDbArc
 50
63.07507530988992
 51
116.92492469011
  0
LINE
  5
1B845
330
1F
100
AcDbEntity
  8
0
 62
     0
 48
0.3
100
AcDbLine
 10
2690.787487775343
 20
4649.288684678993
 30
0.0
 11
2674.787487775343
 21
4649.288684678993
 31
0.0
  0
LINE
  5
1B846
330
1F
100
AcDbEntity
  8
0
 62
     0
 48
4.0
100
AcDbLine
 10
2690.787487775343
 20
4649.288684678993
 30
0.0
 11
2676.787487775342
 21
4649.288684678993
 31
0.0
  0
LINE
  5
1B847
330
1F
100
AcDbEntity
  8
0
 62
     0
 48
4.0
100
AcDbLine
 10
2690.787487775343
 20
4635.020770564749
 30
0.0
 11
2656.787487775342
 21
4635.020770564749
 31
0.0
  0
LINE
  5
1B848
330
1F
100
AcDbEntity
  8
0
 62
     0
 48
4.0
100
AcDbLine
 10
2690.787487775343
 20
4649.288684678993
 30
0.0
 11
2662.787487775345
 21
4647.288684678995
 31
0.0
  0
LINE
  5
1B849
330
1F
100
AcDbEntity
  8
0
 62
     0
 48
4.0
100
AcDbLine
 10
2690.787487775343
 20
4641.288684678997
 30
0.0
 11
2662.787487775345
 21
4639.288684678994
 31
0.0
  0
LINE
  5
1B84A
330
1F
100
AcDbEntity
  8
0
 62
     0
 48
0.3
100
AcDbLine
 10
2675.787487775343
 20
4670.100917584435
 30
0.0
 11
2675.787487775343
 21
4649.288684678993
 31
0.0
  0
LINE
  5
1B84B
330
1F
100
AcDbEntity
  8
0
 62
     0
 48
4.0
100
AcDbLine
 10
2676.787487775342
 20
4649.288684678993
 30
0.0
 11
2676.787487775342
 21
4648.264899567378
 31
0.0
  0
LINE
  5
1B84C
330
1F
100
AcDbEntity
  8
0
 62
     0
 48
4.0
100
AcDbLine
 10
2676.787487775342
 20
4640.288684678993
 30
0.0
 11
2676.787487775342
 21
4635.020770564749
 31
0.0
  0
LINE
  5
1B84D
330
1F
100
AcDbEntity
  8
0
 62
     0
 48
0.3
100
AcDbLine
 10
2660.787487775343
 20
4649.288684678993
 30
0.0
 11
2660.787487775343
 21
4670.100917584435
 31
0.0
  0
LINE
  5
1B84E
330
1F
100
AcDbEntity
  8
0
 62
     0
 48
4.0
100
AcDbLine
 10
2662.787487775345
 20
4647.288684678995
 30
0.0
 11
2662.787487775345
 21
4639.288684678994
 31
0.0
  0
LINE
  5
1B84F
330
1F
100
AcDbEntity
  8
0
 62
     0
 48
4.0
100
AcDbLine
 10
2662.787487775345
 20
4639.288684678994
 30
0.0
 11
2676.787487775342
 21
4639.288684678994
 31
0.0
  0
LINE
  5
1B850
330
1F
100
AcDbEntity
  8
0
 62
     0
 48
4.0
100
AcDbLine
 10
2656.787487775342
 20
4635.020770564749
 30
0.0
 11
2656.787487775342
 21
4630.22077056475
 31
0.0
  0
ARC
  5
1B851
330
1F
100
AcDbEntity
  8
0
 62
     0
100
AcDbCircle
 10
2672.992093535341
 20
4613.020770564752
 30
0.0
 40
1.199928959999999
100
AcDbArc
 50
0.0
 51
90.0
  0
LINE
  5
1B852
330
1F
100
AcDbEntity
  8
0
 62
     0
 48
4.0
100
AcDbLine
 10
2690.787487775343
 20
4647.288684678995
 30
0.0
 11
2690.787487775343
 21
4639.288684678994
 31
0.0
  0
LINE
  5
1B853
330
1F
100
AcDbEntity
  8
0
 62
     0
 48
4.0
100
AcDbLine
 10
2690.787487775343
 20
4643.288684678995
 30
0.0
 11
2690.787487775343
 21
4649.288684678993
 31
0.0
  0
LINE
  5
1B854
330
1F
100
AcDbEntity
  8
0
 62
     0
 48
4.0
100
AcDbLine
 10
2690.787487775343
 20
4649.288684678993
 30
0.0
 11
2690.787487775343
 21
4641.288684678997
 31
0.0
  0
LINE
  5
1B855
330
1F
100
AcDbEntity
  8
0
 62
     0
 48
4.0
100
AcDbLine
 10
2690.787487775343
 20
4643.288684678995
 30
0.0
 11
2690.787487775343
 21
4635.288684678993
 31
0.0
  0
LINE
  5
1B856
330
1F
100
AcDbEntity
  8
0
 62
     0
 48
0.3
100
AcDbLine
 10
2690.787487775343
 20
4671.788684678993
 30
0.0
 11
2675.787487775343
 21
4671.788684678993
 31
0.0
  0
LINE
  5
1B857
330
1F
100
AcDbEntity
  8
0
 62
     0
 48
0.3
100
AcDbLine
 10
2630.787487775343
 20
4630.22077056475
 30
0.0
 11
2630.787487775343
 21
4614.220770564751
 31
0.0
  0
LINE
  5
1B858
330
1F
100
AcDbEntity
  8
0
 62
     0
100
AcDbLine
 10
2630.787487775343
 20
4614.220770564751
 30
0.0
 11
2630.787487775343
 21
4630.22077056475
 31
0.0
  0
ARC
  5
1B859
330
1F
100
AcDbEntity
  8
0
 62
     0
100
AcDbCircle
 10
2631.994520735338
 20
4613.020770564752
 30
0.0
 40
1.199928959999999
100
AcDbArc
 50
90.0
 51
180.0
  0
LINE
  5
1B85A
330
1F
100
AcDbEntity
  8
0
 62
     0
100
AcDbLine
 10
2672.987487775345
 20
4614.220770564751
 30
0.0
 11
2631.987487775342
 21
4614.220770564751
 31
0.0
  0
LINE
  5
1B85B
330
1F
100
AcDbEntity
  8
0
 62
     0
100
AcDbLine
 10
2672.992093535341
 20
4614.22069952475
 30
0.0
 11
2631.994520735338
 21
4614.22069952475
 31
0.0
  0
ARC
  5
1B85C
330
1F
100
AcDbEntity
  8
0
 62
     0
100
AcDbCircle
 10
2749.587558815343
 20
4613.020770564752
 30
0.0
 40
1.199928959999999
100
AcDbArc
 50
0.0
 51
90.0
  0
ARC
  5
1B85D
330
1F
100
AcDbEntity
  8
0
 62
     0
 48
0.3
100
AcDbCircle
 10
2713.287488265683
 20
4654.624334394552
 30
0.0
 40
17.1980991089057
100
AcDbArc
 50
64.1450295252062
 51
115.8549704747938
  0
LINE
  5
1B85E
330
1F
100
AcDbEntity
  8
0
 62
     0
 48
4.0
100
AcDbLine
 10
2718.787487775344
 20
4647.288684678995
 30
0.0
 11
2704.787487775344
 21
4647.288684678995
 31
0.0
  0
LINE
  5
1B85F
330
1F
100
AcDbEntity
  8
0
 62
     0
 48
0.3
100
AcDbLine
 10
2705.787487775343
 20
4670.100917584435
 30
0.0
 11
2705.787487775343
 21
4649.288684678993
 31
0.0
  0
LINE
  5
1B860
330
1F
100
AcDbEntity
  8
0
 62
     0
 48
4.0
100
AcDbLine
 10
2704.787487775344
 20
4649.288684678993
 30
0.0
 11
2704.787487775344
 21
4645.2031535399
 31
0.0
  0
LINE
  5
1B861
330
1F
100
AcDbEntity
  8
0
 62
     0
 48
4.0
100
AcDbLine
 10
2704.787487775344
 20
4637.288684678995
 30
0.0
 11
2704.787487775344
 21
4635.020770564749
 31
0.0
  0
ARC
  5
1B862
330
1F
100
AcDbEntity
  8
0
 62
     0
100
AcDbCircle
 10
2708.589986015338
 20
4613.020770564752
 30
0.0
 40
1.199928959999999
100
AcDbArc
 50
90.0
 51
180.0
  0
LINE
  5
1B863
330
1F
100
AcDbEntity
  8
0
 62
     0
 48
0.3
100
AcDbLine
 10
2720.787487775343
 20
4670.100917584435
 30
0.0
 11
2720.787487775343
 21
4649.288684678993
 31
0.0
  0
LINE
  5
1B864
330
1F
100
AcDbEntity
  8
0
 62
     0
 48
4.0
100
AcDbLine
 10
2718.787487775344
 20
4639.288684678994
 30
0.0
 11
2718.787487775344
 21
4647.288684678995
 31
0.0
  0
LINE
  5
1B865
330
1F
100
AcDbEntity
  8
0
 62
     0
 48
4.0
100
AcDbLine
 10
2724.787487775344
 20
4630.22077056475
 30
0.0
 11
2724.787487775344
 21
4635.020770564749
 31
0.0
  0
LINE
  5
1B866
330
1F
100
AcDbEntity
  8
0
 62
     0
 48
0.3
100
AcDbLine
 10
2712.991586232961
 20
4671.788684678993
 30
0.0
 11
2705.787487775343
 21
4671.788684678993
 31
0.0
  0
LINE
  5
1B867
330
1F
100
AcDbEntity
  8
0
 62
     0
100
AcDbLine
 10
2749.587487775344
 20
4614.220770564751
 30
0.0
 11
2708.587487775345
 21
4614.220770564751
 31
0.0
  0
LINE
  5
1B868
330
1F
100
AcDbEntity
  8
0
 62
     0
100
AcDbLine
 10
2749.587558815343
 20
4614.22069952475
 30
0.0
 11
2708.589986015338
 21
4614.22069952475
 31
0.0
  0
LINE
  5
1B869
330
1F
100
AcDbEntity
  8
0
 48
25.0
100
AcDbLine
 10
3042.787487775346
 20
4501.420929316158
 30
0.0
 11
3042.787487775346
 21
4376.593181587201
 31
0.0
  0
LINE
  5
1B86A
330
1F
100
AcDbEntity
  8
0
 62
     0
 48
0.3
100
AcDbLine
 10
3042.787487775346
 20
4575.508008838096
 30
0.0
 11
3095.820496364336
 21
4628.541017427087
 31
0.0
  0
LINE
  5
1B86B
330
1F
100
AcDbEntity
  8
0
 62
     0
 48
0.3
100
AcDbLine
 10
3042.787487775346
 20
4560.508008838096
 30
0.0
 11
3095.820496364336
 21
4613.541017427087
 31
0.0
  0
LINE
  5
1B86C
330
1F
100
AcDbEntity
  8
0
 62
     0
 48
0.3
100
AcDbLine
 10
3042.787487775346
 20
4545.508008838097
 30
0.0
 11
3095.820496364336
 21
4598.541017427087
 31
0.0
  0
ARC
  5
1B86D
330
1F
100
AcDbEntity
  8
0
 62
     0
100
AcDbCircle
 10
3010.787487775343
 20
4634.220770564751
 30
0.0
 40
20.0
100
AcDbArc
 50
270.0
 51
0.0
  0
LINE
  5
1B86E
330
1F
100
AcDbEntity
  8
0
 62
     0
100
AcDbLine
 10
2993.1533063474
 20
4689.383894683792
 30
0.0
 11
2998.732651801848
 21
4689.383894683792
 31
0.0
  0
LINE
  5
1B86F
330
1F
100
AcDbEntity
  8
0
 62
     0
100
AcDbLine
 10
2998.732651801848
 20
4709.450783008855
 30
0.0
 11
2998.732651801848
 21
4719.45145125313
 31
0.0
  0
LINE
  5
1B870
330
1F
100
AcDbEntity
  8
0
 62
     0
 48
2.0
100
AcDbLine
 10
3008.787487775345
 20
4702.212680882215
 30
0.0
 11
2998.728075729555
 21
4712.443865743693
 31
0.0
  0
LINE
  5
1B871
330
1F
100
AcDbEntity
  8
0
 62
     0
100
AcDbLine
 10
2962.980435261498
 20
4689.383894683792
 30
0.0
 11
2957.365581075279
 21
4689.383894683792
 31
0.0
  0
LINE
  5
1B872
330
1F
100
AcDbEntity
  8
0
 62
     0
100
AcDbLine
 10
2962.984382171777
 20
4691.449580169159
 30
0.0
 11
2955.365581075276
 21
4691.449580169159
 31
0.0
  0
LINE
  5
1B873
330
1F
100
AcDbEntity
  8
0
 62
     0
100
AcDbLine
 10
2955.365581075276
 20
4691.38389468379
 30
0.0
 11
2957.365581075279
 21
4689.383894683792
 31
0.0
  0
LINE
  5
1B874
330
1F
100
AcDbEntity
  8
0
 62
     0
100
AcDbLine
 10
2966.979178116231
 20
4689.383894683792
 30
0.0
 11
2993.1533063474
 21
4689.383894683792
 31
0.0
  0
ARC
  5
1B875
330
1F
100
AcDbEntity
  8
0
 62
     0
100
AcDbCircle
 10
3010.787487775343
 20
4634.220770564751
 30
0.0
 40
4.0
100
AcDbArc
 50
270.0
 51
0.0
  0
LINE
  5
1B876
330
1F
100
AcDbEntity
  8
0
 62
     0
100
AcDbLine
 10
2997.732584977417
 20
4669.382558195242
 30
0.0
 11
2998.732651801848
 21
4670.382625019668
 31
0.0
  0
LINE
  5
1B877
330
1F
100
AcDbEntity
  8
0
 62
     0
 48
0.5
100
AcDbLine
 10
3014.787487775343
 20
4665.674785613522
 30
0.0
 11
3008.787487775345
 21
4665.674785613522
 31
0.0
  0
LINE
  5
1B878
330
1F
100
AcDbEntity
  8
0
 62
     0
100
AcDbLine
 10
2999.587487775339
 20
4672.784084434773
 30
0.0
 11
2998.787487775345
 21
4673.584084434773
 31
0.0
  0
LINE
  5
1B879
330
1F
100
AcDbEntity
  8
0
 62
     0
100
AcDbLine
 10
3008.787487775345
 20
4673.584084434773
 30
0.0
 11
3007.987487775341
 21
4672.784084434773
 31
0.0
  0
LINE
  5
1B87A
330
1F
100
AcDbEntity
  8
0
 62
     0
100
AcDbLine
 10
3007.987487775341
 20
4672.784084434773
 30
0.0
 11
2999.587487775339
 21
4672.784084434773
 31
0.0
  0
LINE
  5
1B87B
330
1F
100
AcDbEntity
  8
0
 62
     0
100
AcDbLine
 10
2966.979178116231
 20
4669.382558195242
 30
0.0
 11
2997.732584977417
 21
4669.382558195242
 31
0.0
  0
LINE
  5
1B87C
330
1F
100
AcDbEntity
  8
0
 62
     0
100
AcDbLine
 10
2966.979178116231
 20
4669.382558195242
 30
0.0
 11
2993.1533063474
 21
4669.382558195242
 31
0.0
  0
ARC
  5
1B87D
330
1F
100
AcDbEntity
  8
0
 62
     0
100
AcDbCircle
 10
2977.416378770118
 20
4679.383226439517
 30
0.0
 40
14.45505180971646
100
AcDbArc
 50
136.2235944163429
 51
223.7764055836569
  0
LINE
  5
1B87E
330
1F
100
AcDbEntity
  8
0
 62
     0
 48
0.5
100
AcDbLine
 10
3014.787487775343
 20
4709.674785613518
 30
0.0
 11
3014.787487775343
 21
4665.674785613522
 31
0.0
  0
LINE
  5
1B87F
330
1F
100
AcDbEntity
  8
0
 62
     0
100
AcDbLine
 10
3008.787487775345
 20
4686.78408443477
 30
0.0
 11
3008.787487775345
 21
4673.584084434773
 31
0.0
  0
LINE
  5
1B880
330
1F
100
AcDbEntity
  8
0
 62
     0
 48
0.3
100
AcDbLine
 10
3042.787487775346
 20
4649.674785613519
 30
0.0
 11
3030.787487775343
 21
4649.674785613519
 31
0.0
  0
LINE
  5
1B881
330
1F
100
AcDbEntity
  8
0
 62
     0
 48
0.3
100
AcDbLine
 10
3030.787487775343
 20
4649.674785613519
 30
0.0
 11
3042.787487775346
 21
4649.674785613519
 31
0.0
  0
LINE
  5
1B882
330
1F
100
AcDbEntity
  8
0
 62
     0
 48
0.3
100
AcDbLine
 10
3030.787487775343
 20
4709.674785613518
 30
0.0
 11
3030.787487775343
 21
4649.674785613519
 31
0.0
  0
LINE
  5
1B883
330
1F
100
AcDbEntity
  8
0
 62
     0
100
AcDbLine
 10
2993.1533063474
 20
4729.386567660886
 30
0.0
 11
2998.732651801848
 21
4729.386567660886
 31
0.0
  0
LINE
  5
1B884
330
1F
100
AcDbEntity
  8
0
 62
     0
 48
0.5
100
AcDbLine
 10
3008.787487775345
 20
4753.674785613521
 30
0.0
 11
3014.787487775343
 21
4753.674785613521
 31
0.0
  0
LINE
  5
1B885
330
1F
100
AcDbEntity
  8
0
 62
     0
100
AcDbLine
 10
2997.732593501365
 20
4749.514878783933
 30
0.0
 11
2998.732651801848
 21
4748.518940998041
 31
0.0
  0
LINE
  5
1B886
330
1F
100
AcDbEntity
  8
0
 62
     0
100
AcDbLine
 10
2999.587487775339
 20
4745.584084434771
 30
0.0
 11
2998.67861995168
 21
4744.791526678532
 31
0.0
  0
LINE
  5
1B887
330
1F
100
AcDbEntity
  8
0
 62
     0
100
AcDbLine
 10
3007.987487775341
 20
4745.584084434771
 30
0.0
 11
3008.787487775345
 21
4744.784084434772
 31
0.0
  0
LINE
  5
1B888
330
1F
100
AcDbEntity
  8
0
 62
     0
100
AcDbLine
 10
3007.987487775341
 20
4745.584084434771
 30
0.0
 11
2999.587487775339
 21
4745.584084434771
 31
0.0
  0
ARC
  5
1B889
330
1F
100
AcDbEntity
  8
0
 62
     0
100
AcDbCircle
 10
2977.839287161706
 20
4739.387235905164
 30
0.0
 40
14.76331039474835
100
AcDbArc
 50
137.3591881474104
 51
222.6408118525896
  0
LINE
  5
1B88A
330
1F
100
AcDbEntity
  8
0
 62
     0
100
AcDbLine
 10
2963.056993715923
 20
4729.452119497404
 30
0.0
 11
2957.365581075279
 21
4729.452119497404
 31
0.0
  0
LINE
  5
1B88B
330
1F
100
AcDbEntity
  8
0
 62
     0
100
AcDbLine
 10
2963.053172055698
 20
4727.451985848551
 30
0.0
 11
2955.365581075276
 21
4727.451985848551
 31
0.0
  0
LINE
  5
1B88C
330
1F
100
AcDbEntity
  8
0
 62
     0
100
AcDbLine
 10
2955.365581075276
 20
4727.452119497402
 30
0.0
 11
2957.365581075279
 21
4729.452119497404
 31
0.0
  0
LINE
  5
1B88D
330
1F
100
AcDbEntity
  8
0
 62
     0
100
AcDbLine
 10
2966.979178116231
 20
4729.386567660886
 30
0.0
 11
2993.1533063474
 21
4729.386567660886
 31
0.0
  0
LINE
  5
1B88E
330
1F
100
AcDbEntity
  8
0
 62
     0
100
AcDbLine
 10
2997.732593501365
 20
4749.514878783933
 30
0.0
 11
2967.017115652526
 21
4749.514878783933
 31
0.0
  0
LINE
  5
1B88F
330
1F
100
AcDbEntity
  8
0
 62
     0
 48
0.3
100
AcDbLine
 10
3030.787487775343
 20
4801.674785613522
 30
0.0
 11
3042.787487775346
 21
4801.674785613522
 31
0.0
  0
LINE
  5
1B890
330
1F
100
AcDbEntity
  8
0
 62
     0
 48
0.3
100
AcDbLine
 10
3030.787487775343
 20
4801.674785613522
 30
0.0
 11
3042.787487775346
 21
4801.674785613522
 31
0.0
  0
LINE
  5
1B891
330
1F
100
AcDbEntity
  8
0
 62
     0
 48
0.3
100
AcDbLine
 10
3030.787487775343
 20
4801.674785613517
 30
0.0
 11
3030.787487775343
 21
4741.674785613517
 31
0.0
  0
ARC
  5
1B892
330
1F
100
AcDbEntity
  8
0
 62
     0
100
AcDbCircle
 10
3157.671072194335
 20
4743.151869456203
 30
0.0
 40
30.54963237478725
100
AcDbArc
 50
273.9494346700525
 51
328.0313641311729
  0
LINE
  5
1B893
330
1F
100
AcDbEntity
  8
0
 62
     0
100
AcDbLine
 10
3215.587487775343
 20
4693.674785613517
 30
0.0
 11
3215.587487775343
 21
4725.67478561352
 31
0.0
  0
LINE
  5
1B894
330
1F
100
AcDbEntity
  8
0
 62
     0
100
AcDbLine
 10
3108.787487775344
 20
4729.674785613521
 30
0.0
 11
3108.787487775344
 21
4689.674785613521
 31
0.0
  0
LINE
  5
1B895
330
1F
100
AcDbEntity
  8
0
 62
     0
100
AcDbLine
 10
3116.787487775342
 20
4729.674785613521
 30
0.0
 11
3116.787487775342
 21
4693.281384363205
 31
0.0
  0
MTEXT
  5
1B896
102
{ACAD_REACTORS
330
1B897
102
}
330
1F
100
AcDbEntity
  8
0
 48
25.0
100
AcDbMText
 10
3183.335047935848
 20
4588.080214644921
 30
0.0
 40
20.0
 41
0.0
 71
     1
 72
     1
  1
M10アンカーボルト\P（建築工事）
 73
     1
 44
1.0
  0
LEADER
  5
1B897
330
1F
100
AcDbEntity
  8
0
 48
25.0
100
AcDbLeader
  3
ISO-25
 73
     0
 40
53.33333333333334
 41
221.3333333333333
 76
     3
 10
3132.903868136796
 20
4682.538168247148
 30
0.0
 10
3132.903868136796
 20
4578.08021464492
 30
0.0
 10
3173.335047935847
 20
4578.08021464492
 30
0.0
340
1B896
213
0.0
223
-10.0
233
0.0
1001
ACAD
1000
DSTYLE
1002
{
1070
   147
1040
10.0
1070
    77
1070
     0
1002
}
  0
LINE
  5
1B898
330
1F
100
AcDbEntity
  8
0
 62
     0
100
AcDbLine
 10
3205.076809680609
 20
4689.674785613521
 30
0.0
 11
3183.587487775345
 21
4692.02259903802
 31
0.0
  0
LINE
  5
1B899
330
1F
100
AcDbEntity
  8
0
 62
     0
100
AcDbLine
 10
3139.52648612964
 20
4706.67478561352
 30
0.0
 11
3160.180187741035
 21
4706.67478561352
 31
0.0
  0
LINE
  5
1B89A
330
1F
100
AcDbEntity
  8
0
 62
     0
100
AcDbLine
 10
3139.52648612964
 20
4712.674785613518
 30
0.0
 11
3159.775210659523
 21
4712.674785613518
 31
0.0
  0
ARC
  5
1B89B
330
1F
100
AcDbEntity
  8
0
 62
     0
100
AcDbCircle
 10
3139.52648612964
 20
4709.674785613521
 30
0.0
 40
3.0
100
AcDbArc
 50
90.0
 51
270.0
  0
ARC
  5
1B89C
330
1F
100
AcDbEntity
  8
0
 62
     0
100
AcDbCircle
 10
3179.92505872614
 20
4693.440003049328
 30
0.0
 40
3.927138993174281
100
AcDbArc
 50
253.4896813575782
 51
338.8429642585357
  0
ARC
  5
1B89D
330
1F
100
AcDbEntity
  8
0
 62
     0
100
AcDbCircle
 10
3159.546972378903
 20
4679.628281149049
 30
0.0
 40
27.04746746849392
100
AcDbArc
 50
27.27380201547615
 51
89.51650758356089
  0
LINE
  5
1B89E
330
1F
100
AcDbEntity
  8
0
 62
     0
100
AcDbLine
 10
3108.787487775344
 20
4689.674785613521
 30
0.0
 11
3108.787487775344
 21
4691.674785613519
 31
0.0
  0
LINE
  5
1B89F
330
1F
100
AcDbEntity
  8
0
 62
     0
100
AcDbLine
 10
3116.787487775342
 20
4693.281384363205
 30
0.0
 11
3116.787487775342
 21
4689.674785613521
 31
0.0
  0
LINE
  5
1B8A0
330
1F
100
AcDbEntity
  8
0
 62
     0
100
AcDbLine
 10
3108.787487775344
 20
4689.674785613521
 30
0.0
 11
3181.041104573224
 21
4689.674785613521
 31
0.0
  0
LINE
  5
1B8A1
330
1F
100
AcDbEntity
  8
0
 62
     0
100
AcDbLine
 10
3205.076809680609
 20
4689.674785613521
 30
0.0
 11
3206.810781226746
 21
4689.674785613521
 31
0.0
  0
ARC
  5
1B8A2
330
1F
100
AcDbEntity
  8
0
 62
     0
100
AcDbCircle
 10
3206.810781226746
 20
4700.927775678189
 30
0.0
 40
11.38580004735585
100
AcDbArc
 50
261.2401983392956
 51
320.4299839966517
  0
LINE
  5
1B8A3
330
1F
100
AcDbEntity
  8
0
 62
     0
100
AcDbLine
 10
3205.076809680609
 20
4729.674785613521
 30
0.0
 11
3183.587487775345
 21
4726.977215157978
 31
0.0
  0
ARC
  5
1B8A4
330
1F
100
AcDbEntity
  8
0
 62
     0
100
AcDbCircle
 10
3179.119167978129
 20
4725.063774382539
 30
0.0
 40
4.621430596438699
100
AcDbArc
 50
21.1104845833652
 51
93.84814721200372
  0
LINE
  5
1B8A5
330
1F
100
AcDbEntity
  8
0
 62
     0
100
AcDbLine
 10
3108.787487775344
 20
4729.674785613521
 30
0.0
 11
3116.787487775342
 21
4729.674785613521
 31
0.0
  0
LINE
  5
1B8A6
330
1F
100
AcDbEntity
  8
0
 62
     0
100
AcDbLine
 10
3108.787487775344
 20
4729.674785613521
 30
0.0
 11
3108.787487775344
 21
4727.674785613518
 31
0.0
  0
LINE
  5
1B8A7
330
1F
100
AcDbEntity
  8
0
 62
     0
100
AcDbLine
 10
3179.429323077198
 20
4729.674785613521
 30
0.0
 11
3108.787487775344
 21
4729.674785613521
 31
0.0
  0
LINE
  5
1B8A8
330
1F
100
AcDbEntity
  8
0
 62
     0
100
AcDbLine
 10
3179.429323077198
 20
4729.674785613521
 30
0.0
 11
3108.787487775344
 21
4729.674785613521
 31
0.0
  0
LINE
  5
1B8A9
330
1F
100
AcDbEntity
  8
0
 62
     0
100
AcDbLine
 10
3206.650517847752
 20
4729.674785613521
 30
0.0
 11
3205.076809680605
 21
4729.674785613521
 31
0.0
  0
LINE
  5
1B8AA
330
1F
100
AcDbEntity
  8
0
 62
     0
100
AcDbLine
 10
3206.650517847752
 20
4729.674785613521
 30
0.0
 11
3205.076809680609
 21
4729.674785613521
 31
0.0
  0
ARC
  5
1B8AB
330
1F
100
AcDbEntity
  8
0
 62
     0
100
AcDbCircle
 10
3205.863663764181
 20
4715.933083857114
 30
0.0
 40
13.76421107477037
100
AcDbArc
 50
45.05262221394995
 51
93.27719545008818
  0
LINE
  5
1B8AC
330
1F
100
AcDbEntity
  8
0
 62
     0
 48
0.3
100
AcDbLine
 10
3042.787487775346
 20
4876.402041974547
 30
0.0
 11
3042.787487775346
 21
4501.420929316158
 31
0.0
  0
LINE
  5
1B8AD
330
1F
100
AcDbEntity
  8
0
 62
     0
100
AcDbLine
 10
3030.787487775343
 20
4814.220770564751
 30
0.0
 11
3030.787487775343
 21
4634.220770564751
 31
0.0
  0
LINE
  5
1B8AE
330
1F
100
AcDbEntity
  8
0
 62
     0
100
AcDbLine
 10
3014.787487775343
 20
4634.220770564751
 30
0.0
 11
3014.787487775343
 21
4814.220770564751
 31
0.0
  0
LINE
  5
1B8AF
330
1F
100
AcDbEntity
  8
0
 62
     0
 48
0.3
100
AcDbLine
 10
3042.787487775346
 20
4797.67478561352
 30
0.0
 11
3042.787487775346
 21
4876.402041974547
 31
0.0
  0
LINE
  5
1B8B0
330
1F
100
AcDbEntity
  8
0
 62
     0
 48
0.3
100
AcDbLine
 10
3042.787487775341
 20
4799.978711891857
 30
0.0
 11
3095.820496364336
 21
4853.011720480848
 31
0.0
  0
LINE
  5
1B8B1
330
1F
100
AcDbEntity
  8
0
 62
     0
 48
0.3
100
AcDbLine
 10
3042.787487775341
 20
4829.978711891858
 30
0.0
 11
3095.820496364336
 21
4883.011720480848
 31
0.0
  0
LINE
  5
1B8B2
330
1F
100
AcDbEntity
  8
0
 62
     0
 48
0.3
100
AcDbLine
 10
3042.787487775341
 20
4814.978711891857
 30
0.0
 11
3095.820496364336
 21
4868.011720480848
 31
0.0
  0
LINE
  5
1B8B3
330
1F
100
AcDbEntity
  8
0
 62
     0
100
AcDbLine
 10
3014.787487775343
 20
4814.220770564751
 30
0.0
 11
3030.787487775343
 21
4814.220770564751
 31
0.0
  0
DIMENSION
  5
1B96F
330
1F
100
AcDbEntity
  8
0
 48
12.0
100
AcDbDimension
  2
*D2
 10
3030.787487775343
 20
4860.013778803208
 30
0.0
 11
2830.787487775343
 21
4907.513778803208
 31
0.0
 70
    33
  1
100
 71
     5
 42
400.0
  3
ISO-25
100
AcDbAlignedDimension
 13
2630.787487775343
 23
4630.22077056475
 33
0.0
 14
3030.787487775343
 24
4630.22077056475
 34
0.0
  0
DIMENSION
  5
1B985
330
1F
100
AcDbEntity
  8
0
 48
12.0
100
AcDbDimension
  2
*D3
 10
2551.885123763437
 20
4481.848236733882
 30
0.0
 11
2504.385123763436
 21
4548.034503649318
 31
0.0
 70
    33
  1
31
 71
     5
 42
132.3725338308686
  3
ISO-25
100
AcDbAlignedDimension
 13
2639.461419932871
 23
4614.220770564751
 33
0.0
 14
2639.461419932871
 24
4481.848236733882
 34
0.0
  0
LEADER
  5
1B99C
330
1F
100
AcDbEntity
  8
0
 48
12.0
100
AcDbLeader
  3
ISO-25
 73
     0
 40
45.0
 41
510.8571428571429
 76
     3
 10
2690.787487775343
 20
4671.788684678993
 30
0.0
 10
2531.096999261826
 20
4852.451506060141
 30
0.0
 10
2508.624006185913
 20
4852.451506060141
 30
0.0
340
1B99D
213
0.0
223
22.5
233
0.0
1001
ACAD
1000
DSTYLE
1002
{
1070
   147
1040
25.0
1070
    77
1070
     0
1002
}
  0
MTEXT
  5
1B99D
102
{ACAD_REACTORS
330
1B99C
102
}
330
1F
100
AcDbEntity
  8
0
 48
12.0
100
AcDbMText
 10
2483.624006185913
 20
4829.95150606014
 30
0.0
 40
45.0
 41
3.9737
 71
     9
 72
     1
  1
M8ボルト+角ナット
 73
     1
 44
1.0
  0
LINE
  5
1B9A0
330
1F
100
AcDbEntity
  8
0
 48
12.0
100
AcDbLine
 10
3937.972414097352
 20
4721.057154648707
 30
0.0
 11
4937.972414097352
 21
4721.057154648707
 31
0.0
  0
LINE
  5
1B9A2
330
1F
100
AcDbEntity
  8
0
 48
12.0
100
AcDbLine
 10
3937.972414097352
 20
4721.057154648707
 30
0.0
 11
4937.972414097352
 21
4721.057154648707
 31
0.0
  0
LINE
  5
1B9A4
330
1F
100
AcDbEntity
  8
0
 48
12.0
100
AcDbLine
 10
3937.972414097352
 20
4721.057154648707
 30
0.0
 11
5937.972414097352
 21
4721.057154648707
 31
0.0
  0
LINE
  5
1B9DE
330
1F
100
AcDbEntity
  8
0
 48
12.0
100
AcDbLine
 10
3937.972414097352
 20
3251.057154648706
 30
0.0
 11
5937.972414097352
 21
3251.057154648706
 31
0.0
  0
LINE
  5
1B9E7
330
1F
100
AcDbEntity
  8
0
 48
12.0
100
AcDbLine
 10
3937.972414097351
 20
1711.057154648707
 30
0.0
 11
5937.972414097352
 21
1711.057154648707
 31
0.0
  0
MTEXT
  5
1BA00
330
1F
100
AcDbEntity
  8
0
 48
12.0
100
AcDbMText
 10
2539.358783067458
 20
2467.027357128063
 30
0.0
 40
45.0
 41
3.9737
 71
     9
 72
     1
  1

 73
     1
 44
1.0
  0
LINE
  5
1BC18
330
1F
100
AcDbEntity
  8
0
 48
12.0
100
AcDbLine
 10
3937.972414097352
 20
4690.057154648706
 30
0.0
 11
5937.972414097352
 21
4690.057154648706
 31
0.0
  0
LINE
  5
1BC19
330
1F
100
AcDbEntity
  8
0
 48
12.0
100
AcDbLine
 10
3937.972414097352
 20
4690.057154648706
 30
0.0
 11
4937.972414097352
 21
4690.057154648706
 31
0.0
  0
LINE
  5
1BC1A
330
1F
100
AcDbEntity
  8
0
 48
12.0
100
AcDbLine
 10
3937.972414097352
 20
4690.057154648706
 30
0.0
 11
4937.972414097352
 21
4690.057154648706
 31
0.0
  0
LINE
  5
1BC1C
330
1F
100
AcDbEntity
  8
0
 48
12.0
100
AcDbLine
 10
3937.972414097351
 20
1680.057154648707
 30
0.0
 11
5937.972414097352
 21
1680.057154648707
 31
0.0
  0
LINE
  5
1BC1D
330
1F
100
AcDbEntity
  8
0
 48
12.0
100
AcDbLine
 10
3937.972414097351
 20
1680.057154648707
 30
0.0
 11
3937.972414097351
 21
1711.057154648707
 31
0.0
  0
LINE
  5
1BC1E
330
1F
100
AcDbEntity
  8
0
 48
12.0
100
AcDbLine
 10
5937.972414097352
 20
1680.057154648707
 30
0.0
 11
5937.972414097352
 21
1711.057154648707
 31
0.0
  0
LINE
  5
1BC20
330
1F
100
AcDbEntity
  8
0
 48
12.0
100
AcDbLine
 10
3937.972414097352
 20
4721.057154648707
 30
0.0
 11
3987.972414097352
 21
4721.057154648707
 31
0.0
  0
LINE
  5
1BC21
330
1F
100
AcDbEntity
  8
0
 48
12.0
100
AcDbLine
 10
3987.972414097352
 20
4721.057154648707
 30
0.0
 11
4037.972414097352
 21
4721.057154648707
 31
0.0
  0
LINE
  5
1BC23
330
1F
100
AcDbEntity
  8
0
 48
12.0
100
AcDbLine
 10
4037.972414097352
 20
4771.057154648707
 30
0.0
 11
4022.972414097352
 21
4771.057154648707
 31
0.0
  0
LINE
  5
1BC24
330
1F
100
AcDbEntity
  8
0
 48
12.0
100
AcDbLine
 10
4022.972414097352
 20
4771.057154648707
 30
0.0
 11
4022.972414097352
 21
4721.057154648707
 31
0.0
  0
LINE
  5
1BC25
330
1F
100
AcDbEntity
  8
0
 48
12.0
100
AcDbLine
 10
4037.972414097352
 20
4771.057154648707
 30
0.0
 11
4052.972414097352
 21
4771.057154648707
 31
0.0
  0
LINE
  5
1BC26
330
1F
100
AcDbEntity
  8
0
 48
12.0
100
AcDbLine
 10
4052.972414097352
 20
4771.057154648707
 30
0.0
 11
4052.972414097352
 21
4721.057154648707
 31
0.0
  0
CIRCLE
  5
1BC27
330
1F
100
AcDbEntity
  8
0
 48
12.0
100
AcDbCircle
 10
4037.972414097352
 20
4746.057154648706
 30
0.0
 40
6.818885631237208
  0
CIRCLE
  5
1BC37
330
1F
100
AcDbEntity
  8
0
 48
12.0
100
AcDbCircle
 10
4637.972414097352
 20
4746.057154648706
 30
0.0
 40
6.818885631237208
  0
LINE
  5
1BC38
330
1F
100
AcDbEntity
  8
0
 48
12.0
100
AcDbLine
 10
4637.972414097352
 20
4771.057154648707
 30
0.0
 11
4652.972414097352
 21
4771.057154648707
 31
0.0
  0
LINE
  5
1BC39
330
1F
100
AcDbEntity
  8
0
 48
12.0
100
AcDbLine
 10
4622.972414097352
 20
4771.057154648707
 30
0.0
 11
4622.972414097352
 21
4721.057154648707
 31
0.0
  0
LINE
  5
1BC3A
330
1F
100
AcDbEntity
  8
0
 48
12.0
100
AcDbLine
 10
4637.972414097352
 20
4771.057154648707
 30
0.0
 11
4622.972414097352
 21
4771.057154648707
 31
0.0
  0
LINE
  5
1BC3B
330
1F
100
AcDbEntity
  8
0
 48
12.0
100
AcDbLine
 10
4587.972414097352
 20
4721.057154648707
 30
0.0
 11
4637.972414097352
 21
4721.057154648707
 31
0.0
  0
LINE
  5
1BC3C
330
1F
100
AcDbEntity
  8
0
 48
12.0
100
AcDbLine
 10
4652.972414097352
 20
4771.057154648707
 30
0.0
 11
4652.972414097352
 21
4721.057154648707
 31
0.0
  0
CIRCLE
  5
1BC3D
330
1F
100
AcDbEntity
  8
0
 48
12.0
100
AcDbCircle
 10
5237.972414097352
 20
4746.057154648706
 30
0.0
 40
6.818885631237208
  0
LINE
  5
1BC3E
330
1F
100
AcDbEntity
  8
0
 48
12.0
100
AcDbLine
 10
5237.972414097352
 20
4771.057154648707
 30
0.0
 11
5252.972414097352
 21
4771.057154648707
 31
0.0
  0
LINE
  5
1BC3F
330
1F
100
AcDbEntity
  8
0
 48
12.0
100
AcDbLine
 10
5222.972414097352
 20
4771.057154648707
 30
0.0
 11
5222.972414097352
 21
4721.057154648707
 31
0.0
  0
LINE
  5
1BC40
330
1F
100
AcDbEntity
  8
0
 48
12.0
100
AcDbLine
 10
5237.972414097352
 20
4771.057154648707
 30
0.0
 11
5222.972414097352
 21
4771.057154648707
 31
0.0
  0
LINE
  5
1BC41
330
1F
100
AcDbEntity
  8
0
 48
12.0
100
AcDbLine
 10
5187.972414097352
 20
4721.057154648707
 30
0.0
 11
5237.972414097352
 21
4721.057154648707
 31
0.0
  0
LINE
  5
1BC42
330
1F
100
AcDbEntity
  8
0
 48
12.0
100
AcDbLine
 10
5252.972414097352
 20
4771.057154648707
 30
0.0
 11
5252.972414097352
 21
4721.057154648707
 31
0.0
  0
CIRCLE
  5
1BC43
330
1F
100
AcDbEntity
  8
0
 48
12.0
100
AcDbCircle
 10
5837.972414097352
 20
4746.057154648706
 30
0.0
 40
6.818885631237208
  0
LINE
  5
1BC44
330
1F
100
AcDbEntity
  8
0
 48
12.0
100
AcDbLine
 10
5837.972414097352
 20
4771.057154648707
 30
0.0
 11
5852.972414097352
 21
4771.057154648707
 31
0.0
  0
LINE
  5
1BC45
330
1F
100
AcDbEntity
  8
0
 48
12.0
100
AcDbLine
 10
5822.972414097352
 20
4771.057154648707
 30
0.0
 11
5822.972414097352
 21
4721.057154648707
 31
0.0
  0
LINE
  5
1BC46
330
1F
100
AcDbEntity
  8
0
 48
12.0
100
AcDbLine
 10
5837.972414097352
 20
4771.057154648707
 30
0.0
 11
5822.972414097352
 21
4771.057154648707
 31
0.0
  0
LINE
  5
1BC47
330
1F
100
AcDbEntity
  8
0
 48
12.0
100
AcDbLine
 10
5787.972414097352
 20
4721.057154648707
 30
0.0
 11
5837.972414097352
 21
4721.057154648707
 31
0.0
  0
LINE
  5
1BC48
330
1F
100
AcDbEntity
  8
0
 48
12.0
100
AcDbLine
 10
5852.972414097352
 20
4771.057154648707
 30
0.0
 11
5852.972414097352
 21
4721.057154648707
 31
0.0
  0
LINE
  5
1BC7A
330
1F
100
AcDbEntity
  8
0
 48
12.0
100
AcDbLine
 10
4052.972414097352
 20
1680.057154648707
 30
0.0
 11
4052.972414097352
 21
1630.057154648707
 31
0.0
  0
LINE
  5
1BC7B
330
1F
100
AcDbEntity
  8
0
 48
12.0
100
AcDbLine
 10
4022.972414097352
 20
1680.057154648707
 30
0.0
 11
4022.972414097352
 21
1630.057154648707
 31
0.0
  0
CIRCLE
  5
1BC7C
330
1F
100
AcDbEntity
  8
0
 48
12.0
100
AcDbCircle
 10
4037.972414097351
 20
1655.057154648707
 30
0.0
 40
6.818885631237208
  0
LINE
  5
1BC7D
330
1F
100
AcDbEntity
  8
0
 48
12.0
100
AcDbLine
 10
4037.972414097351
 20
1680.057154648707
 30
0.0
 11
4052.972414097352
 21
1680.057154648707
 31
0.0
  0
LINE
  5
1BC7E
330
1F
100
AcDbEntity
  8
0
 48
12.0
100
AcDbLine
 10
4037.972414097351
 20
1680.057154648707
 30
0.0
 11
4022.972414097352
 21
1680.057154648707
 31
0.0
  0
LINE
  5
1BC7F
330
1F
100
AcDbEntity
  8
0
 48
12.0
100
AcDbLine
 10
4622.972414097352
 20
1680.057154648707
 30
0.0
 11
4622.972414097352
 21
1630.057154648707
 31
0.0
  0
LINE
  5
1BC80
330
1F
100
AcDbEntity
  8
0
 48
12.0
100
AcDbLine
 10
4652.972414097352
 20
1680.057154648707
 30
0.0
 11
4652.972414097352
 21
1630.057154648707
 31
0.0
  0
CIRCLE
  5
1BC82
330
1F
100
AcDbEntity
  8
0
 48
12.0
100
AcDbCircle
 10
4637.972414097352
 20
1655.057154648707
 30
0.0
 40
6.818885631237208
  0
LINE
  5
1BC83
330
1F
100
AcDbEntity
  8
0
 48
12.0
100
AcDbLine
 10
4637.972414097352
 20
1680.057154648707
 30
0.0
 11
4652.972414097352
 21
1680.057154648707
 31
0.0
  0
LINE
  5
1BC84
330
1F
100
AcDbEntity
  8
0
 48
12.0
100
AcDbLine
 10
4637.972414097352
 20
1680.057154648707
 30
0.0
 11
4622.972414097352
 21
1680.057154648707
 31
0.0
  0
LINE
  5
1BC85
330
1F
100
AcDbEntity
  8
0
 48
12.0
100
AcDbLine
 10
5222.972414097352
 20
1680.057154648707
 30
0.0
 11
5222.972414097352
 21
1630.057154648707
 31
0.0
  0
LINE
  5
1BC86
330
1F
100
AcDbEntity
  8
0
 48
12.0
100
AcDbLine
 10
5252.972414097352
 20
1680.057154648707
 30
0.0
 11
5252.972414097352
 21
1630.057154648707
 31
0.0
  0
CIRCLE
  5
1BC87
330
1F
100
AcDbEntity
  8
0
 48
12.0
100
AcDbCircle
 10
5237.972414097352
 20
1655.057154648707
 30
0.0
 40
6.818885631237208
  0
LINE
  5
1BC89
330
1F
100
AcDbEntity
  8
0
 48
12.0
100
AcDbLine
 10
5237.972414097352
 20
1680.057154648707
 30
0.0
 11
5252.972414097352
 21
1680.057154648707
 31
0.0
  0
LINE
  5
1BC8A
330
1F
100
AcDbEntity
  8
0
 48
12.0
100
AcDbLine
 10
5237.972414097352
 20
1680.057154648707
 30
0.0
 11
5222.972414097352
 21
1680.057154648707
 31
0.0
  0
LINE
  5
1BC8B
330
1F
100
AcDbEntity
  8
0
 48
12.0
100
AcDbLine
 10
5852.972414097352
 20
1680.057154648707
 30
0.0
 11
5852.972414097352
 21
1630.057154648707
 31
0.0
  0
LINE
  5
1BC8C
330
1F
100
AcDbEntity
  8
0
 48
12.0
100
AcDbLine
 10
5822.972414097352
 20
1680.057154648707
 30
0.0
 11
5822.972414097352
 21
1630.057154648707
 31
0.0
  0
CIRCLE
  5
1BC8D
330
1F
100
AcDbEntity
  8
0
 48
12.0
100
AcDbCircle
 10
5837.972414097352
 20
1655.057154648707
 30
0.0
 40
6.818885631237208
  0
LINE
  5
1BC8F
330
1F
100
AcDbEntity
  8
0
 48
12.0
100
AcDbLine
 10
5837.972414097352
 20
1680.057154648707
 30
0.0
 11
5852.972414097352
 21
1680.057154648707
 31
0.0
  0
LINE
  5
1BC90
330
1F
100
AcDbEntity
  8
0
 48
12.0
100
AcDbLine
 10
5837.972414097352
 20
1680.057154648707
 30
0.0
 11
5822.972414097352
 21
1680.057154648707
 31
0.0
  0
LINE
  5
1BCA8
330
1F
100
AcDbEntity
  8
0
 48
12.0
100
AcDbLine
 10
4022.972414097352
 20
1630.057154648707
 30
0.0
 11
4052.972414097352
 21
1630.057154648707
 31
0.0
  0
LINE
  5
1BCAA
330
1F
100
AcDbEntity
  8
0
 48
12.0
100
AcDbLine
 10
4622.972414097352
 20
1630.057154648707
 30
0.0
 11
4652.972414097352
 21
1630.057154648707
 31
0.0
  0
LINE
  5
1BCAB
330
1F
100
AcDbEntity
  8
0
 48
12.0
100
AcDbLine
 10
5222.972414097352
 20
1630.057154648707
 30
0.0
 11
5252.972414097352
 21
1630.057154648707
 31
0.0
  0
LINE
  5
1BCAC
330
1F
100
AcDbEntity
  8
0
 48
12.0
100
AcDbLine
 10
5822.972414097352
 20
1630.057154648707
 30
0.0
 11
5852.972414097352
 21
1630.057154648707
 31
0.0
  0
CIRCLE
  5
1BCAD
330
1F
100
AcDbEntity
  8
0
 48
12.0
100
AcDbCircle
 10
5937.972414097351
 20
3251.057154648706
 30
0.0
 40
10.0
  0
CIRCLE
  5
1BCAE
330
1F
100
AcDbEntity
  8
0
 48
12.0
100
AcDbCircle
 10
3937.972414097352
 20
3251.057154648707
 30
0.0
 40
10.0
  0
LINE
  5
1BD00
330
1F
100
AcDbEntity
  8
0
 48
12.0
100
AcDbLine
 10
3937.972414097352
 20
4721.057154648707
 30
0.0
 11
3937.972414097352
 21
4690.057154648706
 31
0.0
  0
DIMENSION
  5
1BD01
330
1F
100
AcDbEntity
  8
0
 48
12.0
100
AcDbDimension
  2
*D4
 10
5937.972414097352
 20
5003.693604599215
 30
0.0
 11
4937.972414097352
 21
5051.193604599215
 31
0.0
 70
    33
  1
4000
 71
     5
 42
2000.0
  3
ISO-25
100
AcDbAlignedDimension
 13
3937.972414097352
 23
4721.057154648707
 33
0.0
 14
5937.972414097352
 24
4721.057154648707
 34
0.0
  0
LINE
  5
1BD0E
330
1F
100
AcDbEntity
  8
0
 48
12.0
100
AcDbLine
 10
5937.972414097352
 20
4690.057154648706
 30
0.0
 11
5937.972414097352
 21
4721.057154648707
 31
0.0
  0
LINE
  5
1BD0F
330
1F
100
AcDbEntity
  8
0
 48
12.0
100
AcDbLine
 10
3987.972414097352
 20
4671.057154648706
 30
0.0
 11
3987.972414097352
 21
4251.057154648707
 31
0.0
  0
LINE
  5
1BD10
330
1F
100
AcDbEntity
  8
0
 48
12.0
100
AcDbLine
 10
3987.972414097352
 20
4671.057154648706
 30
0.0
 11
3987.972414097352
 21
4251.057154648707
 31
0.0
  0
LINE
  5
1BD11
330
1F
100
AcDbEntity
  8
0
 48
12.0
100
AcDbLine
 10
3987.972414097351
 20
2690.057154648706
 30
0.0
 11
3987.972414097351
 21
2251.057154648706
 31
0.0
  0
LINE
  5
1BD12
330
1F
100
AcDbEntity
  8
0
 48
12.0
100
AcDbLine
 10
3987.972414097352
 20
2690.057154648706
 30
0.0
 11
3987.972414097352
 21
2251.057154648706
 31
0.0
  0
LINE
  5
1BD20
330
1F
100
AcDbEntity
  8
0
 48
12.0
100
AcDbLine
 10
3987.972414097352
 20
4671.057154648706
 30
0.0
 11
3987.972414097352
 21
4690.057154648706
 31
0.0
  0
LINE
  5
1BD21
330
1F
100
AcDbEntity
  8
0
 48
12.0
100
AcDbLine
 10
3987.972414097352
 20
4690.057154648706
 30
0.0
 11
3987.972414097352
 21
4251.057154648706
 31
0.0
  0
LINE
  5
1BD78
330
1F
100
AcDbEntity
  8
0
 48
12.0
100
AcDbLine
 10
3987.972414097352
 20
4191.057154648706
 30
0.0
 11
3987.972414097352
 21
3251.057154648706
 31
0.0
  0
LINE
  5
1BD79
330
1F
100
AcDbEntity
  8
0
 48
12.0
100
AcDbLine
 10
3987.972414097352
 20
4191.057154648706
 30
0.0
 11
3987.972414097351
 21
3251.057154648706
 31
0.0
  0
LINE
  5
1BD7A
330
1F
100
AcDbEntity
  8
0
 48
12.0
100
AcDbLine
 10
3987.972414097352
 20
4191.057154648706
 30
0.0
 11
3987.972414097351
 21
3251.057154648706
 31
0.0
  0
LINE
  5
1BD7E
330
1F
100
AcDbEntity
  8
0
 48
12.0
100
AcDbLine
 10
3987.972414097352
 20
3191.057154648706
 30
0.0
 11
3987.972414097352
 21
2721.057154648706
 31
0.0
  0
LINE
  5
1BD7F
330
1F
100
AcDbEntity
  8
0
 48
12.0
100
AcDbLine
 10
3987.972414097351
 20
3191.057154648706
 30
0.0
 11
3987.972414097351
 21
2721.057154648706
 31
0.0
  0
LINE
  5
1BD80
330
1F
100
AcDbEntity
  8
0
 48
12.0
100
AcDbLine
 10
3987.972414097351
 20
3191.057154648706
 30
0.0
 11
3987.972414097351
 21
2721.057154648706
 31
0.0
  0
DIMENSION
  5
1BF91
330
1F
100
AcDbEntity
  8
0
 48
25.0
100
AcDbDimension
  2
*D6
 10
2667.572804269507
 20
3223.897382372371
 30
0.0
 11
2635.57080558882
 21
3265.461218127647
 31
0.0
 70
   161
  1
%%c20
 71
     5
 42
79.19999999999891
  3
ISO-25
100
AcDbAlignedDimension
 13
2714.889487307253
 23
3303.097382372369
 33
0.0
 14
2714.889487307253
 24
3223.897382372371
 34
0.0
1001
ACAD
1000
DSTYLE
1002
{
1070
   279
1070
     1
1002
}
  0
LINE
  5
1BF92
330
1F
100
AcDbEntity
  8
0
 62
     0
 48
25.0
100
AcDbLine
 10
3092.601345484287
 20
3090.894287008971
 30
0.0
 11
3092.601345484287
 21
3470.969662389519
 31
0.0
  0
LINE
  5
1BF93
330
1F
100
AcDbEntity
  8
0
 62
     0
 48
25.0
100
AcDbLine
 10
3092.601345484287
 20
3263.562800243377
 30
0.0
 11
3092.601345484287
 21
3090.894287008971
 31
0.0
  0
ARC
  5
1BF94
330
1F
100
AcDbEntity
  8
0
 62
     0
100
AcDbCircle
 10
2730.57405294427
 20
3095.498733257683
 30
0.0
 40
25.2
100
AcDbArc
 50
315.4658034280886
 51
58.04374831303924
  0
ARC
  5
1BF95
330
1F
100
AcDbEntity
  8
0
 62
     0
100
AcDbCircle
 10
2730.57405294427
 20
3095.498733257683
 30
0.0
 40
18.0
100
AcDbArc
 50
359.6366698143586
 51
42.22565566945887
  0
LINE
  5
1BF96
330
1F
100
AcDbEntity
  8
0
 62
     0
100
AcDbLine
 10
2738.904099771403
 20
3061.777476523341
 30
0.0
 11
2739.006943656699
 21
3111.341043675421
 31
0.0
  0
LINE
  5
1BF97
330
1F
100
AcDbEntity
  8
0
 62
     0
 48
25.0
100
AcDbLine
 10
3092.601345484288
 20
3531.954500192946
 30
0.0
 11
3092.601345484287
 21
3017.126780399349
 31
0.0
  0
ARC
  5
1BF98
330
1F
100
AcDbEntity
  8
0
 62
     0
100
AcDbCircle
 10
2730.427429028157
 20
3024.836250100355
 30
0.0
 40
18.0
100
AcDbArc
 50
359.8811120252741
 51
42.71454009131725
  0
LINE
  5
1BF99
330
1F
100
AcDbEntity
  8
0
 62
     0
100
AcDbLine
 10
2738.811450042294
 20
3017.126780399349
 30
0.0
 11
2738.860750920073
 21
3040.886358903984
 31
0.0
  0
ARC
  5
1BF9A
330
1F
100
AcDbEntity
  8
0
 62
     0
100
AcDbCircle
 10
2730.427429028157
 20
3024.836250100355
 30
0.0
 40
25.2
100
AcDbArc
 50
342.1857958407965
 51
58.29297652004959
  0
LINE
  5
1BF9C
330
1F
100
AcDbEntity
  8
0
 62
     0
100
AcDbLine
 10
2748.427390278044
 20
3024.798900368347
 30
0.0
 11
2748.411470709067
 21
3017.126780399349
 31
0.0
  0
ARC
  5
1BFA0
330
1F
100
AcDbEntity
  8
0
 62
     0
100
AcDbCircle
 10
2756.897307284132
 20
3058.485297352818
 30
0.0
 40
18.0
100
AcDbArc
 50
179.6277898182774
 51
222.7145400913172
  0
ARC
  5
1BFA1
330
1F
100
AcDbEntity
  8
0
 62
     0
100
AcDbCircle
 10
2756.910181104569
 20
3064.689579326948
 30
0.0
 40
18.0
100
AcDbArc
 50
179.8811120252741
 51
190.2950713506565
  0
LINE
  5
1BFA2
330
1F
100
AcDbEntity
  8
0
 62
     0
100
AcDbLine
 10
2748.497708162322
 20
3058.6872075758
 30
0.0
 11
2748.463985392216
 21
3042.435188549182
 31
0.0
  0
ARC
  5
1BFA3
330
1F
100
AcDbEntity
  8
0
 62
     0
100
AcDbCircle
 10
2756.910181104569
 20
3064.689579326948
 30
0.0
 40
18.0
100
AcDbArc
 50
179.8811120252741
 51
190.2950713506565
  0
ARC
  5
1BFA4
330
1F
100
AcDbEntity
  8
0
 62
     0
100
AcDbCircle
 10
2756.904061021298
 20
3061.740126791342
 30
0.0
 40
18.0
100
AcDbArc
 50
179.8811120252741
 51
190.2950713506565
  0
LINE
  5
1BFA5
330
1F
100
AcDbEntity
  8
0
 62
     0
100
AcDbLine
 10
2748.574014194157
 20
3095.461383525683
 30
0.0
 11
2748.497708162318
 21
3058.687207575808
 31
0.0
  0
ARC
  5
1BFAF
330
1F
100
AcDbEntity
  8
0
 62
     0
100
AcDbCircle
 10
2756.897307284132
 20
3058.485297352818
 30
0.0
 40
25.2
100
AcDbArc
 50
179.8811120252741
 51
238.2929765200496
  0
ARC
  5
1BFB0
330
1F
100
AcDbEntity
  8
0
 62
     0
100
AcDbCircle
 10
2756.904061021298
 20
3061.740126791342
 30
0.0
 40
25.2
100
AcDbArc
 50
135.4658034280887
 51
186.8793899740723
  0
LINE
  5
1BFB1
330
1F
100
AcDbEntity
  8
0
 62
     0
 48
0.3
100
AcDbLine
 10
3092.601345484286
 20
3408.198065820167
 30
0.0
 11
3145.634354073277
 21
3461.231074409158
 31
0.0
  0
LINE
  5
1BFB2
330
1F
100
AcDbEntity
  8
0
 62
     0
 48
0.3
100
AcDbLine
 10
3092.601345484286
 20
3393.198065820167
 30
0.0
 11
3145.634354073277
 21
3446.231074409158
 31
0.0
  0
LINE
  5
1BFB3
330
1F
100
AcDbEntity
  8
0
 62
     0
 48
0.3
100
AcDbLine
 10
3092.601345484286
 20
3378.198065820167
 30
0.0
 11
3145.634354073277
 21
3431.231074409158
 31
0.0
  0
LINE
  5
1BFB4
330
1F
100
AcDbEntity
  8
0
 62
     0
 48
0.3
100
AcDbLine
 10
3092.601345484286
 20
3106.712865931688
 30
0.0
 11
3145.634354073277
 21
3159.745874520679
 31
0.0
  0
LINE
  5
1BFB5
330
1F
100
AcDbEntity
  8
0
 62
     0
 48
0.3
100
AcDbLine
 10
3092.601345484286
 20
3121.712865931689
 30
0.0
 11
3145.634354073277
 21
3174.745874520679
 31
0.0
  0
LINE
  5
1BFB6
330
1F
100
AcDbEntity
  8
0
 62
     0
 48
0.3
100
AcDbLine
 10
3092.601345484286
 20
3136.712865931688
 30
0.0
 11
3145.634354073277
 21
3189.745874520679
 31
0.0
  0
LINE
  5
1BFB7
330
1F
100
AcDbEntity
  8
0
 62
     0
100
AcDbLine
 10
3158.601345484283
 20
3245.497382372371
 30
0.0
 11
3092.601345484287
 21
3245.497382372371
 31
0.0
  0
LINE
  5
1BFB8
330
1F
100
AcDbEntity
  8
0
 62
     0
100
AcDbLine
 10
3158.601345484283
 20
3281.497382372367
 30
0.0
 11
3092.601345484287
 21
3281.497382372367
 31
0.0
  0
LINE
  5
1BFB9
330
1F
100
AcDbEntity
  8
0
 62
     0
100
AcDbLine
 10
2749.417752707904
 20
3502.084396322302
 30
0.0
 11
2749.314908822613
 21
3452.520829170222
 31
0.0
  0
LINE
  5
1BFBA
330
1F
100
AcDbEntity
  8
0
 62
     0
100
AcDbLine
 10
2739.74702141976
 20
3468.006817275084
 30
0.0
 11
2739.851113349934
 21
3518.171854857938
 31
0.0
  0
ARC
  5
1BFBB
330
1F
100
AcDbEntity
  8
0
 62
     0
100
AcDbCircle
 10
2757.747799535045
 20
3468.363139587968
 30
0.0
 40
25.2
100
AcDbArc
 50
135.4658034280887
 51
238.2929765200496
  0
DIMENSION
  5
1BFBC
330
1F
100
AcDbEntity
  8
0
 48
25.0
100
AcDbDimension
  2
*D7
 10
2856.823557919108
 20
3235.497382372371
 30
0.0
 11
2820.969406501666
 21
3402.364055342018
 31
0.0
 70
   161
  1
%%c14
 71
     5
 42
56.0
  3
ISO-25
100
AcDbAlignedDimension
 13
2839.889487307255
 23
3291.497382372371
 33
0.0
 14
2839.889487307255
 24
3235.497382372371
 34
0.0
1001
ACAD
1000
DSTYLE
1002
{
1070
   279
1070
     2
1002
}
  0
LINE
  5
1BFBD
330
1F
100
AcDbEntity
  8
0
 62
     0
 48
0.3
100
AcDbLine
 10
2898.889487307253
 20
3235.497382372371
 30
0.0
 11
2776.889487307253
 21
3235.497382372371
 31
0.0
  0
LINE
  5
1BFBE
330
1F
100
AcDbEntity
  8
0
 62
     0
 48
0.3
100
AcDbLine
 10
2898.889487307253
 20
3235.497382372371
 30
0.0
 11
2780.889487307256
 21
3235.497382372371
 31
0.0
  0
LINE
  5
1BFBF
330
1F
100
AcDbEntity
  8
0
 62
     0
 48
0.3
100
AcDbLine
 10
2898.889487307253
 20
3291.497382372371
 30
0.0
 11
2780.889487307256
 21
3291.497382372371
 31
0.0
  0
LINE
  5
1BFC0
330
1F
100
AcDbEntity
  8
0
 48
25.0
100
AcDbLine
 10
2780.889487307256
 20
3291.497382372371
 30
0.0
 11
2776.889487307253
 21
3291.497382372371
 31
0.0
  0
LINE
  5
1BFC1
330
1F
100
AcDbEntity
  8
0
 62
     0
 48
0.3
100
AcDbLine
 10
2720.889487307257
 20
3303.497382372369
 30
0.0
 11
2720.889487307257
 21
3223.497382372371
 31
0.0
  0
LINE
  5
1BFC2
330
1F
100
AcDbEntity
  8
0
 62
     0
 48
0.3
100
AcDbLine
 10
2714.889487307253
 20
3303.097382372369
 30
0.0
 11
2714.889487307253
 21
3223.897382372371
 31
0.0
  0
LINE
  5
1BFC3
330
1F
100
AcDbEntity
  8
0
 62
     0
 48
0.3
100
AcDbLine
 10
2720.889487307257
 20
3303.497382372369
 30
0.0
 11
2715.289487307254
 21
3303.497382372369
 31
0.0
  0
LINE
  5
1BFC4
330
1F
100
AcDbEntity
  8
0
 62
     0
 48
0.3
100
AcDbLine
 10
2715.289487307254
 20
3303.497382372369
 30
0.0
 11
2714.889487307253
 21
3303.097382372369
 31
0.0
  0
LINE
  5
1BFC5
330
1F
100
AcDbEntity
  8
0
 62
     0
 48
0.3
100
AcDbLine
 10
2720.889487307257
 20
3223.497382372371
 30
0.0
 11
2715.289487307254
 21
3223.497382372371
 31
0.0
  0
LINE
  5
1BFC6
330
1F
100
AcDbEntity
  8
0
 62
     0
 48
0.3
100
AcDbLine
 10
2715.289487307254
 20
3223.497382372371
 30
0.0
 11
2714.889487307253
 21
3223.897382372371
 31
0.0
  0
LINE
  5
1BFC7
330
1F
100
AcDbEntity
  8
0
 62
     0
 48
0.3
100
AcDbLine
 10
2728.889487307253
 20
3247.497382372371
 30
0.0
 11
2720.889487307257
 21
3247.497382372371
 31
0.0
  0
LINE
  5
1BFC8
330
1F
100
AcDbEntity
  8
0
 62
     0
 48
0.3
100
AcDbLine
 10
2728.889487307253
 20
3279.497382372369
 30
0.0
 11
2720.889487307257
 21
3279.497382372369
 31
0.0
  0
LINE
  5
1BFC9
330
1F
100
AcDbEntity
  8
0
 62
     0
 48
0.3
100
AcDbLine
 10
2776.889487307253
 20
3223.897382372371
 30
0.0
 11
2776.889487307253
 21
3303.097382372369
 31
0.0
  0
LINE
  5
1BFCA
330
1F
100
AcDbEntity
  8
0
 62
     0
 48
0.3
100
AcDbLine
 10
2770.889487307257
 20
3303.497382372369
 30
0.0
 11
2770.889487307257
 21
3223.497382372371
 31
0.0
  0
LINE
  5
1BFCB
330
1F
100
AcDbEntity
  8
0
 62
     0
 48
0.3
100
AcDbLine
 10
2776.489487307252
 20
3303.497382372369
 30
0.0
 11
2770.889487307257
 21
3303.497382372369
 31
0.0
  0
LINE
  5
1BFCC
330
1F
100
AcDbEntity
  8
0
 62
     0
 48
0.3
100
AcDbLine
 10
2776.889487307253
 20
3303.097382372369
 30
0.0
 11
2776.489487307252
 21
3303.497382372369
 31
0.0
  0
ARC
  5
1BFCD
330
1F
100
AcDbEntity
  8
0
 62
     0
 48
0.1
100
AcDbCircle
 10
2746.165014140642
 20
3283.708981474927
 30
0.0
 40
3.6
100
AcDbArc
 50
0.0
 51
180.0
  0
LINE
  5
1BFCE
330
1F
100
AcDbEntity
  8
0
 62
     0
 48
25.0
100
AcDbLine
 10
2749.765014140645
 20
3247.497382372371
 30
0.0
 11
2768.889487307253
 21
3247.497382372371
 31
0.0
  0
LINE
  5
1BFCF
330
1F
100
AcDbEntity
  8
0
 62
     0
 48
25.0
100
AcDbLine
 10
2749.765014140645
 20
3279.497382372369
 30
0.0
 11
2768.889487307253
 21
3279.497382372369
 31
0.0
  0
LINE
  5
1BFD0
330
1F
100
AcDbEntity
  8
0
 62
     0
 48
0.3
100
AcDbLine
 10
2770.889487307257
 20
3223.497382372371
 30
0.0
 11
2776.489487307252
 21
3223.497382372371
 31
0.0
  0
LINE
  5
1BFD1
330
1F
100
AcDbEntity
  8
0
 62
     0
 48
0.3
100
AcDbLine
 10
2776.489487307252
 20
3223.497382372371
 30
0.0
 11
2776.889487307253
 21
3223.897382372371
 31
0.0
  0
LINE
  5
1BFD2
330
1F
100
AcDbEntity
  8
0
 62
     0
 48
0.3
100
AcDbLine
 10
2768.889487307253
 20
3247.497382372371
 30
0.0
 11
2770.889487307257
 21
3247.497382372371
 31
0.0
  0
LINE
  5
1BFD3
330
1F
100
AcDbEntity
  8
0
 62
     0
 48
0.3
100
AcDbLine
 10
2768.889487307253
 20
3279.497382372369
 30
0.0
 11
2770.889487307257
 21
3279.497382372369
 31
0.0
  0
LINE
  5
1BFD4
330
1F
100
AcDbEntity
  8
0
 62
     0
 48
0.3
100
AcDbLine
 10
2768.889487307253
 20
3247.497382372371
 30
0.0
 11
2749.765014140645
 21
3247.497382372371
 31
0.0
  0
LINE
  5
1BFD5
330
1F
100
AcDbEntity
  8
0
 62
     0
 48
0.3
100
AcDbLine
 10
2749.765014140645
 20
3279.497382372369
 30
0.0
 11
2768.889487307253
 21
3279.497382372369
 31
0.0
  0
ARC
  5
1BFD6
330
1F
100
AcDbEntity
  8
0
 48
0.5
100
AcDbCircle
 10
2745.875350921564
 20
3263.456531520597
 30
0.0
 40
17.8
100
AcDbArc
 50
243.7122853251821
 51
258.2178337903231
  0
LINE
  5
1BFD7
330
1F
100
AcDbEntity
  8
0
 48
0.5
100
AcDbLine
 10
2742.565014140644
 20
3283.708981474927
 30
0.0
 11
2742.565014140644
 21
3247.497382372371
 31
0.0
  0
ARC
  5
1BFD8
330
1F
100
AcDbEntity
  8
0
 48
0.5
100
AcDbCircle
 10
2741.823327575938
 20
3246.789432081771
 30
0.0
 40
7.972715757485767
100
AcDbArc
 50
268.6380543615951
 51
354.9433757559218
  0
ARC
  5
1BFD9
330
1F
100
AcDbEntity
  8
0
 48
0.5
100
AcDbCircle
 10
2734.965457773812
 20
3248.409778506285
 30
0.0
 40
7.654131151073968
100
AcDbArc
 50
273.0958641789756
 51
353.153886744078
  0
ARC
  5
1BFDA
330
1F
100
AcDbEntity
  8
0
 48
0.5
100
AcDbCircle
 10
2745.875350921564
 20
3263.456531520597
 30
0.0
 40
17.8
100
AcDbArc
 50
282.6221441520168
 51
296.2877146748179
  0
LINE
  5
1BFDB
330
1F
100
AcDbEntity
  8
0
 48
0.5
100
AcDbLine
 10
2749.765014140643
 20
3283.708981474927
 30
0.0
 11
2749.765014140772
 21
3246.086715170356
 31
0.0
  0
LINE
  5
1BFDC
330
1F
100
AcDbEntity
  8
0
 62
     0
 48
25.0
100
AcDbLine
 10
2720.889487307257
 20
3247.497382372371
 30
0.0
 11
2742.565014140644
 21
3247.497382372371
 31
0.0
  0
LINE
  5
1BFDD
330
1F
100
AcDbEntity
  8
0
 62
     0
 48
25.0
100
AcDbLine
 10
2720.889487307257
 20
3279.497382372369
 30
0.0
 11
2742.565014140644
 21
3279.497382372369
 31
0.0
  0
ARC
  5
1BFDE
330
1F
100
AcDbEntity
  8
0
 48
0.5
100
AcDbCircle
 10
2745.875350921564
 20
3263.456531520597
 30
0.0
 40
25.0
100
AcDbArc
 50
39.9137734972725
 51
140.0862265027275
  0
ARC
  5
1BFDF
330
1F
100
AcDbEntity
  8
0
 48
0.5
100
AcDbCircle
 10
2745.875350921564
 20
3263.456531520597
 30
0.0
 40
25.0
100
AcDbArc
 50
219.670081330194
 51
320.3299186698059
  0
LINE
  5
1BFE0
330
1F
100
AcDbEntity
  8
0
 62
     0
100
AcDbLine
 10
2739.372670906337
 20
3287.596025148666
 30
0.0
 11
2739.425611434897
 21
3313.109661034774
 31
0.0
  0
ARC
  5
1BFE1
330
1F
100
AcDbEntity
  8
0
 62
     0
100
AcDbCircle
 10
2757.747799535045
 20
3468.363139587968
 30
0.0
 40
18.0
100
AcDbArc
 50
179.8811120252741
 51
222.7145400913172
  0
ARC
  5
1BFE2
330
1F
100
AcDbEntity
  8
0
 62
     0
100
AcDbCircle
 10
2757.608360535581
 20
3401.163284255036
 30
0.0
 40
18.0
100
AcDbArc
 50
179.8811120252741
 51
222.7145400913172
  0
LINE
  5
1BFE3
330
1F
100
AcDbEntity
  8
0
 62
     0
100
AcDbLine
 10
2739.608399285691
 20
3401.200633987043
 30
0.0
 11
2739.711243170987
 21
3450.764201139122
 31
0.0
  0
ARC
  5
1BFE4
330
1F
100
AcDbEntity
  8
0
 62
     0
100
AcDbCircle
 10
2731.278352458554
 20
3434.921890721374
 30
0.0
 40
25.2
100
AcDbArc
 50
315.4658034280886
 51
58.04374831303924
  0
LINE
  5
1BFE5
330
1F
100
AcDbEntity
  8
0
 62
     0
100
AcDbLine
 10
2749.278313708444
 20
3434.884540989378
 30
0.0
 11
2749.175469823152
 21
3385.320973837302
 31
0.0
  0
ARC
  5
1BFE6
330
1F
100
AcDbEntity
  8
0
 62
     0
100
AcDbCircle
 10
2731.278352458554
 20
3434.921890721374
 30
0.0
 40
18.0
100
AcDbArc
 50
359.6366698143586
 51
42.22565566945887
  0
ARC
  5
1BFE7
330
1F
100
AcDbEntity
  8
0
 62
     0
100
AcDbCircle
 10
2730.852930943191
 20
3229.898443923532
 30
0.0
 40
18.0
100
AcDbArc
 50
359.8811120252741
 51
28.43563321491894
  0
ARC
  5
1BFE8
330
1F
100
AcDbEntity
  8
0
 62
     0
100
AcDbCircle
 10
2730.992289542977
 20
3297.059552231127
 30
0.0
 40
25.2
100
AcDbArc
 50
336.614207627783
 51
58.29297652004959
  0
ARC
  5
1BFE9
330
1F
100
AcDbEntity
  8
0
 62
     0
100
AcDbCircle
 10
2730.992289542977
 20
3297.059552231127
 30
0.0
 40
18.0
100
AcDbArc
 50
359.8811120252741
 51
42.71454009131725
  0
LINE
  5
1BFEA
330
1F
100
AcDbEntity
  8
0
 62
     0
100
AcDbLine
 10
2748.992250792871
 20
3297.022202499131
 30
0.0
 11
2748.974077087166
 21
3288.263746119393
 31
0.0
  0
LINE
  5
1BFEB
330
1F
100
AcDbEntity
  8
0
 62
     0
100
AcDbLine
 10
2739.259090508713
 20
3232.858209197479
 30
0.0
 11
2739.272548937665
 21
3239.344231631093
 31
0.0
  0
ARC
  5
1BFEC
330
1F
100
AcDbEntity
  8
0
 62
     0
100
AcDbCircle
 10
2757.462167798956
 20
3330.708599483606
 30
0.0
 40
18.0
100
AcDbArc
 50
179.6277898182774
 51
222.7145400913172
  0
LINE
  5
1BFED
330
1F
100
AcDbEntity
  8
0
 62
     0
100
AcDbLine
 10
2749.062568677142
 20
3330.910509706592
 30
0.0
 11
2749.028845907043
 21
3314.658490679974
 31
0.0
  0
ARC
  5
1BFEE
330
1F
100
AcDbEntity
  8
0
 62
     0
100
AcDbCircle
 10
2757.468921536114
 20
3333.963428922115
 30
0.0
 40
18.0
100
AcDbArc
 50
179.8811120252741
 51
190.2950713506565
  0
LINE
  5
1BFEF
330
1F
100
AcDbEntity
  8
0
 62
     0
100
AcDbLine
 10
2749.138874708984
 20
3367.68468565646
 30
0.0
 11
2749.062568677142
 21
3330.910509706592
 31
0.0
  0
ARC
  5
1BFF0
330
1F
100
AcDbEntity
  8
0
 62
     0
100
AcDbCircle
 10
2731.13891345909
 20
3367.722035388455
 30
0.0
 40
18.0
100
AcDbArc
 50
359.6366698143586
 51
42.22565566945887
  0
LINE
  5
1BFF1
330
1F
100
AcDbEntity
  8
0
 62
     0
100
AcDbLine
 10
2739.468960286234
 20
3334.000778654118
 30
0.0
 11
2739.571804171522
 21
3383.564345806205
 31
0.0
  0
ARC
  5
1BFF2
330
1F
100
AcDbEntity
  8
0
 62
     0
100
AcDbCircle
 10
2731.13891345909
 20
3367.722035388455
 30
0.0
 40
25.2
100
AcDbArc
 50
315.4658034280886
 51
58.04374831303924
  0
ARC
  5
1BFF3
330
1F
100
AcDbEntity
  8
0
 62
     0
100
AcDbCircle
 10
2730.713491943726
 20
3162.6985885906
 30
0.0
 40
18.0
100
AcDbArc
 50
359.6366698143586
 51
42.22565566945887
  0
ARC
  5
1BFF4
330
1F
100
AcDbEntity
  8
0
 62
     0
100
AcDbCircle
 10
2730.713491943726
 20
3162.6985885906
 30
0.0
 40
25.2
100
AcDbArc
 50
315.4658034280886
 51
58.04374831303924
  0
ARC
  5
1BFF5
330
1F
100
AcDbEntity
  8
0
 62
     0
100
AcDbCircle
 10
2757.043500020754
 20
3128.93998212426
 30
0.0
 40
18.0
100
AcDbArc
 50
179.8811120252741
 51
222.7145400913172
  0
LINE
  5
1BFF6
330
1F
100
AcDbEntity
  8
0
 62
     0
100
AcDbLine
 10
2739.043538770871
 20
3128.977331856259
 30
0.0
 11
2739.146382656159
 21
3178.540899008346
 31
0.0
  0
LINE
  5
1BFF7
330
1F
100
AcDbEntity
  8
0
 62
     0
100
AcDbLine
 10
2748.713453193617
 20
3162.661238858601
 30
0.0
 11
2748.610609308332
 21
3113.097671706514
 31
0.0
  0
ARC
  5
1BFF8
330
1F
100
AcDbEntity
  8
0
 62
     0
100
AcDbCircle
 10
2757.182939020218
 20
3196.139837457192
 30
0.0
 40
18.0
100
AcDbArc
 50
179.8811120252741
 51
222.7145400913172
  0
LINE
  5
1BFF9
330
1F
100
AcDbEntity
  8
0
 62
     0
100
AcDbLine
 10
2748.852892193081
 20
3229.861094191525
 30
0.0
 11
2748.750048307789
 21
3180.297527039446
 31
0.0
  0
ARC
  5
1BFFA
330
1F
100
AcDbEntity
  8
0
 62
     0
100
AcDbCircle
 10
2730.852930943191
 20
3229.898443923532
 30
0.0
 40
25.2
100
AcDbArc
 50
315.4658034280886
 51
23.18488826925613
  0
LINE
  5
1BFFB
330
1F
100
AcDbEntity
  8
0
 62
     0
100
AcDbLine
 10
2739.18216090494
 20
3195.783515144293
 30
0.0
 11
2739.272548937666
 21
3239.344231631093
 31
0.0
  0
ARC
  5
1BFFC
330
1F
100
AcDbEntity
  8
0
 62
     0
100
AcDbCircle
 10
2757.182939020218
 20
3196.139837457192
 30
0.0
 40
25.2
100
AcDbArc
 50
135.4658034280887
 51
238.2929765200496
  0
ARC
  5
1BFFD
330
1F
100
AcDbEntity
  8
0
 62
     0
100
AcDbCircle
 10
2757.043500020754
 20
3128.93998212426
 30
0.0
 40
25.2
100
AcDbArc
 50
135.4658034280887
 51
238.2929765200496
  0
ARC
  5
1BFFE
330
1F
100
AcDbEntity
  8
0
 62
     0
100
AcDbCircle
 10
2757.462167798956
 20
3330.708599483606
 30
0.0
 40
25.2
100
AcDbArc
 50
179.8811120252741
 51
238.2929765200496
  0
ARC
  5
1BFFF
330
1F
100
AcDbEntity
  8
0
 62
     0
100
AcDbCircle
 10
2757.468921536114
 20
3333.963428922115
 30
0.0
 40
25.2
100
AcDbArc
 50
135.4658034280887
 51
186.8793899740723
  0
ARC
  5
1C000
330
1F
100
AcDbEntity
  8
0
 62
     0
100
AcDbCircle
 10
2757.608360535581
 20
3401.163284255036
 30
0.0
 40
25.2
100
AcDbArc
 50
135.4658034280887
 51
238.2929765200496
  0
LINE
  5
1C001
330
1F
100
AcDbEntity
  8
0
 62
     0
 48
25.0
100
AcDbLine
 10
3084.601345484287
 20
3343.562800243378
 30
0.0
 11
3084.601345484287
 21
3302.551116292853
 31
0.0
  0
LINE
  5
1C002
330
1F
100
AcDbEntity
  8
0
 62
     0
 48
25.0
100
AcDbLine
 10
3084.601345484287
 20
3343.562800243378
 30
0.0
 11
3092.601345484287
 21
3343.562800243378
 31
0.0
  0
LINE
  5
1C003
330
1F
100
AcDbEntity
  8
0
 62
     0
 48
0.3
100
AcDbLine
 10
3092.601345484287
 20
3343.562800243378
 30
0.0
 11
3084.601345484287
 21
3343.562800243378
 31
0.0
  0
LINE
  5
1C004
330
1F
100
AcDbEntity
  8
0
 62
     0
100
AcDbLine
 10
3084.601345484287
 20
3224.574484193902
 30
0.0
 11
3084.601345484287
 21
3302.551116292853
 31
0.0
  0
LINE
  5
1C005
330
1F
100
AcDbEntity
  8
0
 62
     0
100
AcDbLine
 10
3084.601345484287
 20
3263.562800243377
 30
0.0
 11
3084.601345484287
 21
3273.543030545549
 31
0.0
  0
LINE
  5
1C006
330
1F
100
AcDbEntity
  8
0
 62
     0
100
AcDbLine
 10
3084.601345484287
 20
3263.562800243377
 30
0.0
 11
3084.601345484287
 21
3283.52326084772
 31
0.0
  0
LINE
  5
1C007
330
1F
100
AcDbEntity
  8
0
 62
     0
100
AcDbLine
 10
3079.033402301822
 20
3283.457842976718
 30
0.0
 11
3084.601345484287
 21
3283.457842976718
 31
0.0
  0
LINE
  5
1C008
330
1F
100
AcDbEntity
  8
0
 62
     0
100
AcDbLine
 10
3083.603330960595
 20
3303.545018722878
 30
0.0
 11
3084.601345484287
 21
3302.551116292853
 31
0.0
  0
LINE
  5
1C009
330
1F
100
AcDbEntity
  8
0
 62
     0
100
AcDbLine
 10
3083.60332245407
 20
3223.576461163685
 30
0.0
 11
3084.601345484287
 21
3224.574484193902
 31
0.0
  0
LINE
  5
1C00A
330
1F
100
AcDbEntity
  8
0
 62
     0
100
AcDbLine
 10
3079.033402301822
 20
3243.536921768028
 30
0.0
 11
3084.601345484287
 21
3243.536921768028
 31
0.0
  0
LINE
  5
1C00B
330
1F
100
AcDbEntity
  8
0
 62
     0
100
AcDbLine
 10
3092.601345484287
 20
3283.497382372371
 30
0.0
 11
3092.601345484287
 21
3243.497382372371
 31
0.0
  0
LINE
  5
1C00C
330
1F
100
AcDbEntity
  8
0
 62
     0
100
AcDbLine
 10
3092.601345484287
 20
3283.497382372371
 30
0.0
 11
3092.601345484287
 21
3243.497382372371
 31
0.0
  0
LINE
  5
1C00D
330
1F
100
AcDbEntity
  8
0
 62
     0
 48
0.3
100
AcDbLine
 10
3084.601345484287
 20
3183.562800243378
 30
0.0
 11
3092.601345484287
 21
3183.562800243378
 31
0.0
  0
LINE
  5
1C00E
330
1F
100
AcDbEntity
  8
0
 62
     0
 48
0.3
100
AcDbLine
 10
3092.601345484287
 20
3183.562800243378
 30
0.0
 11
3092.601345484287
 21
3343.562800243378
 31
0.0
  0
LINE
  5
1C00F
330
1F
100
AcDbEntity
  8
0
 62
     0
 48
0.3
100
AcDbLine
 10
3084.601345484287
 20
3263.562800243377
 30
0.0
 11
3084.601345484287
 21
3183.562800243378
 31
0.0
  0
LINE
  5
1C010
330
1F
100
AcDbEntity
  8
0
 62
     0
 48
0.3
100
AcDbLine
 10
3048.889487307253
 20
3235.497382372371
 30
0.0
 11
3048.889487307253
 21
3291.497382372371
 31
0.0
  0
LINE
  5
1C011
330
1F
100
AcDbEntity
  8
0
 62
     0
 48
0.3
100
AcDbLine
 10
3048.889487307253
 20
3291.497382372371
 30
0.0
 11
3048.889487307253
 21
3235.497382372371
 31
0.0
  0
ARC
  5
1C012
330
1F
100
AcDbEntity
  8
0
 62
     0
100
AcDbCircle
 10
3100.415479289891
 20
3263.497382372371
 30
0.0
 40
51.52599198264046
100
AcDbArc
 50
157.2080385520339
 51
202.7919614479661
  0
LINE
  5
1C013
330
1F
100
AcDbEntity
  8
0
 62
     0
100
AcDbLine
 10
3048.903124984292
 20
3233.556691465856
 30
0.0
 11
3049.017540485889
 21
3293.438073278889
 31
0.0
  0
ARC
  5
1C014
330
1F
100
AcDbEntity
  8
0
 62
     0
100
AcDbCircle
 10
3063.750679728502
 20
3293.438073278889
 30
0.0
 40
14.73313924260999
100
AcDbArc
 50
137.3591881473736
 51
222.6408118526264
  0
ARC
  5
1C015
330
1F
100
AcDbEntity
  8
0
 62
     0
100
AcDbCircle
 10
3063.328635616882
 20
3233.556691465856
 30
0.0
 40
14.42551063259171
100
AcDbArc
 50
136.223594416352
 51
223.776405583648
  0
LINE
  5
1C016
330
1F
100
AcDbEntity
  8
0
 62
     0
 48
0.3
100
AcDbLine
 10
2926.889487307253
 20
3291.497382372371
 30
0.0
 11
2926.889487307253
 21
3283.497382372371
 31
0.0
  0
LINE
  5
1C017
330
1F
100
AcDbEntity
  8
0
 62
     0
 48
0.3
100
AcDbLine
 10
2926.889487307253
 20
3243.497382372371
 30
0.0
 11
2926.889487307253
 21
3235.497382372371
 31
0.0
  0
LINE
  5
1C018
330
1F
100
AcDbEntity
  8
0
 62
     0
 48
0.3
100
AcDbLine
 10
2912.889487307257
 20
3243.497382372371
 30
0.0
 11
2926.889487307253
 21
3243.497382372371
 31
0.0
  0
LINE
  5
1C019
330
1F
100
AcDbEntity
  8
0
 62
     0
 48
0.3
100
AcDbLine
 10
3048.889487307253
 20
3291.497382372371
 30
0.0
 11
2926.889487307253
 21
3291.497382372371
 31
0.0
  0
LINE
  5
1C01A
330
1F
100
AcDbEntity
  8
0
 62
     0
 48
0.3
100
AcDbLine
 10
3048.889487307253
 20
3235.497382372371
 30
0.0
 11
2926.889487307253
 21
3235.497382372371
 31
0.0
  0
LINE
  5
1C01B
330
1F
100
AcDbEntity
  8
0
 62
     0
 48
0.3
100
AcDbLine
 10
3048.889487307253
 20
3235.497382372371
 30
0.0
 11
2926.889487307253
 21
3235.497382372371
 31
0.0
  0
LINE
  5
1C01C
330
1F
100
AcDbEntity
  8
0
 62
     0
 48
0.3
100
AcDbLine
 10
2898.889487307253
 20
3291.497382372371
 30
0.0
 11
2898.889487307253
 21
3283.497382372371
 31
0.0
  0
LINE
  5
1C01D
330
1F
100
AcDbEntity
  8
0
 62
     0
 48
0.3
100
AcDbLine
 10
2898.889487307253
 20
3243.497382372371
 30
0.0
 11
2898.889487307253
 21
3235.497382372371
 31
0.0
  0
LINE
  5
1C01E
330
1F
100
AcDbEntity
  8
0
 62
     0
 48
0.3
100
AcDbLine
 10
2926.889487307253
 20
3283.497382372371
 30
0.0
 11
2898.889487307253
 21
3283.497382372371
 31
0.0
  0
LINE
  5
1C01F
330
1F
100
AcDbEntity
  8
0
 62
     0
 48
0.3
100
AcDbLine
 10
2912.889487307257
 20
3243.497382372371
 30
0.0
 11
2898.889487307253
 21
3243.497382372371
 31
0.0
  0
LINE
  5
1C020
330
1F
100
AcDbEntity
  8
0
 62
     0
100
AcDbLine
 10
3052.912765027893
 20
3223.576461163685
 30
0.0
 11
3083.60332245407
 21
3223.576461163685
 31
0.0
  0
LINE
  5
1C021
330
1F
100
AcDbEntity
  8
0
 62
     0
100
AcDbLine
 10
3052.912765027893
 20
3223.576461163685
 30
0.0
 11
3079.033402301822
 21
3223.576461163685
 31
0.0
  0
LINE
  5
1C022
330
1F
100
AcDbEntity
  8
0
 62
     0
100
AcDbLine
 10
3052.912765027893
 20
3243.536921768028
 30
0.0
 11
3079.033402301822
 21
3243.536921768028
 31
0.0
  0
LINE
  5
1C023
330
1F
100
AcDbEntity
  8
0
 62
     0
100
AcDbLine
 10
3052.912765027893
 20
3283.457842976718
 30
0.0
 11
3079.033402301822
 21
3283.457842976718
 31
0.0
  0
LINE
  5
1C024
330
1F
100
AcDbEntity
  8
0
 62
     0
100
AcDbLine
 10
3083.603330960595
 20
3303.545018722878
 30
0.0
 11
3052.950625032841
 21
3303.545018722878
 31
0.0
  0
ARC
  5
1C033
330
1F
100
AcDbEntity
  8
0
 62
     0
100
AcDbCircle
 10
2731.417791458017
 20
3502.121746054305
 30
0.0
 40
18.0
100
AcDbArc
 50
359.8811120252741
 51
42.71454009131725
  0
ARC
  5
1C034
330
1F
100
AcDbEntity
  8
0
 62
     0
100
AcDbCircle
 10
2731.417791458017
 20
3502.121746054305
 30
0.0
 40
25.2
100
AcDbArc
 50
315.4658034280886
 51
58.29297652004959
  0
LINE
  5
1C038
330
1F
100
AcDbEntity
  8
0
 62
     0
 48
25.0
100
AcDbLine
 10
3092.601345484287
 20
3470.969662389519
 30
0.0
 11
3092.601345484287
 21
3531.954500192946
 31
0.0
  0
LINE
  5
1C039
330
1F
100
AcDbEntity
  8
0
 62
     0
100
AcDbLine
 10
3265.401345484286
 20
3247.497382372368
 30
0.0
 11
3265.401345484286
 21
3279.497382372371
 31
0.0
  0
ARC
  5
1C03A
330
1F
100
AcDbEntity
  8
0
 62
     0
100
AcDbCircle
 10
3256.624638935689
 20
3254.750372437037
 30
0.0
 40
11.38580004735585
100
AcDbArc
 50
261.2401983392956
 51
320.4299839966434
  0
LINE
  5
1C03B
330
1F
100
AcDbEntity
  8
0
 62
     0
100
AcDbLine
 10
3254.890667389554
 20
3243.497382372371
 30
0.0
 11
3256.624638935689
 21
3243.497382372371
 31
0.0
  0
ARC
  5
1C03C
330
1F
100
AcDbEntity
  8
0
 62
     0
100
AcDbCircle
 10
3255.677521473124
 20
3269.755680615963
 30
0.0
 40
13.76421107477037
100
AcDbArc
 50
45.05262221394074
 51
93.27719545008818
  0
LINE
  5
1C03D
330
1F
100
AcDbEntity
  8
0
 62
     0
100
AcDbLine
 10
3256.464375556697
 20
3283.497382372371
 30
0.0
 11
3254.890667389551
 21
3283.497382372371
 31
0.0
  0
LINE
  5
1C03E
330
1F
100
AcDbEntity
  8
0
 62
     0
100
AcDbLine
 10
3256.464375556697
 20
3283.497382372371
 30
0.0
 11
3254.890667389554
 21
3283.497382372371
 31
0.0
  0
ARC
  5
1C03F
330
1F
100
AcDbEntity
  8
0
 62
     0
100
AcDbCircle
 10
3189.340343838586
 20
3263.497382372371
 30
0.0
 40
3.0
100
AcDbArc
 50
90.0
 51
270.0
  0
ARC
  5
1C040
330
1F
100
AcDbEntity
  8
0
 62
     0
100
AcDbCircle
 10
3207.484929903279
 20
3296.974466215052
 30
0.0
 40
30.54963237478725
100
AcDbArc
 50
273.9494346700525
 51
328.031364131195
  0
ARC
  5
1C041
330
1F
100
AcDbEntity
  8
0
 62
     0
100
AcDbCircle
 10
3209.360830087848
 20
3233.450877907898
 30
0.0
 40
27.04746746849392
100
AcDbArc
 50
27.27380201547615
 51
89.51650758356089
  0
LINE
  5
1C042
330
1F
100
AcDbEntity
  8
0
 62
     0
100
AcDbLine
 10
3189.340343838586
 20
3260.497382372371
 30
0.0
 11
3209.994045449981
 21
3260.497382372371
 31
0.0
  0
ARC
  5
1C043
330
1F
100
AcDbEntity
  8
0
 62
     0
100
AcDbCircle
 10
3229.738916435086
 20
3247.262599808179
 30
0.0
 40
3.927138993174281
100
AcDbArc
 50
253.4896813575782
 51
338.8429642585357
  0
ARC
  5
1C044
330
1F
100
AcDbEntity
  8
0
 62
     0
100
AcDbCircle
 10
3228.933025687074
 20
3278.886371141388
 30
0.0
 40
4.621430596438699
100
AcDbArc
 50
21.1104845833652
 51
93.84814721200372
  0
LINE
  5
1C045
330
1F
100
AcDbEntity
  8
0
 62
     0
100
AcDbLine
 10
3189.340343838586
 20
3266.497382372367
 30
0.0
 11
3209.58906836847
 21
3266.497382372367
 31
0.0
  0
LINE
  5
1C046
330
1F
100
AcDbEntity
  8
0
 62
     0
100
AcDbLine
 10
3166.601345484286
 20
3283.497382372371
 30
0.0
 11
3166.601345484286
 21
3247.103981122055
 31
0.0
  0
LINE
  5
1C047
330
1F
100
AcDbEntity
  8
0
 62
     0
100
AcDbLine
 10
3166.601345484286
 20
3247.103981122055
 30
0.0
 11
3166.601345484286
 21
3243.497382372371
 31
0.0
  0
LINE
  5
1C048
330
1F
100
AcDbEntity
  8
0
 62
     0
100
AcDbLine
 10
3158.601345484283
 20
3283.497382372371
 30
0.0
 11
3158.601345484283
 21
3243.497382372371
 31
0.0
  0
LINE
  5
1C049
330
1F
100
AcDbEntity
  8
0
 62
     0
100
AcDbLine
 10
3158.601345484283
 20
3243.497382372371
 30
0.0
 11
3158.601345484283
 21
3245.497382372371
 31
0.0
  0
LINE
  5
1C04A
330
1F
100
AcDbEntity
  8
0
 62
     0
100
AcDbLine
 10
3158.601345484283
 20
3283.497382372371
 30
0.0
 11
3158.601345484283
 21
3281.497382372367
 31
0.0
  0
LINE
  5
1C04B
330
1F
100
AcDbEntity
  8
0
 62
     0
100
AcDbLine
 10
3158.601345484283
 20
3243.497382372371
 30
0.0
 11
3230.85496228217
 21
3243.497382372371
 31
0.0
  0
LINE
  5
1C04C
330
1F
100
AcDbEntity
  8
0
 62
     0
100
AcDbLine
 10
3229.243180786143
 20
3283.497382372371
 30
0.0
 11
3158.601345484283
 21
3283.497382372371
 31
0.0
  0
LINE
  5
1C04D
330
1F
100
AcDbEntity
  8
0
 62
     0
100
AcDbLine
 10
3229.243180786143
 20
3283.497382372371
 30
0.0
 11
3158.601345484283
 21
3283.497382372371
 31
0.0
  0
LINE
  5
1C04E
330
1F
100
AcDbEntity
  8
0
 62
     0
100
AcDbLine
 10
3158.601345484283
 20
3283.497382372371
 30
0.0
 11
3166.601345484286
 21
3283.497382372371
 31
0.0
  0
LINE
  5
1C04F
330
1F
100
AcDbEntity
  8
0
 62
     0
100
AcDbLine
 10
3254.890667389554
 20
3243.497382372371
 30
0.0
 11
3233.401345484289
 21
3245.845195796869
 31
0.0
  0
LINE
  5
1C050
330
1F
100
AcDbEntity
  8
0
 62
     0
100
AcDbLine
 10
3254.890667389551
 20
3283.497382372371
 30
0.0
 11
3233.401345484289
 21
3280.799811916827
 31
0.0
  0
MTEXT
  5
1C1E6
330
1F
100
AcDbEntity
  8
0
 48
12.0
100
AcDbMText
 10
5126.44539523753
 20
351.319474626167
 30
0.0
 40
60.0
 41
1814.3541
 71
     4
 72
     5
  1
　緑化レール ストライプH=4000～8000まで
 73
     1
 44
1.0
  0
LINE
  5
1C2CD
330
1F
100
AcDbEntity
  8
0
 62
     0
100
AcDbLine
 10
6223.033467355889
 20
3505.17558081109
 30
0.0
 11
6272.597141207845
 21
3505.17558081109
 31
0.0
  0
ARC
  5
1C2CE
330
1F
100
AcDbEntity
  8
0
 62
     0
100
AcDbCircle
 10
6256.73736677251
 20
3496.775580811096
 30
0.0
 40
25.2
100
AcDbArc
 50
31.8373637122168
 51
134.4153085971887
  0
LINE
  5
1C2CF
330
1F
100
AcDbEntity
  8
0
 62
     0
100
AcDbLine
 10
6256.73736677251
 20
3514.775580811095
 30
0.0
 11
6219.963111655607
 21
3514.775580811095
 31
0.0
  0
ARC
  5
1C2F4
330
1F
100
AcDbEntity
  8
0
 62
     0
100
AcDbCircle
 10
6186.074731493789
 20
3496.775580811096
 30
0.0
 40
18.0
100
AcDbArc
 50
47.16657193393462
 51
90.0
  0
ARC
  5
1C2F5
330
1F
100
AcDbEntity
  8
0
 62
     0
100
AcDbCircle
 10
6118.874731493785
 20
3496.775580811096
 30
0.0
 40
25.2
100
AcDbArc
 50
31.8373637122168
 51
64.62616507098712
  0
ARC
  5
1C2F6
330
1F
100
AcDbEntity
  8
0
 62
     0
100
AcDbCircle
 10
6118.874731493785
 20
3496.775580811096
 30
0.0
 40
18.0
100
AcDbArc
 50
47.65545635580534
 51
50.66597988771242
  0
ARC
  5
1C2F7
330
1F
100
AcDbEntity
  8
0
 62
     0
100
AcDbCircle
 10
6186.074731493789
 20
3496.775580811096
 30
0.0
 40
25.2
100
AcDbArc
 50
31.5881355052164
 51
134.4153085971887
  0
LINE
  5
1C2FD
330
1F
100
AcDbEntity
  8
0
 62
     0
100
AcDbLine
 10
6130.664859420764
 20
3505.17558081109
 30
0.0
 11
6134.734505929131
 21
3505.17558081109
 31
0.0
  0
LINE
  5
1C311
330
1F
100
AcDbEntity
  8
0
 62
     0
100
AcDbLine
 10
6151.977159184802
 20
3505.17558081109
 30
0.0
 11
6202.142304762374
 21
3505.17558081109
 31
0.0
  0
ARC
  5
1C312
330
1F
100
AcDbEntity
  8
0
 62
     0
100
AcDbCircle
 10
6152.370832077167
 20
3523.17558081109
 30
0.0
 40
18.0
100
AcDbArc
 50
227.1665719339346
 51
270.0
  0
ARC
  5
1C313
330
1F
100
AcDbEntity
  8
0
 62
     0
100
AcDbCircle
 10
6152.370832077167
 20
3523.17558081109
 30
0.0
 40
25.2
100
AcDbArc
 50
211.5881355052164
 51
314.4153085971888
  0
ARC
  5
1C31C
330
1F
100
AcDbEntity
  8
0
 62
     0
100
AcDbCircle
 10
6219.778630910403
 20
3523.17558081109
 30
0.0
 40
18.0
100
AcDbArc
 50
227.1665719339346
 51
270.2533222069838
  0
ARC
  5
1C31D
330
1F
100
AcDbEntity
  8
0
 62
     0
100
AcDbCircle
 10
6219.778630910403
 20
3523.17558081109
 30
0.0
 40
25.2
100
AcDbArc
 50
211.5881355052164
 51
270.0
  0
LINE
  5
1C31E
330
1F
100
AcDbEntity
  8
0
 62
     0
 48
25.0
100
AcDbLine
 10
6219.778630910403
 20
3505.17558081109
 30
0.0
 11
6223.033467355889
 21
3505.17558081109
 31
0.0
  0
ARC
  5
1C31F
330
1F
100
AcDbEntity
  8
0
 62
     0
100
AcDbCircle
 10
6223.033467355889
 20
3523.17558081109
 30
0.0
 40
25.2
100
AcDbArc
 50
263.0017220511914
 51
314.4153085971888
  0
LINE
  5
1C328
330
1F
100
AcDbEntity
  8
0
 62
     0
100
AcDbLine
 10
6186.074731493796
 20
3514.775580811095
 30
0.0
 11
6136.511057641832
 21
3514.775580811095
 31
0.0
  0
LINE
  5
1C32E
330
1F
100
AcDbEntity
  8
0
 62
     0
100
AcDbLine
 10
6219.963111655607
 20
3514.775580811095
 30
0.0
 11
6203.711057641829
 21
3514.775580811095
 31
0.0
  0
ARC
  5
1C346
330
1F
100
AcDbEntity
  8
0
 62
     0
 48
25.0
100
AcDbCircle
 10
6553.091696392852
 20
3509.783541426542
 30
0.0
 40
80.06541787100649
100
AcDbArc
 50
208.1162899235092
 51
152.2480017824179
  0
LINE
  5
1C347
330
1F
100
AcDbEntity
  8
0
 62
     0
 48
0.2
100
AcDbLine
 10
6488.336340981454
 20
3547.545555914492
 30
0.0
 11
6540.204614890024
 21
3547.545555914492
 31
0.0
  0
LINE
  5
1C348
330
1F
100
AcDbEntity
  8
0
 62
     0
 48
0.2
100
AcDbLine
 10
6493.430488650846
 20
3539.545555914492
 30
0.0
 11
6526.366754978152
 21
3539.545555914492
 31
0.0
  0
LINE
  5
1C349
330
1F
100
AcDbEntity
  8
0
 62
     0
100
AcDbLine
 10
6332.742845278414
 20
3517.783541426543
 30
0.0
 11
6332.742845278414
 21
3501.783541426542
 31
0.0
  0
LINE
  5
1C34A
330
1F
100
AcDbEntity
  8
0
 62
     0
 48
0.2
100
AcDbLine
 10
6365.202170176324
 20
3524.145341894041
 30
0.0
 11
6366.392688500606
 21
3492.186958449002
 31
0.0
  0
LINE
  5
1C34B
330
1F
100
AcDbEntity
  8
0
 62
     0
 48
0.2
100
AcDbLine
 10
6452.854978418456
 20
3533.764088855851
 30
0.0
 11
6454.643881910704
 21
3485.668120619022
 31
0.0
  0
LINE
  5
1C34C
330
1F
100
AcDbEntity
  8
0
 62
     0
 48
0.2
100
AcDbLine
 10
6460.524768200411
 20
3537.761431946217
 30
0.0
 11
6462.644423338372
 21
3485.654215208056
 31
0.0
  0
LINE
  5
1C34D
330
1F
100
AcDbEntity
  8
0
 62
     0
 48
0.2
100
AcDbLine
 10
6444.854978418456
 20
3533.764088855851
 30
0.0
 11
6446.643881910704
 21
3485.668120619022
 31
0.0
  0
LINE
  5
1C34E
330
1F
100
AcDbEntity
  8
0
 62
     0
 48
0.2
100
AcDbLine
 10
6468.61116633365
 20
3540.568118871497
 30
0.0
 11
6470.903358024158
 21
3478.897592543753
 31
0.0
  0
LINE
  5
1C34F
330
1F
100
AcDbEntity
  8
0
 62
     0
 48
0.2
100
AcDbLine
 10
6388.871080249492
 20
3533.405542653346
 30
0.0
 11
6390.659983741736
 21
3485.309574416518
 31
0.0
  0
LINE
  5
1C350
330
1F
100
AcDbEntity
  8
0
 62
     0
 48
0.2
100
AcDbLine
 10
6380.871080249491
 20
3533.405542653346
 30
0.0
 11
6382.659983741736
 21
3485.309574416518
 31
0.0
  0
LINE
  5
1C351
330
1F
100
AcDbEntity
  8
0
 62
     0
 48
0.2
100
AcDbLine
 10
6404.871080249492
 20
3533.405542653346
 30
0.0
 11
6406.659983741736
 21
3485.309574416518
 31
0.0
  0
LINE
  5
1C352
330
1F
100
AcDbEntity
  8
0
 62
     0
 48
0.2
100
AcDbLine
 10
6396.871080249492
 20
3533.405542653346
 30
0.0
 11
6398.659983741737
 21
3485.309574416518
 31
0.0
  0
LINE
  5
1C353
330
1F
100
AcDbEntity
  8
0
 62
     0
 48
0.2
100
AcDbLine
 10
6420.871080249492
 20
3533.405542653346
 30
0.0
 11
6422.659983741737
 21
3485.309574416518
 31
0.0
  0
LINE
  5
1C354
330
1F
100
AcDbEntity
  8
0
 62
     0
 48
0.2
100
AcDbLine
 10
6412.871080249492
 20
3533.405542653346
 30
0.0
 11
6414.659983741737
 21
3485.309574416518
 31
0.0
  0
LINE
  5
1C355
330
1F
100
AcDbEntity
  8
0
 62
     0
 48
0.2
100
AcDbLine
 10
6436.871080249492
 20
3533.405542653346
 30
0.0
 11
6438.659983741736
 21
3485.309574416518
 31
0.0
  0
LINE
  5
1C356
330
1F
100
AcDbEntity
  8
0
 62
     0
 48
0.2
100
AcDbLine
 10
6428.871080249492
 20
3533.405542653346
 30
0.0
 11
6430.659983741737
 21
3485.309574416518
 31
0.0
  0
LINE
  5
1C357
330
1F
100
AcDbEntity
  8
0
 62
     0
 48
0.2
100
AcDbLine
 10
6476.548089329018
 20
3542.261363787968
 30
0.0
 11
6479.015912255711
 21
3476.014898061905
 31
0.0
  0
LINE
  5
1C358
330
1F
100
AcDbEntity
  8
0
 62
     0
 48
0.2
100
AcDbLine
 10
6484.649586734349
 20
3539.545473766744
 30
0.0
 11
6487.013133946033
 21
3476.16395764202
 31
0.0
  0
LINE
  5
1C359
330
1F
100
AcDbEntity
  8
0
 62
     0
 48
0.2
100
AcDbLine
 10
6487.015912255711
 20
3476.014898061905
 30
0.0
 11
6489.247302838767
 21
3535.914552199496
 31
0.0
  0
LINE
  5
1C35A
330
1F
100
AcDbEntity
  8
0
 62
     0
 48
0.2
100
AcDbLine
 10
6373.025530662978
 20
3529.110504622599
 30
0.0
 11
6374.513859577257
 21
3489.157666296046
 31
0.0
  0
ARC
  5
1C35B
330
1F
100
AcDbEntity
  8
0
 62
     0
100
AcDbCircle
 10
6256.73736677251
 20
3496.775580811096
 30
0.0
 40
18.0
100
AcDbArc
 50
47.65545635580534
 51
90.24444221094386
  0
ARC
  5
1C35C
330
1F
100
AcDbEntity
  8
0
 62
     0
 48
0.2
100
AcDbCircle
 10
6378.513859577257
 20
3489.157666296049
 30
0.0
 40
4.0
100
AcDbArc
 50
180.0
 51
0.0
  0
LINE
  5
1C35D
330
1F
100
AcDbEntity
  8
0
 62
     0
100
AcDbLine
 10
6290.938069010614
 20
3505.17558081109
 30
0.0
 11
6332.742845278414
 21
3505.17558081109
 31
0.0
  0
LINE
  5
1C35E
330
1F
100
AcDbEntity
  8
0
 62
     0
100
AcDbLine
 10
6290.233467355889
 20
3505.17558081109
 30
0.0
 11
6314.127130754155
 21
3505.17558081109
 31
0.0
  0
ARC
  5
1C35F
330
1F
100
AcDbEntity
  8
0
 62
     0
100
AcDbCircle
 10
6290.233467355889
 20
3523.17558081109
 30
0.0
 40
25.2
100
AcDbArc
 50
211.5881355052164
 51
314.4153085971888
  0
ARC
  5
1C360
330
1F
100
AcDbEntity
  8
0
 62
     0
100
AcDbCircle
 10
6290.233467355889
 20
3523.17558081109
 30
0.0
 40
18.0
100
AcDbArc
 50
227.1665719339346
 51
270.0
  0
LINE
  5
1C361
330
1F
100
AcDbEntity
  8
0
 62
     0
 48
25.0
100
AcDbLine
 10
6287.683232565132
 20
3505.17558081109
 30
0.0
 11
6290.938069010614
 21
3505.17558081109
 31
0.0
  0
ARC
  5
1C362
330
1F
100
AcDbEntity
  8
0
 62
     0
100
AcDbCircle
 10
6290.938069010614
 20
3523.17558081109
 30
0.0
 40
25.2
100
AcDbArc
 50
263.0017220511914
 51
314.4153085971888
  0
LINE
  5
1C363
330
1F
100
AcDbEntity
  8
0
 62
     0
100
AcDbLine
 10
6332.742845278414
 20
3501.783541426542
 30
0.0
 11
6364.742845278414
 21
3501.783541426542
 31
0.0
  0
LINE
  5
1C364
330
1F
100
AcDbEntity
  8
0
 62
     0
100
AcDbLine
 10
6364.742845278414
 20
3501.783541426542
 30
0.0
 11
6366.035195202957
 21
3501.783541426542
 31
0.0
  0
LINE
  5
1C365
330
1F
100
AcDbEntity
  8
0
 62
     0
100
AcDbLine
 10
6364.742845278414
 20
3501.783541426542
 30
0.0
 11
6365.542845278413
 21
3501.783541426542
 31
0.0
  0
ARC
  5
1C366
330
1F
100
AcDbEntity
  8
0
 62
     0
 48
0.2
100
AcDbCircle
 10
6370.389915941362
 20
3492.335863744001
 30
0.0
 40
4.0
100
AcDbArc
 50
180.0
 51
0.0
  0
ARC
  5
1C367
330
1F
100
AcDbEntity
  8
0
 62
     0
 48
0.2
100
AcDbCircle
 10
6434.657219753763
 20
3485.458249445287
 30
0.0
 40
4.0
100
AcDbArc
 50
182.1301035711711
 51
0.0
  0
ARC
  5
1C368
330
1F
100
AcDbEntity
  8
0
 62
     0
 48
0.2
100
AcDbCircle
 10
6402.657219753763
 20
3485.458249445287
 30
0.0
 40
4.0
100
AcDbArc
 50
182.1301035711711
 51
357.8728354821249
  0
ARC
  5
1C369
330
1F
100
AcDbEntity
  8
0
 62
     0
 48
0.2
100
AcDbCircle
 10
6386.657219753763
 20
3485.458249445287
 30
0.0
 40
4.0
100
AcDbArc
 50
180.0
 51
5.142698466434135
  0
ARC
  5
1C36A
330
1F
100
AcDbEntity
  8
0
 62
     0
 48
0.2
100
AcDbCircle
 10
6394.657219753763
 20
3485.458249445287
 30
0.0
 40
4.0
100
AcDbArc
 50
182.1301035711711
 51
5.142698466434135
  0
ARC
  5
1C36B
330
1F
100
AcDbEntity
  8
0
 62
     0
 48
0.2
100
AcDbCircle
 10
6410.657219753763
 20
3485.458249445287
 30
0.0
 40
4.0
100
AcDbArc
 50
174.8983204758697
 51
357.8728354821249
  0
ARC
  5
1C36C
330
1F
100
AcDbEntity
  8
0
 62
     0
 48
0.2
100
AcDbCircle
 10
6418.657219753763
 20
3485.458249445287
 30
0.0
 40
4.0
100
AcDbArc
 50
174.8983204758697
 51
357.8728354821249
  0
ARC
  5
1C36D
330
1F
100
AcDbEntity
  8
0
 62
     0
 48
0.2
100
AcDbCircle
 10
6426.657219753763
 20
3485.458249445287
 30
0.0
 40
4.0
100
AcDbArc
 50
174.8983204758697
 51
359.1175086758972
  0
ARC
  5
1C36E
330
1F
100
AcDbEntity
  8
0
 62
     0
 48
0.2
100
AcDbCircle
 10
6458.722408142595
 20
3483.818448355614
 30
0.0
 40
4.0
100
AcDbArc
 50
180.0
 51
0.0
  0
ARC
  5
1C36F
330
1F
100
AcDbEntity
  8
0
 62
     0
 48
0.2
100
AcDbCircle
 10
6466.791862415402
 20
3481.819637144814
 30
0.0
 40
4.0
100
AcDbArc
 50
180.0
 51
0.0
  0
ARC
  5
1C370
330
1F
100
AcDbEntity
  8
0
 62
     0
 48
0.2
100
AcDbCircle
 10
6450.641117922727
 20
3485.816795647792
 30
0.0
 40
4.0
100
AcDbArc
 50
179.3266143939403
 51
0.0
  0
ARC
  5
1C371
330
1F
100
AcDbEntity
  8
0
 62
     0
 48
0.2
100
AcDbCircle
 10
6442.657219753762
 20
3485.458249445287
 30
0.0
 40
4.0
100
AcDbArc
 50
182.1301035711711
 51
3.013458961272597
  0
LINE
  5
1C372
330
1F
100
AcDbEntity
  8
0
 62
     0
100
AcDbLine
 10
6462.610153463308
 20
3486.496667253945
 30
0.0
 11
6462.79478177845
 21
3481.666841916833
 31
0.0
  0
LINE
  5
1C373
330
1F
100
AcDbEntity
  8
0
 62
     0
100
AcDbLine
 10
6454.722408142593
 20
3483.818448355612
 30
0.0
 11
6454.643881910704
 21
3485.668120619022
 31
0.0
  0
ARC
  5
1C374
330
1F
100
AcDbEntity
  8
0
 62
     0
 48
0.2
100
AcDbCircle
 10
6483.01591225571
 20
3476.014898061907
 30
0.0
 40
4.0
100
AcDbArc
 50
180.0
 51
2.135615682189469
  0
ARC
  5
1C375
330
1F
100
AcDbEntity
  8
0
 62
     0
 48
0.2
100
AcDbCircle
 10
6474.900597911181
 20
3479.046163353827
 30
0.0
 40
4.0
100
AcDbArc
 50
180.0
 51
2.924223819334604
  0
ARC
  5
1C376
330
1F
100
AcDbEntity
  8
0
 62
     0
 48
0.2
100
AcDbCircle
 10
6377.025530662979
 20
3529.110504622599
 30
0.0
 40
4.0
100
AcDbArc
 50
0.0
 51
184.2668083524138
  0
ARC
  5
1C377
330
1F
100
AcDbEntity
  8
0
 62
     0
100
AcDbCircle
 10
6324.641968427235
 20
3496.775580811092
 30
0.0
 40
25.2
100
AcDbArc
 50
68.91286872799475
 51
134.4153085971887
  0
LINE
  5
1C378
330
1F
100
AcDbEntity
  8
0
 62
     0
100
AcDbLine
 10
6324.641968427235
 20
3514.775580811092
 30
0.0
 11
6287.86771331034
 21
3514.775580811092
 31
0.0
  0
ARC
  5
1C379
330
1F
100
AcDbEntity
  8
0
 62
     0
100
AcDbCircle
 10
6323.937366772507
 20
3496.775580811096
 30
0.0
 40
25.2
100
AcDbArc
 50
112.0828639390842
 51
134.4153085971887
  0
LINE
  5
1C37A
330
1F
100
AcDbEntity
  8
0
 62
     0
100
AcDbLine
 10
6314.343106735845
 20
3514.775580811095
 30
0.0
 11
6274.373692920542
 21
3514.775580811095
 31
0.0
  0
ARC
  5
1C37B
330
1F
100
AcDbEntity
  8
0
 62
     0
 48
0.2
100
AcDbCircle
 10
6369.19939761708
 20
3524.29424718904
 30
0.0
 40
4.0
100
AcDbArc
 50
0.0
 51
182.1334041762076
  0
LINE
  5
1C37C
330
1F
100
AcDbEntity
  8
0
 62
     0
100
AcDbLine
 10
6364.742845278414
 20
3517.783541426543
 30
0.0
 11
6332.742845278414
 21
3517.783541426543
 31
0.0
  0
LINE
  5
1C37D
330
1F
100
AcDbEntity
  8
0
 62
     0
100
AcDbLine
 10
6364.742845278414
 20
3517.783541426543
 30
0.0
 11
6365.439160887856
 21
3517.783541426543
 31
0.0
  0
ARC
  5
1C37E
330
1F
100
AcDbEntity
  8
0
 62
     0
100
AcDbCircle
 10
6324.641968427235
 20
3496.775580811092
 30
0.0
 40
18.0
100
AcDbArc
 50
63.25319057022223
 51
90.24444221094386
  0
ARC
  5
1C37F
330
1F
100
AcDbEntity
  8
0
 62
     0
 48
0.2
100
AcDbCircle
 10
6440.871080249492
 20
3533.405542653346
 30
0.0
 40
4.0
100
AcDbArc
 50
5.142698468948712
 51
184.2602071423494
  0
ARC
  5
1C380
330
1F
100
AcDbEntity
  8
0
 62
     0
 48
0.2
100
AcDbCircle
 10
6392.871080249491
 20
3533.405542653346
 30
0.0
 40
4.0
100
AcDbArc
 50
0.0
 51
184.2602071423494
  0
ARC
  5
1C381
330
1F
100
AcDbEntity
  8
0
 62
     0
 48
0.2
100
AcDbCircle
 10
6384.871080249491
 20
3533.405542653346
 30
0.0
 40
4.0
100
AcDbArc
 50
355.7631844494394
 51
184.2602071423494
  0
ARC
  5
1C382
330
1F
100
AcDbEntity
  8
0
 62
     0
 48
0.2
100
AcDbCircle
 10
6408.871080249491
 20
3533.405542653346
 30
0.0
 40
4.0
100
AcDbArc
 50
355.7631844494394
 51
184.2602071423494
  0
ARC
  5
1C383
330
1F
100
AcDbEntity
  8
0
 62
     0
 48
0.2
100
AcDbCircle
 10
6400.871080249491
 20
3533.405542653346
 30
0.0
 40
4.0
100
AcDbArc
 50
355.7631844494394
 51
180.0
  0
ARC
  5
1C384
330
1F
100
AcDbEntity
  8
0
 62
     0
 48
0.2
100
AcDbCircle
 10
6416.871080249491
 20
3533.405542653346
 30
0.0
 40
4.0
100
AcDbArc
 50
355.7631844494394
 51
184.2602071423494
  0
ARC
  5
1C385
330
1F
100
AcDbEntity
  8
0
 62
     0
 48
0.2
100
AcDbCircle
 10
6432.871080249491
 20
3533.405542653346
 30
0.0
 40
4.0
100
AcDbArc
 50
0.0
 51
184.2602071423494
  0
ARC
  5
1C386
330
1F
100
AcDbEntity
  8
0
 62
     0
 48
0.2
100
AcDbCircle
 10
6424.871080249491
 20
3533.405542653346
 30
0.0
 40
4.0
100
AcDbArc
 50
0.0
 51
180.0
  0
ARC
  5
1C387
330
1F
100
AcDbEntity
  8
0
 62
     0
 48
0.2
100
AcDbCircle
 10
6456.522614136573
 20
3535.736279004932
 30
0.0
 40
4.0
100
AcDbArc
 50
22.94965039557675
 51
186.1741752104803
  0
ARC
  5
1C388
330
1F
100
AcDbEntity
  8
0
 62
     0
 48
0.2
100
AcDbCircle
 10
6464.524768200409
 20
3537.761431946221
 30
0.0
 40
4.0
100
AcDbArc
 50
0.0
 51
186.1514406677092
  0
ARC
  5
1C389
330
1F
100
AcDbEntity
  8
0
 62
     0
 48
0.2
100
AcDbCircle
 10
6448.854978418456
 20
3533.764088855851
 30
0.0
 40
4.0
100
AcDbArc
 50
22.67455362085669
 51
185.1426984664341
  0
LINE
  5
1C38A
330
1F
100
AcDbEntity
  8
0
 62
     0
100
AcDbLine
 10
6452.522614136573
 20
3535.736279004928
 30
0.0
 11
6452.854978418456
 21
3533.764088855851
 31
0.0
  0
ARC
  5
1C38B
330
1F
100
AcDbEntity
  8
0
 62
     0
100
AcDbCircle
 10
6480.336340981454
 20
3543.545555914492
 30
0.0
 40
3.999999999999886
100
AcDbArc
 50
0.0
 51
198.7263172339306
  0
ARC
  5
1C38C
330
1F
100
AcDbEntity
  8
0
 62
     0
100
AcDbCircle
 10
6488.336340981454
 20
3543.545555914492
 30
0.0
 40
3.999999999999886
100
AcDbArc
 50
90.0
 51
180.0
  0
LINE
  5
1C38D
330
1F
100
AcDbEntity
  8
0
 62
     0
100
AcDbLine
 10
6484.336340981454
 20
3543.545555914492
 30
0.0
 11
6484.649586734349
 21
3539.545473766744
 31
0.0
  0
ARC
  5
1C38E
330
1F
100
AcDbEntity
  8
0
 62
     0
100
AcDbCircle
 10
6493.204069373826
 20
3535.581235582986
 30
0.0
 40
3.970780953389556
100
AcDbArc
 50
86.7311444516163
 51
175.1847923618069
  0
ARC
  5
1C38F
330
1F
100
AcDbEntity
  8
0
 62
     0
 48
0.2
100
AcDbCircle
 10
6472.611166333651
 20
3540.568118871497
 30
0.0
 40
4.0
100
AcDbArc
 50
0.0
 51
184.2572194335479
  0
CIRCLE
  5
1C390
330
1F
100
AcDbEntity
  8
0
 62
     0
 48
25.0
100
AcDbCircle
 10
6553.091696392852
 20
3509.783541426542
 30
0.0
 40
40.0
  0
ARC
  5
1C391
330
1F
100
AcDbEntity
  8
0
 62
     0
 48
0.2
100
AcDbCircle
 10
6548.204614890025
 20
3507.580226988199
 30
0.0
 40
39.96532892629329
100
AcDbArc
 50
275.4708368349739
 51
297.7421026673381
  0
LINE
  5
1C392
330
1F
100
AcDbEntity
  8
0
 62
     0
 48
0.2
100
AcDbLine
 10
6521.077178550264
 20
3485.802910757053
 30
0.0
 11
6521.077178550264
 21
3483.557718309339
 31
0.0
  0
LINE
  5
1C393
330
1F
100
AcDbEntity
  8
0
 62
     0
 48
0.2
100
AcDbLine
 10
6552.014872988614
 20
3467.796945959491
 30
0.0
 11
6536.546025769441
 21
3467.796945959491
 31
0.0
  0
ARC
  5
1C394
330
1F
100
AcDbEntity
  8
0
 62
     0
 48
0.2
100
AcDbCircle
 10
6537.077178550264
 20
3483.846998229511
 30
0.0
 40
16.0
100
AcDbArc
 50
180.0
 51
268.1045725219248
  0
CIRCLE
  5
1C40F
330
1F
100
AcDbEntity
  8
0
 48
12.0
100
AcDbCircle
 10
5887.972414097352
 20
3251.057154648706
 30
0.0
 40
81.35528316871585
  0
LEADER
  5
1C414
330
1F
100
AcDbEntity
  8
0
 48
12.0
100
AcDbLeader
  3
ISO-25
 73
     0
 40
45.0
 76
     3
 10
5922.132619468447
 20
3324.893205927648
 30
0.0
 10
6105.924091593802
 20
3503.55328284391
 30
0.0
 10
6121.878000916455
 20
3503.55328284391
 30
0.0
340
1C415
213
0.0
223
-22.5
233
0.0
1001
ACAD
1000
DSTYLE
1002
{
1070
   147
1040
25.0
1070
    77
1070
     0
1002
}
  0
MTEXT
  5
1C415
102
{ACAD_REACTORS
330
1C414
102
}
330
1F
100
AcDbEntity
  8
0
 48
12.0
100
AcDbMText
 10
6146.878000916455
 20
4366.144075781376
 30
0.0
 40
45.0
 41
3.9737
 71
     1
 72
     1
  1

 73
     1
 44
1.0
  0
LINE
  5
1C480
330
1F
100
AcDbEntity
  8
0
 48
12.0
100
AcDbLine
 10
3937.972414097352
 20
4884.87537962396
 30
0.0
 11
5937.972414097352
 21
4884.87537962396
 31
0.0
  0
DIMENSION
  5
1C481
330
1F
100
AcDbEntity
  8
0
 48
12.0
100
AcDbDimension
  2
*D8
 10
3772.860950980339
 20
1711.057154648707
 30
0.0
 11
3725.36095098034
 21
3200.557154648707
 31
0.0
 70
    33
  1
6000
 71
     5
 42
2978.999999999999
  3
ISO-25
100
AcDbAlignedDimension
 13
3937.972414097352
 23
4690.057154648706
 33
0.0
 14
3937.972414097351
 24
1711.057154648707
 34
0.0
  0
LINE
  5
1C48E
330
1F
100
AcDbEntity
  8
0
 48
12.0
100
AcDbLine
 10
3987.972414097352
 20
4690.057154648706
 30
0.0
 11
3987.972414097352
 21
1711.057154648707
 31
0.0
  0
LINE
  5
1C48F
330
1F
100
AcDbEntity
  8
0
 48
12.0
100
AcDbLine
 10
4087.972414097352
 20
4690.057154648706
 30
0.0
 11
4087.972414097352
 21
1711.057154648707
 31
0.0
  0
LINE
  5
1C490
330
1F
100
AcDbEntity
  8
0
 48
12.0
100
AcDbLine
 10
4187.972414097352
 20
4690.057154648706
 30
0.0
 11
4187.972414097352
 21
1711.057154648707
 31
0.0
  0
LINE
  5
1C491
330
1F
100
AcDbEntity
  8
0
 48
12.0
100
AcDbLine
 10
4287.972414097352
 20
4690.057154648706
 30
0.0
 11
4287.972414097352
 21
1711.057154648707
 31
0.0
  0
LINE
  5
1C492
330
1F
100
AcDbEntity
  8
0
 48
12.0
100
AcDbLine
 10
4387.972414097352
 20
4690.057154648706
 30
0.0
 11
4387.972414097352
 21
1711.057154648707
 31
0.0
  0
LINE
  5
1C493
330
1F
100
AcDbEntity
  8
0
 48
12.0
100
AcDbLine
 10
4487.972414097352
 20
4690.057154648706
 30
0.0
 11
4487.972414097352
 21
1711.057154648707
 31
0.0
  0
LINE
  5
1C494
330
1F
100
AcDbEntity
  8
0
 48
12.0
100
AcDbLine
 10
4587.972414097352
 20
4690.057154648706
 30
0.0
 11
4587.972414097352
 21
1711.057154648707
 31
0.0
  0
LINE
  5
1C495
330
1F
100
AcDbEntity
  8
0
 48
12.0
100
AcDbLine
 10
4687.972414097352
 20
4690.057154648706
 30
0.0
 11
4687.972414097352
 21
1711.057154648707
 31
0.0
  0
LINE
  5
1C496
330
1F
100
AcDbEntity
  8
0
 48
12.0
100
AcDbLine
 10
4787.972414097352
 20
4690.057154648706
 30
0.0
 11
4787.972414097352
 21
1711.057154648707
 31
0.0
  0
LINE
  5
1C497
330
1F
100
AcDbEntity
  8
0
 48
12.0
100
AcDbLine
 10
4887.972414097352
 20
4690.057154648706
 30
0.0
 11
4887.972414097352
 21
1711.057154648707
 31
0.0
  0
LINE
  5
1C498
330
1F
100
AcDbEntity
  8
0
 48
12.0
100
AcDbLine
 10
4987.972414097352
 20
4690.057154648706
 30
0.0
 11
4987.972414097352
 21
1711.057154648707
 31
0.0
  0
LINE
  5
1C499
330
1F
100
AcDbEntity
  8
0
 48
12.0
100
AcDbLine
 10
5087.972414097352
 20
4690.057154648706
 30
0.0
 11
5087.972414097352
 21
1711.057154648707
 31
0.0
  0
LINE
  5
1C49A
330
1F
100
AcDbEntity
  8
0
 48
12.0
100
AcDbLine
 10
5187.972414097352
 20
4690.057154648706
 30
0.0
 11
5187.972414097352
 21
1711.057154648707
 31
0.0
  0
LINE
  5
1C49B
330
1F
100
AcDbEntity
  8
0
 48
12.0
100
AcDbLine
 10
5287.972414097352
 20
4690.057154648706
 30
0.0
 11
5287.972414097352
 21
1711.057154648707
 31
0.0
  0
LINE
  5
1C49C
330
1F
100
AcDbEntity
  8
0
 48
12.0
100
AcDbLine
 10
5387.972414097352
 20
4690.057154648706
 30
0.0
 11
5387.972414097352
 21
1711.057154648707
 31
0.0
  0
LINE
  5
1C49D
330
1F
100
AcDbEntity
  8
0
 48
12.0
100
AcDbLine
 10
5487.972414097352
 20
4690.057154648706
 30
0.0
 11
5487.972414097352
 21
1711.057154648707
 31
0.0
  0
LINE
  5
1C49E
330
1F
100
AcDbEntity
  8
0
 48
12.0
100
AcDbLine
 10
5587.972414097352
 20
4690.057154648706
 30
0.0
 11
5587.972414097352
 21
1711.057154648707
 31
0.0
  0
LINE
  5
1C49F
330
1F
100
AcDbEntity
  8
0
 48
12.0
100
AcDbLine
 10
5687.972414097352
 20
4690.057154648706
 30
0.0
 11
5687.972414097352
 21
1711.057154648707
 31
0.0
  0
LINE
  5
1C4A0
330
1F
100
AcDbEntity
  8
0
 48
12.0
100
AcDbLine
 10
5787.972414097352
 20
4690.057154648706
 30
0.0
 11
5787.972414097352
 21
1711.057154648707
 31
0.0
  0
LINE
  5
1C4A1
330
1F
100
AcDbEntity
  8
0
 48
12.0
100
AcDbLine
 10
5887.972414097352
 20
4690.057154648706
 30
0.0
 11
5887.972414097352
 21
1711.057154648707
 31
0.0
  0
LINE
  5
1C4A3
330
1F
100
AcDbEntity
  8
0
 48
12.0
100
AcDbLine
 10
3987.972414097351
 20
3251.057154648706
 30
0.0
 11
5887.972414097352
 21
3251.057154648706
 31
0.0
  0
ENDSEC
  0
SECTION
  2
OBJECTS
  0
DICTIONARY
  5
C
330
0
100
AcDbDictionary
281
     1
  3
ACAD_GROUP
350
D
  3
ACAD_LAYOUT
350
1A
  3
ACAD_MLINESTYLE
350
17
  3
ACAD_PLOTSETTINGS
350
19
  3
ACAD_PLOTSTYLENAME
350
E
  3
AcadDim
350
1C413
  3
AcDbVariableDictionary
350
739
  0
DICTIONARY
  5
D
102
{ACAD_REACTORS
330
C
102
}
330
C
100
AcDbDictionary
281
     1
  0
DICTIONARY
  5
1A
102
{ACAD_REACTORS
330
C
102
}
330
C
100
AcDbDictionary
281
     1
  3
Model
350
22
  3
ﾚｲｱｳﾄ1
350
1E
  3
ﾚｲｱｳﾄ2
350
26
  0
DICTIONARY
  5
17
102
{ACAD_REACTORS
330
C
102
}
330
C
100
AcDbDictionary
281
     1
  3
Standard
350
18
  0
DICTIONARY
  5
19
102
{ACAD_REACTORS
330
C
102
}
330
C
100
AcDbDictionary
281
     1
  0
ACDBDICTIONARYWDFLT
  5
E
102
{ACAD_REACTORS
330
C
102
}
330
C
100
AcDbDictionary
281
     1
  3
Normal
350
F
100
AcDbDictionaryWithDefault
340
F
  0
XRECORD
  5
1C413
102
{ACAD_REACTORS
330
C
102
}
330
C
100
AcDbXrecord
280
     1
 90
   990106
  3

 60
     0
 61
     0
 62
     1
 63
     3
 64
     0
 65
     0
 66
     0
 67
     3
 68
     1
 69
     0
 70
     0
 71
     0
 72
     0
 40
3.973685914683301
170
     0
340
1C415
  0
DICTIONARY
  5
739
102
{ACAD_REACTORS
330
C
102
}
330
C
100
AcDbDictionary
281
     1
  3
SORTENTS
350
73A
  0
LAYOUT
  5
22
102
{ACAD_REACTORS
330
1A
102
}
330
1A
100
AcDbPlotSettings
  1

  2
RICOH imagio MP C3301 RPCS
  4
A3
  6

 40
5.873749732971191
 41
5.873747825622558
 42
5.873748779296875
 43
5.873748779296875
 44
296.9259948730469
 45
419.9466552734374
 46
0.0
 47
0.0
 48
0.0
 49
0.0
140
0.0
141
0.0
142
1.0
143
19.28707545924392
 70
 11952
 72
     1
 73
     1
 74
     1
  7

 75
     0
147
0.051848192439187
148
-572.7672977048496
149
-301.2373516898587
100
AcDbLayout
  1
Model
 70
     1
 71
     0
 10
0.0
 20
0.0
 11
12.0
 21
9.0
 12
0.0
 22
0.0
 32
0.0
 14
0.0
 24
0.0
 34
0.0
 15
0.0
 25
0.0
 35
0.0
146
0.0
 13
0.0
 23
0.0
 33
0.0
 16
1.0
 26
0.0
 36
0.0
 17
0.0
 27
1.0
 37
0.0
 76
     0
330
1F
  0
LAYOUT
  5
1E
102
{ACAD_REACTORS
330
1A
102
}
330
1A
100
AcDbPlotSettings
  1

  2
RICOH imagio MP C3300 RPCS
  4

  6

 40
0.0
 41
0.0
 42
0.0
 43
0.0
 44
0.0
 45
0.0
 46
0.0
 47
0.0
 48
0.0
 49
0.0
140
0.0
141
0.0
142
1.0
143
1.0
 70
   688
 72
     0
 73
     0
 74
     5
  7

 75
    16
147
1.0
148
0.0
149
0.0
100
AcDbLayout
  1
ﾚｲｱｳﾄ1
 70
     1
 71
     1
 10
0.0
 20
0.0
 11
420.0
 21
297.0
 12
0.0
 22
0.0
 32
0.0
 14
1.000000000000000E+20
 24
1.000000000000000E+20
 34
1.000000000000000E+20
 15
-1.000000000000000E+20
 25
-1.000000000000000E+20
 35
-1.000000000000000E+20
146
0.0
 13
0.0
 23
0.0
 33
0.0
 16
1.0
 26
0.0
 36
0.0
 17
0.0
 27
1.0
 37
0.0
 76
     0
330
1B
  0
LAYOUT
  5
26
102
{ACAD_REACTORS
330
1A
102
}
330
1A
100
AcDbPlotSettings
  1

  2
RICOH imagio MP C3300 RPCS
  4

  6

 40
0.0
 41
0.0
 42
0.0
 43
0.0
 44
0.0
 45
0.0
 46
0.0
 47
0.0
 48
0.0
 49
0.0
140
0.0
141
0.0
142
1.0
143
1.0
 70
   688
 72
     0
 73
     0
 74
     5
  7

 75
    16
147
1.0
148
0.0
149
0.0
100
AcDbLayout
  1
ﾚｲｱｳﾄ2
 70
     1
 71
     2
 10
0.0
 20
0.0
 11
12.0
 21
9.0
 12
0.0
 22
0.0
 32
0.0
 14
0.0
 24
0.0
 34
0.0
 15
0.0
 25
0.0
 35
0.0
146
0.0
 13
0.0
 23
0.0
 33
0.0
 16
1.0
 26
0.0
 36
0.0
 17
0.0
 27
1.0
 37
0.0
 76
     0
330
23
  0
MLINESTYLE
  5
18
102
{ACAD_REACTORS
330
17
102
}
330
17
100
AcDbMlineStyle
  2
STANDARD
 70
     0
  3

 62
   256
 51
90.0
 52
90.0
 71
     2
 49
0.5
 62
   256
  6
BYLAYER
 49
-0.5
 62
   256
  6
BYLAYER
  0
ACDBPLACEHOLDER
  5
F
102
{ACAD_REACTORS
330
E
102
}
330
E
  0
DICTIONARYVAR
  5
73A
102
{ACAD_REACTORS
330
739
102
}
330
739
100
DictionaryVariables
280
     0
  1
96
  0
ENDSEC
  0
EOF
