  0
SECTION
  2
HEADER
  9
$ACADVER
  1
AC1015
  9
$ACADMAINTVER
 70
     6
  9
$DWGCODEPAGE
  3
ANSI_932
  9
$INSBASE
 10
0.0
 20
0.0
 30
0.0
  9
$EXTMIN
 10
-117.6069841392893
 20
817.5308658634675
 30
0.0
  9
$EXTMAX
 10
682.3930158607106
 20
1367.530865863467
 30
0.0
  9
$LIMMIN
 10
0.0
 20
0.0
  9
$LIMMAX
 10
420.0
 20
297.0
  9
$ORTHOMODE
 70
     0
  9
$REGENMODE
 70
     1
  9
$FILLMODE
 70
     1
  9
$QTEXTMODE
 70
     0
  9
$MIRRTEXT
 70
     1
  9
$LTSCALE
 40
1.0
  9
$ATTMODE
 70
     1
  9
$TEXTSIZE
 40
2.5
  9
$TRACEWID
 40
1.0
  9
$TEXTSTYLE
  7
Standard
  9
$CLAYER
  8
0
  9
$CELTYPE
  6
ByLayer
  9
$CECOLOR
 62
     0
  9
$CELTSCALE
 40
0.5
  9
$DISPSILH
 70
     0
  9
$DIMSCALE
 40
1.0
  9
$DIMASZ
 40
5.0
  9
$DIMEXO
 40
2.0
  9
$DIMDLI
 40
3.75
  9
$DIMRND
 40
0.0
  9
$DIMDLE
 40
0.0
  9
$DIMEXE
 40
5.0
  9
$DIMTP
 40
0.0
  9
$DIMTM
 40
0.0
  9
$DIMTXT
 40
6.0
  9
$DIMCEN
 40
2.5
  9
$DIMTSZ
 40
0.0
  9
$DIMTOL
 70
     0
  9
$DIMLIM
 70
     0
  9
$DIMTIH
 70
     0
  9
$DIMTOH
 70
     0
  9
$DIMSE1
 70
     0
  9
$DIMSE2
 70
     0
  9
$DIMTAD
 70
     1
  9
$DIMZIN
 70
     8
  9
$DIMBLK
  1

  9
$DIMASO
 70
     1
  9
$DIMSHO
 70
     1
  9
$DIMPOST
  1

  9
$DIMAPOST
  1

  9
$DIMALT
 70
     0
  9
$DIMALTD
 70
     3
  9
$DIMALTF
 40
0.1
  9
$DIMLFAC
 40
1.0
  9
$DIMTOFL
 70
     1
  9
$DIMTVP
 40
0.0
  9
$DIMTIX
 70
     0
  9
$DIMSOXD
 70
     0
  9
$DIMSAH
 70
     0
  9
$DIMBLK1
  1

  9
$DIMBLK2
  1

  9
$DIMSTYLE
  2
ISO-25
  9
$DIMCLRD
 70
     7
  9
$DIMCLRE
 70
     7
  9
$DIMCLRT
 70
     0
  9
$DIMTFAC
 40
1.0
  9
$DIMGAP
 40
3.0
  9
$DIMJUST
 70
     0
  9
$DIMSD1
 70
     0
  9
$DIMSD2
 70
     0
  9
$DIMTOLJ
 70
     0
  9
$DIMTZIN
 70
     8
  9
$DIMALTZ
 70
     0
  9
$DIMALTTZ
 70
     0
  9
$DIMUPT
 70
     0
  9
$DIMDEC
 70
     2
  9
$DIMTDEC
 70
     2
  9
$DIMALTU
 70
     2
  9
$DIMALTTD
 70
     3
  9
$DIMTXSTY
  7
Standard
  9
$DIMAUNIT
 70
     0
  9
$DIMADEC
 70
     0
  9
$DIMALTRND
 40
0.0
  9
$DIMAZIN
 70
     0
  9
$DIMDSEP
 70
    46
  9
$DIMATFIT
 70
     3
  9
$DIMFRAC
 70
     0
  9
$DIMLDRBLK
  1

  9
$DIMLUNIT
 70
     2
  9
$DIMLWD
 70
     9
  9
$DIMLWE
 70
     9
  9
$DIMTMOVE
 70
     0
  9
$LUNITS
 70
     2
  9
$LUPREC
 70
     4
  9
$SKETCHINC
 40
1.0
  9
$FILLETRAD
 40
0.15
  9
$AUNITS
 70
     0
  9
$AUPREC
 70
     0
  9
$MENU
  1
.
  9
$ELEVATION
 40
0.0
  9
$PELEVATION
 40
0.0
  9
$THICKNESS
 40
0.0
  9
$LIMCHECK
 70
     0
  9
$CHAMFERA
 40
0.3
  9
$CHAMFERB
 40
0.3
  9
$CHAMFERC
 40
20.0
  9
$CHAMFERD
 40
0.0
  9
$SKPOLY
 70
     0
  9
$TDCREATE
 40
2454873.622250069
  9
$TDUCREATE
 40
2454873.247250069
  9
$TDUPDATE
 40
2459635.594731192
  9
$TDUUPDATE
 40
2459635.219731192
  9
$TDINDWG
 40
0.8075131134
  9
$TDUSRTIMER
 40
0.8075131134
  9
$USRTIMER
 70
     1
  9
$ANGBASE
 50
0.0
  9
$ANGDIR
 70
     0
  9
$PDMODE
 70
     0
  9
$PDSIZE
 40
0.0
  9
$PLINEWID
 40
0.0
  9
$SPLFRAME
 70
     0
  9
$SPLINETYPE
 70
     6
  9
$SPLINESEGS
 70
     8
  9
$HANDSEED
  5
A822
  9
$SURFTAB1
 70
     6
  9
$SURFTAB2
 70
     6
  9
$SURFTYPE
 70
     6
  9
$SURFU
 70
     6
  9
$SURFV
 70
     6
  9
$UCSBASE
  2

  9
$UCSNAME
  2

  9
$UCSORG
 10
0.0
 20
0.0
 30
0.0
  9
$UCSXDIR
 10
1.0
 20
0.0
 30
0.0
  9
$UCSYDIR
 10
0.0
 20
1.0
 30
0.0
  9
$UCSORTHOREF
  2

  9
$UCSORTHOVIEW
 70
     0
  9
$UCSORGTOP
 10
0.0
 20
0.0
 30
0.0
  9
$UCSORGBOTTOM
 10
0.0
 20
0.0
 30
0.0
  9
$UCSORGLEFT
 10
0.0
 20
0.0
 30
0.0
  9
$UCSORGRIGHT
 10
0.0
 20
0.0
 30
0.0
  9
$UCSORGFRONT
 10
0.0
 20
0.0
 30
0.0
  9
$UCSORGBACK
 10
0.0
 20
0.0
 30
0.0
  9
$PUCSBASE
  2

  9
$PUCSNAME
  2

  9
$PUCSORG
 10
0.0
 20
0.0
 30
0.0
  9
$PUCSXDIR
 10
1.0
 20
0.0
 30
0.0
  9
$PUCSYDIR
 10
0.0
 20
1.0
 30
0.0
  9
$PUCSORTHOREF
  2

  9
$PUCSORTHOVIEW
 70
     0
  9
$PUCSORGTOP
 10
0.0
 20
0.0
 30
0.0
  9
$PUCSORGBOTTOM
 10
0.0
 20
0.0
 30
0.0
  9
$PUCSORGLEFT
 10
0.0
 20
0.0
 30
0.0
  9
$PUCSORGRIGHT
 10
0.0
 20
0.0
 30
0.0
  9
$PUCSORGFRONT
 10
0.0
 20
0.0
 30
0.0
  9
$PUCSORGBACK
 10
0.0
 20
0.0
 30
0.0
  9
$USERI1
 70
     0
  9
$USERI2
 70
     0
  9
$USERI3
 70
     0
  9
$USERI4
 70
     0
  9
$USERI5
 70
     0
  9
$USERR1
 40
0.0
  9
$USERR2
 40
0.0
  9
$USERR3
 40
0.0
  9
$USERR4
 40
0.0
  9
$USERR5
 40
0.0
  9
$WORLDVIEW
 70
     1
  9
$SHADEDGE
 70
     3
  9
$SHADEDIF
 70
    70
  9
$TILEMODE
 70
     1
  9
$MAXACTVP
 70
    64
  9
$PINSBASE
 10
0.0
 20
0.0
 30
0.0
  9
$PLIMCHECK
 70
     0
  9
$PEXTMIN
 10
1.042221639059562
 20
1.08829855961801
 30
0.0
  9
$PEXTMAX
 10
407.82803226079
 20
284.1844718556203
 30
0.0
  9
$PLIMMIN
 10
-5.873748779296875
 20
-5.873749732971191
  9
$PLIMMAX
 10
414.0729064941406
 20
291.0522451400757
  9
$UNITMODE
 70
     0
  9
$VISRETAIN
 70
     1
  9
$PLINEGEN
 70
     0
  9
$PSLTSCALE
 70
     1
  9
$TREEDEPTH
 70
  3020
  9
$CMLSTYLE
  2
Standard
  9
$CMLJUST
 70
     0
  9
$CMLSCALE
 40
20.0
  9
$PROXYGRAPHICS
 70
     1
  9
$MEASUREMENT
 70
     1
  9
$CELWEIGHT
370
    -1
  9
$ENDCAPS
280
     0
  9
$JOINSTYLE
280
     0
  9
$LWDISPLAY
290
     0
  9
$INSUNITS
 70
     4
  9
$HYPERLINKBASE
  1

  9
$STYLESHEET
  1

  9
$XEDIT
290
     1
  9
$CEPSNTYPE
380
     0
  9
$PSTYLEMODE
290
     1
  9
$FINGERPRINTGUID
  2
{951E45A9-2098-449B-99F4-687C375CF490}
  9
$VERSIONGUID
  2
{03E37328-9052-4090-A7ED-E231543F3A53}
  9
$EXTNAMES
290
     1
  9
$PSVPSCALE
 40
0.0
  9
$OLESTARTUP
290
     0
  0
ENDSEC
  0
SECTION
  2
CLASSES
  0
CLASS
  1
ACDBDICTIONARYWDFLT
  2
AcDbDictionaryWithDefault
  3
AutoCAD 2000
 90
        0
280
     0
281
     0
  0
CLASS
  1
ACDBPLACEHOLDER
  2
AcDbPlaceHolder
  3
AutoCAD 2000
 90
        0
280
     0
281
     0
  0
CLASS
  1
LAYOUT
  2
AcDbLayout
  3
AutoCAD 2000
 90
        0
280
     0
281
     0
  0
CLASS
  1
RASTERVARIABLES
  2
AcDbRasterVariables
  3
ISM
 90
        0
280
     0
281
     0
  0
CLASS
  1
DICTIONARYVAR
  2
AcDbDictionaryVar
  3
AutoCAD 2000
 90
        0
280
     0
281
     0
  0
ENDSEC
  0
SECTION
  2
TABLES
  0
TABLE
  2
VPORT
  5
8
330
0
100
AcDbSymbolTable
 70
     3
  0
VPORT
  5
A821
330
8
100
AcDbSymbolTableRecord
100
AcDbViewportTableRecord
  2
*Active
 70
     0
 10
0.0
 20
0.0
 11
1.0
 21
1.0
 12
291.5385067832787
 22
1058.393817088642
 13
0.0
 23
0.0
 14
10.0
 24
10.0
 15
10.0
 25
10.0
 16
0.0
 26
0.0
 36
1.0
 17
0.0
 27
0.0
 37
0.0
 40
686.5256758656401
 41
1.477300613496932
 42
50.0
 43
0.0
 44
0.0
 50
0.0
 51
0.0
 71
     0
 72
   100
 73
     1
 74
     3
 75
     0
 76
     0
 77
     0
 78
     0
281
     0
 65
     1
110
0.0
120
0.0
130
0.0
111
1.0
121
0.0
131
0.0
112
0.0
122
1.0
132
0.0
 79
     0
146
0.0
  0
ENDTAB
  0
TABLE
  2
LTYPE
  5
5
330
0
100
AcDbSymbolTable
 70
     5
  0
LTYPE
  5
14
330
5
100
AcDbSymbolTableRecord
100
AcDbLinetypeTableRecord
  2
ByBlock
 70
     0
  3

 72
    65
 73
     0
 40
0.0
  0
LTYPE
  5
15
330
5
100
AcDbSymbolTableRecord
100
AcDbLinetypeTableRecord
  2
ByLayer
 70
     0
  3

 72
    65
 73
     0
 40
0.0
  0
LTYPE
  5
16
330
5
100
AcDbSymbolTableRecord
100
AcDbLinetypeTableRecord
  2
Continuous
 70
     0
  3
Solid line
 72
    65
 73
     0
 40
0.0
  0
LTYPE
  5
35
330
5
100
AcDbSymbolTableRecord
100
AcDbLinetypeTableRecord
  2
HIDDEN
 70
     0
  3
Hidden __ __ __ __ __ __ __ __ __ __ __ __ __ _
 72
    65
 73
     2
 40
9.524999999999998
 49
6.349999999999999
 74
     0
 49
-3.174999999999999
 74
     0
  0
LTYPE
  5
36
330
5
100
AcDbSymbolTableRecord
100
AcDbLinetypeTableRecord
  2
HIDDEN2
 70
     0
  3
Hidden (.5x) _ _ _ _ _ _ _ _ _ _ _ _ _ _ _ _ _
 72
    65
 73
     2
 40
4.762499999999999
 49
3.174999999999999
 74
     0
 49
-1.587499999999999
 74
     0
  0
LTYPE
  5
37
330
5
100
AcDbSymbolTableRecord
100
AcDbLinetypeTableRecord
  2
CENTER
 70
     0
  3
Center ____ _ ____ _ ____ _ ____ _ ____ _ ____
 72
    65
 73
     4
 40
50.8
 49
31.75
 74
     0
 49
-6.349999999999999
 74
     0
 49
6.349999999999999
 74
     0
 49
-6.349999999999999
 74
     0
  0
LTYPE
  5
38
330
5
100
AcDbSymbolTableRecord
100
AcDbLinetypeTableRecord
  2
PHANTOM2
 70
     0
  3
Phantom (.5x) ___ _ _ ___ _ _ ___ _ _ ___ _ _
 72
    65
 73
     6
 40
31.75
 49
15.875
 74
     0
 49
-3.174999999999999
 74
     0
 49
3.174999999999999
 74
     0
 49
-3.174999999999999
 74
     0
 49
3.174999999999999
 74
     0
 49
-3.174999999999999
 74
     0
  0
ENDTAB
  0
TABLE
  2
LAYER
  5
2
330
0
100
AcDbSymbolTable
 70
    15
  0
LAYER
  5
10
330
2
100
AcDbSymbolTableRecord
100
AcDbLayerTableRecord
  2
0
 70
     0
 62
     7
  6
Continuous
370
     9
390
F
  0
LAYER
  5
39
330
2
100
AcDbSymbolTableRecord
100
AcDbLayerTableRecord
  2
１
 70
     0
 62
     2
  6
Continuous
370
     9
390
F
  0
LAYER
  5
3A
330
2
100
AcDbSymbolTableRecord
100
AcDbLayerTableRecord
  2
２
 70
     0
 62
     3
  6
Continuous
370
    20
390
F
  0
LAYER
  5
3B
330
2
100
AcDbSymbolTableRecord
100
AcDbLayerTableRecord
  2
３
 70
     0
 62
     4
  6
HIDDEN
370
    15
390
F
  0
LAYER
  5
3C
330
2
100
AcDbSymbolTableRecord
100
AcDbLayerTableRecord
  2
４
 70
     0
 62
     4
  6
HIDDEN2
370
    15
390
F
  0
LAYER
  5
3D
330
2
100
AcDbSymbolTableRecord
100
AcDbLayerTableRecord
  2
５
 70
     0
 62
     6
  6
CENTER
370
    15
390
F
  0
LAYER
  5
3E
330
2
100
AcDbSymbolTableRecord
100
AcDbLayerTableRecord
  2
６
 70
     0
 62
     5
  6
PHANTOM2
370
    15
390
F
  0
LAYER
  5
46
330
2
100
AcDbSymbolTableRecord
100
AcDbLayerTableRecord
  2
Defpoints
 70
     0
 62
     7
  6
Continuous
290
     0
370
    -3
390
F
  0
LAYER
  5
AB
330
2
100
AcDbSymbolTableRecord
100
AcDbLayerTableRecord
  2
Object
 70
     0
 62
     3
  6
Continuous
370
    20
390
F
  0
LAYER
  5
63B4
330
2
100
AcDbSymbolTableRecord
100
AcDbLayerTableRecord
  2
HIDDEN2
 70
     0
 62
     7
  6
HIDDEN2
370
    15
390
F
  0
LAYER
  5
64C8
330
2
100
AcDbSymbolTableRecord
100
AcDbLayerTableRecord
  2
1
 70
     0
 62
     7
  6
Continuous
370
     9
390
F
  0
LAYER
  5
64C9
330
2
100
AcDbSymbolTableRecord
100
AcDbLayerTableRecord
  2
2
 70
     0
 62
     3
  6
Continuous
370
    20
390
F
  0
LAYER
  5
88C5
330
2
100
AcDbSymbolTableRecord
100
AcDbLayerTableRecord
  2
Defined Points
 70
     0
 62
     2
  6
Continuous
370
    13
390
F
  0
LAYER
  5
9CA0
330
2
100
AcDbSymbolTableRecord
100
AcDbLayerTableRecord
  2
CENTER
 70
     0
 62
     7
  6
CENTER
370
     5
390
F
  0
LAYER
  5
9EEA
330
2
100
AcDbSymbolTableRecord
100
AcDbLayerTableRecord
  2
Hidden
 70
     0
 62
     4
  6
HIDDEN
370
    13
390
F
  0
ENDTAB
  0
TABLE
  2
STYLE
  5
3
330
0
100
AcDbSymbolTable
 70
     3
  0
STYLE
  5
11
330
3
100
AcDbSymbolTableRecord
100
AcDbTextStyleTableRecord
  2
Standard
 70
     0
 40
0.0
 41
1.0
 50
0.0
 71
     0
 42
2.5
  3
romans.shx
  4
bigfont.shx
  0
STYLE
  5
34
330
3
100
AcDbSymbolTableRecord
100
AcDbTextStyleTableRecord
  2

 70
     1
 40
0.0
 41
1.0
 50
0.0
 71
     0
 42
2.5
  3
ltypeshp.shx
  4

  0
STYLE
  5
12E
330
3
100
AcDbSymbolTableRecord
100
AcDbTextStyleTableRecord
  2
ｽﾀｲﾙ1
 70
     0
 40
2.5
 41
1.0
 50
0.0
 71
     0
 42
2.5
  3
txt.shx
  4

  0
ENDTAB
  0
TABLE
  2
VIEW
  5
6
330
0
100
AcDbSymbolTable
 70
     0
  0
ENDTAB
  0
TABLE
  2
UCS
  5
7
330
0
100
AcDbSymbolTable
 70
     0
  0
ENDTAB
  0
TABLE
  2
APPID
  5
9
330
0
100
AcDbSymbolTable
 70
     1
  0
APPID
  5
12
330
9
100
AcDbSymbolTableRecord
100
AcDbRegAppTableRecord
  2
ACAD
 70
     0
  0
ENDTAB
  0
TABLE
  2
DIMSTYLE
  5
A
330
0
100
AcDbSymbolTable
 70
     3
100
AcDbDimStyleTable
 71
     1
340
27
  0
DIMSTYLE
105
27
102
{ACAD_REACTORS
330
A626
330
A66A
102
}
330
A
100
AcDbSymbolTableRecord
100
AcDbDimStyleTableRecord
  2
ISO-25
 70
     0
 41
5.0
 42
2.0
 43
3.75
 44
5.0
 73
     0
 74
     0
 77
     1
 78
     8
140
6.0
141
2.5
143
0.1
147
3.0
171
     3
172
     1
176
     7
177
     7
271
     2
272
     2
274
     3
283
     0
284
     8
340
11
371
     9
372
     9
  0
DIMSTYLE
105
AC
330
A
100
AcDbSymbolTableRecord
100
AcDbDimStyleTableRecord
  2
JIS
 70
     0
 41
2.5
 42
1.0
 43
7.0
 44
1.0
 73
     0
 74
     0
 77
     1
 78
     8
140
2.5
141
0.0
143
0.0394
147
0.0
172
     1
174
     1
175
     1
340
11
  0
DIMSTYLE
105
61DD
330
A
100
AcDbSymbolTableRecord
100
AcDbDimStyleTableRecord
  2
ｺﾋﾟｰ - ISO-25
 70
     0
 41
2.5
 42
0.625
 43
3.75
 44
1.25
 73
     0
 74
     0
 77
     1
 78
     8
140
2.5
141
2.5
143
0.03937007874016
147
0.625
171
     3
172
     1
271
     2
272
     2
274
     3
283
     0
284
     8
340
11
343
61D8
  0
ENDTAB
  0
TABLE
  2
BLOCK_RECORD
  5
1
330
0
100
AcDbSymbolTable
 70
     4
  0
BLOCK_RECORD
  5
1F
330
1
100
AcDbSymbolTableRecord
100
AcDbBlockTableRecord
  2
*Model_Space
340
22
  0
BLOCK_RECORD
  5
1B
330
1
100
AcDbSymbolTableRecord
100
AcDbBlockTableRecord
  2
*Paper_Space
340
1E
  0
BLOCK_RECORD
  5
23
330
1
100
AcDbSymbolTableRecord
100
AcDbBlockTableRecord
  2
*Paper_Space0
340
26
  0
BLOCK_RECORD
  5
61D8
330
1
100
AcDbSymbolTableRecord
100
AcDbBlockTableRecord
  2
_Dot
340
0
  0
BLOCK_RECORD
  5
A627
330
1
100
AcDbSymbolTableRecord
100
AcDbBlockTableRecord
  2
*D2
340
0
  0
BLOCK_RECORD
  5
A66B
330
1
100
AcDbSymbolTableRecord
100
AcDbBlockTableRecord
  2
*D3
340
0
  0
ENDTAB
  0
ENDSEC
  0
SECTION
  2
BLOCKS
  0
BLOCK
  5
20
330
1F
100
AcDbEntity
  8
0
100
AcDbBlockBegin
  2
*Model_Space
 70
     0
 10
0.0
 20
0.0
 30
0.0
  3
*Model_Space
  1

  0
ENDBLK
  5
21
330
1F
100
AcDbEntity
  8
0
100
AcDbBlockEnd
  0
BLOCK
  5
1C
330
1B
100
AcDbEntity
 67
     1
  8
0
100
AcDbBlockBegin
  2
*Paper_Space
 70
     0
 10
0.0
 20
0.0
 30
0.0
  3
*Paper_Space
  1

  0
ENDBLK
  5
1D
330
1B
100
AcDbEntity
 67
     1
  8
0
100
AcDbBlockEnd
  0
BLOCK
  5
24
330
23
100
AcDbEntity
  8
0
100
AcDbBlockBegin
  2
*Paper_Space0
 70
     0
 10
0.0
 20
0.0
 30
0.0
  3
*Paper_Space0
  1

  0
VIEWPORT
  5
922
330
23
100
AcDbEntity
  8
0
100
AcDbViewport
 10
0.0
 20
0.0
 30
0.0
 40
0.0
 41
0.0
 69
     0
 12
0.0
 22
0.0
 13
0.0
 23
0.0
 14
10.0
 24
10.0
 15
10.0
 25
10.0
 16
0.0
 26
0.0
 36
1.0
 17
0.0
 27
0.0
 37
0.0
 42
50.0
 43
0.0
 44
0.0
 45
0.0
 50
0.0
 51
0.0
 72
   100
 90
    32800
  1

281
     0
 71
     1
 74
     0
110
0.0
120
0.0
130
0.0
111
1.0
121
0.0
131
0.0
112
0.0
122
1.0
132
0.0
 79
     0
146
0.0
  0
VIEWPORT
  5
924
330
23
100
AcDbEntity
  8
0
100
AcDbViewport
 10
0.0
 20
0.0
 30
0.0
 40
0.0
 41
0.0
 69
     0
 12
8199.401833840978
 22
6162.095030619208
 13
0.0
 23
0.0
 14
10.0
 24
10.0
 15
10.0
 25
10.0
 16
0.0
 26
0.0
 36
1.0
 17
0.0
 27
0.0
 37
0.0
 42
50.0
 43
0.0
 44
0.0
 45
12844.48115925182
 50
0.0
 51
0.0
 72
   100
 90
    32864
  1

281
     0
 71
     1
 74
     0
110
0.0
120
0.0
130
0.0
111
1.0
121
0.0
131
0.0
112
0.0
122
1.0
132
0.0
 79
     0
146
0.0
  0
ENDBLK
  5
25
330
23
100
AcDbEntity
  8
0
100
AcDbBlockEnd
  0
BLOCK
  5
61DB
330
61D8
100
AcDbEntity
  8
0
100
AcDbBlockBegin
  2
_Dot
 70
     0
 10
0.0
 20
0.0
 30
0.0
  3
_Dot
  1

  0
LWPOLYLINE
  5
61D9
330
61D8
100
AcDbEntity
  8
0
 62
     0
100
AcDbPolyline
 90
        2
 70
     1
 43
0.5
 10
-0.25
 20
0.0
 42
1.0
 10
0.25
 20
0.0
 42
1.0
  0
LINE
  5
61DA
330
61D8
100
AcDbEntity
  8
0
 62
     0
370
    -2
100
AcDbLine
 10
-0.5
 20
0.0
 30
0.0
 11
-1.0
 21
0.0
 31
0.0
  0
ENDBLK
  5
61DC
330
61D8
100
AcDbEntity
  8
0
100
AcDbBlockEnd
  0
BLOCK
  5
A631
330
A627
100
AcDbEntity
  8
0
 62
     0
 48
0.5
100
AcDbBlockBegin
  2
*D2
 70
     1
 10
0.0
 20
0.0
 30
0.0
  3
*D2
  1

  0
LINE
  5
A647
330
A627
100
AcDbEntity
  8
0
 62
     7
 48
0.5
370
     9
100
AcDbLine
 10
590.7254596792636
 20
971.6304160498637
 30
0.0
 11
590.7254596792636
 21
982.0910464407534
 31
0.0
  0
LINE
  5
A648
330
A627
100
AcDbEntity
  8
0
 62
     7
 48
0.5
370
     9
100
AcDbLine
 10
630.7254596792636
 20
971.6304160498637
 30
0.0
 11
630.7254596792636
 21
982.0910464407534
 31
0.0
  0
LINE
  5
A649
330
A627
100
AcDbEntity
  8
0
 62
     7
 48
0.5
370
     9
100
AcDbLine
 10
595.7254596792636
 20
977.0910464407533
 30
0.0
 11
625.7254596792636
 21
977.0910464407533
 31
0.0
  0
SOLID
  5
A64A
330
A627
100
AcDbEntity
  8
0
 62
     7
 48
0.5
100
AcDbTrace
 10
595.7254596792636
 20
977.9243797740868
 30
0.0
 11
595.7254596792636
 21
976.25771310742
 31
0.0
 12
590.7254596792636
 22
977.0910464407533
 32
0.0
 13
590.7254596792636
 23
977.0910464407533
 33
0.0
  0
SOLID
  5
A64B
330
A627
100
AcDbEntity
  8
0
 62
     7
 48
0.5
100
AcDbTrace
 10
625.7254596792636
 20
977.9243797740868
 30
0.0
 11
625.7254596792636
 21
976.25771310742
 31
0.0
 12
630.7254596792636
 22
977.0910464407533
 32
0.0
 13
630.7254596792636
 23
977.0910464407533
 33
0.0
  0
MTEXT
  5
A64C
330
A627
100
AcDbEntity
  8
0
 62
     0
 48
0.5
100
AcDbMText
 10
610.7254596792635
 20
983.0910464407534
 30
0.0
 40
6.0
 41
0.0
 71
     5
 72
     1
  1
L
 73
     1
 44
1.0
  0
POINT
  5
A64D
330
A627
100
AcDbEntity
  8
Defpoints
 62
     0
 48
0.5
100
AcDbPoint
 10
590.7254596792636
 20
969.6304160498637
 30
0.0
  0
POINT
  5
A64E
330
A627
100
AcDbEntity
  8
Defpoints
 62
     0
 48
0.5
100
AcDbPoint
 10
630.7254596792636
 20
969.6304160498637
 30
0.0
  0
POINT
  5
A64F
330
A627
100
AcDbEntity
  8
Defpoints
 62
     0
 48
0.5
100
AcDbPoint
 10
630.7254596792636
 20
977.0910464407533
 30
0.0
  0
ENDBLK
  5
A632
330
A627
100
AcDbEntity
  8
0
 62
     0
 48
0.5
100
AcDbBlockEnd
  0
BLOCK
  5
A677
330
A66B
100
AcDbEntity
  8
0
 62
     0
 48
0.5
100
AcDbBlockBegin
  2
*D3
 70
     1
 10
0.0
 20
0.0
 30
0.0
  3
*D3
  1

  0
LINE
  5
A684
330
A66B
100
AcDbEntity
  8
0
 62
     7
 48
0.5
370
     9
100
AcDbLine
 10
588.7254596792636
 20
969.6304160498637
 30
0.0
 11
575.9848281263848
 21
969.6304160498637
 31
0.0
  0
LINE
  5
A685
330
A66B
100
AcDbEntity
  8
0
 62
     7
 48
0.5
370
     9
100
AcDbLine
 10
588.7254596792636
 20
959.6304160498638
 30
0.0
 11
575.9848281263848
 21
959.6304160498638
 31
0.0
  0
LINE
  5
A686
330
A66B
100
AcDbEntity
  8
0
 62
     7
 48
0.5
370
     9
100
AcDbLine
 10
580.9848281263848
 20
974.6304160498638
 30
0.0
 11
580.9848281263848
 21
979.6304160498637
 31
0.0
  0
LINE
  5
A687
330
A66B
100
AcDbEntity
  8
0
 62
     7
 48
0.5
370
     9
100
AcDbLine
 10
580.9848281263848
 20
954.6304160498637
 30
0.0
 11
580.9848281263848
 21
949.6304160498638
 31
0.0
  0
MTEXT
  5
A688
330
A66B
100
AcDbEntity
  8
0
 62
     0
 48
0.5
100
AcDbMText
 10
572.3223710966003
 20
964.2711593501507
 30
0.0
 40
6.0
 41
0.0
 71
     5
 72
     1
  1
%%c10
 11
0.0000000000000001
 21
1.0
 31
0.0
 73
     1
 44
1.0
  0
LINE
  5
A689
330
A66B
100
AcDbEntity
  8
0
 62
     7
 48
0.5
370
     9
100
AcDbLine
 10
580.9848281263848
 20
969.6304160498637
 30
0.0
 11
580.9848281263848
 21
959.6304160498638
 31
0.0
  0
SOLID
  5
A68A
330
A66B
100
AcDbEntity
  8
0
 62
     7
 48
0.5
100
AcDbTrace
 10
580.1514947930514
 20
974.6304160498638
 30
0.0
 11
581.8181614597182
 21
974.6304160498638
 31
0.0
 12
580.9848281263848
 22
969.6304160498637
 32
0.0
 13
580.9848281263848
 23
969.6304160498637
 33
0.0
  0
SOLID
  5
A68B
330
A66B
100
AcDbEntity
  8
0
 62
     7
 48
0.5
100
AcDbTrace
 10
580.1514947930514
 20
954.6304160498637
 30
0.0
 11
581.8181614597182
 21
954.6304160498637
 31
0.0
 12
580.9848281263848
 22
959.6304160498638
 32
0.0
 13
580.9848281263848
 23
959.6304160498638
 33
0.0
  0
POINT
  5
A68C
330
A66B
100
AcDbEntity
  8
Defpoints
 62
     0
 48
0.5
100
AcDbPoint
 10
590.7254596792636
 20
969.6304160498637
 30
0.0
  0
POINT
  5
A68D
330
A66B
100
AcDbEntity
  8
Defpoints
 62
     0
 48
0.5
100
AcDbPoint
 10
590.7254596792636
 20
959.6304160498638
 30
0.0
  0
POINT
  5
A68E
330
A66B
100
AcDbEntity
  8
Defpoints
 62
     0
 48
0.5
100
AcDbPoint
 10
580.9848281263848
 20
959.6304160498638
 30
0.0
  0
ENDBLK
  5
A678
330
A66B
100
AcDbEntity
  8
0
 62
     0
 48
0.5
100
AcDbBlockEnd
  0
ENDSEC
  0
SECTION
  2
ENTITIES
  0
LINE
  5
60DA
330
1F
100
AcDbEntity
  8
２
 62
     0
370
    20
100
AcDbLine
 10
-113.6069841392893
 20
817.5308658634676
 30
0.0
 11
682.3930158607106
 21
817.5308658634676
 31
0.0
  0
LINE
  5
60DB
330
1F
100
AcDbEntity
  8
２
 62
     0
 48
25.0
100
AcDbLine
 10
-113.6069841392893
 20
837.5308658634676
 30
0.0
 11
682.3930158607106
 21
837.5308658634676
 31
0.0
  0
LINE
  5
60DC
330
1F
100
AcDbEntity
  8
２
 62
     0
 48
25.0
100
AcDbLine
 10
-113.6069841392893
 20
837.5308658634676
 30
0.0
 11
682.3930158607106
 21
837.5308658634676
 31
0.0
  0
LINE
  5
60DD
330
1F
100
AcDbEntity
  8
0
 62
     0
 48
25.0
100
AcDbLine
 10
279.1215549150597
 20
837.5308658634676
 30
0.0
 11
318.4215549150597
 21
837.5308658634676
 31
0.0
  0
LINE
  5
60DE
330
1F
100
AcDbEntity
  8
２
 62
     0
370
    20
100
AcDbLine
 10
682.3930158607106
 20
817.5308658634676
 30
0.0
 11
-67.60698413928935
 21
817.5308658634678
 31
0.0
  0
LINE
  5
60DF
330
1F
100
AcDbEntity
  8
１
 62
     0
 48
25.0
100
AcDbLine
 10
-103.8208647361605
 20
827.5308658634676
 30
0.0
 11
173.6637676806376
 21
827.5308658634671
 31
0.0
  0
LINE
  5
60E0
330
1F
100
AcDbEntity
  8
１
 62
     0
 48
25.0
100
AcDbLine
 10
173.6637676806376
 20
822.5308658634673
 30
0.0
 11
-103.8208647361605
 21
822.5308658634672
 31
0.0
  0
LINE
  5
60E1
330
1F
100
AcDbEntity
  8
１
 62
     0
 48
25.0
100
AcDbLine
 10
173.6637676806376
 20
832.5308658634677
 30
0.0
 11
-103.8208647361605
 21
832.5308658634677
 31
0.0
  0
LINE
  5
60E2
330
1F
100
AcDbEntity
  8
0
 62
     0
100
AcDbLine
 10
-67.60698413928935
 20
817.5308658634676
 30
0.0
 11
-113.6069841392893
 21
817.5308658634676
 31
0.0
  0
LINE
  5
60E3
330
1F
100
AcDbEntity
  8
２
 62
     0
 48
25.0
100
AcDbLine
 10
-107.8208647361605
 20
837.5308658634676
 30
0.0
 11
-107.8208647361605
 21
817.5308658634676
 31
0.0
  0
LINE
  5
60E4
330
1F
100
AcDbEntity
  8
２
 62
     0
 48
25.0
100
AcDbLine
 10
-113.6069841392893
 20
817.5308658634676
 30
0.0
 11
-117.6069841392893
 21
817.5308658634676
 31
0.0
  0
LINE
  5
60E5
330
1F
100
AcDbEntity
  8
２
 62
     0
 48
25.0
100
AcDbLine
 10
-117.6069841392893
 20
817.6093089910487
 30
0.0
 11
-117.6069841392893
 21
817.5308658634676
 31
0.0
  0
LINE
  5
60E6
330
1F
100
AcDbEntity
  8
0
 62
     0
 48
25.0
100
AcDbLine
 10
-113.6069841392893
 20
837.5308658634676
 30
0.0
 11
-107.8208647361605
 21
837.5308658634676
 31
0.0
  0
MTEXT
  5
60E7
330
1F
100
AcDbEntity
  8
２
 62
     0
 48
25.0
100
AcDbMText
 10
-112.2139241392893
 20
827.5308658634678
 30
0.0
 40
4.5
 41
9.78612
 71
     5
 72
     5
  1
記\P事
 73
     1
 44
1.0
  0
LINE
  5
60E8
330
1F
100
AcDbEntity
  8
２
 62
     0
 48
25.0
100
AcDbLine
 10
-113.6069841392893
 20
837.5308658634676
 30
0.0
 11
-117.6069841392893
 21
837.5308658634676
 31
0.0
  0
LINE
  5
60E9
330
1F
100
AcDbEntity
  8
１
 62
     0
 48
25.0
100
AcDbLine
 10
-103.8208647361605
 20
822.5308658634672
 30
0.0
 11
-107.8208647361605
 21
822.5308658634672
 31
0.0
  0
LINE
  5
60EA
330
1F
100
AcDbEntity
  8
１
 62
     0
 48
25.0
100
AcDbLine
 10
-103.8208647361605
 20
827.5308658634676
 30
0.0
 11
-107.8208647361605
 21
827.5308658634676
 31
0.0
  0
LINE
  5
60EB
330
1F
100
AcDbEntity
  8
１
 62
     0
 48
25.0
100
AcDbLine
 10
-103.8208647361605
 20
832.5308658634677
 30
0.0
 11
-107.8208647361605
 21
832.5308658634677
 31
0.0
  0
LINE
  5
60EC
330
1F
100
AcDbEntity
  8
２
 62
     0
 48
25.0
100
AcDbLine
 10
173.6637676806376
 20
837.5308658634676
 30
0.0
 11
279.1215549150597
 21
837.5308658634676
 31
0.0
  0
LINE
  5
60ED
330
1F
100
AcDbEntity
  8
１
 62
     0
 48
25.0
100
AcDbLine
 10
173.6637676806376
 20
827.5308658634676
 30
0.0
 11
279.1215549150597
 21
827.5308658634676
 31
0.0
  0
MTEXT
  5
60EE
330
1F
100
AcDbEntity
  8
２
 62
     0
 48
25.0
100
AcDbMText
 10
193.3117526806377
 20
822.5308658634677
 30
0.0
 40
6.0
 41
39.296
 71
     5
 72
     5
  1
作図者
 73
     1
 44
1.0
  0
MTEXT
  5
60EF
330
1F
100
AcDbEntity
  8
２
 62
     0
 48
25.0
100
AcDbMText
 10
194.0347626806376
 20
832.5308658634677
 30
0.0
 40
6.0
 41
40.742
 71
     5
 72
     5
  1
作図日
 73
     1
 44
1.0
  0
LINE
  5
60F0
330
1F
100
AcDbEntity
  8
２
 62
     0
 48
25.0
100
AcDbLine
 10
173.6637676806376
 20
827.5308658634671
 30
0.0
 11
173.6637676806376
 21
817.5308658634676
 31
0.0
  0
LINE
  5
60F1
330
1F
100
AcDbEntity
  8
２
 62
     0
 48
25.0
100
AcDbLine
 10
173.6637676806376
 20
837.5308658634676
 30
0.0
 11
173.6637676806376
 21
817.5308658634676
 31
0.0
  0
LINE
  5
60F2
330
1F
100
AcDbEntity
  8
0
 62
     0
 48
25.0
100
AcDbLine
 10
173.6637676806376
 20
837.5308658634676
 30
0.0
 11
173.6637676806376
 21
827.5308658634676
 31
0.0
  0
LINE
  5
60F3
330
1F
100
AcDbEntity
  8
２
 62
     0
 48
25.0
100
AcDbLine
 10
212.9597354275438
 20
837.5308658634676
 30
0.0
 11
212.9597354275438
 21
817.5308658634676
 31
0.0
  0
LINE
  5
60F6
330
1F
100
AcDbEntity
  8
２
 62
     0
 48
25.0
100
AcDbLine
 10
279.1215549150597
 20
837.5308658634677
 30
0.0
 11
279.1215549150597
 21
817.5308658634678
 31
0.0
  0
LINE
  5
60F7
330
1F
100
AcDbEntity
  8
１
 62
     0
 48
25.0
100
AcDbLine
 10
318.4215549150597
 20
827.5308658634676
 30
0.0
 11
528.649591227999
 21
827.5308658634676
 31
0.0
  0
LINE
  5
60F8
330
1F
100
AcDbEntity
  8
0
 62
     0
 48
25.0
100
AcDbLine
 10
341.3965544355929
 20
837.5308658634676
 30
0.0
 11
460.2880544355928
 21
837.5308658634676
 31
0.0
  0
MTEXT
  5
60F9
330
1F
100
AcDbEntity
  8
２
 62
     0
 48
25.0
100
AcDbMText
 10
338.0715549150596
 20
822.5308658634677
 30
0.0
 40
6.0
 41
39.29999999999999
 71
     5
 72
     5
  1
図　　名
 73
     1
 44
1.0
  0
MTEXT
  5
60FA
330
1F
100
AcDbEntity
  8
２
 62
     0
 48
25.0
100
AcDbMText
 10
338.0715549150596
 20
832.5308658634677
 30
0.0
 40
6.0
 41
39.29999999999999
 71
     5
 72
     5
  1
物件名称
 73
     1
 44
1.0
  0
LINE
  5
60FB
330
1F
100
AcDbEntity
  8
0
 62
     0
 48
25.0
100
AcDbLine
 10
318.4215549150597
 20
837.5308658634676
 30
0.0
 11
357.7215549150596
 21
837.5308658634676
 31
0.0
  0
MTEXT
  5
60FC
330
1F
100
AcDbEntity
  8
２
 62
     0
 48
25.0
100
AcDbMText
 10
298.2565124150596
 20
827.5308658634678
 30
0.0
 40
4.5
 41
32.06989999999999
 71
     5
 72
     5
  1
Ｓ＝1/2
 73
     1
 44
1.0
  0
LINE
  5
60FD
330
1F
100
AcDbEntity
  8
２
 62
     0
 48
25.0
100
AcDbLine
 10
318.4215549150597
 20
837.5308658634676
 30
0.0
 11
318.4215549150597
 21
817.5308658634676
 31
0.0
  0
LINE
  5
60FE
330
1F
100
AcDbEntity
  8
0
 62
     0
 48
25.0
100
AcDbLine
 10
318.4215549150597
 20
837.5308658634676
 30
0.0
 11
318.4215549150597
 21
817.5308658634676
 31
0.0
  0
LINE
  5
60FF
330
1F
100
AcDbEntity
  8
２
 62
     0
 48
25.0
100
AcDbLine
 10
357.7215549150596
 20
837.5308658634676
 30
0.0
 11
357.7215549150596
 21
817.5308658634676
 31
0.0
  0
LINE
  5
6100
330
1F
100
AcDbEntity
  8
２
 62
     0
 48
25.0
100
AcDbLine
 10
528.649591227999
 20
837.5308658634676
 30
0.0
 11
528.649591227999
 21
817.5308658634676
 31
0.0
  0
MTEXT
  5
6101
330
1F
100
AcDbEntity
  8
２
 62
     0
 48
25.0
100
AcDbMText
 10
626.0641145896142
 20
827.5308658634678
 30
0.0
 40
6.0
 41
103.21335
 71
     5
 72
     5
  1
株式会社{\H1.25x; アルティマ}
 73
     1
 44
1.0
  0
ARC
  5
6102
330
1F
100
AcDbEntity
  8
Object
 62
     0
 48
0.3
100
AcDbCircle
 10
568.3681132541858
 20
824.3086653690383
 30
0.0
 40
4.049999999999999
100
AcDbArc
 50
180.0
 51
257.3448222610501
  0
LINE
  5
6103
102
{ACAD_REACTORS
330
6105
102
}
330
1F
100
AcDbEntity
  8
Object
 62
     0
 48
0.3
100
AcDbLine
 10
546.6185729416677
 20
834.8220867758399
 30
0.0
 11
549.3185729416677
 21
834.8220867758399
 31
0.0
  0
ARC
  5
6104
102
{ACAD_REACTORS
330
6105
102
}
330
1F
100
AcDbEntity
  8
Object
 62
     0
 48
0.3
100
AcDbCircle
 10
545.2685729416677
 20
824.29208677584
 30
0.0
 40
4.049999999999999
100
AcDbArc
 50
180.0
 51
0.0
  0
HATCH
  5
6105
330
1F
100
AcDbEntity
  8
Object
 62
     0
 48
0.3
100
AcDbHatch
 10
0.0
 20
0.0
 30
0.0
210
0.0
220
0.0
230
1.0
  2
ANSI31
 70
     0
 71
     1
 91
        1
 92
        1
 93
        8
 72
     1
 10
543.9185729416676
 20
834.8220867758399
 11
541.2185729416676
 21
834.8220867758399
 72
     1
 10
541.2185729416676
 20
834.8220867758399
 11
541.2185729416676
 21
824.29208677584
 72
     2
 10
545.2685729416677
 20
824.29208677584
 40
4.049999999999999
 50
180.0
 51
360.0
 73
     1
 72
     1
 10
549.3185729416677
 20
824.29208677584
 11
549.3185729416677
 21
834.8220867758399
 72
     1
 10
549.3185729416677
 20
834.8220867758399
 11
546.6185729416677
 21
834.8220867758399
 72
     1
 10
546.6185729416677
 20
834.8220867758399
 11
546.6185729416677
 21
824.29208677584
 72
     2
 10
545.2685729416677
 20
824.29208677584
 40
1.35
 50
360.0
 51
540.0
 73
     0
 72
     1
 10
543.9185729416676
 20
824.29208677584
 11
543.9185729416676
 21
834.8220867758399
 97
        8
330
610B
330
6106
330
6104
330
610D
330
6103
330
6108
330
6109
330
6107
 75
     0
 76
     1
 52
0.0
 41
0.01125
 77
     0
 78
     1
 53
45.0
 43
388.6807673218097
 44
717.6334720785245
 45
-0.025256970340507
 46
0.025256970340507
 79
     0
 98
        1
 10
388.6807673218097
 20
717.6334720785245
  0
LINE
  5
6106
102
{ACAD_REACTORS
330
6105
102
}
330
1F
100
AcDbEntity
  8
Object
 62
     0
 48
0.3
100
AcDbLine
 10
541.2185729416676
 20
824.29208677584
 30
0.0
 11
541.2185729416676
 21
834.8220867758399
 31
0.0
  0
LINE
  5
6107
102
{ACAD_REACTORS
330
6105
102
}
330
1F
100
AcDbEntity
  8
Object
 62
     0
 48
0.3
100
AcDbLine
 10
543.9185729416676
 20
834.8220867758399
 30
0.0
 11
543.9185729416676
 21
824.29208677584
 31
0.0
  0
LINE
  5
6108
102
{ACAD_REACTORS
330
6105
102
}
330
1F
100
AcDbEntity
  8
Object
 62
     0
 48
0.3
100
AcDbLine
 10
546.6185729416677
 20
834.8220867758399
 30
0.0
 11
546.6185729416677
 21
824.29208677584
 31
0.0
  0
ARC
  5
6109
102
{ACAD_REACTORS
330
6105
102
}
330
1F
100
AcDbEntity
  8
Object
 62
     0
 48
0.3
100
AcDbCircle
 10
545.2685729416677
 20
824.29208677584
 30
0.0
 40
1.35
100
AcDbArc
 50
180.0
 51
0.0
  0
LINE
  5
610A
330
1F
100
AcDbEntity
  8
Object
 62
     0
 48
0.3
100
AcDbLine
 10
541.2185729416676
 20
834.8220867758399
 30
0.0
 11
543.9185729416676
 21
834.8220867758399
 31
0.0
  0
LINE
  5
610B
102
{ACAD_REACTORS
330
6105
102
}
330
1F
100
AcDbEntity
  8
Object
 62
     0
 48
0.3
100
AcDbLine
 10
543.9185729416676
 20
834.8220867758399
 30
0.0
 11
541.2185729416676
 21
834.8220867758399
 31
0.0
  0
LINE
  5
610C
102
{ACAD_REACTORS
330
610F
102
}
330
1F
100
AcDbEntity
  8
Object
 62
     0
 48
0.3
100
AcDbLine
 10
556.5185729416677
 20
834.8220867758399
 30
0.0
 11
556.5185729416677
 21
822.9420867758401
 31
0.0
  0
LINE
  5
610D
102
{ACAD_REACTORS
330
6105
102
}
330
1F
100
AcDbEntity
  8
Object
 62
     0
 48
0.3
100
AcDbLine
 10
549.3185729416677
 20
834.8220867758399
 30
0.0
 11
549.3185729416677
 21
824.29208677584
 31
0.0
  0
LINE
  5
610E
102
{ACAD_REACTORS
330
610F
102
}
330
1F
100
AcDbEntity
  8
Object
 62
     0
 48
0.3
100
AcDbLine
 10
553.8185729416677
 20
834.8220867758399
 30
0.0
 11
553.8185729416677
 21
820.24208677584
 31
0.0
  0
HATCH
  5
610F
330
1F
100
AcDbEntity
  8
Object
 62
     0
 48
0.3
100
AcDbHatch
 10
0.0
 20
0.0
 30
0.0
210
0.0
220
0.0
230
1.0
  2
ANSI31
 70
     0
 71
     1
 91
        1
 92
        1
 93
        6
 72
     1
 10
553.8185729416677
 20
834.8220867758399
 11
556.5185729416677
 21
834.8220867758399
 72
     1
 10
556.5185729416677
 20
834.8220867758399
 11
556.5185729416677
 21
822.9420867758401
 72
     1
 10
556.5185729416677
 20
822.9420867758401
 11
561.9185729416677
 21
822.9420867758401
 72
     1
 10
561.9185729416677
 20
822.9420867758401
 11
561.9185729416677
 21
820.24208677584
 72
     1
 10
561.9185729416677
 20
820.24208677584
 11
553.8185729416677
 21
820.24208677584
 72
     1
 10
553.8185729416677
 20
820.24208677584
 11
553.8185729416677
 21
834.8220867758399
 97
        6
330
6113
330
610C
330
6112
330
6111
330
6110
330
610E
 75
     0
 76
     1
 52
0.0
 41
0.01125
 77
     0
 78
     1
 53
45.0
 43
388.6807673218097
 44
717.6334720785245
 45
-0.025256970340507
 46
0.025256970340507
 79
     0
 98
        1
 10
388.6807673218097
 20
717.6334720785245
  0
LINE
  5
6110
102
{ACAD_REACTORS
330
610F
102
}
330
1F
100
AcDbEntity
  8
Object
 62
     0
 48
0.3
100
AcDbLine
 10
553.8185729416677
 20
820.24208677584
 30
0.0
 11
561.9185729416677
 21
820.24208677584
 31
0.0
  0
LINE
  5
6111
102
{ACAD_REACTORS
330
610F
102
}
330
1F
100
AcDbEntity
  8
Object
 62
     0
 48
0.3
100
AcDbLine
 10
561.9185729416677
 20
820.24208677584
 30
0.0
 11
561.9185729416677
 21
822.9420867758401
 31
0.0
  0
LINE
  5
6112
102
{ACAD_REACTORS
330
610F
102
}
330
1F
100
AcDbEntity
  8
Object
 62
     0
 48
0.3
100
AcDbLine
 10
561.9185729416677
 20
822.9420867758401
 30
0.0
 11
556.5185729416677
 21
822.9420867758401
 31
0.0
  0
LINE
  5
6113
102
{ACAD_REACTORS
330
610F
102
}
330
1F
100
AcDbEntity
  8
Object
 62
     0
 48
0.3
100
AcDbLine
 10
553.8185729416677
 20
834.8220867758399
 30
0.0
 11
556.5185729416677
 21
834.8220867758399
 31
0.0
  0
LINE
  5
6114
330
1F
100
AcDbEntity
  8
Object
 62
     0
 48
0.3
100
AcDbLine
 10
572.4181132541859
 20
830.7720867758398
 30
0.0
 11
572.4181132541859
 21
829.2123630550754
 31
0.0
  0
LINE
  5
6115
330
1F
100
AcDbEntity
  8
Object
 62
     0
 48
0.3
100
AcDbLine
 10
567.0181132541858
 20
824.3086653690383
 30
0.0
 11
567.0181132541858
 21
830.7720867758398
 31
0.0
  0
LINE
  5
6116
330
1F
100
AcDbEntity
  8
Object
 62
     0
 48
0.3
100
AcDbLine
 10
564.3181132541858
 20
824.1537331999293
 30
0.0
 11
564.3181132541858
 21
830.7720867758398
 31
0.0
  0
LINE
  5
6117
330
1F
100
AcDbEntity
  8
Object
 62
     0
 48
0.3
100
AcDbLine
 10
569.7181132541859
 20
829.2123630550754
 30
0.0
 11
569.7181132541859
 21
830.7720867758398
 31
0.0
  0
LINE
  5
6118
330
1F
100
AcDbEntity
  8
Object
 62
     0
 48
0.3
100
AcDbLine
 10
567.0181132541858
 20
824.3086653690383
 30
0.0
 11
567.0181132541858
 21
830.7720867758398
 31
0.0
  0
HATCH
  5
6119
330
1F
100
AcDbEntity
  8
Object
 62
     0
 48
0.3
100
AcDbHatch
 10
0.0
 20
0.0
 30
0.0
210
0.0
220
0.0
230
1.0
  2
ANSI31
 70
     0
 71
     0
 91
        1
 92
        7
 72
     1
 73
     1
 93
       17
 10
567.0181132541858
 20
824.3086653690385
 42
0.0
 10
567.0181132541858
 20
830.77208677584
 42
-1.0
 10
569.7181132541859
 20
830.77208677584
 42
0.0
 10
569.7181132541859
 20
829.2123630550756
 42
0.0
 10
572.4181132541859
 20
829.2123630550756
 42
0.0
 10
572.4181132541859
 20
830.77208677584
 42
1.0
 10
564.3181132541858
 20
830.77208677584
 42
0.0
 10
564.3181132541858
 20
824.3086653690385
 42
0.3509045778193816
 10
567.4808271837385
 20
820.3570551365903
 42
0.4071999015487891
 10
569.7181132541859
 20
821.6727720151556
 42
0.0
 10
569.7181132541859
 20
820.24208677584
 42
0.0
 10
572.4181132541859
 20
820.24208677584
 42
0.0
 10
572.4181132541859
 20
827.58962883278
 42
0.0
 10
568.371917058751
 20
827.58962883278
 42
0.0
 10
568.3719170587507
 20
824.8896288327799
 42
0.0
 10
569.7181132541859
 20
824.8896288327799
 42
0.0
 10
569.7181132541859
 20
824.3086653690385
 42
-1.0
 97
        0
 75
     0
 76
     1
 52
0.0
 41
0.01125
 77
     0
 78
     1
 53
45.0
 43
388.6807673218097
 44
717.6334720785245
 45
-0.025256970340507
 46
0.025256970340507
 79
     0
 47
0.0407053698821989
 98
        1
 10
568.0942869891232
 20
822.1037355012922
  0
LINE
  5
611A
330
1F
100
AcDbEntity
  8
Object
 62
     0
 48
0.3
100
AcDbLine
 10
569.7181132541859
 20
829.2123630550754
 30
0.0
 11
572.4181132541859
 21
829.2123630550754
 31
0.0
  0
LINE
  5
611B
330
1F
100
AcDbEntity
  8
Object
 62
     0
 48
0.3
100
AcDbLine
 10
572.4181132541859
 20
827.5896288327798
 30
0.0
 11
568.371917058751
 21
827.5896288327798
 31
0.0
  0
LINE
  5
611C
330
1F
100
AcDbEntity
  8
Object
 62
     0
 48
0.3
100
AcDbLine
 10
569.7181132541859
 20
820.24208677584
 30
0.0
 11
572.4181132541859
 21
820.24208677584
 31
0.0
  0
LINE
  5
611D
330
1F
100
AcDbEntity
  8
Object
 62
     0
 48
0.3
100
AcDbLine
 10
572.4181132541859
 20
820.24208677584
 30
0.0
 11
569.7181132541859
 21
820.24208677584
 31
0.0
  0
LINE
  5
611E
330
1F
100
AcDbEntity
  8
Object
 62
     0
 48
0.3
100
AcDbLine
 10
568.371917058751
 20
827.5896288327798
 30
0.0
 11
568.371917058751
 21
824.8896288327799
 31
0.0
  0
LINE
  5
611F
330
1F
100
AcDbEntity
  8
Object
 62
     0
 48
0.3
100
AcDbLine
 10
568.371917058751
 20
824.8896288327799
 30
0.0
 11
569.7181132541859
 21
824.8896288327799
 31
0.0
  0
LINE
  5
6120
330
1F
100
AcDbEntity
  8
Object
 62
     0
 48
0.3
100
AcDbLine
 10
569.7181132541859
 20
824.3086653690383
 30
0.0
 11
569.7181132541859
 21
824.8896288327799
 31
0.0
  0
LINE
  5
6121
330
1F
100
AcDbEntity
  8
Object
 62
     0
 48
0.3
100
AcDbLine
 10
569.7181132541859
 20
824.8896288327799
 30
0.0
 11
569.7181132541859
 21
824.2651066341716
 31
0.0
  0
LINE
  5
6122
330
1F
100
AcDbEntity
  8
Object
 62
     0
 48
0.3
100
AcDbLine
 10
568.371917058751
 20
824.8896288327799
 30
0.0
 11
569.7181132541859
 21
824.8896288327799
 31
0.0
  0
LINE
  5
6123
330
1F
100
AcDbEntity
  8
Object
 62
     0
 48
0.3
100
AcDbLine
 10
569.7181132541859
 20
824.8896288327799
 30
0.0
 11
569.7181132541859
 21
824.3086653690383
 31
0.0
  0
ARC
  5
6124
330
1F
100
AcDbEntity
  8
Object
 62
     0
 48
0.3
100
AcDbCircle
 10
568.3681132541858
 20
824.3086653690383
 30
0.0
 40
1.35
100
AcDbArc
 50
180.0
 51
0.0
  0
ARC
  5
6125
330
1F
100
AcDbEntity
  8
Object
 62
     0
 48
0.3
100
AcDbCircle
 10
567.9256270136168
 20
822.1607376065174
 30
0.0
 40
1.857718315833298
100
AcDbArc
 50
256.1468978562146
 51
344.7714912032799
  0
LINE
  5
6126
330
1F
100
AcDbEntity
  8
Object
 62
     0
 48
0.3
100
AcDbLine
 10
569.7181132541859
 20
821.672772015151
 30
0.0
 11
569.7181132541859
 21
820.24208677584
 31
0.0
  0
LINE
  5
6127
330
1F
100
AcDbEntity
  8
Object
 62
     0
 48
0.3
100
AcDbLine
 10
572.4181132541859
 20
827.5896288327794
 30
0.0
 11
572.4181132541859
 21
820.24208677584
 31
0.0
  0
ARC
  5
6128
330
1F
100
AcDbEntity
  8
Object
 62
     0
 48
0.3
100
AcDbCircle
 10
568.3681132541858
 20
830.7720867758398
 30
0.0
 40
4.049999999999999
100
AcDbArc
 50
0.0
 51
180.0
  0
ARC
  5
6129
330
1F
100
AcDbEntity
  8
Object
 62
     0
 48
0.3
100
AcDbCircle
 10
568.3681132541858
 20
830.7720867758398
 30
0.0
 40
1.35
100
AcDbArc
 50
0.0
 51
180.0
  0
LINE
  5
612A
330
1F
100
AcDbEntity
  8
２
 62
     0
 48
25.0
100
AcDbLine
 10
-117.6069841392893
 20
817.5308658634676
 30
0.0
 11
682.3930158607106
 21
817.5308658634675
 31
0.0
  0
LINE
  5
61A6
330
1F
100
AcDbEntity
  8
２
 62
     0
 48
25.0
100
AcDbLine
 10
-117.6069841392893
 20
817.5308658634675
 30
0.0
 11
-117.6069841392893
 21
1367.530865863467
 31
0.0
  0
LINE
  5
61A7
330
1F
100
AcDbEntity
  8
２
 62
     0
 48
25.0
100
AcDbLine
 10
-117.6069841392893
 20
1367.530865863467
 30
0.0
 11
682.3930158607105
 21
1367.530865863467
 31
0.0
  0
LINE
  5
61A8
330
1F
100
AcDbEntity
  8
２
 62
     0
 48
25.0
100
AcDbLine
 10
682.3930158607105
 20
1367.530865863467
 30
0.0
 11
682.3930158607106
 21
817.5308658634675
 31
0.0
  0
MTEXT
  5
6487
330
1F
100
AcDbEntity
  8
４
 62
     0
 48
0.5
100
AcDbMText
 10
171.1613615566535
 20
820.0308658634675
 30
0.0
 40
2.5
 41
7.0048
 71
     5
 72
     5
  1
6
 73
     1
 44
1.0
  0
MTEXT
  5
805E
330
1F
100
AcDbEntity
  8
0
 48
0.5
100
AcDbMText
 10
29.16955816236122
 20
1035.5359660895
 30
0.0
 40
6.0
 41
20.438
 71
     9
 72
     1
  1

 73
     1
 44
1.0
  0
MTEXT
  5
8061
330
1F
100
AcDbEntity
  8
0
 48
0.5
100
AcDbMText
 10
18.39555542707603
 20
1011.50872061242
 30
0.0
 40
6.0
 41
20.438
 71
     9
 72
     1
  1

 73
     1
 44
1.0
  0
MTEXT
  5
9B28
330
1F
100
AcDbEntity
  8
0
 62
     0
 48
0.5
100
AcDbMText
 10
556.5686308083
 20
890.1573653792857
 30
0.0
 40
12.0
 41
0.0
 71
     1
 72
     5
  1
%%c4・%%c3傾斜部\P施工イメージ
 73
     1
 44
1.0
  0
MTEXT
  5
9D2C
330
1F
100
AcDbEntity
  8
0
 62
     0
 48
0.5
100
AcDbMText
 10
87.30455956487459
 20
1175.438614636807
 30
0.0
 40
6.0
 41
20.438
 71
     1
 72
     1
  1

 73
     1
 44
1.0
  0
MTEXT
  5
9D44
330
1F
100
AcDbEntity
  8
0
 62
     0
 48
0.5
100
AcDbMText
 10
345.383954115501
 20
1156.246194525093
 30
0.0
 40
6.0
 41
0.0
 71
     1
 72
     1
  1
M6ジョイント\P　　（孔径%%c7～8）
 73
     1
 44
1.0
  0
LINE
  5
9D4A
330
1F
100
AcDbEntity
  8
0
 62
     0
 48
0.5
100
AcDbLine
 10
11.70629152222409
 20
979.274711534525
 30
0.0
 11
11.70629152222409
 21
1039.651740662626
 31
0.0
  0
MTEXT
  5
9D4F
330
1F
100
AcDbEntity
  8
0
 62
     0
 48
0.5
100
AcDbMText
 10
44.29462412084513
 20
996.0579508718595
 30
0.0
 40
6.0
 41
0.0
 71
     1
 72
     1
  1
M6ボルト（孔径%%c7～8）
 73
     1
 44
1.0
  0
LINE
  5
9DB2
330
1F
100
AcDbEntity
  8
0
 62
     0
 48
0.5
100
AcDbLine
 10
11.70629152222409
 20
1041.251740662626
 30
0.0
 11
11.70629152222409
 21
1039.651740662626
 31
0.0
  0
LINE
  5
9DB3
330
1F
100
AcDbEntity
  8
0
 62
     0
 48
0.5
100
AcDbLine
 10
463.306291522224
 20
1201.703484469236
 30
0.0
 11
463.306291522224
 21
1091.703484469235
 31
0.0
  0
MTEXT
  5
9DBF
330
1F
100
AcDbEntity
  8
0
 62
     0
 48
0.5
100
AcDbMText
 10
195.8153348670703
 20
1073.45680019111
 30
0.0
 40
6.0
 41
0.0
 71
     1
 72
     1
  1
中間貫通部\P　（孔径は角度によります）
 73
     1
 44
1.0
  0
LINE
  5
9E04
330
1F
100
AcDbEntity
  8
0
 62
     0
 48
0.5
100
AcDbLine
 10
19.70629152222409
 20
1041.251740662626
 30
0.0
 11
19.70629152222409
 21
979.274711534525
 31
0.0
  0
LINE
  5
9E06
330
1F
100
AcDbEntity
  8
0
 62
     0
 48
0.5
100
AcDbLine
 10
11.70629152222409
 20
1041.251740662626
 30
0.0
 11
11.70629152222409
 21
979.2747115345253
 31
0.0
  0
ARC
  5
9E07
330
1F
100
AcDbEntity
  8
0
 62
     0
 48
0.5
100
AcDbCircle
 10
15.70629152222409
 20
1039.103525883309
 30
0.0
 40
4.540355353722197
100
AcDbArc
 50
28.23818630815503
 51
151.7618136918448
  0
LINE
  5
9E08
330
1F
100
AcDbEntity
  8
0
 62
     0
 48
0.5
100
AcDbLine
 10
455.3062915222239
 20
1204.903484469235
 30
0.0
 11
455.3062915222239
 21
1093.303484469235
 31
0.0
  0
LINE
  5
9E09
330
1F
100
AcDbEntity
  8
0
 62
     0
 48
0.5
100
AcDbLine
 10
463.306291522224
 20
1204.903484469235
 30
0.0
 11
463.306291522224
 21
1093.030534041601
 31
0.0
  0
LINE
  5
9E0A
330
1F
100
AcDbEntity
  8
0
 62
     0
 48
0.5
100
AcDbLine
 10
455.3062915222239
 20
1093.303484469235
 30
0.0
 11
455.3062915222239
 21
1203.303484469236
 31
0.0
  0
ARC
  5
9E0B
330
1F
100
AcDbEntity
  8
0
 62
     0
 48
0.5
100
AcDbCircle
 10
459.3062915222239
 20
1202.755269689919
 30
0.0
 40
4.540355353722197
100
AcDbArc
 50
28.23818630815503
 51
151.7618136918448
  0
LINE
  5
9E0C
330
1F
100
AcDbEntity
  8
0
 62
     0
 48
0.5
100
AcDbLine
 10
455.3062915222239
 20
1204.903484469235
 30
0.0
 11
455.3062915222239
 21
1203.303484469236
 31
0.0
  0
LINE
  5
9E13
330
1F
100
AcDbEntity
  8
0
 62
     0
 48
0.5
100
AcDbLine
 10
158.2479233123437
 20
1119.586998225212
 30
0.0
 11
158.2479233123437
 21
1011.04509886702
 31
0.0
  0
LINE
  5
9E14
330
1F
100
AcDbEntity
  8
0
 62
     0
 48
0.5
100
AcDbLine
 10
166.2479233123436
 20
1119.586998225212
 30
0.0
 11
166.2479233123436
 21
1011.04509886702
 31
0.0
  0
LINE
  5
9E15
330
1F
100
AcDbEntity
  8
0
 62
     0
 48
0.5
100
AcDbLine
 10
158.2479233123437
 20
1011.04509886702
 30
0.0
 11
158.2479233123437
 21
1117.986998225212
 31
0.0
  0
ARC
  5
9E16
330
1F
100
AcDbEntity
  8
0
 62
     0
 48
0.5
100
AcDbCircle
 10
162.2479233123437
 20
1117.438783445896
 30
0.0
 40
4.540355353722197
100
AcDbArc
 50
28.23818630815503
 51
151.7618136918448
  0
LINE
  5
9E17
330
1F
100
AcDbEntity
  8
0
 62
     0
 48
0.5
100
AcDbLine
 10
158.2479233123437
 20
1119.586998225212
 30
0.0
 11
158.2479233123437
 21
1117.986998225212
 31
0.0
  0
LINE
  5
9E18
330
1F
100
AcDbEntity
  8
0
 62
     0
 48
0.5
100
AcDbLine
 10
307.7931964646652
 20
1093.303484469235
 30
0.0
 11
307.7931964646652
 21
1148.90980908357
 31
0.0
  0
LINE
  5
9E19
330
1F
100
AcDbEntity
  8
0
 62
     0
 48
0.5
100
AcDbLine
 10
315.7931964646652
 20
1204.903484469235
 30
0.0
 11
315.7931964646652
 21
1182.706067620419
 31
0.0
  0
LINE
  5
9E1A
330
1F
100
AcDbEntity
  8
0
 62
     0
 48
0.5
100
AcDbLine
 10
307.7931964646652
 20
1204.903484469235
 30
0.0
 11
307.7931964646652
 21
1182.706067620419
 31
0.0
  0
ARC
  5
9E1B
330
1F
100
AcDbEntity
  8
0
 62
     0
 48
0.5
100
AcDbCircle
 10
311.7931964646652
 20
1202.755269689919
 30
0.0
 40
4.540355353722197
100
AcDbArc
 50
28.23818630815503
 51
151.7618136918448
  0
LINE
  5
9E1C
330
1F
100
AcDbEntity
  8
0
 62
     0
 48
0.5
100
AcDbLine
 10
307.7931964646652
 20
1204.903484469235
 30
0.0
 11
307.7931964646652
 21
1203.303484469236
 31
0.0
  0
LINE
  5
9E30
330
1F
100
AcDbEntity
  8
0
 62
     0
 48
0.5
100
AcDbLine
 10
11.70629152222409
 20
1039.651740662626
 30
0.0
 11
19.70629152222409
 21
1039.651740662626
 31
0.0
  0
LINE
  5
9E31
330
1F
100
AcDbEntity
  8
0
 62
     0
 48
0.5
100
AcDbLine
 10
158.2479233123437
 20
1117.986998225212
 30
0.0
 11
166.2479233123436
 21
1117.986998225212
 31
0.0
  0
LINE
  5
9E32
330
1F
100
AcDbEntity
  8
0
 62
     0
 48
0.5
100
AcDbLine
 10
455.3062915222239
 20
1201.703484469236
 30
0.0
 11
463.3062915222239
 21
1201.703484469236
 31
0.0
  0
LINE
  5
9E33
330
1F
100
AcDbEntity
  8
0
 62
     0
 48
0.5
100
AcDbLine
 10
307.7931964646652
 20
1203.303484469236
 30
0.0
 11
315.7931964646652
 21
1203.303484469236
 31
0.0
  0
LINE
  5
9EBF
330
1F
100
AcDbEntity
  8
0
 62
     0
 48
0.5
100
AcDbLine
 10
11.70629152222409
 20
1040.851740662626
 30
0.0
 11
19.70629152222409
 21
1040.851740662626
 31
0.0
  0
LINE
  5
9EC0
330
1F
100
AcDbEntity
  8
0
 62
     0
 48
0.5
100
AcDbLine
 10
158.2479233123437
 20
1119.186998225212
 30
0.0
 11
166.2479233123436
 21
1119.186998225212
 31
0.0
  0
LINE
  5
9EC1
330
1F
100
AcDbEntity
  8
0
 62
     0
 48
0.5
100
AcDbLine
 10
307.7931964646652
 20
1204.503484469236
 30
0.0
 11
315.7931964646652
 21
1204.503484469236
 31
0.0
  0
LINE
  5
9EC2
330
1F
100
AcDbEntity
  8
0
 62
     0
 48
0.5
100
AcDbLine
 10
455.3062915222239
 20
1202.903484469236
 30
0.0
 11
463.3062915222239
 21
1202.903484469236
 31
0.0
  0
MTEXT
  5
A05E
330
1F
100
AcDbEntity
  8
0
 62
     0
 48
0.5
100
AcDbMText
 10
570.0244892221682
 20
944.2497110265145
 30
0.0
 40
6.0
 41
0.0
 71
     1
 72
     1
  1
　　　L=支柱寸法
 73
     1
 44
1.0
  0
MTEXT
  5
A05F
330
1F
100
AcDbEntity
  8
0
 62
     0
 48
0.5
100
AcDbMText
 10
566.214819430643
 20
996.9892206943773
 30
0.0
 40
6.0
 41
0.0
 71
     1
 72
     1
  1
貫通部ワイヤー保護パイプ
 73
     1
 44
1.0
  0
LINE
  5
A077
330
1F
100
AcDbEntity
  8
0
 62
     0
 48
0.5
100
AcDbLine
 10
315.7931964646652
 20
1148.90980908357
 30
0.0
 11
315.7931964646652
 21
1093.030534041601
 31
0.0
  0
LINE
  5
A079
330
1F
100
AcDbEntity
  8
0
 62
     0
 48
0.5
100
AcDbLine
 10
307.7931964646652
 20
1148.90980908357
 30
0.0
 11
307.7931964646652
 21
1093.303484469235
 31
0.0
  0
LINE
  5
A097
330
1F
100
AcDbEntity
  8
0
 62
     0
 48
0.5
100
AcDbLine
 10
307.7931964646652
 20
1163.030304538952
 30
0.0
 11
307.7931964646652
 21
1152.466145135946
 31
0.0
  0
LINE
  5
A098
330
1F
100
AcDbEntity
  8
0
 62
     0
 48
0.5
100
AcDbLine
 10
315.7931964646652
 20
1163.030304538952
 30
0.0
 11
315.7931964646652
 21
1152.466145135946
 31
0.0
  0
LINE
  5
A09A
330
1F
100
AcDbEntity
  8
0
 62
     0
 48
0.5
100
AcDbLine
 10
307.7931964646652
 20
1182.706067620419
 30
0.0
 11
307.7931964646652
 21
1203.303484469236
 31
0.0
  0
LINE
  5
A0D0
330
1F
100
AcDbEntity
  8
0
 62
     0
 48
0.5
100
AcDbLine
 10
307.7931964646652
 20
1129.473968486576
 30
0.0
 11
307.7931964646652
 21
1118.90980908357
 31
0.0
  0
LINE
  5
A0DA
330
1F
100
AcDbEntity
  8
0
 62
     0
 48
0.5
100
AcDbLine
 10
315.7931964646652
 20
1129.473968486576
 30
0.0
 11
315.7931964646652
 21
1118.90980908357
 31
0.0
  0
LINE
  5
A304
330
1F
100
AcDbEntity
  8
0
 62
     0
 48
0.5
100
AcDbLine
 10
307.7931964646652
 20
1152.466145135946
 30
0.0
 11
307.7931964646652
 21
1148.90980908357
 31
0.0
  0
LINE
  5
A305
330
1F
100
AcDbEntity
  8
0
 62
     0
 48
0.5
100
AcDbLine
 10
315.7931964646652
 20
1152.466145135946
 30
0.0
 11
315.7931964646652
 21
1148.90980908357
 31
0.0
  0
LINE
  5
A400
330
1F
100
AcDbEntity
  8
0
 62
     0
 48
0.5
100
AcDbLine
 10
455.3062915222239
 20
1093.303484469235
 30
0.0
 11
455.3062915222239
 21
1048.842281874166
 31
0.0
  0
LINE
  5
A401
330
1F
100
AcDbEntity
  8
0
 62
     0
 48
0.5
100
AcDbLine
 10
463.306291522224
 20
1091.703484469235
 30
0.0
 11
463.3062915222239
 21
1048.842281874166
 31
0.0
  0
LINE
  5
A402
330
1F
100
AcDbEntity
  8
0
 62
     0
 48
0.5
100
AcDbLine
 10
315.7931964646652
 20
1093.030534041601
 30
0.0
 11
315.7931964646652
 21
1048.842281874167
 31
0.0
  0
LINE
  5
A403
330
1F
100
AcDbEntity
  8
0
 62
     0
 48
0.5
100
AcDbLine
 10
307.7931964646652
 20
1093.303484469235
 30
0.0
 11
307.7931964646652
 21
1048.842281874166
 31
0.0
  0
LINE
  5
A404
330
1F
100
AcDbEntity
  8
0
 62
     0
 48
0.5
100
AcDbLine
 10
166.2479233123436
 20
1013.015392340114
 30
0.0
 11
166.2479233123436
 21
1011.04509886702
 31
0.0
  0
LINE
  5
A407
330
1F
100
AcDbEntity
  8
0
 62
     0
 48
0.5
100
AcDbLine
 10
307.7931964646652
 20
1187.017894352035
 30
0.0
 11
307.7931964646652
 21
1163.030304538952
 31
0.0
  0
LINE
  5
A408
330
1F
100
AcDbEntity
  8
0
 62
     0
 48
0.5
100
AcDbLine
 10
315.7931964646652
 20
1182.706067620419
 30
0.0
 11
315.7931964646652
 21
1163.030304538952
 31
0.0
  0
LINE
  5
A4C9
330
1F
100
AcDbEntity
  8
0
 62
     0
 48
0.5
100
AcDbLine
 10
315.7931964646652
 20
1179.727232498794
 30
0.0
 11
315.7931964646652
 21
1178.527232498794
 31
0.0
  0
LINE
  5
A4CA
330
1F
100
AcDbEntity
  8
0
 62
     0
 48
0.5
100
AcDbLine
 10
315.7931964646652
 20
1177.327232498795
 30
0.0
 11
315.8931964646651
 21
1177.227232498794
 31
0.0
  0
LINE
  5
A4CB
330
1F
100
AcDbEntity
  8
0
 62
     0
 48
0.5
100
AcDbLine
 10
315.7931964646652
 20
1180.927232498794
 30
0.0
 11
315.8931964646651
 21
1181.027232498794
 31
0.0
  0
LINE
  5
A4CC
330
1F
100
AcDbEntity
  8
0
 62
     0
 48
0.5
100
AcDbLine
 10
315.7931964646652
 20
1177.327232498795
 30
0.0
 11
315.7931964646652
 21
1180.927232498794
 31
0.0
  0
LINE
  5
A4CD
330
1F
100
AcDbEntity
  8
0
 62
     0
 48
0.5
100
AcDbLine
 10
315.7931964646652
 20
1179.127232498794
 30
0.0
 11
315.7931964646652
 21
1179.727232498794
 31
0.0
  0
LEADER
  5
A540
330
1F
100
AcDbEntity
  8
0
 62
     0
 48
0.5
100
AcDbLeader
  3
ISO-25
 73
     0
 40
6.0
 76
     3
 10
11.70629152222409
 20
1018.943354598383
 30
0.0
 10
39.67208155537537
 20
992.5005551907311
 30
0.0
 10
42.0534634163414
 20
992.5005551907311
 30
0.0
340
A541
213
0.0
223
-3.0
233
0.0
1001
ACAD
1000
DSTYLE
1002
{
1070
   147
1040
3.0
1070
    77
1070
     0
1002
}
  0
MTEXT
  5
A541
102
{ACAD_REACTORS
330
A540
102
}
330
1F
100
AcDbEntity
  8
0
 62
     0
 48
0.5
100
AcDbMText
 10
45.05346341634139
 20
995.500555190731
 30
0.0
 40
6.0
 41
20.438
 71
     1
 72
     1
  1

 73
     1
 44
1.0
  0
LEADER
  5
A542
330
1F
100
AcDbEntity
  8
0
 62
     0
 48
0.5
100
AcDbLeader
  3
ISO-25
 40
6.0
 76
     3
 10
162.5097138714309
 20
1096.501866293803
 30
0.0
 10
190.4755039045821
 20
1070.059066886151
 30
0.0
 10
192.8568857655482
 20
1070.059066886151
 30
0.0
213
0.0
223
-3.0
233
0.0
1001
ACAD
1000
DSTYLE
1002
{
1070
   147
1040
3.0
1070
    77
1070
     0
1002
}
  0
LEADER
  5
A543
330
1F
100
AcDbEntity
  8
0
 62
     0
 48
0.5
100
AcDbLeader
  3
ISO-25
 40
6.0
 76
     3
 10
312.0322009501605
 20
1178.727993032085
 30
0.0
 10
339.9979909833118
 20
1152.285193624432
 30
0.0
 10
342.3793728442778
 20
1152.285193624432
 30
0.0
213
0.0
223
-3.0
233
0.0
1001
ACAD
1000
DSTYLE
1002
{
1070
   147
1040
3.0
1070
    77
1070
     0
1002
}
  0
LWPOLYLINE
  5
A58A
330
1F
100
AcDbEntity
  8
0
 62
     0
 48
0.5
100
AcDbPolyline
 90
        4
 70
     1
 43
0.0
 10
69.21641548332075
 20
1081.512729323939
 10
106.1095398608058
 20
1081.512729323939
 10
106.1095398608058
 20
1070.948569920932
 10
69.21641548332075
 20
1070.948569920932
  0
MTEXT
  5
A58B
330
1F
100
AcDbEntity
  8
0
 62
     0
 48
0.5
100
AcDbMText
 10
73.83970476728319
 20
1079.367093372599
 30
0.0
 40
6.0
 41
70.4722
 71
     1
 72
     5
  1
4C-1N
 73
     1
 44
1.0
  0
MTEXT
  5
A58C
330
1F
100
AcDbEntity
  8
0
 62
     0
 48
0.5
100
AcDbMText
 10
370.9842333043669
 20
1195.75930645724
 30
0.0
 40
6.0
 41
70.4722
 71
     1
 72
     5
  1
4A-1N
 73
     1
 44
1.0
  0
LWPOLYLINE
  5
A58D
330
1F
100
AcDbEntity
  8
0
 62
     0
 48
0.5
100
AcDbPolyline
 90
        4
 70
     1
 43
0.0
 10
366.3609440204044
 20
1197.90494240858
 10
403.2540683978894
 20
1197.90494240858
 10
403.2540683978894
 20
1187.340783005573
 10
366.3609440204044
 20
1187.340783005573
  0
LINE
  5
A5C0
330
1F
100
AcDbEntity
  8
Object
 62
     0
 48
0.3
100
AcDbLine
 10
590.7254596792636
 20
969.6304160498637
 30
0.0
 11
630.7254596792636
 21
969.6304160498637
 31
0.0
  0
LINE
  5
A5C1
330
1F
100
AcDbEntity
  8
0
 62
     0
 48
0.3
100
AcDbLine
 10
590.7254596792636
 20
969.6304160498637
 30
0.0
 11
630.7254596792636
 21
969.6304160498637
 31
0.0
  0
LINE
  5
A5C2
330
1F
100
AcDbEntity
  8
Hidden
 62
     0
 48
0.3
100
AcDbLine
 10
590.7254596792636
 20
969.1304160498638
 30
0.0
 11
630.7254596792636
 21
969.1304160498638
 31
0.0
  0
LINE
  5
A5C3
330
1F
100
AcDbEntity
  8
Object
 62
     0
 48
0.3
100
AcDbLine
 10
630.7254596792636
 20
959.6304160498638
 30
0.0
 11
590.7254596792636
 21
959.6304160498638
 31
0.0
  0
LINE
  5
A5C4
330
1F
100
AcDbEntity
  8
Hidden
 62
     0
 48
0.3
100
AcDbLine
 10
630.7254596792636
 20
960.1304160498639
 30
0.0
 11
590.7254596792636
 21
960.1304160498639
 31
0.0
  0
LINE
  5
A5C5
330
1F
100
AcDbEntity
  8
Object
 62
     0
 48
0.3
100
AcDbLine
 10
588.8754596792636
 20
970.1304160498638
 30
0.0
 11
588.8754596792636
 21
959.1304160498637
 31
0.0
  0
LINE
  5
A5C6
330
1F
100
AcDbEntity
  8
Object
 62
     0
 48
0.3
100
AcDbLine
 10
590.7254596792636
 20
969.6304160498637
 30
0.0
 11
590.7254596792636
 21
959.6304160498638
 31
0.0
  0
LINE
  5
A5C7
330
1F
100
AcDbEntity
  8
Object
 62
     0
 48
0.3
100
AcDbLine
 10
590.7254596792636
 20
960.0304160498637
 30
0.0
 11
590.7254596792636
 21
969.2304160498636
 31
0.0
  0
LINE
  5
A5C9
330
1F
100
AcDbEntity
  8
Object
 62
     0
 48
0.3
100
AcDbLine
 10
590.7254596792636
 20
958.1304160498637
 30
0.0
 11
590.7254596792636
 21
960.0304160498637
 31
0.0
  0
ARC
  5
A5CA
330
1F
100
AcDbEntity
  8
Object
 62
     0
 48
0.3
100
AcDbCircle
 10
589.8754596792636
 20
959.1304160498637
 30
0.0
 40
1.0
100
AcDbArc
 50
180.0
 51
270.0
  0
LINE
  5
A5CB
330
1F
100
AcDbEntity
  8
Object
 62
     0
 48
0.3
100
AcDbLine
 10
589.8754596792636
 20
958.1304160498637
 30
0.0
 11
590.7254596792636
 21
958.1304160498637
 31
0.0
  0
ARC
  5
A5CD
330
1F
100
AcDbEntity
  8
Object
 62
     0
 48
0.3
100
AcDbCircle
 10
589.8754596792636
 20
970.1304160498638
 30
0.0
 40
1.0
100
AcDbArc
 50
90.0
 51
180.0
  0
LINE
  5
A5CE
330
1F
100
AcDbEntity
  8
Object
 62
     0
 48
0.3
100
AcDbLine
 10
590.7254596792636
 20
971.1304160498638
 30
0.0
 11
589.8754596792636
 21
971.1304160498638
 31
0.0
  0
LINE
  5
A5CF
330
1F
100
AcDbEntity
  8
Object
 62
     0
 48
0.3
100
AcDbLine
 10
590.7254596792636
 20
964.6304160498639
 30
0.0
 11
590.7254596792636
 21
971.1304160498638
 31
0.0
  0
LINE
  5
A5D0
330
1F
100
AcDbEntity
  8
Object
 62
     0
 48
0.3
100
AcDbLine
 10
642.6001406198199
 20
964.6304160498639
 30
0.0
 11
642.6001406198199
 21
958.1304160498637
 31
0.0
  0
LINE
  5
A5D1
330
1F
100
AcDbEntity
  8
Object
 62
     0
 48
0.3
100
AcDbLine
 10
642.6001406198199
 20
969.2304160498638
 30
0.0
 11
642.6001406198199
 21
960.0304160498637
 31
0.0
  0
LINE
  5
A5D2
330
1F
100
AcDbEntity
  8
Object
 62
     0
 48
0.3
100
AcDbLine
 10
644.4501406198201
 20
959.1304160498637
 30
0.0
 11
644.4501406198201
 21
970.1304160498638
 31
0.0
  0
LINE
  5
A5D3
330
1F
100
AcDbEntity
  8
0
 62
     0
 48
0.3
100
AcDbLine
 10
632.60014061982
 20
969.0804160498638
 30
0.0
 11
632.60014061982
 21
960.1804160498639
 31
0.0
  0
LINE
  5
A5D4
330
1F
100
AcDbEntity
  8
Object
 62
     0
 48
0.3
100
AcDbLine
 10
632.60014061982
 20
969.0804160498638
 30
0.0
 11
632.60014061982
 21
960.1804160498639
 31
0.0
  0
HATCH
  5
A5D5
330
1F
100
AcDbEntity
  8
0
 62
     0
 48
0.3
100
AcDbHatch
 10
0.0
 20
0.0
 30
0.0
210
0.0
220
0.0
230
1.0
  2
ANSI31
 70
     0
 71
     0
 91
        1
 92
        7
 72
     0
 73
     1
 93
        4
 10
635.6001406198199
 20
969.0804160498638
 10
632.60014061982
 20
969.0804160498638
 10
632.60014061982
 20
960.1804160498639
 10
635.6001406198199
 20
960.1804160498639
 97
        0
 75
     0
 76
     1
 52
0.0
 41
0.5
 77
     0
 78
     1
 53
45.0
 43
394.7007955372275
 44
799.5278488887513
 45
-1.122532015133643
 46
1.122532015133644
 79
     0
 47
0.0842856864813277
 98
        1
 10
633.6053896116188
 20
964.4325502577761
  0
LINE
  5
A5D6
330
1F
100
AcDbEntity
  8
Object
 62
     0
 48
0.3
100
AcDbLine
 10
642.6001406198199
 20
960.0304160498637
 30
0.0
 11
638.6001406198199
 21
960.0304160498637
 31
0.0
  0
LINE
  5
A5D7
330
1F
100
AcDbEntity
  8
Object
 62
     0
 48
0.3
100
AcDbLine
 10
635.6001406198199
 20
960.1804160498639
 30
0.0
 11
638.6001406198199
 21
960.0304160498637
 31
0.0
  0
LINE
  5
A5D8
330
1F
100
AcDbEntity
  8
0
 62
     0
 48
0.3
100
AcDbLine
 10
632.60014061982
 20
960.1804160498639
 30
0.0
 11
635.6001406198199
 21
960.1804160498639
 31
0.0
  0
LINE
  5
A5D9
330
1F
100
AcDbEntity
  8
Object
 62
     0
 48
0.3
100
AcDbLine
 10
632.60014061982
 20
960.1804160498639
 30
0.0
 11
635.6001406198199
 21
960.1804160498639
 31
0.0
  0
LINE
  5
A5DB
330
1F
100
AcDbEntity
  8
0
 62
     0
 48
0.3
100
AcDbLine
 10
630.7254596792636
 20
960.1304160498639
 30
0.0
 11
630.7254596792636
 21
959.6304160498638
 31
0.0
  0
ARC
  5
A5DC
330
1F
100
AcDbEntity
  8
Object
 62
     0
 48
0.3
100
AcDbCircle
 10
643.4501406198201
 20
959.1304160498637
 30
0.0
 40
1.0
100
AcDbArc
 50
270.0
 51
0.0
  0
LINE
  5
A5DD
330
1F
100
AcDbEntity
  8
Object
 62
     0
 48
0.3
100
AcDbLine
 10
642.6001406198199
 20
958.1304160498637
 30
0.0
 11
643.4501406198201
 21
958.1304160498637
 31
0.0
  0
LINE
  5
A5DE
330
1F
100
AcDbEntity
  8
Object
 62
     0
 48
0.3
100
AcDbLine
 10
642.6001406198199
 20
969.2304160498638
 30
0.0
 11
638.6001406198199
 21
969.2304160498638
 31
0.0
  0
LINE
  5
A5DF
330
1F
100
AcDbEntity
  8
Object
 62
     0
 48
0.3
100
AcDbLine
 10
635.6001406198199
 20
969.0804160498638
 30
0.0
 11
638.6001406198199
 21
969.2304160498638
 31
0.0
  0
LINE
  5
A5E0
330
1F
100
AcDbEntity
  8
0
 62
     0
 48
0.3
100
AcDbLine
 10
635.6001406198199
 20
969.0804160498638
 30
0.0
 11
632.60014061982
 21
969.0804160498638
 31
0.0
  0
LINE
  5
A5E1
330
1F
100
AcDbEntity
  8
Object
 62
     0
 48
0.3
100
AcDbLine
 10
632.60014061982
 20
969.0804160498638
 30
0.0
 11
635.6001406198199
 21
969.0804160498638
 31
0.0
  0
LINE
  5
A5E3
330
1F
100
AcDbEntity
  8
0
 62
     0
 48
0.3
100
AcDbLine
 10
630.7254596792636
 20
969.6304160498637
 30
0.0
 11
630.7254596792636
 21
969.1304160498638
 31
0.0
  0
ARC
  5
A5E4
330
1F
100
AcDbEntity
  8
Object
 62
     0
 48
0.3
100
AcDbCircle
 10
643.4501406198201
 20
970.1304160498638
 30
0.0
 40
1.0
100
AcDbArc
 50
0.0
 51
90.0
  0
LINE
  5
A5E5
330
1F
100
AcDbEntity
  8
Object
 62
     0
 48
0.3
100
AcDbLine
 10
642.6001406198199
 20
971.1304160498638
 30
0.0
 11
642.6001406198199
 21
969.2304160498638
 31
0.0
  0
LINE
  5
A5E6
330
1F
100
AcDbEntity
  8
Object
 62
     0
 48
0.3
100
AcDbLine
 10
643.4501406198201
 20
971.1304160498638
 30
0.0
 11
642.6001406198199
 21
971.1304160498638
 31
0.0
  0
DIMENSION
  5
A626
330
1F
100
AcDbEntity
  8
0
 62
     0
 48
0.5
100
AcDbDimension
  2
*D2
 10
630.7254596792636
 20
977.0910464407533
 30
0.0
 11
610.7254596792635
 21
983.0910464407534
 31
0.0
 70
    33
  1
L
 71
     5
 42
40.0
  3
ISO-25
100
AcDbAlignedDimension
 13
590.7254596792636
 23
969.6304160498637
 33
0.0
 14
630.7254596792636
 24
969.6304160498637
 34
0.0
  0
DIMENSION
  5
A66A
330
1F
100
AcDbEntity
  8
0
 62
     0
 48
0.5
100
AcDbDimension
  2
*D3
 10
580.9848281263848
 20
959.6304160498638
 30
0.0
 11
572.3223710966003
 21
964.2711593501507
 31
0.0
 70
   161
  1
%%c10
 71
     5
 42
10.0
  3
ISO-25
100
AcDbAlignedDimension
 13
590.7254596792636
 23
969.6304160498637
 33
0.0
 14
590.7254596792636
 24
959.6304160498638
 34
0.0
1001
ACAD
1000
DSTYLE
1002
{
1070
   279
1070
     2
1002
}
  0
LWPOLYLINE
  5
A68F
330
1F
100
AcDbEntity
  8
0
 62
     0
 48
0.5
100
AcDbPolyline
 90
        4
 70
     1
 43
0.0
 10
557.4649156082482
 20
1009.130723344929
 10
658.2781826837104
 20
1009.130723344929
 10
658.2781826837104
 20
928.8537521321604
 10
557.4649156082482
 20
928.8537521321604
  0
LINE
  5
A6F4
330
1F
100
AcDbEntity
  8
0
 62
     0
 48
0.5
100
AcDbLine
 10
291.9037417628241
 20
1170.489967758502
 30
0.0
 11
290.363741762824
 21
1173.157326002158
 31
0.0
  0
LINE
  5
A6F5
330
1F
100
AcDbEntity
  8
0
 62
     0
 48
0.5
100
AcDbLine
 10
303.1920720120217
 20
1176.938006234274
 30
0.0
 11
291.9857032870511
 21
1170.468006234275
 31
0.0
  0
LINE
  5
A6F6
330
1F
100
AcDbEntity
  8
0
 62
     0
 48
0.5
100
AcDbLine
 10
291.9857032870511
 20
1170.468006234275
 30
0.0
 11
291.9037417628241
 21
1170.489967758502
 31
0.0
  0
LINE
  5
A6F7
330
1F
100
AcDbEntity
  8
0
 62
     0
 48
0.5
100
AcDbLine
 10
307.3679615618717
 20
1180.317967401587
 30
0.0
 11
303.7141095733679
 21
1180.322666136505
 31
0.0
  0
LINE
  5
A6F8
330
1F
100
AcDbEntity
  8
0
 62
     0
 48
0.5
100
AcDbLine
 10
305.0186964646651
 20
1177.927232498794
 30
0.0
 11
307.3586964646651
 21
1177.927232498794
 31
0.0
  0
LINE
  5
A703
330
1F
100
AcDbEntity
  8
0
 62
     0
 48
0.5
100
AcDbLine
 10
307.7931964646652
 20
1178.986318045576
 30
0.0
 11
307.4186964646652
 21
1179.316397627599
 31
0.0
  0
LINE
  5
A704
330
1F
100
AcDbEntity
  8
Object
 62
     0
 48
0.5
100
AcDbLine
 10
307.4186964646652
 20
1179.127232498794
 30
0.0
 11
307.4186964646652
 21
1180.295672498794
 31
0.0
  0
LINE
  5
A705
330
1F
100
AcDbEntity
  8
Object
 62
     0
 48
0.5
100
AcDbLine
 10
307.7632364646652
 20
1180.325632498794
 30
0.0
 11
307.7931964646652
 21
1180.295672498794
 31
0.0
  0
LINE
  5
A706
330
1F
100
AcDbEntity
  8
Object
 62
     0
 48
0.5
100
AcDbLine
 10
307.4486564646652
 20
1180.325632498794
 30
0.0
 11
307.4186964646652
 21
1180.295672498794
 31
0.0
  0
LINE
  5
A707
330
1F
100
AcDbEntity
  8
Object
 62
     0
 48
0.5
100
AcDbLine
 10
307.4486564646652
 20
1180.325632498794
 30
0.0
 11
307.7632364646652
 21
1180.325632498794
 31
0.0
  0
LINE
  5
A708
330
1F
100
AcDbEntity
  8
Object
 62
     0
 48
0.5
100
AcDbLine
 10
307.7931964646652
 20
1177.958792498794
 30
0.0
 11
307.7632364646652
 21
1177.928832498794
 31
0.0
  0
LINE
  5
A709
330
1F
100
AcDbEntity
  8
Object
 62
     0
 48
0.5
100
AcDbLine
 10
307.4186964646652
 20
1177.958792498794
 30
0.0
 11
307.4486564646652
 21
1177.928832498794
 31
0.0
  0
LINE
  5
A70A
330
1F
100
AcDbEntity
  8
Object
 62
     0
 48
0.5
100
AcDbLine
 10
307.7632364646652
 20
1177.928832498794
 30
0.0
 11
307.4486564646652
 21
1177.928832498794
 31
0.0
  0
LINE
  5
A70B
330
1F
100
AcDbEntity
  8
Object
 62
     0
 48
0.5
100
AcDbLine
 10
307.4186964646652
 20
1177.958792498794
 30
0.0
 11
307.4186964646652
 21
1179.127232498794
 31
0.0
  0
LINE
  5
A70C
330
1F
100
AcDbEntity
  8
Object
 62
     0
 48
0.5
100
AcDbLine
 10
307.7931964646652
 20
1180.295672498794
 30
0.0
 11
307.7931964646652
 21
1177.958792498794
 31
0.0
  0
LINE
  5
A70D
330
1F
100
AcDbEntity
  8
0
 62
     0
 48
0.5
100
AcDbLine
 10
307.3679615618717
 20
1180.317967401587
 30
0.0
 11
307.4279615618718
 21
1180.257967401588
 31
0.0
  0
LINE
  5
A70E
330
1F
100
AcDbEntity
  8
0
 62
     0
 48
0.5
100
AcDbLine
 10
307.4186964646652
 20
1179.127232498794
 30
0.0
 11
307.4279615618718
 21
1180.257967401588
 31
0.0
  0
LINE
  5
A70F
330
1F
100
AcDbEntity
  8
0
 62
     0
 48
0.5
100
AcDbLine
 10
307.3586964646651
 20
1177.927232498794
 30
0.0
 11
307.4186964646651
 21
1177.987232498795
 31
0.0
  0
LINE
  5
A710
330
1F
100
AcDbEntity
  8
0
 62
     0
 48
0.5
100
AcDbLine
 10
307.4186964646651
 20
1177.987232498795
 30
0.0
 11
307.4186964646652
 21
1179.127232498794
 31
0.0
  0
LINE
  5
A712
330
1F
100
AcDbEntity
  8
0
 62
     0
 48
0.5
100
AcDbLine
 10
290.3857032870511
 20
1173.239287526385
 30
0.0
 11
301.5920720120217
 21
1179.709287526385
 31
0.0
  0
LINE
  5
A714
330
1F
100
AcDbEntity
  8
0
 62
     0
 48
0.5
100
AcDbLine
 10
301.7920720120217
 20
1179.362877364871
 30
0.0
 11
302.9920720120216
 21
1177.284416395788
 31
0.0
  0
LINE
  5
A715
330
1F
100
AcDbEntity
  8
0
 62
     0
 48
0.5
100
AcDbLine
 10
301.5920720120217
 20
1179.709287526385
 30
0.0
 11
303.1920720120217
 21
1176.938006234274
 31
0.0
  0
LINE
  5
A716
330
1F
100
AcDbEntity
  8
0
 62
     0
 48
0.5
100
AcDbLine
 10
302.9920720120218
 20
1177.284416395788
 30
0.0
 11
301.7920720120217
 21
1179.362877364871
 31
0.0
  0
LINE
  5
A717
330
1F
100
AcDbEntity
  8
0
 62
     0
 48
0.5
100
AcDbLine
 10
302.9920720120218
 20
1177.284416395788
 30
0.0
 11
303.0947629620742
 21
1177.343705043444
 31
0.0
  0
LINE
  5
A718
330
1F
100
AcDbEntity
  8
0
 62
     0
 48
0.5
100
AcDbLine
 10
303.1777126580768
 20
1180.162877364871
 30
0.0
 11
303.0887118907049
 21
1180.106132474403
 31
0.0
  0
LINE
  5
A719
330
1F
100
AcDbEntity
  8
0
 62
     0
 48
0.5
100
AcDbLine
 10
303.0887118907049
 20
1180.106132474403
 30
0.0
 11
302.1408032400328
 21
1179.55885715977
 31
0.0
  0
ARC
  5
A71A
330
1F
100
AcDbEntity
  8
0
 62
     0
 48
0.5
100
AcDbCircle
 10
303.8186964646651
 20
1179.127232498794
 30
0.0
 40
1.2
100
AcDbArc
 50
94.99999999999946
 51
96.96353835226931
  0
LINE
  5
A71B
330
1F
100
AcDbEntity
  8
0
 62
     0
 48
0.5
100
AcDbLine
 10
305.0186964646651
 20
1180.327232498794
 30
0.0
 11
305.0186964646651
 21
1177.927232498794
 31
0.0
  0
ARC
  5
A71C
330
1F
100
AcDbEntity
  8
0
 62
     0
 48
0.5
100
AcDbCircle
 10
303.7777126580767
 20
1179.12364688033
 30
0.0
 40
1.2
100
AcDbArc
 50
299.9999999999973
 51
119.9999999999972
  0
LINE
  5
A71D
330
1F
100
AcDbEntity
  8
0
 62
     0
 48
0.5
100
AcDbLine
 10
304.1135025725535
 20
1177.931874631789
 30
0.0
 11
305.0186964646651
 21
1177.931874631789
 31
0.0
  0
CIRCLE
  5
A71E
330
1F
100
AcDbEntity
  8
0
 62
     0
 48
0.5
100
AcDbCircle
 10
303.8186964646651
 20
1179.127232498794
 30
0.0
 40
0.4200000000000001
  0
LINE
  5
A71F
330
1F
100
AcDbEntity
  8
0
 62
     0
 48
0.5
100
AcDbLine
 10
302.1384821735355
 20
1179.562877364871
 30
0.0
 11
301.7920720120217
 21
1179.362877364871
 31
0.0
  0
LINE
  5
A720
330
1F
100
AcDbEntity
  8
0
 62
     0
 48
0.5
100
AcDbLine
 10
304.3777126580768
 20
1178.084416395788
 30
0.0
 11
303.0947629620742
 21
1177.343705043444
 31
0.0
  0
LINE
  5
A721
330
1F
100
AcDbEntity
  8
0
 62
     0
 48
0.5
100
AcDbLine
 10
290.3857032870511
 20
1173.239287526385
 30
0.0
 11
290.363741762824
 21
1173.157326002158
 31
0.0
  0
LINE
  5
A722
330
1F
100
AcDbEntity
  8
0
 62
     0
 48
0.5
100
AcDbLine
 10
35.5137846998382
 20
1027.602580862903
 30
0.0
 11
24.30741597486758
 21
1021.132580862902
 31
0.0
  0
LINE
  5
A723
330
1F
100
AcDbEntity
  8
0
 62
     0
 48
0.5
100
AcDbLine
 10
25.90741597486749
 20
1018.361299570792
 30
0.0
 11
37.1137846998381
 21
1024.831299570792
 31
0.0
  0
LINE
  5
A725
330
1F
100
AcDbEntity
  8
0
 62
     0
 48
0.5
100
AcDbLine
 10
37.1357462240652
 20
1024.913261095019
 30
0.0
 11
35.59574622406524
 21
1027.580619338675
 31
0.0
  0
LINE
  5
A726
330
1F
100
AcDbEntity
  8
0
 62
     0
 48
0.5
100
AcDbLine
 10
35.5137846998382
 20
1027.602580862903
 30
0.0
 11
35.59574622406524
 21
1027.580619338675
 31
0.0
  0
LINE
  5
A727
330
1F
100
AcDbEntity
  8
0
 62
     0
 48
0.5
100
AcDbLine
 10
37.1137846998381
 20
1024.831299570792
 30
0.0
 11
37.1357462240652
 21
1024.913261095019
 31
0.0
  0
LINE
  5
A72C
330
1F
100
AcDbEntity
  8
0
 62
     0
 48
0.5
100
AcDbLine
 10
25.36100581335381
 20
1018.507709732306
 30
0.0
 11
25.70741597486744
 21
1018.707709732306
 31
0.0
  0
LINE
  5
A72D
330
1F
100
AcDbEntity
  8
0
 62
     0
 48
0.5
100
AcDbLine
 10
24.30741597486758
 20
1021.132580862902
 30
0.0
 11
25.90741597486749
 21
1018.361299570792
 31
0.0
  0
LINE
  5
A72E
330
1F
100
AcDbEntity
  8
Object
 62
     0
 48
0.5
100
AcDbLine
 10
19.70629152222409
 20
1018.943354598383
 30
0.0
 11
19.70629152222409
 21
1020.111794598383
 31
0.0
  0
LINE
  5
A72F
330
1F
100
AcDbEntity
  8
Object
 62
     0
 48
0.5
100
AcDbLine
 10
19.70629152222409
 20
1019.2536534586
 30
0.0
 11
20.0807915222241
 21
1018.943354598383
 31
0.0
  0
LINE
  5
A730
330
1F
100
AcDbEntity
  8
Object
 62
     0
 48
0.5
100
AcDbLine
 10
19.73625152222405
 20
1020.141754598383
 30
0.0
 11
19.70629152222409
 21
1020.111794598383
 31
0.0
  0
LINE
  5
A731
330
1F
100
AcDbEntity
  8
Object
 62
     0
 48
0.5
100
AcDbLine
 10
20.0807915222241
 20
1017.774914598383
 30
0.0
 11
20.05083152222414
 21
1017.744954598383
 31
0.0
  0
LINE
  5
A732
330
1F
100
AcDbEntity
  8
Object
 62
     0
 48
0.5
100
AcDbLine
 10
19.70629152222409
 20
1017.774914598383
 30
0.0
 11
19.73625152222405
 21
1017.744954598383
 31
0.0
  0
LINE
  5
A733
330
1F
100
AcDbEntity
  8
Object
 62
     0
 48
0.5
100
AcDbLine
 10
20.05083152222414
 20
1017.744954598383
 30
0.0
 11
19.73625152222405
 21
1017.744954598383
 31
0.0
  0
LINE
  5
A734
330
1F
100
AcDbEntity
  8
Object
 62
     0
 48
0.5
100
AcDbLine
 10
19.70629152222409
 20
1017.774914598383
 30
0.0
 11
19.70629152222409
 21
1018.943354598383
 31
0.0
  0
LINE
  5
A735
330
1F
100
AcDbEntity
  8
Object
 62
     0
 48
0.5
100
AcDbLine
 10
20.05083152222414
 20
1020.141754598383
 30
0.0
 11
20.0807915222241
 21
1020.111794598383
 31
0.0
  0
LINE
  5
A736
330
1F
100
AcDbEntity
  8
Object
 62
     0
 48
0.5
100
AcDbLine
 10
19.73625152222405
 20
1020.141754598383
 30
0.0
 11
20.05083152222414
 21
1020.141754598383
 31
0.0
  0
LINE
  5
A737
330
1F
100
AcDbEntity
  8
Object
 62
     0
 48
0.5
100
AcDbLine
 10
20.0807915222241
 20
1020.111794598383
 30
0.0
 11
20.0807915222241
 21
1017.774914598383
 31
0.0
  0
LINE
  5
A738
330
1F
100
AcDbEntity
  8
0
 62
     0
 48
0.5
100
AcDbLine
 10
20.13152642501745
 20
1017.752619695589
 30
0.0
 11
20.0715264250175
 21
1017.812619695589
 31
0.0
  0
CIRCLE
  5
A739
330
1F
100
AcDbEntity
  8
0
 62
     0
 48
0.5
100
AcDbCircle
 10
23.68079152222412
 20
1018.943354598383
 30
0.0
 40
0.4200000000000001
  0
LINE
  5
A73A
330
1F
100
AcDbEntity
  8
0
 62
     0
 48
0.5
100
AcDbLine
 10
24.32177532881246
 20
1017.907709732306
 30
0.0
 11
24.41077609618423
 21
1017.964454622774
 31
0.0
  0
ARC
  5
A73B
330
1F
100
AcDbEntity
  8
0
 62
     0
 48
0.5
100
AcDbCircle
 10
23.68079152222412
 20
1018.943354598383
 30
0.0
 40
1.2
100
AcDbArc
 50
274.9999999999995
 51
276.9635383522693
  0
LINE
  5
A73C
330
1F
100
AcDbEntity
  8
0
 62
     0
 48
0.5
100
AcDbLine
 10
23.38598541433566
 20
1020.138712465388
 30
0.0
 11
22.48079152222408
 21
1020.138712465388
 31
0.0
  0
ARC
  5
A73D
330
1F
100
AcDbEntity
  8
0
 62
     0
 48
0.5
100
AcDbCircle
 10
23.72177532881244
 20
1018.946940216847
 30
0.0
 40
1.2
100
AcDbArc
 50
119.9999999999972
 51
299.9999999999973
  0
LINE
  5
A73E
330
1F
100
AcDbEntity
  8
0
 62
     0
 48
0.5
100
AcDbLine
 10
22.48079152222408
 20
1017.743354598383
 30
0.0
 11
22.48079152222408
 21
1020.143354598383
 31
0.0
  0
LINE
  5
A73F
330
1F
100
AcDbEntity
  8
0
 62
     0
 48
0.5
100
AcDbLine
 10
20.13152642501745
 20
1017.752619695589
 30
0.0
 11
23.78537841352135
 21
1017.747920960673
 31
0.0
  0
LINE
  5
A740
330
1F
100
AcDbEntity
  8
0
 62
     0
 48
0.5
100
AcDbLine
 10
24.50741597486751
 20
1020.786170701388
 30
0.0
 11
24.40472502481497
 21
1020.726882053732
 31
0.0
  0
LINE
  5
A741
330
1F
100
AcDbEntity
  8
0
 62
     0
 48
0.5
100
AcDbLine
 10
23.12177532881241
 20
1019.986170701389
 30
0.0
 11
24.40472502481497
 21
1020.726882053732
 31
0.0
  0
LINE
  5
A742
330
1F
100
AcDbEntity
  8
0
 62
     0
 48
0.5
100
AcDbLine
 10
24.41077609618423
 20
1017.964454622774
 30
0.0
 11
25.35868474685639
 21
1018.511729937407
 31
0.0
  0
LINE
  5
A743
330
1F
100
AcDbEntity
  8
0
 62
     0
 48
0.5
100
AcDbLine
 10
20.14079152222416
 20
1020.143354598382
 30
0.0
 11
20.0807915222241
 21
1020.083354598382
 31
0.0
  0
LINE
  5
A744
330
1F
100
AcDbEntity
  8
0
 62
     0
 48
0.5
100
AcDbLine
 10
20.0807915222241
 20
1020.083354598382
 30
0.0
 11
20.0807915222241
 21
1018.943354598383
 31
0.0
  0
LINE
  5
A745
330
1F
100
AcDbEntity
  8
0
 62
     0
 48
0.5
100
AcDbLine
 10
22.48079152222408
 20
1020.143354598383
 30
0.0
 11
20.14079152222416
 21
1020.143354598382
 31
0.0
  0
LINE
  5
A76B
330
1F
100
AcDbEntity
  8
0
 62
     0
 48
0.5
100
AcDbLine
 10
36.36574622406522
 20
1026.246940216847
 30
0.0
 11
36.56574622406521
 21
1025.900530055333
 31
0.0
  0
LINE
  5
A76E
330
1F
100
AcDbEntity
  8
0
 62
     0
 48
0.5
100
AcDbLine
 10
291.133741762824
 20
1171.82364688033
 30
0.0
 11
291.333741762824
 21
1171.477236718816
 31
0.0
  0
LINE
  5
A771
330
1F
100
AcDbEntity
  8
0
 62
     0
 48
0.5
100
AcDbLine
 10
290.933741762824
 20
1172.170057041843
 30
0.0
 11
167.0506001878378
 21
1101.382124187582
 31
0.0
  0
LINE
  5
A772
330
1F
100
AcDbEntity
  8
0
 62
     0
 48
0.5
100
AcDbLine
 10
291.3305887809603
 20
1171.475435376426
 30
0.0
 11
167.4506000577772
 21
1100.689304089826
 31
0.0
  0
LINE
  5
A798
330
1F
100
AcDbEntity
  8
Object
 62
     0
 48
0.3
100
AcDbLine
 10
158.2479233123437
 20
1094.715746041294
 30
0.0
 11
158.0947687943383
 21
1094.627322239096
 31
0.0
  0
LINE
  5
A799
330
1F
100
AcDbEntity
  8
0
 62
     0
 48
0.3
100
AcDbLine
 10
157.0947687943383
 20
1096.359373046665
 30
0.0
 11
158.2479233123437
 21
1097.025147118053
 31
0.0
  0
LINE
  5
A79A
330
1F
100
AcDbEntity
  8
Object
 62
     0
 48
0.3
100
AcDbLine
 10
157.0947687943383
 20
1096.359373046665
 30
0.0
 11
158.2479233123437
 21
1097.025147118053
 31
0.0
  0
LINE
  5
A79B
330
1F
100
AcDbEntity
  8
Object
 62
     0
 48
0.3
100
AcDbLine
 10
156.7243393949381
 20
1096.260975587044
 30
0.0
 11
157.8243393949382
 21
1094.355719698718
 31
0.0
  0
LINE
  5
A79E
330
1F
100
AcDbEntity
  8
Object
 62
     0
 48
0.3
100
AcDbLine
 10
158.097544475695
 20
1094.282514617961
 30
0.0
 11
158.2447687943384
 21
1094.367514617961
 31
0.0
  0
ARC
  5
A79F
330
1F
100
AcDbEntity
  8
Object
 62
     0
 48
0.3
100
AcDbCircle
 10
157.997544475695
 20
1094.455719698718
 30
0.0
 40
0.2
100
AcDbArc
 50
209.9999999999999
 51
300.0
  0
LINE
  5
A7A0
330
1F
100
AcDbEntity
  8
Object
 62
     0
 48
0.3
100
AcDbLine
 10
158.2447687943384
 20
1094.367514617961
 30
0.0
 11
158.0547687943384
 21
1094.696604271399
 31
0.0
  0
LINE
  5
A7A2
330
1F
100
AcDbEntity
  8
Object
 62
     0
 48
0.3
100
AcDbLine
 10
156.9447687943384
 20
1096.6191806678
 30
0.0
 11
156.797544475695
 21
1096.534180667801
 31
0.0
  0
ARC
  5
A7A3
330
1F
100
AcDbEntity
  8
Object
 62
     0
 48
0.3
100
AcDbCircle
 10
156.897544475695
 20
1096.360975587044
 30
0.0
 40
0.2
100
AcDbArc
 50
119.9999999999999
 51
209.9999999999999
  0
LINE
  5
A7A4
330
1F
100
AcDbEntity
  8
Object
 62
     0
 48
0.3
100
AcDbLine
 10
167.7927300799234
 20
1100.096717508674
 30
0.0
 11
166.6927300799233
 21
1102.001973397
 31
0.0
  0
LINE
  5
A7A5
330
1F
100
AcDbEntity
  8
Object
 62
     0
 48
0.3
100
AcDbLine
 10
167.5723006805231
 20
1099.738512427917
 30
0.0
 11
167.7195249991665
 21
1099.823512427917
 31
0.0
  0
LINE
  5
A7A6
330
1F
100
AcDbEntity
  8
0
 62
     0
 48
0.3
100
AcDbLine
 10
167.3723006805231
 20
1100.084922589431
 30
0.0
 11
167.4223006805231
 21
1099.998320049053
 31
0.0
  0
LINE
  5
A7A9
330
1F
100
AcDbEntity
  8
Object
 62
     0
 48
0.3
100
AcDbLine
 10
166.4195249991665
 20
1102.075178477757
 30
0.0
 11
166.2723006805231
 21
1101.990178477757
 31
0.0
  0
ARC
  5
A7AB
330
1F
100
AcDbEntity
  8
Object
 62
     0
 48
0.3
100
AcDbCircle
 10
166.5195249991665
 20
1101.901973397
 30
0.0
 40
0.2
100
AcDbArc
 50
30.0
 51
119.9999999999999
  0
ARC
  5
A7AD
330
1F
100
AcDbEntity
  8
Object
 62
     0
 48
0.3
100
AcDbCircle
 10
167.6195249991665
 20
1099.996717508674
 30
0.0
 40
0.2
100
AcDbArc
 50
300.0
 51
30.0
  0
LINE
  5
A7AE
330
1F
100
AcDbEntity
  8
0
 62
     0
 48
0.5
100
AcDbLine
 10
166.2479233123436
 20
1099.327270338597
 30
0.0
 11
167.4223006805231
 21
1099.998320049053
 31
0.0
  0
LINE
  5
A7AF
330
1F
100
AcDbEntity
  8
0
 62
     0
 48
0.5
100
AcDbLine
 10
157.0626865236282
 20
1095.674941169558
 30
0.0
 11
36.16574622406522
 21
1026.593350378361
 31
0.0
  0
LINE
  5
A7B0
330
1F
100
AcDbEntity
  8
0
 62
     0
 48
0.5
100
AcDbLine
 10
157.4626863935672
 20
1094.982121071802
 30
0.0
 11
36.56259324220155
 21
1025.898728712943
 31
0.0
  0
LINE
  5
A7B1
330
1F
100
AcDbEntity
  8
0
 62
     0
 48
0.5
100
AcDbLine
 10
156.9447687943384
 20
1096.6191806678
 30
0.0
 11
158.0547687943384
 21
1094.696604271399
 31
0.0
  0
LINE
  5
A7B3
330
1F
100
AcDbEntity
  8
0
 62
     0
 48
0.5
100
AcDbLine
 10
166.2723006805231
 20
1101.990178477757
 30
0.0
 11
167.5723006805231
 21
1099.738512427917
 31
0.0
  0
LINE
  5
A7CE
330
1F
100
AcDbEntity
  8
0
 62
     0
100
AcDbLine
 10
464.2173382103453
 20
1179.699214977378
 30
0.0
 11
463.4663698887198
 21
1179.699214977378
 31
0.0
  0
LINE
  5
A7CF
330
1F
100
AcDbEntity
  8
0
 62
     0
100
AcDbLine
 10
464.2173382103453
 20
1178.551488492628
 30
0.0
 11
463.4663698887198
 21
1178.551488492628
 31
0.0
  0
LINE
  5
A7D0
330
1F
100
AcDbEntity
  8
0
 62
     0
100
AcDbLine
 10
464.2173382103453
 20
1177.977625250253
 30
0.0
 11
463.3349846843428
 21
1177.977625250253
 31
0.0
  0
LINE
  5
A7D1
330
1F
100
AcDbEntity
  8
0
 62
     0
100
AcDbLine
 10
464.2173382103453
 20
1177.977625250253
 30
0.0
 11
463.4663698887198
 21
1177.977625250253
 31
0.0
  0
LINE
  5
A7D2
330
1F
100
AcDbEntity
  8
0
 62
     0
100
AcDbLine
 10
463.3349844397802
 20
1180.27672128008
 30
0.0
 11
464.2162497352029
 21
1180.27672128008
 31
0.0
  0
LINE
  5
A7D3
330
1F
100
AcDbEntity
  8
0
 62
     0
100
AcDbLine
 10
463.306291522224
 20
1178.006318412372
 30
0.0
 11
463.306291522224
 21
1180.248146585217
 31
0.0
  0
LINE
  5
A7D4
330
1F
100
AcDbEntity
  8
0
 62
     0
100
AcDbLine
 10
463.4663698887198
 20
1179.699214977378
 30
0.0
 11
463.306291522224
 21
1179.699214977378
 31
0.0
  0
LINE
  5
A7D5
330
1F
100
AcDbEntity
  8
0
 62
     0
100
AcDbLine
 10
463.4663698887198
 20
1178.551488492628
 30
0.0
 11
463.306291522224
 21
1178.551488492628
 31
0.0
  0
LINE
  5
A7D6
330
1F
100
AcDbEntity
  8
0
 62
     0
100
AcDbLine
 10
463.3349846843428
 20
1177.977625250253
 30
0.0
 11
463.306291522224
 21
1178.006318412372
 31
0.0
  0
LINE
  5
A7D7
330
1F
100
AcDbEntity
  8
0
 62
     0
100
AcDbLine
 10
463.3349844397802
 20
1180.27672128008
 30
0.0
 11
463.306291522224
 21
1180.248146585217
 31
0.0
  0
ARC
  5
A7D8
330
1F
100
AcDbEntity
  8
0
 62
     0
100
AcDbCircle
 10
463.9057481627028
 20
1179.986146598565
 30
0.0
 40
0.4235777532250373
100
AcDbArc
 50
317.3591881474103
 51
42.64081185258958
  0
ARC
  5
A7D9
330
1F
100
AcDbEntity
  8
0
 62
     0
100
AcDbCircle
 10
462.8516351753128
 20
1179.125351735003
 30
0.0
 40
1.481372269500913
100
AcDbArc
 50
337.2080385520313
 51
22.79196144796861
  0
ARC
  5
A7DA
330
1F
100
AcDbEntity
  8
0
 62
     0
100
AcDbCircle
 10
463.9178819309119
 20
1178.26455687144
 30
0.0
 40
0.4147334306870116
100
AcDbArc
 50
316.2235944163291
 51
43.77640558367093
  0
LINE
  5
A7DB
330
1F
100
AcDbEntity
  8
0
 62
     0
100
AcDbLine
 10
464.3326153615989
 20
1178.26455687144
 30
0.0
 11
464.3293259159278
 21
1179.986146598565
 31
0.0
  0
LINE
  5
A7DC
330
1F
100
AcDbEntity
  8
0
 62
     0
100
AcDbLine
 10
10.79524483410285
 20
1020.092961846924
 30
0.0
 11
11.54621315572837
 21
1020.092961846924
 31
0.0
  0
LINE
  5
A7DD
330
1F
100
AcDbEntity
  8
0
 62
     0
100
AcDbLine
 10
10.79524483410285
 20
1020.092961846924
 30
0.0
 11
11.67759836010538
 21
1020.092961846924
 31
0.0
  0
LINE
  5
A7DE
330
1F
100
AcDbEntity
  8
0
 62
     0
100
AcDbLine
 10
10.79524483410285
 20
1019.519098604549
 30
0.0
 11
11.54621315572837
 21
1019.519098604549
 31
0.0
  0
LINE
  5
A7DF
330
1F
100
AcDbEntity
  8
0
 62
     0
100
AcDbLine
 10
10.79524483410285
 20
1018.371372119799
 30
0.0
 11
11.54621315572837
 21
1018.371372119799
 31
0.0
  0
LINE
  5
A7E0
330
1F
100
AcDbEntity
  8
0
 62
     0
100
AcDbLine
 10
11.67759860466799
 20
1017.793865817097
 30
0.0
 11
11.70629152222409
 21
1017.82244051196
 31
0.0
  0
LINE
  5
A7E1
330
1F
100
AcDbEntity
  8
0
 62
     0
100
AcDbLine
 10
11.67759836010538
 20
1020.092961846924
 30
0.0
 11
11.70629152222409
 21
1020.064268684805
 31
0.0
  0
LINE
  5
A7E2
330
1F
100
AcDbEntity
  8
0
 62
     0
100
AcDbLine
 10
11.54621315572837
 20
1019.519098604549
 30
0.0
 11
11.70629152222409
 21
1019.519098604549
 31
0.0
  0
LINE
  5
A7E3
330
1F
100
AcDbEntity
  8
0
 62
     0
100
AcDbLine
 10
11.54621315572837
 20
1018.371372119799
 30
0.0
 11
11.70629152222409
 21
1018.371372119799
 31
0.0
  0
LINE
  5
A7E4
330
1F
100
AcDbEntity
  8
0
 62
     0
100
AcDbLine
 10
11.70629152222409
 20
1020.064268684805
 30
0.0
 11
11.70629152222409
 21
1017.82244051196
 31
0.0
  0
LINE
  5
A7E5
330
1F
100
AcDbEntity
  8
0
 62
     0
100
AcDbLine
 10
11.67759860466799
 20
1017.793865817097
 30
0.0
 11
10.79633330924526
 21
1017.793865817097
 31
0.0
  0
LINE
  5
A7E6
330
1F
100
AcDbEntity
  8
0
 62
     0
100
AcDbLine
 10
10.67996768284928
 20
1019.806030225736
 30
0.0
 11
10.68325712852032
 21
1018.084440498612
 31
0.0
  0
ARC
  5
A7E7
330
1F
100
AcDbEntity
  8
0
 62
     0
100
AcDbCircle
 10
11.0947011135363
 20
1019.806030225736
 30
0.0
 40
0.4147334306870116
100
AcDbArc
 50
136.2235944163291
 51
223.7764055836709
  0
ARC
  5
A7E8
330
1F
100
AcDbEntity
  8
0
 62
     0
100
AcDbCircle
 10
12.16094786913538
 20
1018.945235362174
 30
0.0
 40
1.481372269500913
100
AcDbArc
 50
157.2080385520314
 51
202.7919614479686
  0
ARC
  5
A7E9
330
1F
100
AcDbEntity
  8
0
 62
     0
100
AcDbCircle
 10
11.10683488174538
 20
1018.084440498612
 30
0.0
 40
0.4235777532250373
100
AcDbArc
 50
137.3591881474103
 51
222.6408118525896
  0
LINE
  5
A7F5
330
1F
100
AcDbEntity
  8
0
 62
     0
 48
0.5
100
AcDbLine
 10
328.7931957374487
 20
1180.727232498794
 30
0.0
 11
315.8531957374487
 21
1180.727232498794
 31
0.0
  0
LINE
  5
A7F6
330
1F
100
AcDbEntity
  8
0
 62
     0
 48
0.5
100
AcDbLine
 10
315.8531957374487
 20
1177.527232498794
 30
0.0
 11
328.7931957374487
 21
1177.527232498794
 31
0.0
  0
LINE
  5
A7F7
330
1F
100
AcDbEntity
  8
0
 62
     0
 48
0.5
100
AcDbLine
 10
315.7931957374487
 20
1179.127232498794
 30
0.0
 11
315.7931957374487
 21
1178.727232498794
 31
0.0
  0
LINE
  5
A7F8
330
1F
100
AcDbEntity
  8
0
 62
     0
 48
0.5
100
AcDbLine
 10
315.7931957374487
 20
1179.127232498794
 30
0.0
 11
315.7931957374487
 21
1178.727232498794
 31
0.0
  0
LINE
  5
A7F9
330
1F
100
AcDbEntity
  8
0
 62
     0
 48
0.5
100
AcDbLine
 10
315.7931957374487
 20
1178.727232498794
 30
0.0
 11
315.7931957374487
 21
1179.127232498794
 31
0.0
  0
LINE
  5
A7FA
330
1F
100
AcDbEntity
  8
0
 62
     0
 48
0.5
100
AcDbLine
 10
315.7931957374487
 20
1178.727232498794
 30
0.0
 11
315.7931957374487
 21
1179.527232498794
 31
0.0
  0
LINE
  5
A7FB
330
1F
100
AcDbEntity
  8
0
 62
     0
 48
0.5
100
AcDbLine
 10
315.7931957374487
 20
1180.667232498794
 30
0.0
 11
315.7931957374487
 21
1177.587232498795
 31
0.0
  0
LINE
  5
A7FC
330
1F
100
AcDbEntity
  8
0
 62
     0
 48
0.5
100
AcDbLine
 10
315.8531957374487
 20
1177.527232498794
 30
0.0
 11
315.7931957374487
 21
1177.587232498795
 31
0.0
  0
LINE
  5
A7FD
330
1F
100
AcDbEntity
  8
0
 62
     0
 48
0.5
100
AcDbLine
 10
315.8531957374487
 20
1180.727232498794
 30
0.0
 11
315.7931957374487
 21
1180.667232498794
 31
0.0
  0
LINE
  5
A7FE
330
1F
100
AcDbEntity
  8
0
 62
     0
 48
0.5
100
AcDbLine
 10
315.7931957374487
 20
1179.127232498794
 30
0.0
 11
315.7931957374487
 21
1179.527232498794
 31
0.0
  0
LINE
  5
A7FF
330
1F
100
AcDbEntity
  8
0
 62
     0
 48
0.5
100
AcDbLine
 10
328.7931957374487
 20
1177.527232498794
 30
0.0
 11
328.7931957374487
 21
1180.727232498794
 31
0.0
  0
LINE
  5
A800
330
1F
100
AcDbEntity
  8
0
 62
     0
 48
0.5
100
AcDbLine
 10
328.7931957374487
 20
1179.127232498794
 30
0.0
 11
328.7931957374487
 21
1179.527232498794
 31
0.0
  0
LINE
  5
A801
330
1F
100
AcDbEntity
  8
0
 62
     0
 48
0.5
100
AcDbLine
 10
328.7931957374487
 20
1179.527232498794
 30
0.0
 11
328.7931957374487
 21
1178.727232498794
 31
0.0
  0
LINE
  5
A802
330
1F
100
AcDbEntity
  8
0
 62
     0
 48
0.5
100
AcDbLine
 10
328.7931957374487
 20
1178.727232498794
 30
0.0
 11
442.306291522224
 21
1178.727232498794
 31
0.0
  0
LINE
  5
A803
330
1F
100
AcDbEntity
  8
0
 62
     0
 48
0.5
100
AcDbLine
 10
455.246291522224
 20
1180.727232498794
 30
0.0
 11
442.306291522224
 21
1180.727232498794
 31
0.0
  0
LINE
  5
A804
330
1F
100
AcDbEntity
  8
0
 62
     0
 48
0.5
100
AcDbLine
 10
442.306291522224
 20
1177.527232498794
 30
0.0
 11
455.246291522224
 21
1177.527232498794
 31
0.0
  0
LINE
  5
A812
330
1F
100
AcDbEntity
  8
0
 62
     0
 48
0.5
100
AcDbLine
 10
442.306291522224
 20
1178.727232498794
 30
0.0
 11
442.306291522224
 21
1179.527232498794
 31
0.0
  0
LINE
  5
A813
330
1F
100
AcDbEntity
  8
0
 62
     0
 48
0.5
100
AcDbLine
 10
442.306291522224
 20
1179.127232498794
 30
0.0
 11
442.306291522224
 21
1178.727232498794
 31
0.0
  0
LINE
  5
A814
330
1F
100
AcDbEntity
  8
0
 62
     0
 48
0.5
100
AcDbLine
 10
442.306291522224
 20
1180.727232498794
 30
0.0
 11
442.306291522224
 21
1177.527232498794
 31
0.0
  0
LINE
  5
A815
330
1F
100
AcDbEntity
  8
0
 62
     0
 48
0.5
100
AcDbLine
 10
328.7931957374487
 20
1179.527232498794
 30
0.0
 11
442.306291522224
 21
1179.527232498794
 31
0.0
  0
MTEXT
  5
A81F
330
1F
100
AcDbEntity
  8
0
 62
     0
 48
0.5
100
AcDbMText
 10
357.7215549150596
 20
822.5308658634675
 30
0.0
 40
6.0
 41
170.9279999999999
 71
     4
 72
     5
  1
 %%c4・%%c3傾斜部施工イメージ
 73
     1
 44
1.0
  0
VIEWPORT
  5
2F
330
1B
100
AcDbEntity
 67
     1
  8
0
100
AcDbViewport
 10
210.8645862540714
 20
149.7815185269692
 30
0.0
 40
479.1862016322689
 41
324.9607266531437
 68
     1
 69
     1
 12
210.8645862540714
 22
149.7815185269692
 13
0.0
 23
0.0
 14
10.0
 24
10.0
 15
10.0
 25
10.0
 16
0.0
 26
0.0
 36
1.0
 17
0.0
 27
0.0
 37
0.0
 42
50.0
 43
0.0
 44
0.0
 45
324.9607266531437
 50
0.0
 51
0.0
 72
   100
 90
    32800
  1

281
     0
 71
     1
 74
     0
110
0.0
120
0.0
130
0.0
111
1.0
121
0.0
131
0.0
112
0.0
122
1.0
132
0.0
 79
     0
146
0.0
  0
LWPOLYLINE
  5
AA
330
1B
100
AcDbEntity
 67
     1
  8
２
 62
     0
100
AcDbPolyline
 90
        4
 70
     1
 43
0.0
 10
1.042221639059562
 20
284.1844718556203
 10
407.757958684845
 20
284.1844718556203
 10
407.757958684845
 20
1.08829855961801
 10
1.042221639059562
 20
1.08829855961801
  0
MTEXT
  5
DC
330
1B
100
AcDbEntity
 67
     1
  8
２
 62
     0
100
AcDbMText
 10
275.257958684845
 20
4.588298559618024
 30
0.0
 40
3.0
 41
55.0
 71
     5
 72
     5
  1
{\fMS UI Gothic|b0|i0|c128|p50;株式会社 アルティマ}
 73
     1
 44
1.0
  0
LINE
  5
DD
330
1B
100
AcDbEntity
 67
     1
  8
２
 62
     0
100
AcDbLine
 10
262.757958684845
 20
8.088298559618039
 30
0.0
 11
302.757958684845
 21
8.088298559618039
 31
0.0
  0
LINE
  5
DE
330
1B
100
AcDbEntity
 67
     1
  8
２
 62
     0
100
AcDbLine
 10
342.7579586848451
 20
23.08829855961798
 30
0.0
 11
247.757958684845
 21
23.08829855961792
 31
0.0
  0
LINE
  5
DF
330
1B
100
AcDbEntity
 67
     1
  8
２
 62
     0
100
AcDbLine
 10
247.7579586848449
 20
18.08829855961798
 30
0.0
 11
342.7579586848451
 21
18.08829855961798
 31
0.0
  0
LINE
  5
E0
330
1B
100
AcDbEntity
 67
     1
  8
２
 62
     0
100
AcDbLine
 10
342.7579586848451
 20
13.08829855961801
 30
0.0
 11
247.7579586848451
 21
13.08829855961798
 31
0.0
  0
LINE
  5
E1
330
1B
100
AcDbEntity
 67
     1
  8
２
 62
     0
100
AcDbLine
 10
352.757958684845
 20
8.08829855961801
 30
0.0
 11
252.8023834435082
 21
8.088298559618039
 31
0.0
  0
LINE
  5
E2
330
1B
100
AcDbEntity
 67
     1
  8
２
 62
     0
100
AcDbLine
 10
407.7579586848449
 20
28.08829855961801
 30
0.0
 11
247.7579586848449
 21
28.08829855961803
 31
0.0
  0
MTEXT
  5
E3
330
1B
100
AcDbEntity
 67
     1
  8
２
 62
     0
100
AcDbMText
 10
255.2579586848449
 20
25.58829855961798
 30
0.0
 40
2.0
 41
15.0
 71
     5
 72
     5
  1
{\fMS UI Gothic|b0|i0|c128|p50;パーツ}
 73
     1
 44
1.0
  0
LINE
  5
E4
330
1B
100
AcDbEntity
 67
     1
  8
２
 62
     0
100
AcDbLine
 10
247.7579586848449
 20
8.088298559618039
 30
0.0
 11
262.757958684845
 21
8.088298559618039
 31
0.0
  0
LINE
  5
E5
330
1B
100
AcDbEntity
 67
     1
  8
２
 62
     0
100
AcDbLine
 10
247.7579586848451
 20
13.08829855961798
 30
0.0
 11
247.7579586848449
 21
18.08829855961798
 31
0.0
  0
LINE
  5
E6
330
1B
100
AcDbEntity
 67
     1
  8
２
 62
     0
100
AcDbLine
 10
247.7579586848449
 20
28.08829855961803
 30
0.0
 11
247.7579586848449
 21
9.237389132921862
 31
0.0
  0
LINE
  5
E7
330
1B
100
AcDbEntity
 67
     1
  8
２
 62
     0
100
AcDbLine
 10
247.7579586848449
 20
9.237389132921862
 30
0.0
 11
247.7579586848449
 21
1.088298559618039
 31
0.0
  0
LINE
  5
E8
330
1B
100
AcDbEntity
 67
     1
  8
２
 62
     0
100
AcDbLine
 10
262.757958684845
 20
8.088298559618039
 30
0.0
 11
262.757958684845
 21
28.08829855961803
 31
0.0
  0
LINE
  5
EC
330
1B
100
AcDbEntity
 67
     1
  8
２
 62
     0
100
AcDbLine
 10
407.757958684845
 20
8.08829855961801
 30
0.0
 11
352.757958684845
 21
8.08829855961801
 31
0.0
  0
MTEXT
  5
ED
330
1B
100
AcDbEntity
 67
     1
  8
２
 62
     0
 48
0.3
100
AcDbMText
 10
317.7579586848451
 20
4.370495529314986
 30
0.0
 40
2.0
 41
20.0
 71
     5
 72
     5
  1
E.Nomura
 73
     1
 44
1.0
  0
MTEXT
  5
EE
330
1B
100
AcDbEntity
 67
     1
  8
２
 62
     0
100
AcDbMText
 10
322.7579586848449
 20
25.588298559618
 30
0.0
 40
2.0
 41
40.0
 71
     5
 72
     5
  1
{\fMS UI Gothic|b0|i0|c128|p50;処　　　理}
 73
     1
 44
1.0
  0
LINE
  5
EF
330
1B
100
AcDbEntity
 67
     1
  8
２
 62
     0
100
AcDbLine
 10
327.757958684845
 20
1.08829855961801
 30
0.0
 11
307.7579586848451
 21
1.08829855961801
 31
0.0
  0
MTEXT
  5
F0
330
1B
100
AcDbEntity
 67
     1
  8
２
 62
     0
100
AcDbMText
 10
282.7579586848449
 20
25.58829855961799
 30
0.0
 40
2.0
 41
40.0
 71
     5
 72
     5
  1
{\fMS UI Gothic|b0|i0|c128|p50;材　　　質}
 73
     1
 44
1.0
  0
LINE
  5
F1
330
1B
100
AcDbEntity
 67
     1
  8
２
 62
     0
100
AcDbLine
 10
302.757958684845
 20
8.088298559618039
 30
0.0
 11
302.757958684845
 21
28.08829855961803
 31
0.0
  0
MTEXT
  5
F2
330
1B
100
AcDbEntity
 67
     1
  8
２
 62
     0
100
AcDbMText
 10
305.2690710641766
 20
4.588298559618021
 30
0.0
 40
2.0
 41
4.9778
 71
     5
 72
     5
  1
{\fMS UI Gothic|b0|i0|c128|p50;製\P図}
 73
     1
 44
1.0
  0
LINE
  5
F3
330
1B
100
AcDbEntity
 67
     1
  8
２
 62
     0
100
AcDbLine
 10
302.757958684845
 20
8.088298559618039
 30
0.0
 11
302.757958684845
 21
1.08829855961801
 31
0.0
  0
LINE
  5
F4
330
1B
100
AcDbEntity
 67
     1
  8
２
 62
     0
100
AcDbLine
 10
307.7579586848451
 20
1.08829855961801
 30
0.0
 11
307.7579586848451
 21
8.08829855961801
 31
0.0
  0
LINE
  5
F5
330
1B
100
AcDbEntity
 67
     1
  8
２
 62
     0
100
AcDbLine
 10
307.7579586848451
 20
8.08829855961801
 30
0.0
 11
302.757958684845
 21
8.088298559618039
 31
0.0
  0
MTEXT
  5
F6
330
1B
100
AcDbEntity
 67
     1
  8
２
 62
     0
100
AcDbMText
 10
347.7579586848451
 20
18.08829855961802
 30
0.0
 40
2.5
 41
10.0
 71
     5
 72
     5
  1
{\fMS UI Gothic|b0|i0|c128|p50;品\P\P名}
 73
     1
 44
1.0
  0
MTEXT
  5
F7
330
1B
100
AcDbEntity
 67
     1
  8
２
 62
     0
100
AcDbMText
 10
347.7579586848451
 20
4.588298559618021
 30
0.0
 40
2.0
 41
10.0
 71
     5
 72
     5
  1
{\fMS UI Gothic|b0|i0|c128|p50;品番}
 73
     1
 44
1.0
  0
LINE
  5
F8
330
1B
100
AcDbEntity
 67
     1
  8
２
 62
     0
100
AcDbLine
 10
342.7579586848451
 20
28.08829855961801
 30
0.0
 11
352.757958684845
 21
28.08829855961801
 31
0.0
  0
LINE
  5
F9
330
1B
100
AcDbEntity
 67
     1
  8
２
 62
     0
100
AcDbLine
 10
352.757958684845
 20
1.08829855961801
 30
0.0
 11
342.7579586848451
 21
1.08829855961801
 31
0.0
  0
LINE
  5
FA
330
1B
100
AcDbEntity
 67
     1
  8
２
 62
     0
100
AcDbLine
 10
342.7579586848451
 20
1.08829855961801
 30
0.0
 11
342.7579586848451
 21
28.08829855961801
 31
0.0
  0
LINE
  5
FB
330
1B
100
AcDbEntity
 67
     1
  8
２
 62
     0
100
AcDbLine
 10
342.7579586848451
 20
1.08829855961801
 30
0.0
 11
332.7579586848451
 21
1.08829855961801
 31
0.0
  0
MTEXT
  5
FC
330
1B
100
AcDbEntity
 67
     1
  8
２
 62
     0
100
AcDbMText
 10
330.2579586848451
 20
4.588298559618017
 30
0.0
 40
2.0
 41
5.0
 71
     5
 72
     5
  1
{\fMS UI Gothic|b0|i0|c128|p50;縮\P尺}
 73
     1
 44
1.0
  0
LINE
  5
FD
330
1B
100
AcDbEntity
 67
     1
  8
２
 62
     0
100
AcDbLine
 10
327.757958684845
 20
8.08829855961801
 30
0.0
 11
327.757958684845
 21
1.08829855961801
 31
0.0
  0
LINE
  5
FE
330
1B
100
AcDbEntity
 67
     1
  8
２
 62
     0
100
AcDbLine
 10
332.7579586848451
 20
1.08829855961801
 30
0.0
 11
332.7579586848451
 21
8.08829855961801
 31
0.0
  0
LINE
  5
FF
330
1B
100
AcDbEntity
 67
     1
  8
２
 62
     0
100
AcDbLine
 10
332.7579586848451
 20
8.08829855961801
 30
0.0
 11
327.757958684845
 21
8.08829855961801
 31
0.0
  0
LINE
  5
100
330
1B
100
AcDbEntity
 67
     1
  8
２
 62
     0
100
AcDbLine
 10
342.7579586848451
 20
8.08829855961801
 30
0.0
 11
342.7579586848451
 21
13.08829855961801
 31
0.0
  0
LINE
  5
101
330
1B
100
AcDbEntity
 67
     1
  8
２
 62
     0
100
AcDbLine
 10
342.7579586848451
 20
18.08829855961798
 30
0.0
 11
342.7579586848451
 21
23.08829855961798
 31
0.0
  0
LINE
  5
102
330
1B
100
AcDbEntity
 67
     1
  8
２
 62
     0
100
AcDbLine
 10
352.757958684845
 20
28.08829855961801
 30
0.0
 11
352.757958684845
 21
8.08829855961801
 31
0.0
  0
LINE
  5
103
330
1B
100
AcDbEntity
 67
     1
  8
２
 62
     0
100
AcDbLine
 10
352.757958684845
 20
8.08829855961801
 30
0.0
 11
352.757958684845
 21
1.08829855961801
 31
0.0
  0
LINE
  5
104
330
1B
100
AcDbEntity
 67
     1
  8
２
 62
     0
100
AcDbLine
 10
407.757958684845
 20
1.08829855961801
 30
0.0
 11
407.7579586848449
 21
28.08829855961801
 31
0.0
  0
LINE
  5
105
330
1B
100
AcDbEntity
 67
     1
  8
２
 62
     0
100
AcDbLine
 10
407.757958684845
 20
1.08829855961801
 30
0.0
 11
407.757958684845
 21
8.08829855961801
 31
0.0
  0
LINE
  5
10E
330
1B
100
AcDbEntity
 67
     1
  8
２
 62
     0
 48
0.3
100
AcDbLine
 10
348.1319795129643
 20
277.1869416790318
 30
0.0
 11
407.82803226079
 21
277.1869416790318
 31
0.0
  0
LINE
  5
10F
330
1B
100
AcDbEntity
 67
     1
  8
２
 62
     0
 48
0.3
100
AcDbLine
 10
348.1319795129643
 20
277.1869416790318
 30
0.0
 11
348.1319795129643
 21
284.1844718556203
 31
0.0
  0
LINE
  5
111
330
1B
100
AcDbEntity
 67
     1
  8
２
 62
     0
 48
0.3
100
AcDbLine
 10
358.9855818391189
 20
284.1844718556203
 30
0.0
 11
358.9855818391189
 21
277.1869416790318
 31
0.0
  0
MTEXT
  5
112
330
1B
100
AcDbEntity
 67
     1
  8
２
 62
     0
100
AcDbMText
 10
255.2579586848451
 20
10.58829855961801
 30
0.0
 40
2.5
 41
15.0
 71
     5
 72
     5
  1
{\fMS UI Gothic|b0|i0|c128|p17;１}
 73
     1
 44
1.0
  0
MTEXT
  5
113
330
1B
100
AcDbEntity
 67
     1
  8
２
 62
     0
100
AcDbMText
 10
255.2579586848449
 20
15.58829855961798
 30
0.0
 40
2.5
 41
15.0
 71
     5
 72
     5
  1
{\fMS UI Gothic|b0|i0|c128|p17;２}
 73
     1
 44
1.0
  0
MTEXT
  5
114
330
1B
100
AcDbEntity
 67
     1
  8
２
 62
     0
100
AcDbMText
 10
255.257958684845
 20
20.58829855961795
 30
0.0
 40
2.5
 41
15.0
 71
     5
 72
     5
  1
{\fMS UI Gothic|b0|i0|c128|p17;３}
 73
     1
 44
1.0
  0
MTEXT
  5
115
330
1B
100
AcDbEntity
 67
     1
  8
２
 62
     0
100
AcDbMText
 10
353.5587795129643
 20
280.6857067673261
 30
0.0
 40
2.5
 41
10.8536
 71
     5
 72
     5
  1
{\fMS UI Gothic|b0|i0|c128|p17;日付}
 73
     1
 44
1.0
  0
MTEXT
  5
1DD
330
1B
100
AcDbEntity
 67
     1
  8
１
100
AcDbMText
 10
187.6389970102438
 20
148.8327383458293
 30
0.0
 40
2.5
 41
0.0
 71
     9
 72
     1
  1

  7
ｽﾀｲﾙ1
 73
     1
 44
1.0
  0
MTEXT
  5
1DF
330
1B
100
AcDbEntity
 67
     1
  8
１
100
AcDbMText
 10
125.9251163363451
 20
100.1557259194321
 30
0.0
 40
2.5
 41
0.0
 71
     9
 72
     1
  1

  7
ｽﾀｲﾙ1
 73
     1
 44
1.0
  0
MTEXT
  5
1F5
330
1B
100
AcDbEntity
 67
     1
  8
１
100
AcDbMText
 10
95.93852678293661
 20
241.1781167614512
 30
0.0
 40
2.5
 41
0.0
 71
     1
 72
     1
  1

  7
ｽﾀｲﾙ1
 73
     1
 44
1.0
  0
MTEXT
  5
1F7
330
1B
100
AcDbEntity
 67
     1
  8
１
100
AcDbMText
 10
103.8845037960281
 20
221.796204377297
 30
0.0
 40
2.5
 41
0.0
 71
     1
 72
     1
  1

  7
ｽﾀｲﾙ1
 73
     1
 44
1.0
  0
ENDSEC
  0
SECTION
  2
OBJECTS
  0
DICTIONARY
  5
C
330
0
100
AcDbDictionary
281
     1
  3
ACAD_GROUP
350
D
  3
ACAD_IMAGE_VARS
350
2B
  3
ACAD_LAYOUT
350
1A
  3
ACAD_MLINESTYLE
350
17
  3
ACAD_PLOTSETTINGS
350
19
  3
ACAD_PLOTSTYLENAME
350
E
  3
AcadDim
350
9468
  3
AcDbVariableDictionary
350
65AD
  3
DWGPROPS
350
7E1
  0
DICTIONARY
  5
D
102
{ACAD_REACTORS
330
C
102
}
330
C
100
AcDbDictionary
281
     1
  0
RASTERVARIABLES
  5
2B
102
{ACAD_REACTORS
330
C
102
}
330
C
100
AcDbRasterVariables
 90
        0
 70
     1
 71
     1
 72
     1
  0
DICTIONARY
  5
1A
102
{ACAD_REACTORS
330
C
102
}
330
C
100
AcDbDictionary
281
     1
  3
Model
350
22
  3
ﾚｲｱｳﾄ1
350
1E
  3
ﾚｲｱｳﾄ2
350
26
  0
DICTIONARY
  5
17
102
{ACAD_REACTORS
330
C
102
}
330
C
100
AcDbDictionary
281
     1
  3
Standard
350
18
  0
DICTIONARY
  5
19
102
{ACAD_REACTORS
330
C
102
}
330
C
100
AcDbDictionary
281
     1
  0
ACDBDICTIONARYWDFLT
  5
E
102
{ACAD_REACTORS
330
C
102
}
330
C
100
AcDbDictionary
281
     1
  3
Normal
350
F
100
AcDbDictionaryWithDefault
340
F
  0
XRECORD
  5
9468
102
{ACAD_REACTORS
330
C
102
}
330
C
100
AcDbXrecord
280
     1
 90
   990106
  3

 60
     0
 61
     0
 62
     1
 63
     3
 64
     0
 65
     0
 66
     0
 67
     3
 68
     1
 69
     0
 70
     0
 71
     0
 72
     0
 40
20.43801309868158
170
     0
340
A541
  0
DICTIONARY
  5
65AD
102
{ACAD_REACTORS
330
C
102
}
330
C
100
AcDbDictionary
281
     1
  3
SORTENTS
350
65AE
  0
XRECORD
  5
7E1
102
{ACAD_REACTORS
330
C
102
}
330
C
100
AcDbXrecord
280
     1
  1
DWGPROPS COOKIE
  2

  3

  4

  6

  7

  8

  9

300
=
301
=
302
=
303
=
304
=
305
=
306
=
307
=
308
=
309
=
 40
0.1525764814814815
 41
2454873.622250069
 42
2455268.41966037
  1

 90
        0
  0
LAYOUT
  5
22
102
{ACAD_REACTORS
330
1A
102
}
330
1A
100
AcDbPlotSettings
  1

  2
RICOH IPSiO G515
  4
A3
  6

 40
5.873749732971191
 41
5.873747825622558
 42
5.873748779296875
 43
5.873748779296875
 44
296.9259948730469
 45
419.9466552734374
 46
0.0
 47
0.0
 48
0.0
 49
0.0
140
0.0
141
0.0
142
1.0
143
1.959971811730723
 70
 11952
 72
     1
 73
     1
 74
     1
  7

 75
     0
147
0.5102114193759578
148
117.6657051803588
149
-817.5266692991444
100
AcDbLayout
  1
Model
 70
     1
 71
     0
 10
0.0
 20
0.0
 11
12.0
 21
9.0
 12
0.0
 22
0.0
 32
0.0
 14
0.0
 24
0.0
 34
0.0
 15
0.0
 25
0.0
 35
0.0
146
0.0
 13
0.0
 23
0.0
 33
0.0
 16
1.0
 26
0.0
 36
0.0
 17
0.0
 27
1.0
 37
0.0
 76
     0
330
1F
  0
LAYOUT
  5
1E
102
{ACAD_REACTORS
330
1A
102
}
330
1A
100
AcDbPlotSettings
  1

  2
RICOH imagio MP C3500 RPCS
  4
A3
  6

 40
5.873749732971191
 41
5.873747825622558
 42
5.873748779296875
 43
5.873748779296875
 44
296.9259948730469
 45
419.9466552734374
 46
0.0
 47
0.0
 48
0.0
 49
0.0
140
0.0
141
0.0
142
1.0
143
1.0
 70
   688
 72
     1
 73
     1
 74
     5
  7

 75
    16
147
1.0
148
0.0
149
0.0
100
AcDbLayout
  1
ﾚｲｱｳﾄ1
 70
     1
 71
     1
 10
-5.873748779296875
 20
-5.873749732971191
 11
414.0729064941406
 21
291.0522451400757
 12
0.0
 22
0.0
 32
0.0
 14
1.042221639059562
 24
1.08829855961801
 34
0.0
 15
407.82803226079
 25
284.1844718556203
 35
0.0
146
0.0
 13
0.0
 23
0.0
 33
0.0
 16
1.0
 26
0.0
 36
0.0
 17
0.0
 27
1.0
 37
0.0
 76
     0
330
1B
331
2F
  0
LAYOUT
  5
26
102
{ACAD_REACTORS
330
1A
102
}
330
1A
100
AcDbPlotSettings
  1

  2
RICOH imagio Neo C380 RPCS
  4

  6

 40
0.0
 41
0.0
 42
0.0
 43
0.0
 44
0.0
 45
0.0
 46
0.0
 47
0.0
 48
0.0
 49
0.0
140
0.0
141
0.0
142
1.0
143
1.0
 70
   688
 72
     0
 73
     1
 74
     5
  7

 75
    16
147
1.0
148
0.0
149
0.0
100
AcDbLayout
  1
ﾚｲｱｳﾄ2
 70
     1
 71
     2
 10
0.0
 20
0.0
 11
0.0
 21
0.0
 12
0.0
 22
0.0
 32
0.0
 14
0.0
 24
0.0
 34
0.0
 15
0.0
 25
0.0
 35
0.0
146
0.0
 13
0.0
 23
0.0
 33
0.0
 16
1.0
 26
0.0
 36
0.0
 17
0.0
 27
1.0
 37
0.0
 76
     0
330
23
331
922
  0
MLINESTYLE
  5
18
102
{ACAD_REACTORS
330
17
102
}
330
17
100
AcDbMlineStyle
  2
STANDARD
 70
     0
  3

 62
   256
 51
90.0
 52
90.0
 71
     2
 49
0.5
 62
   256
  6
BYLAYER
 49
-0.5
 62
   256
  6
BYLAYER
  0
ACDBPLACEHOLDER
  5
F
102
{ACAD_REACTORS
330
E
102
}
330
E
  0
DICTIONARYVAR
  5
65AE
102
{ACAD_REACTORS
330
65AD
102
}
330
65AD
100
DictionaryVariables
280
     0
  1
96
  0
ENDSEC
  0
EOF
