  0
SECTION
  2
HEADER
  9
$ACADVER
  1
AC1015
  9
$ACADMAINTVER
 70
     6
  9
$DWGCODEPAGE
  3
ANSI_932
  9
$INSBASE
 10
0.0
 20
0.0
 30
0.0
  9
$EXTMIN
 10
1.000000000000000E+20
 20
1.000000000000000E+20
 30
1.000000000000000E+20
  9
$EXTMAX
 10
-1.000000000000000E+20
 20
-1.000000000000000E+20
 30
-1.000000000000000E+20
  9
$LIMMIN
 10
0.0
 20
0.0
  9
$LIMMAX
 10
420.0
 20
297.0
  9
$ORTHOMODE
 70
     0
  9
$REGENMODE
 70
     1
  9
$FILLMODE
 70
     1
  9
$QTEXTMODE
 70
     0
  9
$MIRRTEXT
 70
     1
  9
$LTSCALE
 40
1.0
  9
$ATTMODE
 70
     1
  9
$TEXTSIZE
 40
3.0
  9
$TRACEWID
 40
1.0
  9
$TEXTSTYLE
  7
Standard
  9
$CLAYER
  8
0
  9
$CELTYPE
  6
ByLayer
  9
$CECOLOR
 62
   256
  9
$CELTSCALE
 40
0.3
  9
$DISPSILH
 70
     0
  9
$DIMSCALE
 40
1.0
  9
$DIMASZ
 40
2.5
  9
$DIMEXO
 40
0.625
  9
$DIMDLI
 40
3.75
  9
$DIMRND
 40
0.0
  9
$DIMDLE
 40
0.0
  9
$DIMEXE
 40
1.25
  9
$DIMTP
 40
0.0
  9
$DIMTM
 40
0.0
  9
$DIMTXT
 40
2.5
  9
$DIMCEN
 40
2.5
  9
$DIMTSZ
 40
0.0
  9
$DIMTOL
 70
     0
  9
$DIMLIM
 70
     0
  9
$DIMTIH
 70
     0
  9
$DIMTOH
 70
     0
  9
$DIMSE1
 70
     0
  9
$DIMSE2
 70
     0
  9
$DIMTAD
 70
     1
  9
$DIMZIN
 70
     8
  9
$DIMBLK
  1

  9
$DIMASO
 70
     1
  9
$DIMSHO
 70
     1
  9
$DIMPOST
  1

  9
$DIMAPOST
  1

  9
$DIMALT
 70
     0
  9
$DIMALTD
 70
     3
  9
$DIMALTF
 40
0.03937007874016
  9
$DIMLFAC
 40
1.0
  9
$DIMTOFL
 70
     1
  9
$DIMTVP
 40
0.0
  9
$DIMTIX
 70
     0
  9
$DIMSOXD
 70
     0
  9
$DIMSAH
 70
     0
  9
$DIMBLK1
  1

  9
$DIMBLK2
  1

  9
$DIMSTYLE
  2
ISO-25
  9
$DIMCLRD
 70
     0
  9
$DIMCLRE
 70
     0
  9
$DIMCLRT
 70
     0
  9
$DIMTFAC
 40
1.0
  9
$DIMGAP
 40
0.625
  9
$DIMJUST
 70
     0
  9
$DIMSD1
 70
     0
  9
$DIMSD2
 70
     0
  9
$DIMTOLJ
 70
     0
  9
$DIMTZIN
 70
     8
  9
$DIMALTZ
 70
     0
  9
$DIMALTTZ
 70
     0
  9
$DIMUPT
 70
     0
  9
$DIMDEC
 70
     2
  9
$DIMTDEC
 70
     2
  9
$DIMALTU
 70
     2
  9
$DIMALTTD
 70
     3
  9
$DIMTXSTY
  7
Standard
  9
$DIMAUNIT
 70
     0
  9
$DIMADEC
 70
     0
  9
$DIMALTRND
 40
0.0
  9
$DIMAZIN
 70
     0
  9
$DIMDSEP
 70
    44
  9
$DIMATFIT
 70
     3
  9
$DIMFRAC
 70
     0
  9
$DIMLDRBLK
  1

  9
$DIMLUNIT
 70
     2
  9
$DIMLWD
 70
    -2
  9
$DIMLWE
 70
    -2
  9
$DIMTMOVE
 70
     0
  9
$LUNITS
 70
     2
  9
$LUPREC
 70
     4
  9
$SKETCHINC
 40
1.0
  9
$FILLETRAD
 40
10.0
  9
$AUNITS
 70
     0
  9
$AUPREC
 70
     0
  9
$MENU
  1
.
  9
$ELEVATION
 40
0.0
  9
$PELEVATION
 40
0.0
  9
$THICKNESS
 40
0.0
  9
$LIMCHECK
 70
     0
  9
$CHAMFERA
 40
0.5
  9
$CHAMFERB
 40
0.75
  9
$CHAMFERC
 40
20.0
  9
$CHAMFERD
 40
0.0
  9
$SKPOLY
 70
     0
  9
$TDCREATE
 40
2453895.692694328
  9
$TDUCREATE
 40
2453895.317694328
  9
$TDUPDATE
 40
2459109.565698414
  9
$TDUUPDATE
 40
2459109.190698414
  9
$TDINDWG
 40
0.1605447685
  9
$TDUSRTIMER
 40
0.1605434954
  9
$USRTIMER
 70
     1
  9
$ANGBASE
 50
0.0
  9
$ANGDIR
 70
     0
  9
$PDMODE
 70
     0
  9
$PDSIZE
 40
0.0
  9
$PLINEWID
 40
0.0
  9
$SPLFRAME
 70
     0
  9
$SPLINETYPE
 70
     6
  9
$SPLINESEGS
 70
     8
  9
$HANDSEED
  5
90D
  9
$SURFTAB1
 70
     6
  9
$SURFTAB2
 70
     6
  9
$SURFTYPE
 70
     6
  9
$SURFU
 70
     6
  9
$SURFV
 70
     6
  9
$UCSBASE
  2

  9
$UCSNAME
  2

  9
$UCSORG
 10
0.0
 20
0.0
 30
0.0
  9
$UCSXDIR
 10
1.0
 20
0.0
 30
0.0
  9
$UCSYDIR
 10
0.0
 20
1.0
 30
0.0
  9
$UCSORTHOREF
  2

  9
$UCSORTHOVIEW
 70
     0
  9
$UCSORGTOP
 10
0.0
 20
0.0
 30
0.0
  9
$UCSORGBOTTOM
 10
0.0
 20
0.0
 30
0.0
  9
$UCSORGLEFT
 10
0.0
 20
0.0
 30
0.0
  9
$UCSORGRIGHT
 10
0.0
 20
0.0
 30
0.0
  9
$UCSORGFRONT
 10
0.0
 20
0.0
 30
0.0
  9
$UCSORGBACK
 10
0.0
 20
0.0
 30
0.0
  9
$PUCSBASE
  2

  9
$PUCSNAME
  2

  9
$PUCSORG
 10
0.0
 20
0.0
 30
0.0
  9
$PUCSXDIR
 10
1.0
 20
0.0
 30
0.0
  9
$PUCSYDIR
 10
0.0
 20
1.0
 30
0.0
  9
$PUCSORTHOREF
  2

  9
$PUCSORTHOVIEW
 70
     0
  9
$PUCSORGTOP
 10
0.0
 20
0.0
 30
0.0
  9
$PUCSORGBOTTOM
 10
0.0
 20
0.0
 30
0.0
  9
$PUCSORGLEFT
 10
0.0
 20
0.0
 30
0.0
  9
$PUCSORGRIGHT
 10
0.0
 20
0.0
 30
0.0
  9
$PUCSORGFRONT
 10
0.0
 20
0.0
 30
0.0
  9
$PUCSORGBACK
 10
0.0
 20
0.0
 30
0.0
  9
$USERI1
 70
     0
  9
$USERI2
 70
     0
  9
$USERI3
 70
     0
  9
$USERI4
 70
     0
  9
$USERI5
 70
     0
  9
$USERR1
 40
0.0
  9
$USERR2
 40
0.0
  9
$USERR3
 40
0.0
  9
$USERR4
 40
0.0
  9
$USERR5
 40
0.0
  9
$WORLDVIEW
 70
     1
  9
$SHADEDGE
 70
     3
  9
$SHADEDIF
 70
    70
  9
$TILEMODE
 70
     0
  9
$MAXACTVP
 70
    64
  9
$PINSBASE
 10
0.0
 20
0.0
 30
0.0
  9
$PLIMCHECK
 70
     0
  9
$PEXTMIN
 10
36.80374580367322
 20
5.217604330321989
 30
-0.0015258207003583
  9
$PEXTMAX
 10
298.8359112903091
 20
195.235304502372
 30
0.0000000349246037
  9
$PLIMMIN
 10
19.31982785548422
 20
-4.773546072597362
  9
$PLIMMAX
 10
316.3198278554842
 20
205.2264539274026
  9
$UNITMODE
 70
     0
  9
$VISRETAIN
 70
     1
  9
$PLINEGEN
 70
     0
  9
$PSLTSCALE
 70
     1
  9
$TREEDEPTH
 70
  3020
  9
$CMLSTYLE
  2
Standard
  9
$CMLJUST
 70
     0
  9
$CMLSCALE
 40
20.0
  9
$PROXYGRAPHICS
 70
     1
  9
$MEASUREMENT
 70
     1
  9
$CELWEIGHT
370
    -1
  9
$ENDCAPS
280
     0
  9
$JOINSTYLE
280
     0
  9
$LWDISPLAY
290
     0
  9
$INSUNITS
 70
     4
  9
$HYPERLINKBASE
  1

  9
$STYLESHEET
  1

  9
$XEDIT
290
     1
  9
$CEPSNTYPE
380
     0
  9
$PSTYLEMODE
290
     0
  9
$FINGERPRINTGUID
  2
{048D73A1-A980-11D2-9A39-0060089B3A3F}
  9
$VERSIONGUID
  2
{A781C6C8-2B20-4FD7-AAEB-D1703EF948E3}
  9
$EXTNAMES
290
     1
  9
$PSVPSCALE
 40
0.0
  9
$OLESTARTUP
290
     0
  0
ENDSEC
  0
SECTION
  2
CLASSES
  0
CLASS
  1
ACDBDICTIONARYWDFLT
  2
AcDbDictionaryWithDefault
  3
AutoCAD 2000
 90
        0
280
     0
281
     0
  0
CLASS
  1
ACDBPLACEHOLDER
  2
AcDbPlaceHolder
  3
AutoCAD 2000
 90
        0
280
     0
281
     0
  0
CLASS
  1
LAYOUT
  2
AcDbLayout
  3
AutoCAD 2000
 90
        0
280
     0
281
     0
  0
CLASS
  1
PLOTSETTINGS
  2
AcDbPlotSettings
  3
AutoCAD 2000
 90
        0
280
     0
281
     0
  0
CLASS
  1
DICTIONARYVAR
  2
AcDbDictionaryVar
  3
AutoCAD 2000
 90
        0
280
     0
281
     0
  0
ENDSEC
  0
SECTION
  2
TABLES
  0
TABLE
  2
VPORT
  5
8
330
0
100
AcDbSymbolTable
 70
     1
  0
VPORT
  5
FF
330
8
100
AcDbSymbolTableRecord
100
AcDbViewportTableRecord
  2
*Active
 70
     0
 10
0.0
 20
0.0
 11
1.0
 21
1.0
 12
456.8348989517673
 22
245.6023170182188
 13
0.0
 23
0.0
 14
10.0
 24
10.0
 15
10.0
 25
10.0
 16
0.0
 26
0.0
 36
1.0
 17
0.0
 27
0.0
 37
0.0
 40
536.6907785088731
 41
1.709923664122137
 42
50.0
 43
0.0
 44
0.0
 50
0.0
 51
0.0
 71
     0
 72
   100
 73
     1
 74
     3
 75
     0
 76
     0
 77
     0
 78
     0
281
     0
 65
     1
110
0.0
120
0.0
130
0.0
111
1.0
121
0.0
131
0.0
112
0.0
122
1.0
132
0.0
 79
     0
146
0.0
  0
ENDTAB
  0
TABLE
  2
LTYPE
  5
5
330
0
100
AcDbSymbolTable
 70
     4
  0
LTYPE
  5
14
330
5
100
AcDbSymbolTableRecord
100
AcDbLinetypeTableRecord
  2
ByBlock
 70
     0
  3

 72
    65
 73
     0
 40
0.0
  0
LTYPE
  5
15
330
5
100
AcDbSymbolTableRecord
100
AcDbLinetypeTableRecord
  2
ByLayer
 70
     0
  3

 72
    65
 73
     0
 40
0.0
  0
LTYPE
  5
16
330
5
100
AcDbSymbolTableRecord
100
AcDbLinetypeTableRecord
  2
Continuous
 70
     0
  3
Solid line
 72
    65
 73
     0
 40
0.0
  0
LTYPE
  5
139
330
5
100
AcDbSymbolTableRecord
100
AcDbLinetypeTableRecord
  2
CENTER
 70
     0
  3
Center ____ _ ____ _ ____ _ ____ _ ____ _ ____
 72
    65
 73
     4
 40
50.8
 49
31.75
 74
     0
 49
-6.349999999999999
 74
     0
 49
6.349999999999999
 74
     0
 49
-6.349999999999999
 74
     0
  0
LTYPE
  5
13A
330
5
100
AcDbSymbolTableRecord
100
AcDbLinetypeTableRecord
  2
HIDDEN
 70
     0
  3
Hidden __ __ __ __ __ __ __ __ __ __ __ __ __ _
 72
    65
 73
     2
 40
9.524999999999998
 49
6.349999999999999
 74
     0
 49
-3.174999999999999
 74
     0
  0
LTYPE
  5
13B
330
5
100
AcDbSymbolTableRecord
100
AcDbLinetypeTableRecord
  2
PHANTOM
 70
     0
  3
Phantom ______  __  __  ______  __  __  ______
 72
    65
 73
     6
 40
63.5
 49
31.75
 74
     0
 49
-6.349999999999999
 74
     0
 49
6.349999999999999
 74
     0
 49
-6.349999999999999
 74
     0
 49
6.349999999999999
 74
     0
 49
-6.349999999999999
 74
     0
  0
ENDTAB
  0
TABLE
  2
LAYER
  5
2
330
0
100
AcDbSymbolTable
 70
     9
  0
LAYER
  5
10
330
2
100
AcDbSymbolTableRecord
100
AcDbLayerTableRecord
  2
0
 70
     0
 62
     2
  6
Continuous
370
     9
390
F
  0
LAYER
  5
42
330
2
100
AcDbSymbolTableRecord
100
AcDbLayerTableRecord
  2
Object
 70
     0
 62
     3
  6
Continuous
370
    18
390
F
  0
LAYER
  5
C3
330
2
100
AcDbSymbolTableRecord
100
AcDbLayerTableRecord
  2
Defined Points
 70
     0
 62
     2
  6
Continuous
290
     0
370
    13
390
F
  0
LAYER
  5
C9
330
2
100
AcDbSymbolTableRecord
100
AcDbLayerTableRecord
  2
Title Block
 70
     0
 62
     2
  6
Continuous
370
    13
390
F
  0
LAYER
  5
CA
330
2
100
AcDbSymbolTableRecord
100
AcDbLayerTableRecord
  2
Viewport
 70
     0
 62
     2
  6
Continuous
370
    13
390
F
  0
LAYER
  5
146
330
2
100
AcDbSymbolTableRecord
100
AcDbLayerTableRecord
  2
Center
 70
     0
 62
     6
  6
CENTER
370
    13
390
F
  0
LAYER
  5
147
330
2
100
AcDbSymbolTableRecord
100
AcDbLayerTableRecord
  2
Hidden
 70
     0
 62
     4
  6
HIDDEN
370
    13
390
F
  0
LAYER
  5
148
330
2
100
AcDbSymbolTableRecord
100
AcDbLayerTableRecord
  2
Phantom
 70
     0
 62
     4
  6
PHANTOM
370
    13
390
F
  0
LAYER
  5
16C
330
2
100
AcDbSymbolTableRecord
100
AcDbLayerTableRecord
  2
Defpoints
 70
     0
 62
     7
  6
Continuous
290
     0
370
    -3
390
F
  0
ENDTAB
  0
TABLE
  2
STYLE
  5
3
330
0
100
AcDbSymbolTable
 70
     3
  0
STYLE
  5
11
330
3
100
AcDbSymbolTableRecord
100
AcDbTextStyleTableRecord
  2
Standard
 70
     0
 40
0.0
 41
1.0
 50
0.0
 71
     0
 42
3.0
  3
txt.shx
  4
bigfont.shx
  0
STYLE
  5
3B
330
3
100
AcDbSymbolTableRecord
100
AcDbTextStyleTableRecord
  2
Roman
 70
     0
 40
0.0
 41
1.0
 50
0.0
 71
     0
 42
5.0
  3
romans
  4
bigfont
  0
STYLE
  5
138
330
3
100
AcDbSymbolTableRecord
100
AcDbTextStyleTableRecord
  2

 70
     1
 40
0.0
 41
1.0
 50
0.0
 71
     0
 42
2.5
  3
ltypeshp.shx
  4

  0
ENDTAB
  0
TABLE
  2
VIEW
  5
6
330
0
100
AcDbSymbolTable
 70
     0
  0
ENDTAB
  0
TABLE
  2
UCS
  5
7
330
0
100
AcDbSymbolTable
 70
     0
  0
ENDTAB
  0
TABLE
  2
APPID
  5
9
330
0
100
AcDbSymbolTable
 70
     1
  0
APPID
  5
12
330
9
100
AcDbSymbolTableRecord
100
AcDbRegAppTableRecord
  2
ACAD
 70
     0
  0
ENDTAB
  0
TABLE
  2
DIMSTYLE
  5
A
330
0
100
AcDbSymbolTable
 70
     3
100
AcDbDimStyleTable
 71
     2
340
27
340
C2
  0
DIMSTYLE
105
27
102
{ACAD_REACTORS
330
60F
330
622
330
623
330
626
102
}
330
A
100
AcDbSymbolTableRecord
100
AcDbDimStyleTableRecord
  2
ISO-25
 70
     0
 41
2.5
 42
0.625
 43
3.75
 44
1.25
 73
     0
 74
     0
 77
     1
 78
     8
140
2.5
141
2.5
143
0.03937007874016
147
0.625
171
     3
172
     1
271
     2
272
     2
274
     3
278
    44
283
     0
284
     8
340
11
  0
DIMSTYLE
105
C2
330
A
100
AcDbSymbolTableRecord
100
AcDbDimStyleTableRecord
  2
JIS
 70
     0
 41
2.5
 42
1.0
 43
7.0
 44
1.0
 73
     0
 74
     0
 77
     1
 78
     8
140
2.5
141
0.0
143
0.0394
147
0.0
172
     1
174
     1
175
     1
340
11
  0
DIMSTYLE
105
59D
330
A
100
AcDbSymbolTableRecord
100
AcDbDimStyleTableRecord
  2
ｺﾋﾟｰ - ISO-25
 70
     0
 41
2.5
 42
0.625
 43
3.75
 44
1.25
 73
     0
 74
     0
 77
     1
 78
     8
140
2.5
141
2.5
143
0.03937007874016
147
0.625
171
     3
172
     1
271
     2
272
     2
274
     3
283
     0
284
     8
340
11
343
567
  0
ENDTAB
  0
TABLE
  2
BLOCK_RECORD
  5
1
330
0
100
AcDbSymbolTable
 70
     6
  0
BLOCK_RECORD
  5
1F
330
1
100
AcDbSymbolTableRecord
100
AcDbBlockTableRecord
  2
*Model_Space
340
22
  0
BLOCK_RECORD
  5
1B
330
1
100
AcDbSymbolTableRecord
100
AcDbBlockTableRecord
  2
*Paper_Space
340
1E
  0
BLOCK_RECORD
  5
31
330
1
100
AcDbSymbolTableRecord
100
AcDbBlockTableRecord
  2
JIS A4 title block (landscape)
340
0
310
2800000020000000200000000100080000000000000400000000000000000000000000000000000000000000000080000080000000808000800000008000800080800000C0C0C000C0DCC000F0CAA6000020400000206000002080000020A0000020C0000020E00000400000004020000040400000406000004080000040A0
310
000040C0000040E00000600000006020000060400000606000006080000060A0000060C0000060E00000800000008020000080400000806000008080000080A0000080C0000080E00000A0000000A0200000A0400000A0600000A0800000A0A00000A0C00000A0E00000C0000000C0200000C0400000C0600000C0800000C0
310
A00000C0C00000C0E00000E0000000E0200000E0400000E0600000E0800000E0A00000E0C00000E0E00040000000400020004000400040006000400080004000A0004000C0004000E00040200000402020004020400040206000402080004020A0004020C0004020E000404000004040200040404000404060004040800040
310
40A0004040C0004040E00040600000406020004060400040606000406080004060A0004060C0004060E00040800000408020004080400040806000408080004080A0004080C0004080E00040A0000040A0200040A0400040A0600040A0800040A0A00040A0C00040A0E00040C0000040C0200040C0400040C0600040C08000
310
40C0A00040C0C00040C0E00040E0000040E0200040E0400040E0600040E0800040E0A00040E0C00040E0E00080000000800020008000400080006000800080008000A0008000C0008000E00080200000802020008020400080206000802080008020A0008020C0008020E00080400000804020008040400080406000804080
310
008040A0008040C0008040E00080600000806020008060400080606000806080008060A0008060C0008060E00080800000808020008080400080806000808080008080A0008080C0008080E00080A0000080A0200080A0400080A0600080A0800080A0A00080A0C00080A0E00080C0000080C0200080C0400080C0600080C0
310
800080C0A00080C0C00080C0E00080E0000080E0200080E0400080E0600080E0800080E0A00080E0C00080E0E000C0000000C0002000C0004000C0006000C0008000C000A000C000C000C000E000C0200000C0202000C0204000C0206000C0208000C020A000C020C000C020E000C0400000C0402000C0404000C0406000C0
310
408000C040A000C040C000C040E000C0600000C0602000C0604000C0606000C0608000C060A000C060C000C060E000C0800000C0802000C0804000C0806000C0808000C080A000C080C000C080E000C0A00000C0A02000C0A04000C0A06000C0A08000C0A0A000C0A0C000C0A0E000C0C00000C0C02000C0C04000C0C06000
310
C0C08000C0C0A000F0FBFF00A4A0A000808080000000FF0000FF000000FFFF00FF000000FF00FF00FFFF0000FFFFFF00FFFFFFFFFFFFFFFFFFFFFFFFFFFFFFFFFFFFFFFFFFFFFFFFFFFFFFFFFFFFFFFFFFFFFFFFFFFFFFFFFFFFFFFFFFFFFFFFFFFFFFFFFFFFFFFFFFFFFFFFFFFFFFFFFFFFFFFFFFFFFFFFFFFFFFFFFFFFFF
310
FFFFFFFFFFFFFFFFFFFFFFFFFFFFFFFFFFFFFFFFFFFFFFFFFFFFFFFFFFFFFFFFFFFFFFFFFFFFFFFFFFFFFFFFFFFFFFFFFFFFFFFFFFFFFFFFFFFFFFFFFFFFFFFFFFFFFFFFFFFFFFFFFFFFFFFFFFFFFFFFFFFFFFFFFFFFFFFFFFFFFFFFFFFFFFFFFFFFFFFFFFFFFFFFFFFFFFFFFFFFFFFFFFFF00000000000000000000000000
310
0000FFFF00FFFFFFFFFF00FF0000FFFF00FFFFFFFFFF0000000000000000000000FFFFFFFFFFFFFFFFFFFFFFFFFFFFFFFFFFFFFFFFFF0000000000000000000000FFFFFFFFFFFFFFFFFFFFFFFFFFFFFFFFFFFFFFFF000000000000000000000000FFFFFFFFFFFFFFFFFFFFFFFFFFFF00FFFFFFFFFFFF00FFFFFFFFFFFFFFFF
310
FFFFFFFFFFFFFFFFFFFFFFFFFFFFFFFFFFFFFFFFFFFF0000FFFFFFFFFFFFFFFFFFFFFFFFFFFFFFFFFFFFFFFFFFFFFFFF00FFFFFFFFFFFF00FFFFFFFFFFFFFFFFFFFFFFFFFFFFFFFFFFFFFFFFFFFFFFFF00FFFFFFFFFF0000FFFFFFFFFFFFFFFFFFFFFFFFFFFFFFFFFFFFFFFFFFFFFFFF00FFFFFFFFFFFF00FFFFFFFFFFFFFF
310
FFFFFFFFFFFFFFFFFFFFFFFFFFFFFFFFFF00FFFFFFFFFFFF00FFFFFFFFFFFFFFFFFFFFFFFFFFFFFFFFFFFFFFFFFFFFFFFF00FFFFFF00000000FFFFFFFFFFFFFFFFFFFFFFFFFFFFFFFFFFFFFFFFFFFFFFFF0000FFFFFFFFFF00FFFFFFFFFFFFFFFFFFFFFFFFFFFFFFFFFFFFFFFFFFFFFFFF00FFFFFFFFFF0000FFFFFFFFFFFF
310
FFFFFFFFFFFFFFFFFFFFFFFFFFFFFFFFFFFF00FFFFFFFFFFFF00FFFFFFFFFFFFFFFFFFFFFFFFFFFFFFFFFFFFFFFFFFFFFFFF00FFFFFFFFFF0000FFFFFFFFFFFFFFFFFFFFFFFFFFFFFFFFFFFFFFFFFFFFFFFF00FFFFFFFFFFFF00FFFFFFFFFFFFFFFFFFFFFFFFFFFFFFFFFFFFFFFFFFFFFFFF00FFFFFFFFFF0000FFFFFFFFFF
310
FFFFFFFFFFFFFFFFFFFFFFFFFFFFFFFFFFFFFF00FFFFFFFFFFFF00FFFFFFFFFFFFFFFFFFFFFFFFFFFFFFFFFFFFFFFFFFFFFFFF00FFFFFFFFFFFF00FFFFFFFFFFFFFFFFFFFFFFFFFFFFFFFFFFFFFFFFFFFFFFFF00FFFFFF000000000000000000000000000000000000000000000000000000000000FFFFFFFFFFFFFFFFFFFF
310
FFFFFFFFFFFFFFFFFFFFFFFFFFFFFFFFFFFFFFFFFFFFFFFFFFFFFFFFFFFFFFFFFFFFFFFFFFFFFFFFFFFFFFFFFFFFFFFFFFFFFFFFFFFFFFFFFFFFFFFFFFFFFFFFFFFFFFFFFFFFFFFFFFFFFFFFFFFFFFFFFFFFFFFFFFFFFFFFFFFFFFFFFFFFFFFFFFFFFFFFFFFFFFFFFFFFFFFFFFFFFFFFFFFFFFFFFFFFFFFFFFFFFFFFFFFFFF
310
FFFFFFFFFFFFFFFFFFFFFFFFFFFFFFFFFFFFFFFFFFFFFFFFFFFFFFFFFFFFFFFFFFFFFFFFFFFFFFFFFFFFFFFFFFFFFFFFFFFFFFFFFFFFFFFF
1001
ACAD
1000
DesignCenter Data
1002
{
1070
     1
1070
     4
1002
}
  0
BLOCK_RECORD
  5
567
330
1
100
AcDbSymbolTableRecord
100
AcDbBlockTableRecord
  2
_Dot
340
0
  0
BLOCK_RECORD
  5
67C
330
1
100
AcDbSymbolTableRecord
100
AcDbBlockTableRecord
  2
*D2
340
0
  0
BLOCK_RECORD
  5
68A
330
1
100
AcDbSymbolTableRecord
100
AcDbBlockTableRecord
  2
*D3
340
0
  0
BLOCK_RECORD
  5
695
330
1
100
AcDbSymbolTableRecord
100
AcDbBlockTableRecord
  2
*D4
340
0
  0
BLOCK_RECORD
  5
6A1
330
1
100
AcDbSymbolTableRecord
100
AcDbBlockTableRecord
  2
*D5
340
0
  0
ENDTAB
  0
ENDSEC
  0
SECTION
  2
BLOCKS
  0
BLOCK
  5
20
330
1F
100
AcDbEntity
  8
0
100
AcDbBlockBegin
  2
*Model_Space
 70
     0
 10
0.0
 20
0.0
 30
0.0
  3
*Model_Space
  1

  0
ENDBLK
  5
21
330
1F
100
AcDbEntity
  8
0
100
AcDbBlockEnd
  0
BLOCK
  5
1C
330
1B
100
AcDbEntity
 67
     1
  8
0
100
AcDbBlockBegin
  2
*Paper_Space
 70
     0
 10
0.0
 20
0.0
 30
0.0
  3
*Paper_Space
  1

  0
ENDBLK
  5
1D
330
1B
100
AcDbEntity
 67
     1
  8
0
100
AcDbBlockEnd
  0
BLOCK
  5
B0
330
31
100
AcDbEntity
  8
0
100
AcDbBlockBegin
  2
JIS A4 title block (landscape)
 70
     2
 10
0.0
 20
0.0
 30
0.0
  3
JIS A4 title block (landscape)
  1

  4
JIS A4 title block and attributes (landscape)
  0
LINE
  5
32
330
31
100
AcDbEntity
  8
0
100
AcDbLine
 10
287.0
 20
10.0
 30
0.0
 11
25.0
 21
10.0
 31
0.0
  0
LINE
  5
33
330
31
100
AcDbEntity
  8
0
100
AcDbLine
 10
25.0
 20
200.0
 30
0.0
 11
287.0
 21
200.0
 31
0.0
  0
LINE
  5
34
330
31
100
AcDbEntity
  8
0
 62
     0
100
AcDbLine
 10
157.2978723404242
 20
49.00000000000036
 30
0.0
 11
287.0
 21
49.00000000000036
 31
0.0
  0
LINE
  5
35
330
31
100
AcDbEntity
  8
0
 62
     0
100
AcDbLine
 10
157.2978723404242
 20
13.00000000000004
 30
0.0
 11
287.0
 21
13.00000000000004
 31
0.0
  0
LINE
  5
36
330
31
100
AcDbEntity
  8
0
 62
     0
100
AcDbLine
 10
157.2978723404242
 20
37.00000000000024
 30
0.0
 11
287.0
 21
37.00000000000024
 31
0.0
  0
LINE
  5
37
330
31
100
AcDbEntity
  8
0
 62
     0
100
AcDbLine
 10
195.1276595744673
 20
22.00000000000012
 30
0.0
 11
287.0
 21
22.00000000000012
 31
0.0
  0
LINE
  5
38
330
31
100
AcDbEntity
  8
0
 62
     0
100
AcDbLine
 10
157.2978723404242
 20
10.0
 30
0.0
 11
287.0
 21
10.0
 31
0.0
  0
LINE
  5
39
330
31
100
AcDbEntity
  8
0
 62
     0
100
AcDbLine
 10
287.0
 20
49.00000000000036
 30
0.0
 11
157.2978723404242
 21
49.00000000000036
 31
0.0
  0
TEXT
  5
3A
330
31
100
AcDbEntity
  8
0
 62
     0
100
AcDbText
 10
209.2960689314087
 20
10.48329012996929
 30
0.0
 40
1.791674070777747
  1
設計
  7
Roman
 72
     1
 11
211.2071879402383
 21
10.48329012996929
 31
0.0
100
AcDbText
  0
LINE
  5
3C
330
31
100
AcDbEntity
  8
0
 62
     0
100
AcDbLine
 10
157.2978723404242
 20
34.00000000000024
 30
0.0
 11
225.7517730496447
 21
34.00000000000024
 31
0.0
  0
LINE
  5
3D
330
31
100
AcDbEntity
  8
0
 62
     0
100
AcDbLine
 10
157.2978723404242
 20
31.0000000000002
 30
0.0
 11
225.7517730496447
 21
31.0000000000002
 31
0.0
  0
LINE
  5
3E
330
31
100
AcDbEntity
  8
0
 62
     0
100
AcDbLine
 10
157.2978723404242
 20
28.00000000000015
 30
0.0
 11
225.7517730496447
 21
28.00000000000015
 31
0.0
  0
LINE
  5
3F
330
31
100
AcDbEntity
  8
0
 62
     0
100
AcDbLine
 10
195.1276595744673
 20
25.00000000000012
 30
0.0
 11
225.7517730496447
 21
25.00000000000012
 31
0.0
  0
LINE
  5
40
330
31
100
AcDbEntity
  8
0
100
AcDbLine
 10
25.0
 20
10.0
 30
0.0
 11
25.0
 21
200.0
 31
0.0
  0
LINE
  5
41
330
31
100
AcDbEntity
  8
Object
100
AcDbLine
 10
130.0
 20
16.0
 30
0.0
 11
25.0
 21
16.0
 31
0.0
  0
LINE
  5
43
330
31
100
AcDbEntity
  8
Object
100
AcDbLine
 10
130.0
 20
22.0
 30
0.0
 11
25.0
 21
22.0
 31
0.0
  0
LINE
  5
44
330
31
100
AcDbEntity
  8
Object
100
AcDbLine
 10
130.0
 20
28.0
 30
0.0
 11
25.0
 21
28.0
 31
0.0
  0
LINE
  5
45
330
31
100
AcDbEntity
  8
Object
100
AcDbLine
 10
130.0
 20
34.0
 30
0.0
 11
25.0
 21
34.0
 31
0.0
  0
LINE
  5
46
330
31
100
AcDbEntity
  8
Object
100
AcDbLine
 10
130.0
 20
40.0
 30
0.0
 11
25.0
 21
40.0
 31
0.0
  0
TEXT
  5
47
330
31
100
AcDbEntity
  8
0
100
AcDbText
 10
1.0
 20
1.0
 30
0.0
 40
3.0
  1
この図枠はサンプルです。社内の規格やプロッタの出力範囲に合わせて適当に変更してご利用ください。
  7
Roman
100
AcDbText
  0
LINE
  5
48
330
31
100
AcDbEntity
  8
0
100
AcDbLine
 10
25.0
 20
0.0
 30
0.0
 11
0.0
 21
0.0
 31
0.0
  0
LINE
  5
49
330
31
100
AcDbEntity
  8
0
100
AcDbLine
 10
0.0
 20
0.0
 30
0.0
 11
0.0
 21
10.0
 31
0.0
  0
LINE
  5
4A
330
31
100
AcDbEntity
  8
0
100
AcDbLine
 10
68.66666666666668
 20
10.0
 30
0.0
 11
68.66666666666668
 21
5.0
 31
0.0
  0
TEXT
  5
4B
330
31
100
AcDbEntity
  8
0
100
AcDbText
 10
45.61904761904759
 20
6.230338100985607
 30
0.0
 40
3.0
  1
1
  7
Roman
 72
     1
 11
46.83333333333331
 21
6.230338100985607
 31
0.0
100
AcDbText
  0
LINE
  5
4C
330
31
100
AcDbEntity
  8
Object
100
AcDbLine
 10
35.0
 20
10.0
 30
0.0
 11
35.0
 21
40.0
 31
0.0
  0
LINE
  5
4D
330
31
100
AcDbEntity
  8
Object
100
AcDbLine
 10
32.0
 20
29.53589799999999
 30
0.0
 11
30.0
 21
33.0
 31
0.0
  0
LINE
  5
4E
330
31
100
AcDbEntity
  8
Object
100
AcDbLine
 10
28.0
 20
29.53589799999999
 30
0.0
 11
30.0
 21
33.0
 31
0.0
  0
LINE
  5
4F
330
31
100
AcDbEntity
  8
Object
100
AcDbLine
 10
28.0
 20
11.53589799999999
 30
0.0
 11
30.0
 21
15.0
 31
0.0
  0
LINE
  5
50
330
31
100
AcDbEntity
  8
Object
100
AcDbLine
 10
28.0
 20
11.53589799999999
 30
0.0
 11
32.0
 21
11.53589799999999
 31
0.0
  0
LINE
  5
51
330
31
100
AcDbEntity
  8
Object
100
AcDbLine
 10
28.0
 20
17.535898
 30
0.0
 11
32.0
 21
17.535898
 31
0.0
  0
LINE
  5
52
330
31
100
AcDbEntity
  8
Object
100
AcDbLine
 10
28.0
 20
17.535898
 30
0.0
 11
30.0
 21
20.99999999999999
 31
0.0
  0
LINE
  5
53
330
31
100
AcDbEntity
  8
Object
100
AcDbLine
 10
28.0
 20
23.53589799999999
 30
0.0
 11
32.0
 21
23.53589799999999
 31
0.0
  0
LINE
  5
54
330
31
100
AcDbEntity
  8
Object
100
AcDbLine
 10
28.0
 20
23.53589799999999
 30
0.0
 11
30.0
 21
26.99999999999999
 31
0.0
  0
LINE
  5
55
330
31
100
AcDbEntity
  8
Object
100
AcDbLine
 10
28.0
 20
29.53589799999999
 30
0.0
 11
32.0
 21
29.53589799999999
 31
0.0
  0
ATTDEF
  5
56
330
31
100
AcDbEntity
  8
0
 62
     0
100
AcDbText
 10
19.0
 20
10.0
 30
0.0
 40
3.0
  1

 50
90.0
  7
Roman
100
AcDbAttributeDefinition
  3
Author:
  2
USER
 70
     8
  0
LINE
  5
57
330
31
100
AcDbEntity
  8
Object
100
AcDbLine
 10
32.0
 20
17.535898
 30
0.0
 11
30.0
 21
20.99999999999999
 31
0.0
  0
LINE
  5
58
330
31
100
AcDbEntity
  8
Object
100
AcDbLine
 10
32.0
 20
11.53589799999999
 30
0.0
 11
30.0
 21
15.0
 31
0.0
  0
LINE
  5
59
330
31
100
AcDbEntity
  8
Object
100
AcDbLine
 10
39.5
 20
13.0
 30
0.0
 11
40.49999999999999
 21
13.0
 31
0.0
  0
LINE
  5
5A
330
31
100
AcDbEntity
  8
Object
100
AcDbLine
 10
44.5
 20
13.0
 30
0.0
 11
45.49999999999999
 21
13.0
 31
0.0
  0
LINE
  5
5B
330
31
100
AcDbEntity
  8
Object
100
AcDbLine
 10
39.5
 20
19.0
 30
0.0
 11
40.49999999999999
 21
19.0
 31
0.0
  0
LINE
  5
5C
330
31
100
AcDbEntity
  8
Object
100
AcDbLine
 10
44.5
 20
19.0
 30
0.0
 11
45.49999999999999
 21
19.0
 31
0.0
  0
LINE
  5
5D
330
31
100
AcDbEntity
  8
Object
100
AcDbLine
 10
32.0
 20
23.53589799999999
 30
0.0
 11
30.0
 21
26.99999999999999
 31
0.0
  0
LINE
  5
5E
330
31
100
AcDbEntity
  8
Object
100
AcDbLine
 10
39.5
 20
25.0
 30
0.0
 11
40.49999999999999
 21
25.0
 31
0.0
  0
LINE
  5
5F
330
31
100
AcDbEntity
  8
Object
100
AcDbLine
 10
44.5
 20
25.0
 30
0.0
 11
45.49999999999999
 21
25.0
 31
0.0
  0
LINE
  5
60
330
31
100
AcDbEntity
  8
Object
100
AcDbLine
 10
39.5
 20
31.0
 30
0.0
 11
40.49999999999999
 21
31.0
 31
0.0
  0
LINE
  5
61
330
31
100
AcDbEntity
  8
Object
100
AcDbLine
 10
44.5
 20
31.0
 30
0.0
 11
45.49999999999999
 21
31.0
 31
0.0
  0
LINE
  5
62
330
31
100
AcDbEntity
  8
Object
100
AcDbLine
 10
28.0
 20
35.53589799999999
 30
0.0
 11
30.0
 21
39.0
 31
0.0
  0
LINE
  5
63
330
31
100
AcDbEntity
  8
Object
100
AcDbLine
 10
28.0
 20
35.53589799999999
 30
0.0
 11
32.0
 21
35.53589799999999
 31
0.0
  0
TEXT
  5
64
330
31
100
AcDbEntity
  8
0
100
AcDbText
 10
21.37568307432492
 20
33.75
 30
0.0
 40
3.0
  1
D
  7
Roman
 72
     1
 11
22.94711164575349
 21
33.75
 31
0.0
100
AcDbText
  0
LINE
  5
65
330
31
100
AcDbEntity
  8
Object
100
AcDbLine
 10
32.0
 20
35.53589799999999
 30
0.0
 11
30.0
 21
39.0
 31
0.0
  0
LINE
  5
66
330
31
100
AcDbEntity
  8
Object
100
AcDbLine
 10
39.5
 20
37.0
 30
0.0
 11
40.49999999999999
 21
37.0
 31
0.0
  0
LINE
  5
67
330
31
100
AcDbEntity
  8
Object
100
AcDbLine
 10
44.5
 20
37.0
 30
0.0
 11
45.49999999999999
 21
37.0
 31
0.0
  0
LINE
  5
68
330
31
100
AcDbEntity
  8
Object
100
AcDbLine
 10
50.0
 20
10.0
 30
0.0
 11
50.0
 21
40.0
 31
0.0
  0
LINE
  5
69
330
31
100
AcDbEntity
  8
0
100
AcDbLine
 10
25.0
 20
105.0
 30
0.0
 11
0.0
 21
105.0
 31
0.0
  0
ATTDEF
  5
6A
330
31
100
AcDbEntity
  8
0
 62
     0
100
AcDbText
 10
19.0
 20
70.0
 30
0.0
 40
3.0
  1

 50
90.0
  7
Roman
100
AcDbAttributeDefinition
  3
Revision date:
  2
REVDATE
 70
     8
  0
LINE
  5
6B
330
31
100
AcDbEntity
  8
0
100
AcDbLine
 10
25.0
 20
57.5
 30
0.0
 11
20.0
 21
57.5
 31
0.0
  0
TEXT
  5
6C
330
31
100
AcDbEntity
  8
0
100
AcDbText
 10
21.44711164575349
 20
81.25
 30
0.0
 40
3.0
  1
C
  7
Roman
 72
     1
 11
22.94711164575349
 21
81.25
 31
0.0
100
AcDbText
  0
ATTDEF
  5
6D
330
31
100
AcDbEntity
  8
0
 62
     0
100
AcDbText
 10
19.0
 20
118.0
 30
0.0
 40
3.0
  1

 50
90.0
  7
Roman
100
AcDbAttributeDefinition
  3
File name:
  2
FNAME
 70
     8
  0
LINE
  5
6E
330
31
100
AcDbEntity
  8
0
100
AcDbLine
 10
25.0
 20
105.0
 30
0.0
 11
20.0
 21
105.0
 31
0.0
  0
TEXT
  5
6F
330
31
100
AcDbEntity
  8
0
100
AcDbText
 10
21.37568307432492
 20
128.75
 30
0.0
 40
3.0
  1
B
  7
Roman
 72
     1
 11
22.94711164575349
 21
128.75
 31
0.0
100
AcDbText
  0
LINE
  5
70
330
31
100
AcDbEntity
  8
0
100
AcDbLine
 10
112.3333333333333
 20
10.0
 30
0.0
 11
112.3333333333333
 21
5.0
 31
0.0
  0
TEXT
  5
71
330
31
100
AcDbEntity
  8
0
100
AcDbText
 10
89.07142857142856
 20
6.230338100985607
 30
0.0
 40
3.0
  1
2
  7
Roman
 72
     1
 11
90.5
 21
6.230338100985607
 31
0.0
100
AcDbText
  0
TEXT
  5
72
330
31
100
AcDbEntity
  8
0
100
AcDbText
 10
132.7380952380952
 20
6.230338100985607
 30
0.0
 40
3.0
  1
3
  7
Roman
 72
     1
 11
134.1666666666666
 21
6.230338100985607
 31
0.0
100
AcDbText
  0
LINE
  5
73
330
31
100
AcDbEntity
  8
Object
100
AcDbLine
 10
80.0
 20
10.0
 30
0.0
 11
80.0
 21
40.0
 31
0.0
  0
LINE
  5
74
330
31
100
AcDbEntity
  8
Object
100
AcDbLine
 10
120.0
 20
10.0
 30
0.0
 11
120.0
 21
40.0
 31
0.0
  0
LINE
  5
75
330
31
100
AcDbEntity
  8
Object
100
AcDbLine
 10
130.0
 20
40.0
 30
0.0
 11
130.0
 21
10.0
 31
0.0
  0
LINE
  5
76
330
31
100
AcDbEntity
  8
0
100
AcDbLine
 10
156.0
 20
10.0
 30
0.0
 11
156.0
 21
0.0
 31
0.0
  0
LINE
  5
77
330
31
100
AcDbEntity
  8
0
100
AcDbLine
 10
156.0
 20
10.0
 30
0.0
 11
156.0
 21
5.0
 31
0.0
  0
LINE
  5
78
330
31
100
AcDbEntity
  8
0
100
AcDbLine
 10
199.6666666666666
 20
10.0
 30
0.0
 11
199.6666666666666
 21
5.0
 31
0.0
  0
TEXT
  5
79
330
31
100
AcDbEntity
  8
0
100
AcDbText
 10
176.3333333333333
 20
6.230338100985607
 30
0.0
 40
3.0
  1
4
  7
Roman
 72
     1
 11
177.8333333333333
 21
6.230338100985607
 31
0.0
100
AcDbText
  0
LINE
  5
7A
330
31
100
AcDbEntity
  8
0
 62
     0
100
AcDbLine
 10
157.2978723404242
 20
16.00000000000008
 30
0.0
 11
195.1276595744673
 21
16.00000000000008
 31
0.0
  0
LINE
  5
7B
330
31
100
AcDbEntity
  8
0
 62
     0
100
AcDbLine
 10
157.2978723404242
 20
25.00000000000012
 30
0.0
 11
195.1276595744673
 21
25.00000000000012
 31
0.0
  0
LINE
  5
7C
330
31
100
AcDbEntity
  8
0
 62
     0
100
AcDbLine
 10
157.2978723404242
 20
22.00000000000007
 30
0.0
 11
195.1276595744673
 21
22.00000000000012
 31
0.0
  0
LINE
  5
7D
330
31
100
AcDbEntity
  8
0
 62
     0
100
AcDbLine
 10
157.2978723404242
 20
19.00000000000007
 30
0.0
 11
195.1276595744673
 21
19.00000000000012
 31
0.0
  0
LINE
  5
7E
330
31
100
AcDbEntity
  8
0
 62
     0
100
AcDbLine
 10
162.702127659573
 20
37.00000000000024
 30
0.0
 11
162.702127659573
 21
10.0
 31
0.0
  0
LINE
  5
7F
330
31
100
AcDbEntity
  8
0
 62
     0
100
AcDbLine
 10
157.2978723404242
 20
49.00000000000036
 30
0.0
 11
157.2978723404242
 21
10.0
 31
0.0
  0
LINE
  5
80
330
31
100
AcDbEntity
  8
0
 62
     0
100
AcDbLine
 10
157.2978723404242
 20
10.0
 30
0.0
 11
157.2978723404242
 21
13.00000000000004
 31
0.0
  0
LINE
  5
81
330
31
100
AcDbEntity
  8
0
 62
     0
100
AcDbLine
 10
180.7163120567365
 20
37.00000000000024
 30
0.0
 11
180.7163120567365
 21
10.0
 31
0.0
  0
LINE
  5
82
330
31
100
AcDbEntity
  8
0
 62
     0
100
AcDbLine
 10
189.7234042553184
 20
37.00000000000024
 30
0.0
 11
189.7234042553184
 21
10.0
 31
0.0
  0
LINE
  5
83
330
31
100
AcDbEntity
  8
0
 62
     0
100
AcDbLine
 10
195.1276595744673
 20
49.00000000000036
 30
0.0
 11
195.1276595744673
 21
25.00000000000012
 31
0.0
  0
LINE
  5
84
330
31
100
AcDbEntity
  8
0
 62
     0
100
AcDbLine
 10
202.3333333333325
 20
37.00000000000024
 30
0.0
 11
202.3333333333325
 21
25.00000000000012
 31
0.0
  0
LINE
  5
85
330
31
100
AcDbEntity
  8
0
 62
     0
100
AcDbLine
 10
195.1276595744673
 20
25.00000000000012
 30
0.0
 11
195.1276595744673
 21
10.0
 31
0.0
  0
LINE
  5
86
330
31
100
AcDbEntity
  8
0
 62
     0
100
AcDbLine
 10
205.7659574468077
 20
22.00000000000007
 30
0.0
 11
205.7659574468077
 21
10.0
 31
0.0
  0
TEXT
  5
87
330
31
100
AcDbEntity
  8
0
 62
     0
100
AcDbText
 10
198.7174935280942
 20
10.48329012996929
 30
0.0
 40
1.791674070777747
  1
製図
  7
Roman
 72
     1
 11
200.5688900678978
 21
10.48329012996929
 31
0.0
100
AcDbText
  0
LINE
  5
88
330
31
100
AcDbEntity
  8
0
100
AcDbLine
 10
0.0
 20
210.0
 30
0.0
 11
25.0
 21
210.0
 31
0.0
  0
LINE
  5
89
330
31
100
AcDbEntity
  8
0
100
AcDbLine
 10
0.0
 20
200.0
 30
0.0
 11
0.0
 21
210.0
 31
0.0
  0
LINE
  5
8A
330
31
100
AcDbEntity
  8
0
100
AcDbLine
 10
25.0
 20
152.5
 30
0.0
 11
20.0
 21
152.5
 31
0.0
  0
TEXT
  5
8B
330
31
100
AcDbEntity
  8
0
100
AcDbText
 10
21.66139736003921
 20
176.25
 30
0.0
 40
3.0
  1
A
  7
Roman
 72
     1
 11
22.94711164575349
 21
176.25
 31
0.0
100
AcDbText
  0
TEXT
  5
8C
330
31
100
AcDbEntity
  8
0
100
AcDbText
 10
45.61904761904761
 20
201.0
 30
0.0
 40
3.0
  1
1
  7
Roman
 72
     1
 11
46.83333333333332
 21
201.0
 31
0.0
100
AcDbText
  0
LINE
  5
8D
330
31
100
AcDbEntity
  8
0
100
AcDbLine
 10
68.66666666666666
 20
200.0
 30
0.0
 11
68.66666666666666
 21
205.0
 31
0.0
  0
TEXT
  5
8E
330
31
100
AcDbEntity
  8
0
100
AcDbText
 10
89.07142857142856
 20
201.0
 30
0.0
 40
3.0
  1
2
  7
Roman
 72
     1
 11
90.5
 21
201.0
 31
0.0
100
AcDbText
  0
LINE
  5
8F
330
31
100
AcDbEntity
  8
0
100
AcDbLine
 10
112.3333333333333
 20
200.0
 30
0.0
 11
112.3333333333333
 21
205.0
 31
0.0
  0
TEXT
  5
90
330
31
100
AcDbEntity
  8
0
100
AcDbText
 10
132.7380952380952
 20
201.0
 30
0.0
 40
3.0
  1
3
  7
Roman
 72
     1
 11
134.1666666666666
 21
201.0
 31
0.0
100
AcDbText
  0
TEXT
  5
91
330
31
100
AcDbEntity
  8
0
100
AcDbText
 10
176.3333333333333
 20
201.0
 30
0.0
 40
3.0
  1
4
  7
Roman
 72
     1
 11
177.8333333333333
 21
201.0
 31
0.0
100
AcDbText
  0
LINE
  5
92
330
31
100
AcDbEntity
  8
0
100
AcDbLine
 10
156.0
 20
200.0
 30
0.0
 11
156.0
 21
210.0
 31
0.0
  0
LINE
  5
93
330
31
100
AcDbEntity
  8
0
100
AcDbLine
 10
156.0
 20
200.0
 30
0.0
 11
156.0
 21
205.0
 31
0.0
  0
LINE
  5
94
330
31
100
AcDbEntity
  8
0
100
AcDbLine
 10
199.6666666666666
 20
200.0
 30
0.0
 11
199.6666666666666
 21
205.0
 31
0.0
  0
LINE
  5
95
330
31
100
AcDbEntity
  8
0
100
AcDbLine
 10
287.0
 20
200.0
 30
0.0
 11
287.0
 21
10.0
 31
0.0
  0
LINE
  5
96
330
31
100
AcDbEntity
  8
0
100
AcDbLine
 10
243.3333333333333
 20
10.0
 30
0.0
 11
243.3333333333333
 21
5.0
 31
0.0
  0
TEXT
  5
97
330
31
100
AcDbEntity
  8
0
100
AcDbText
 10
220.0714285714286
 20
6.230338100985607
 30
0.0
 40
3.0
  1
5
  7
Roman
 72
     1
 11
221.4999999999999
 21
6.230338100985607
 31
0.0
100
AcDbText
  0
TEXT
  5
98
330
31
100
AcDbEntity
  8
0
100
AcDbText
 10
263.6666666666666
 20
6.230338100985607
 30
0.0
 40
3.0
  1
6
  7
Roman
 72
     1
 11
265.1666666666666
 21
6.230338100985607
 31
0.0
100
AcDbText
  0
LINE
  5
99
330
31
100
AcDbEntity
  8
0
 62
     0
100
AcDbLine
 10
225.7517730496447
 20
49.00000000000036
 30
0.0
 11
225.7517730496447
 21
10.0
 31
0.0
  0
LINE
  5
9A
330
31
100
AcDbEntity
  8
0
 62
     0
100
AcDbLine
 10
213.1418439716305
 20
49.00000000000036
 30
0.0
 11
213.1418439716305
 21
22.00000000000012
 31
0.0
  0
LINE
  5
9B
330
31
100
AcDbEntity
  8
0
 62
     0
100
AcDbLine
 10
216.4042553191484
 20
22.00000000000007
 30
0.0
 11
216.4042553191484
 21
10.0
 31
0.0
  0
TEXT
  5
9C
330
31
100
AcDbEntity
  8
0
 62
     0
100
AcDbText
 10
219.2447163844405
 20
10.55220101068186
 30
0.0
 40
1.791674070777747
  1
照査
  7
Roman
 72
     1
 11
221.1558353932701
 21
10.55220101068186
 31
0.0
100
AcDbText
  0
LINE
  5
9D
330
31
100
AcDbEntity
  8
0
100
AcDbLine
 10
297.0
 20
10.0
 30
0.0
 11
297.0
 21
0.0
 31
0.0
  0
LINE
  5
9E
330
31
100
AcDbEntity
  8
0
100
AcDbLine
 10
297.0
 20
0.0
 30
0.0
 11
287.0
 21
0.0
 31
0.0
  0
LINE
  5
9F
330
31
100
AcDbEntity
  8
0
 62
     0
100
AcDbLine
 10
287.0
 20
49.00000000000036
 30
0.0
 11
287.0
 21
10.0
 31
0.0
  0
LINE
  5
A0
330
31
100
AcDbEntity
  8
0
 62
     0
100
AcDbLine
 10
287.0
 20
10.0
 30
0.0
 11
287.0
 21
49.00000000000036
 31
0.0
  0
LINE
  5
A1
330
31
100
AcDbEntity
  8
0
 62
     0
100
AcDbLine
 10
279.7943262411347
 20
22.00000000000012
 30
0.0
 11
279.7943262411347
 21
10.0
 31
0.0
  0
LINE
  5
A2
330
31
100
AcDbEntity
  8
0
 62
     0
100
AcDbLine
 10
279.7943262411347
 20
16.00000000000008
 30
0.0
 11
287.0
 21
16.00000000000008
 31
0.0
  0
TEXT
  5
A3
330
31
100
AcDbEntity
  8
0
100
AcDbText
 10
287.6673438822666
 20
33.75
 30
0.0
 40
3.0
  1
D
  7
Roman
 72
     1
 11
289.2387724536952
 21
33.75
 31
0.0
100
AcDbText
  0
LINE
  5
A4
330
31
100
AcDbEntity
  8
0
100
AcDbLine
 10
287.0
 20
57.5
 30
0.0
 11
292.0
 21
57.5
 31
0.0
  0
TEXT
  5
A5
330
31
100
AcDbEntity
  8
0
100
AcDbText
 10
287.7387724536952
 20
81.25
 30
0.0
 40
3.0
  1
C
  7
Roman
 72
     1
 11
289.2387724536952
 21
81.25
 31
0.0
100
AcDbText
  0
LINE
  5
A6
330
31
100
AcDbEntity
  8
0
100
AcDbLine
 10
287.0
 20
105.0
 30
0.0
 11
297.0
 21
105.0
 31
0.0
  0
LINE
  5
A7
330
31
100
AcDbEntity
  8
0
100
AcDbLine
 10
287.0
 20
105.0
 30
0.0
 11
292.0
 21
105.0
 31
0.0
  0
TEXT
  5
A8
330
31
100
AcDbEntity
  8
0
100
AcDbText
 10
287.6673438822666
 20
128.75
 30
0.0
 40
3.0
  1
B
  7
Roman
 72
     1
 11
289.2387724536952
 21
128.75
 31
0.0
100
AcDbText
  0
TEXT
  5
A9
330
31
100
AcDbEntity
  8
0
100
AcDbText
 10
220.0714285714286
 20
201.0
 30
0.0
 40
3.0
  1
5
  7
Roman
 72
     1
 11
221.4999999999999
 21
201.0
 31
0.0
100
AcDbText
  0
LINE
  5
AA
330
31
100
AcDbEntity
  8
0
100
AcDbLine
 10
243.3333333333333
 20
200.0
 30
0.0
 11
243.3333333333333
 21
205.0
 31
0.0
  0
TEXT
  5
AB
330
31
100
AcDbEntity
  8
0
100
AcDbText
 10
263.6666666666666
 20
201.0
 30
0.0
 40
3.0
  1
6
  7
Roman
 72
     1
 11
265.1666666666666
 21
201.0
 31
0.0
100
AcDbText
  0
LINE
  5
AC
330
31
100
AcDbEntity
  8
0
100
AcDbLine
 10
287.0
 20
152.5
 30
0.0
 11
292.0
 21
152.5
 31
0.0
  0
TEXT
  5
AD
330
31
100
AcDbEntity
  8
0
100
AcDbText
 10
287.9530581679809
 20
176.25
 30
0.0
 40
3.0
  1
A
  7
Roman
 72
     1
 11
289.2387724536952
 21
176.25
 31
0.0
100
AcDbText
  0
LINE
  5
AE
330
31
100
AcDbEntity
  8
0
100
AcDbLine
 10
287.0
 20
210.0
 30
0.0
 11
297.0
 21
210.0
 31
0.0
  0
LINE
  5
AF
330
31
100
AcDbEntity
  8
0
100
AcDbLine
 10
297.0
 20
210.0
 30
0.0
 11
297.0
 21
200.0
 31
0.0
  0
ENDBLK
  5
B1
330
31
100
AcDbEntity
  8
0
100
AcDbBlockEnd
  0
BLOCK
  5
56A
330
567
100
AcDbEntity
  8
0
100
AcDbBlockBegin
  2
_Dot
 70
     0
 10
0.0
 20
0.0
 30
0.0
  3
_Dot
  1

  0
LWPOLYLINE
  5
568
330
567
100
AcDbEntity
  8
0
 62
     0
100
AcDbPolyline
 90
        2
 70
     1
 43
0.5
 10
-0.25
 20
0.0
 42
1.0
 10
0.25
 20
0.0
 42
1.0
  0
LINE
  5
569
330
567
100
AcDbEntity
  8
0
 62
     0
370
    -2
100
AcDbLine
 10
-0.5
 20
0.0
 30
0.0
 11
-1.0
 21
0.0
 31
0.0
  0
ENDBLK
  5
56B
330
567
100
AcDbEntity
  8
0
100
AcDbBlockEnd
  0
BLOCK
  5
688
330
67C
100
AcDbEntity
  8
0
 48
0.3
100
AcDbBlockBegin
  2
*D2
 70
     1
 10
0.0
 20
0.0
 30
0.0
  3
*D2
  1

  0
LINE
  5
8D2
330
67C
100
AcDbEntity
  8
0
 62
     0
 48
0.3
370
    -2
100
AcDbLine
 10
134.115698657078
 20
76.29468973962423
 30
0.0
 11
123.3258954053882
 21
76.29468973962423
 31
0.0
  0
LINE
  5
8D3
330
67C
100
AcDbEntity
  8
0
 62
     0
 48
0.3
370
    -2
100
AcDbLine
 10
134.115698657078
 20
74.29468973962423
 30
0.0
 11
123.3258954053882
 21
74.29468973962423
 31
0.0
  0
LINE
  5
8D4
330
67C
100
AcDbEntity
  8
0
 62
     0
 48
0.3
370
    -2
100
AcDbLine
 10
124.5758954053882
 20
78.79468973962423
 30
0.0
 11
124.5758954053882
 21
81.29468973962422
 31
0.0
  0
LINE
  5
8D5
330
67C
100
AcDbEntity
  8
0
 62
     0
 48
0.3
370
    -2
100
AcDbLine
 10
124.5758954053882
 20
71.79468973962423
 30
0.0
 11
124.5758954053882
 21
66.37802307295756
 31
0.0
  0
LINE
  5
8D6
330
67C
100
AcDbEntity
  8
0
 62
     0
 48
0.3
370
    -2
100
AcDbLine
 10
124.5758954053882
 20
76.29468973962423
 30
0.0
 11
124.5758954053882
 21
74.29468973962423
 31
0.0
  0
SOLID
  5
8D7
330
67C
100
AcDbEntity
  8
0
 62
     0
 48
0.3
100
AcDbTrace
 10
124.1592287387215
 20
78.79468973962423
 30
0.0
 11
124.9925620720548
 21
78.79468973962423
 31
0.0
 12
124.5758954053882
 22
76.29468973962423
 32
0.0
 13
124.5758954053882
 23
76.29468973962423
 33
0.0
  0
SOLID
  5
8D8
330
67C
100
AcDbEntity
  8
0
 62
     0
 48
0.3
100
AcDbTrace
 10
124.1592287387215
 20
71.79468973962423
 30
0.0
 11
124.9925620720548
 21
71.79468973962423
 31
0.0
 12
124.5758954053882
 22
74.29468973962423
 32
0.0
 13
124.5758954053882
 23
74.29468973962423
 33
0.0
  0
MTEXT
  5
8D9
330
67C
100
AcDbEntity
  8
0
 62
     0
 48
0.3
100
AcDbMText
 10
122.7008954053882
 20
67.83635640629092
 30
0.0
 40
2.5
 41
0.0
 71
     5
 72
     1
  1
2
 11
0.0000000000000001
 21
1.0
 31
0.0
 73
     1
 44
1.0
  0
POINT
  5
8DA
330
67C
100
AcDbEntity
  8
Defpoints
 62
     0
 48
0.3
100
AcDbPoint
 10
134.740698657078
 20
76.29468973962423
 30
0.0
  0
POINT
  5
8DB
330
67C
100
AcDbEntity
  8
Defpoints
 62
     0
 48
0.3
100
AcDbPoint
 10
134.740698657078
 20
74.29468973962423
 30
0.0
  0
POINT
  5
8DC
330
67C
100
AcDbEntity
  8
Defpoints
 62
     0
 48
0.3
100
AcDbPoint
 10
124.5758954053882
 20
74.29468973962423
 30
0.0
  0
ENDBLK
  5
689
330
67C
100
AcDbEntity
  8
0
 48
0.3
100
AcDbBlockEnd
  0
BLOCK
  5
693
330
68A
100
AcDbEntity
  8
0
 48
0.3
100
AcDbBlockBegin
  2
*D3
 70
     1
 10
0.0
 20
0.0
 30
0.0
  3
*D3
  1

  0
LINE
  5
8F0
330
68A
100
AcDbEntity
  8
0
 62
     0
 48
0.3
370
    -2
100
AcDbLine
 10
176.3100843379873
 20
110.8371098790363
 30
0.0
 11
165.5638475172102
 21
122.2640480604987
 31
0.0
  0
LINE
  5
8F1
330
68A
100
AcDbEntity
  8
0
 62
     0
 48
0.3
370
    -2
100
AcDbLine
 10
153.9175497969456
 20
134.6480599068657
 30
0.0
 11
152.2048589557302
 21
136.4692381195668
 31
0.0
  0
MTEXT
  5
8F2
330
68A
100
AcDbEntity
  8
0
 62
     0
 48
0.3
100
AcDbMText
 10
175.249655972458
 20
114.701630477941
 30
0.0
 40
2.5
 41
0.0
 71
     5
 72
     1
  1
\U+220512
 11
0.6850763364861533
 21
-0.728471285080415
 31
0.0
 73
     1
 44
1.0
  0
LINE
  5
8F3
330
68A
100
AcDbEntity
  8
0
 62
     0
 48
0.3
370
    -2
100
AcDbLine
 10
155.630240638161
 20
132.8268816941647
 30
0.0
 11
163.8511566759949
 21
124.0852262731997
 31
0.0
  0
SOLID
  5
8F4
330
68A
100
AcDbEntity
  8
0
 62
     0
 48
0.3
100
AcDbTrace
 10
154.2210794990625
 20
134.9335083804017
 30
0.0
 11
153.6140200948288
 21
134.3626114333299
 31
0.0
 12
155.630240638161
 22
132.8268816941647
 32
0.0
 13
155.630240638161
 23
132.8268816941647
 33
0.0
  0
SOLID
  5
8F5
330
68A
100
AcDbEntity
  8
0
 62
     0
 48
0.3
100
AcDbTrace
 10
165.867377219327
 20
122.5494965340346
 30
0.0
 11
165.2603178150934
 21
121.9785995869628
 31
0.0
 12
163.8511566759949
 22
124.0852262731997
 32
0.0
 13
163.8511566759949
 23
124.0852262731997
 33
0.0
  0
POINT
  5
8F6
330
68A
100
AcDbEntity
  8
Defpoints
 62
     0
 48
0.3
100
AcDbPoint
 10
163.8511566759949
 20
124.0852262731997
 30
0.0
  0
POINT
  5
8F7
330
68A
100
AcDbEntity
  8
Defpoints
 62
     0
 48
0.3
100
AcDbPoint
 10
155.630240638161
 20
132.8268816941647
 30
0.0
  0
ENDBLK
  5
694
330
68A
100
AcDbEntity
  8
0
 48
0.3
100
AcDbBlockEnd
  0
BLOCK
  5
69F
330
695
100
AcDbEntity
  8
0
 48
0.3
100
AcDbBlockBegin
  2
*D4
 70
     1
 10
0.0
 20
0.0
 30
0.0
  3
*D4
  1

  0
LINE
  5
8E7
330
695
100
AcDbEntity
  8
0
 62
     0
 48
0.3
370
    -2
100
AcDbLine
 10
134.740698657078
 20
118.3310539836823
 30
0.0
 11
134.740698657078
 21
107.2592007581468
 31
0.0
  0
LINE
  5
8E8
330
695
100
AcDbEntity
  8
0
 62
     0
 48
0.3
370
    -2
100
AcDbLine
 10
184.740698657078
 20
118.3310539836823
 30
0.0
 11
184.740698657078
 21
107.2592007581468
 31
0.0
  0
LINE
  5
8E9
330
695
100
AcDbEntity
  8
0
 62
     0
 48
0.3
370
    -2
100
AcDbLine
 10
137.240698657078
 20
108.5092007581468
 30
0.0
 11
182.240698657078
 21
108.5092007581468
 31
0.0
  0
SOLID
  5
8EA
330
695
100
AcDbEntity
  8
0
 62
     0
 48
0.3
100
AcDbTrace
 10
137.240698657078
 20
108.9258674248135
 30
0.0
 11
137.240698657078
 21
108.0925340914802
 31
0.0
 12
134.740698657078
 22
108.5092007581468
 32
0.0
 13
134.740698657078
 23
108.5092007581468
 33
0.0
  0
SOLID
  5
8EB
330
695
100
AcDbEntity
  8
0
 62
     0
 48
0.3
100
AcDbTrace
 10
182.240698657078
 20
108.9258674248135
 30
0.0
 11
182.240698657078
 21
108.0925340914802
 31
0.0
 12
184.740698657078
 22
108.5092007581468
 32
0.0
 13
184.740698657078
 23
108.5092007581468
 33
0.0
  0
MTEXT
  5
8EC
330
695
100
AcDbEntity
  8
0
 62
     0
 48
0.3
100
AcDbMText
 10
159.740698657078
 20
110.3842007581468
 30
0.0
 40
2.5
 41
0.0
 71
     5
 72
     1
  1
50
 73
     1
 44
1.0
  0
POINT
  5
8ED
330
695
100
AcDbEntity
  8
Defpoints
 62
     0
 48
0.3
100
AcDbPoint
 10
134.740698657078
 20
118.9560539836823
 30
0.0
  0
POINT
  5
8EE
330
695
100
AcDbEntity
  8
Defpoints
 62
     0
 48
0.3
100
AcDbPoint
 10
184.740698657078
 20
118.9560539836823
 30
0.0
  0
POINT
  5
8EF
330
695
100
AcDbEntity
  8
Defpoints
 62
     0
 48
0.3
100
AcDbPoint
 10
184.740698657078
 20
108.5092007581468
 30
0.0
  0
ENDBLK
  5
6A0
330
695
100
AcDbEntity
  8
0
 48
0.3
100
AcDbBlockEnd
  0
BLOCK
  5
6AB
330
6A1
100
AcDbEntity
  8
0
 48
0.3
100
AcDbBlockBegin
  2
*D5
 70
     1
 10
0.0
 20
0.0
 30
0.0
  3
*D5
  1

  0
LINE
  5
8F8
330
6A1
100
AcDbEntity
  8
0
 62
     0
 48
0.3
370
    -2
100
AcDbLine
 10
134.615698657078
 20
138.4560539836823
 30
0.0
 11
122.6194079939874
 21
138.4560539836823
 31
0.0
  0
LINE
  5
8F9
330
6A1
100
AcDbEntity
  8
0
 62
     0
 48
0.3
370
    -2
100
AcDbLine
 10
134.615698657078
 20
118.4560539836823
 30
0.0
 11
122.6194079939874
 21
118.4560539836823
 31
0.0
  0
LINE
  5
8FA
330
6A1
100
AcDbEntity
  8
0
 62
     0
 48
0.3
370
    -2
100
AcDbLine
 10
123.8694079939874
 20
135.9560539836823
 30
0.0
 11
123.8694079939874
 21
120.9560539836823
 31
0.0
  0
SOLID
  5
8FB
330
6A1
100
AcDbEntity
  8
0
 62
     0
 48
0.3
100
AcDbTrace
 10
123.4527413273208
 20
135.9560539836823
 30
0.0
 11
124.2860746606541
 21
135.9560539836823
 31
0.0
 12
123.8694079939874
 22
138.4560539836823
 32
0.0
 13
123.8694079939874
 23
138.4560539836823
 33
0.0
  0
SOLID
  5
8FC
330
6A1
100
AcDbEntity
  8
0
 62
     0
 48
0.3
100
AcDbTrace
 10
123.4527413273208
 20
120.9560539836823
 30
0.0
 11
124.2860746606541
 21
120.9560539836823
 31
0.0
 12
123.8694079939874
 22
118.4560539836823
 32
0.0
 13
123.8694079939874
 23
118.4560539836823
 33
0.0
  0
MTEXT
  5
8FD
330
6A1
100
AcDbEntity
  8
0
 62
     0
 48
0.3
100
AcDbMText
 10
121.9944079939874
 20
128.4560539836823
 30
0.0
 40
2.5
 41
0.0
 71
     5
 72
     1
  1
20
 11
0.0000000000000001
 21
1.0
 31
0.0
 73
     1
 44
1.0
  0
POINT
  5
8FE
330
6A1
100
AcDbEntity
  8
Defpoints
 62
     0
 48
0.3
100
AcDbPoint
 10
135.240698657078
 20
138.4560539836823
 30
0.0
  0
POINT
  5
8FF
330
6A1
100
AcDbEntity
  8
Defpoints
 62
     0
 48
0.3
100
AcDbPoint
 10
135.240698657078
 20
118.4560539836823
 30
0.0
  0
POINT
  5
900
330
6A1
100
AcDbEntity
  8
Defpoints
 62
     0
 48
0.3
100
AcDbPoint
 10
123.8694079939874
 20
118.4560539836823
 30
0.0
  0
ENDBLK
  5
6AC
330
6A1
100
AcDbEntity
  8
0
 48
0.3
100
AcDbBlockEnd
  0
ENDSEC
  0
SECTION
  2
ENTITIES
  0
VIEWPORT
  5
2E
330
1B
100
AcDbEntity
 67
     1
  8
0
100
AcDbViewport
 10
202.5859658024957
 20
94.297780704192
 30
0.0
 40
329.7216784686088
 41
218.2966433403056
 68
     1
 69
     1
 12
202.5859658024957
 22
94.297780704192
 13
0.0
 23
0.0
 14
10.0
 24
10.0
 15
10.0
 25
10.0
 16
0.0
 26
0.0
 36
1.0
 17
0.0
 27
0.0
 37
0.0
 42
50.0
 43
0.0
 44
0.0
 45
218.2966433403056
 50
0.0
 51
0.0
 72
   100
 90
    32800
  1

281
     0
 71
     1
 74
     0
110
0.0
120
0.0
130
0.0
111
1.0
121
0.0
131
0.0
112
0.0
122
1.0
132
0.0
 79
     0
146
0.0
  0
VIEWPORT
  5
BD
330
1B
100
AcDbEntity
 67
     1
  8
Viewport
 62
     0
100
AcDbViewport
 10
167.8173008041888
 20
100.2252410244183
 30
0.0
 40
262.0
 41
190.0
 68
     2
 69
     2
 12
210.0
 22
148.5
 13
0.0
 23
0.0
 14
10.0
 24
10.0
 15
10.0
 25
10.0
 16
0.0
 26
0.0
 36
1.0
 17
0.0
 27
0.0
 37
0.0
 42
50.0
 43
0.0
 44
0.0
 45
307.9394925909294
 50
0.0
 51
0.0
 72
   100
 90
    32832
  1

281
     0
 71
     1
 74
     0
110
0.0
120
0.0
130
0.0
111
1.0
121
0.0
131
0.0
112
0.0
122
1.0
132
0.0
 79
     0
146
0.0
  0
LINE
  5
35D
330
1B
100
AcDbEntity
 67
     1
  8
0
 62
     0
 48
0.3
100
AcDbLine
 10
239.121248056363
 20
188.2277108478298
 30
0.0
 11
298.8173008041887
 21
188.2277108478298
 31
0.0
  0
LINE
  5
35E
330
1B
100
AcDbEntity
 67
     1
  8
0
 62
     0
 48
0.3
100
AcDbLine
 10
239.121248056363
 20
188.2277108478298
 30
0.0
 11
239.121248056363
 21
195.2252410244183
 31
0.0
  0
LINE
  5
35F
330
1B
100
AcDbEntity
 67
     1
  8
0
 62
     0
 48
0.3
100
AcDbLine
 10
249.9748503825176
 20
195.2252410244183
 30
0.0
 11
249.9748503825176
 21
188.2277108478298
 31
0.0
  0
MTEXT
  5
360
330
1B
100
AcDbEntity
 67
     1
  8
0
 62
     0
 48
0.3
100
AcDbMText
 10
244.548048056363
 20
191.726475936124
 30
0.0
 40
2.5
 41
10.8536
 71
     5
 72
     5
  1
日付
 73
     1
 44
1.0
  0
DIMENSION
  5
60F
330
1B
100
AcDbEntity
 67
     1
  8
0
 62
     0
 48
0.5
100
AcDbDimension
  2
*D2
 10
124.5758954053882
 20
74.29468973962423
 30
0.0
 11
122.7008954053882
 21
67.83635640629092
 31
0.0
 70
    33
 71
     5
 42
2.0
  3
ISO-25
100
AcDbAlignedDimension
 13
134.740698657078
 23
76.29468973962423
 33
0.0
 14
134.740698657078
 24
74.29468973962423
 34
0.0
  0
LINE
  5
610
330
1B
100
AcDbEntity
 67
     1
  8
0
 62
     0
 48
0.5
100
AcDbLine
 10
178.37569625732
 20
83.78446118182251
 30
0.0
 11
179.740698657078
 21
76.29468973962421
 31
0.0
  0
LINE
  5
611
330
1B
100
AcDbEntity
 67
     1
  8
0
 62
     0
 48
0.5
100
AcDbLine
 10
181.17569625732
 20
83.78446118182251
 30
0.0
 11
179.8636452118066
 21
76.29468973962423
 31
0.0
  0
LINE
  5
612
330
1B
100
AcDbEntity
 67
     1
  8
0
 62
     0
 48
0.5
100
AcDbLine
 10
171.17569625732
 20
83.78446118182255
 30
0.0
 11
169.8636452118066
 21
76.29468973962426
 31
0.0
  0
LINE
  5
613
330
1B
100
AcDbEntity
 67
     1
  8
0
 62
     0
 48
0.5
100
AcDbLine
 10
168.37569625732
 20
83.78446118182255
 30
0.0
 11
169.740698657078
 21
76.29468973962423
 31
0.0
  0
LINE
  5
614
330
1B
100
AcDbEntity
 67
     1
  8
0
 62
     0
 48
0.5
100
AcDbLine
 10
151.17569625732
 20
83.78446118182253
 30
0.0
 11
149.8636452118066
 21
76.29468973962424
 31
0.0
  0
LINE
  5
615
330
1B
100
AcDbEntity
 67
     1
  8
0
 62
     0
 48
0.5
100
AcDbLine
 10
148.37569625732
 20
83.78446118182253
 30
0.0
 11
149.740698657078
 21
76.29468973962421
 31
0.0
  0
LINE
  5
616
330
1B
100
AcDbEntity
 67
     1
  8
0
 62
     0
 48
0.5
100
AcDbLine
 10
138.2527497025914
 20
83.78446118182251
 30
0.0
 11
139.6177521023494
 21
76.29468973962421
 31
0.0
  0
LINE
  5
617
330
1B
100
AcDbEntity
 67
     1
  8
0
 62
     0
 48
0.5
100
AcDbLine
 10
141.0527497025914
 20
83.78446118182251
 30
0.0
 11
139.740698657078
 21
76.29468973962423
 31
0.0
  0
LINE
  5
618
330
1B
100
AcDbEntity
 67
     1
  8
0
 62
     0
 48
0.5
100
AcDbLine
 10
184.740698657078
 20
74.29468973962423
 30
0.0
 11
134.740698657078
 21
74.29468973962423
 31
0.0
  0
LINE
  5
619
330
1B
100
AcDbEntity
 67
     1
  8
0
 62
     0
 48
0.5
100
AcDbLine
 10
159.740698657078
 20
76.29468973962423
 30
0.0
 11
184.740698657078
 21
76.29468973962423
 31
0.0
  0
LINE
  5
61A
330
1B
100
AcDbEntity
 67
     1
  8
0
 62
     0
 48
0.5
100
AcDbLine
 10
134.740698657078
 20
76.29468973962423
 30
0.0
 11
159.740698657078
 21
76.29468973962423
 31
0.0
  0
LINE
  5
61B
330
1B
100
AcDbEntity
 67
     1
  8
0
 62
     0
 48
0.5
100
AcDbLine
 10
139.6177521023494
 20
76.29468973962421
 30
0.0
 11
139.740698657078
 21
76.29468973962423
 31
0.0
  0
LINE
  5
61C
330
1B
100
AcDbEntity
 67
     1
  8
0
 62
     0
 48
0.5
100
AcDbLine
 10
134.740698657078
 20
74.29468973962423
 30
0.0
 11
134.740698657078
 21
76.29468973962423
 31
0.0
  0
LINE
  5
61D
330
1B
100
AcDbEntity
 67
     1
  8
0
 62
     0
 48
0.5
100
AcDbLine
 10
149.740698657078
 20
76.29468973962421
 30
0.0
 11
149.8636452118066
 21
76.29468973962424
 31
0.0
  0
LINE
  5
61E
330
1B
100
AcDbEntity
 67
     1
  8
0
 62
     0
 48
0.5
100
AcDbLine
 10
169.740698657078
 20
76.29468973962423
 30
0.0
 11
169.8636452118066
 21
76.29468973962426
 31
0.0
  0
LINE
  5
61F
330
1B
100
AcDbEntity
 67
     1
  8
0
 62
     0
 48
0.5
100
AcDbLine
 10
179.740698657078
 20
76.29468973962421
 30
0.0
 11
179.8636452118066
 21
76.29468973962423
 31
0.0
  0
LINE
  5
620
330
1B
100
AcDbEntity
 67
     1
  8
0
 62
     0
 48
0.5
100
AcDbLine
 10
184.740698657078
 20
76.29468973962423
 30
0.0
 11
184.740698657078
 21
74.29468973962423
 31
0.0
  0
MTEXT
  5
621
102
{ACAD_REACTORS
330
65F
102
}
330
1B
100
AcDbEntity
 67
     1
  8
0
 62
     0
 48
0.5
100
AcDbMText
 10
154.9525677221082
 20
144.7643900233069
 30
0.0
 40
2.5
 41
0.0
 71
     1
 72
     1
  1
4-%%c3.5(皿%%c7）
 73
     1
 44
1.0
  0
DIMENSION
  5
622
330
1B
100
AcDbEntity
 67
     1
  8
0
 62
     0
 48
0.5
100
AcDbDimension
  2
*D3
 10
155.630240638161
 20
132.8268816941647
 30
0.0
 11
173.8837723129322
 21
113.4171123470295
 31
0.0
 70
   163
 71
     5
 42
12.00000000000002
  3
ISO-25
100
AcDbDiametricDimension
 15
163.8511566759949
 25
124.0852262731997
 35
0.0
 40
0.0
1001
ACAD
1000
DSTYLE
1002
{
1070
   288
1070
     1
1002
}
  0
DIMENSION
  5
623
330
1B
100
AcDbEntity
 67
     1
  8
0
 62
     0
 48
0.5
100
AcDbDimension
  2
*D4
 10
184.740698657078
 20
108.5092007581468
 30
0.0
 11
159.740698657078
 21
110.3842007581468
 31
0.0
 70
    33
 71
     5
 42
50.0
  3
ISO-25
100
AcDbAlignedDimension
 13
134.740698657078
 23
118.9560539836823
 33
0.0
 14
184.740698657078
 24
118.9560539836823
 34
0.0
  0
LINE
  5
624
330
1B
100
AcDbEntity
 67
     1
  8
0
 62
     0
 48
0.2
100
AcDbLine
 10
135.240698657078
 20
138.4560539836823
 30
0.0
 11
184.240698657078
 21
138.4560539836823
 31
0.0
  0
LINE
  5
625
330
1B
100
AcDbEntity
 67
     1
  8
0
 62
     0
 48
0.2
100
AcDbLine
 10
184.240698657078
 20
118.4560539836823
 30
0.0
 11
135.240698657078
 21
118.4560539836823
 31
0.0
  0
DIMENSION
  5
626
330
1B
100
AcDbEntity
 67
     1
  8
0
 62
     0
 48
0.5
100
AcDbDimension
  2
*D5
 10
123.8694079939874
 20
118.4560539836823
 30
0.0
 11
121.9944079939874
 21
128.4560539836823
 31
0.0
 70
    33
 71
     5
 42
20.0
  3
ISO-25
100
AcDbAlignedDimension
 13
135.240698657078
 23
138.4560539836823
 33
0.0
 14
135.240698657078
 24
118.4560539836823
 34
0.0
  0
CIRCLE
  5
627
330
1B
100
AcDbEntity
 67
     1
  8
0
 62
     0
 48
0.2
100
AcDbCircle
 10
159.740698657078
 20
128.4560539836823
 30
0.0
 40
6.0
  0
LINE
  5
628
330
1B
100
AcDbEntity
 67
     1
  8
0
 62
     0
 48
0.2
100
AcDbLine
 10
134.740698657078
 20
118.9560539836823
 30
0.0
 11
134.740698657078
 21
137.9560539836823
 31
0.0
  0
LINE
  5
629
330
1B
100
AcDbEntity
 67
     1
  8
0
 62
     0
 48
0.5
100
AcDbLine
 10
140.0027497025914
 20
85.05732481470765
 30
0.0
 11
141.8417951965964
 21
85.05732481470765
 31
0.0
  0
LINE
  5
62A
330
1B
100
AcDbEntity
 67
     1
  8
0
 62
     0
 48
0.5
100
AcDbLine
 10
141.0527497025914
 20
83.78446118182251
 30
0.0
 11
142.1097497025914
 21
84.8414611818225
 31
0.0
  0
LINE
  5
62B
330
1B
100
AcDbEntity
 67
     1
  8
0
 62
     0
 48
0.5
100
AcDbLine
 10
139.3027497025914
 20
85.05732481470765
 30
0.0
 11
137.1957497025914
 21
85.05732481470765
 31
0.0
  0
LINE
  5
62C
330
1B
100
AcDbEntity
 67
     1
  8
0
 62
     0
 48
0.5
100
AcDbLine
 10
138.6537053441353
 20
81.58441661475333
 30
0.0
 11
140.6073937817421
 21
81.24217133037426
 31
0.0
  0
LINE
  5
62D
330
1B
100
AcDbEntity
 67
     1
  8
0
 62
     0
 48
0.5
100
AcDbLine
 10
138.4558474914179
 20
82.67006312728748
 30
0.0
 11
140.7860227906881
 21
82.26186523216723
 31
0.0
  0
LINE
  5
62E
330
1B
100
AcDbEntity
 67
     1
  8
0
 62
     0
 48
0.5
100
AcDbLine
 10
138.2527497025914
 20
83.78446118182251
 30
0.0
 11
140.9693824918012
 21
83.30856403077241
 31
0.0
  0
LINE
  5
62F
330
1B
100
AcDbEntity
 67
     1
  8
0
 62
     0
 48
0.5
100
AcDbLine
 10
139.3027497025914
 20
85.05732481470765
 30
0.0
 11
137.1957497025914
 21
85.05732481470765
 31
0.0
  0
LINE
  5
630
330
1B
100
AcDbEntity
 67
     1
  8
0
 62
     0
 48
0.5
100
AcDbLine
 10
137.1957497025914
 20
85.05732481470765
 30
0.0
 11
137.1957497025914
 21
84.8414611818225
 31
0.0
  0
LINE
  5
631
330
1B
100
AcDbEntity
 67
     1
  8
0
 62
     0
 48
0.5
100
AcDbLine
 10
137.1957497025914
 20
84.8414611818225
 30
0.0
 11
138.2527497025914
 21
83.78446118182251
 31
0.0
  0
LINE
  5
632
330
1B
100
AcDbEntity
 67
     1
  8
0
 62
     0
 48
0.5
100
AcDbLine
 10
139.3027497025914
 20
84.35732481470765
 30
0.0
 11
139.3027497025914
 21
85.05732481470765
 31
0.0
  0
LINE
  5
633
330
1B
100
AcDbEntity
 67
     1
  8
0
 62
     0
 48
0.5
100
AcDbLine
 10
140.0027497025914
 20
84.35732481470765
 30
0.0
 11
139.3027497025914
 21
84.35732481470765
 31
0.0
  0
LINE
  5
634
330
1B
100
AcDbEntity
 67
     1
  8
0
 62
     0
 48
0.5
100
AcDbLine
 10
140.0027497025914
 20
85.05732481470765
 30
0.0
 11
140.0027497025914
 21
84.35732481470765
 31
0.0
  0
LINE
  5
635
330
1B
100
AcDbEntity
 67
     1
  8
0
 62
     0
 48
0.5
100
AcDbLine
 10
138.8309096547759
 20
80.61209613714414
 30
0.0
 11
140.4474110974264
 21
80.32891895019368
 31
0.0
  0
LINE
  5
636
330
1B
100
AcDbEntity
 67
     1
  8
0
 62
     0
 48
0.5
100
AcDbLine
 10
139.2308718347276
 20
78.41750269621488
 30
0.0
 11
140.0863192992524
 21
78.2676462221057
 31
0.0
  0
LINE
  5
637
330
1B
100
AcDbEntity
 67
     1
  8
0
 62
     0
 48
0.5
100
AcDbLine
 10
139.0405499806416
 20
79.46179916617876
 30
0.0
 11
140.2581446966738
 21
79.24850208061204
 31
0.0
  0
LINE
  5
638
330
1B
100
AcDbEntity
 67
     1
  8
0
 62
     0
 48
0.2
100
AcDbLine
 10
134.740698657078
 20
118.9560539836823
 30
0.0
 11
135.240698657078
 21
118.4560539836823
 31
0.0
  0
LINE
  5
639
330
1B
100
AcDbEntity
 67
     1
  8
0
 62
     0
 48
0.5
100
AcDbLine
 10
149.42569625732
 20
85.05732481470767
 30
0.0
 11
147.3186962573199
 21
85.05732481470767
 31
0.0
  0
LINE
  5
63A
330
1B
100
AcDbEntity
 67
     1
  8
0
 62
     0
 48
0.5
100
AcDbLine
 10
149.42569625732
 20
85.05732481470767
 30
0.0
 11
147.31869625732
 21
85.05732481470767
 31
0.0
  0
LINE
  5
63B
330
1B
100
AcDbEntity
 67
     1
  8
0
 62
     0
 48
0.5
100
AcDbLine
 10
149.1634965353702
 20
79.46179916617878
 30
0.0
 11
150.3810912514024
 21
79.24850208061205
 31
0.0
  0
LINE
  5
63C
330
1B
100
AcDbEntity
 67
     1
  8
0
 62
     0
 48
0.5
100
AcDbLine
 10
148.9538562095045
 20
80.61209613714416
 30
0.0
 11
150.570357652155
 21
80.32891895019369
 31
0.0
  0
LINE
  5
63D
330
1B
100
AcDbEntity
 67
     1
  8
0
 62
     0
 48
0.5
100
AcDbLine
 10
148.7766518988639
 20
81.58441661475334
 30
0.0
 11
150.7303403364707
 21
81.24217133037427
 31
0.0
  0
LINE
  5
63E
330
1B
100
AcDbEntity
 67
     1
  8
0
 62
     0
 48
0.5
100
AcDbLine
 10
148.37569625732
 20
83.78446118182253
 30
0.0
 11
151.0923290465298
 21
83.30856403077243
 31
0.0
  0
LINE
  5
63F
330
1B
100
AcDbEntity
 67
     1
  8
0
 62
     0
 48
0.5
100
AcDbLine
 10
148.5787940461465
 20
82.67006312728749
 30
0.0
 11
150.9089693454166
 21
82.26186523216725
 31
0.0
  0
LINE
  5
640
330
1B
100
AcDbEntity
 67
     1
  8
0
 62
     0
 48
0.5
100
AcDbLine
 10
147.3186962573199
 20
85.05732481470767
 30
0.0
 11
147.3186962573199
 21
84.84146118182252
 31
0.0
  0
LINE
  5
641
330
1B
100
AcDbEntity
 67
     1
  8
0
 62
     0
 48
0.5
100
AcDbLine
 10
147.31869625732
 20
84.84146118182252
 30
0.0
 11
148.37569625732
 21
83.78446118182253
 31
0.0
  0
LINE
  5
642
330
1B
100
AcDbEntity
 67
     1
  8
0
 62
     0
 48
0.5
100
AcDbLine
 10
142.1097497025914
 20
85.05732481470765
 30
0.0
 11
142.1097497025914
 21
84.8414611818225
 31
0.0
  0
LINE
  5
643
330
1B
100
AcDbEntity
 67
     1
  8
0
 62
     0
 48
0.5
100
AcDbLine
 10
141.5738406906013
 20
85.05732481470765
 30
0.0
 11
142.1097497025914
 21
85.05732481470765
 31
0.0
  0
LINE
  5
644
330
1B
100
AcDbEntity
 67
     1
  8
0
 62
     0
 48
0.5
100
AcDbLine
 10
151.6967872453299
 20
85.05732481470767
 30
0.0
 11
152.23269625732
 21
85.05732481470767
 31
0.0
  0
LINE
  5
645
330
1B
100
AcDbEntity
 67
     1
  8
0
 62
     0
 48
0.5
100
AcDbLine
 10
150.12569625732
 20
85.05732481470767
 30
0.0
 11
150.12569625732
 21
84.35732481470767
 31
0.0
  0
LINE
  5
646
330
1B
100
AcDbEntity
 67
     1
  8
0
 62
     0
 48
0.5
100
AcDbLine
 10
150.12569625732
 20
84.35732481470767
 30
0.0
 11
149.42569625732
 21
84.35732481470767
 31
0.0
  0
LINE
  5
647
330
1B
100
AcDbEntity
 67
     1
  8
0
 62
     0
 48
0.5
100
AcDbLine
 10
149.42569625732
 20
84.35732481470767
 30
0.0
 11
149.42569625732
 21
85.05732481470767
 31
0.0
  0
LINE
  5
648
330
1B
100
AcDbEntity
 67
     1
  8
0
 62
     0
 48
0.5
100
AcDbLine
 10
150.12569625732
 20
85.05732481470767
 30
0.0
 11
151.9647417513249
 21
85.05732481470767
 31
0.0
  0
LINE
  5
649
330
1B
100
AcDbEntity
 67
     1
  8
0
 62
     0
 48
0.5
100
AcDbLine
 10
152.23269625732
 20
85.05732481470767
 30
0.0
 11
152.23269625732
 21
84.84146118182252
 31
0.0
  0
LINE
  5
64A
330
1B
100
AcDbEntity
 67
     1
  8
0
 62
     0
 48
0.5
100
AcDbLine
 10
149.3538183894562
 20
78.41750269621489
 30
0.0
 11
150.209265853981
 21
78.26764622210571
 31
0.0
  0
LINE
  5
64B
330
1B
100
AcDbEntity
 67
     1
  8
0
 62
     0
 48
0.5
100
AcDbLine
 10
151.17569625732
 20
83.78446118182253
 30
0.0
 11
152.23269625732
 21
84.84146118182252
 31
0.0
  0
LINE
  5
64C
330
1B
100
AcDbEntity
 67
     1
  8
0
 62
     0
 48
0.5
100
AcDbLine
 10
171.6967872453299
 20
85.05732481470769
 30
0.0
 11
172.23269625732
 21
85.05732481470769
 31
0.0
  0
LINE
  5
64D
330
1B
100
AcDbEntity
 67
     1
  8
0
 62
     0
 48
0.5
100
AcDbLine
 10
170.12569625732
 20
85.05732481470769
 30
0.0
 11
170.12569625732
 21
84.35732481470768
 31
0.0
  0
LINE
  5
64E
330
1B
100
AcDbEntity
 67
     1
  8
0
 62
     0
 48
0.5
100
AcDbLine
 10
170.12569625732
 20
84.35732481470768
 30
0.0
 11
169.42569625732
 21
84.35732481470768
 31
0.0
  0
LINE
  5
64F
330
1B
100
AcDbEntity
 67
     1
  8
0
 62
     0
 48
0.5
100
AcDbLine
 10
169.42569625732
 20
84.35732481470768
 30
0.0
 11
169.42569625732
 21
85.05732481470769
 31
0.0
  0
LINE
  5
650
330
1B
100
AcDbEntity
 67
     1
  8
0
 62
     0
 48
0.5
100
AcDbLine
 10
170.12569625732
 20
85.05732481470769
 30
0.0
 11
171.9647417513249
 21
85.05732481470769
 31
0.0
  0
LINE
  5
651
330
1B
100
AcDbEntity
 67
     1
  8
0
 62
     0
 48
0.5
100
AcDbLine
 10
172.23269625732
 20
85.05732481470769
 30
0.0
 11
172.23269625732
 21
84.84146118182254
 31
0.0
  0
LINE
  5
652
330
1B
100
AcDbEntity
 67
     1
  8
0
 62
     0
 48
0.5
100
AcDbLine
 10
167.3186962573199
 20
85.05732481470769
 30
0.0
 11
167.3186962573199
 21
84.84146118182254
 31
0.0
  0
LINE
  5
653
330
1B
100
AcDbEntity
 67
     1
  8
0
 62
     0
 48
0.5
100
AcDbLine
 10
169.42569625732
 20
85.05732481470769
 30
0.0
 11
167.3186962573199
 21
85.05732481470769
 31
0.0
  0
LINE
  5
654
330
1B
100
AcDbEntity
 67
     1
  8
0
 62
     0
 48
0.5
100
AcDbLine
 10
169.42569625732
 20
85.05732481470769
 30
0.0
 11
167.31869625732
 21
85.05732481470769
 31
0.0
  0
LINE
  5
655
330
1B
100
AcDbEntity
 67
     1
  8
0
 62
     0
 48
0.5
100
AcDbLine
 10
169.1634965353702
 20
79.46179916617879
 30
0.0
 11
170.3810912514024
 21
79.24850208061207
 31
0.0
  0
LINE
  5
656
330
1B
100
AcDbEntity
 67
     1
  8
0
 62
     0
 48
0.5
100
AcDbLine
 10
169.3538183894562
 20
78.41750269621491
 30
0.0
 11
170.209265853981
 21
78.26764622210572
 31
0.0
  0
LINE
  5
657
330
1B
100
AcDbEntity
 67
     1
  8
0
 62
     0
 48
0.5
100
AcDbLine
 10
168.9538562095045
 20
80.61209613714416
 30
0.0
 11
170.570357652155
 21
80.32891895019371
 31
0.0
  0
LINE
  5
658
330
1B
100
AcDbEntity
 67
     1
  8
0
 62
     0
 48
0.5
100
AcDbLine
 10
168.7766518988639
 20
81.58441661475334
 30
0.0
 11
170.7303403364706
 21
81.24217133037429
 31
0.0
  0
LINE
  5
659
330
1B
100
AcDbEntity
 67
     1
  8
0
 62
     0
 48
0.5
100
AcDbLine
 10
168.37569625732
 20
83.78446118182255
 30
0.0
 11
171.0923290465298
 21
83.30856403077245
 31
0.0
  0
LINE
  5
65A
330
1B
100
AcDbEntity
 67
     1
  8
0
 62
     0
 48
0.5
100
AcDbLine
 10
168.5787940461465
 20
82.67006312728751
 30
0.0
 11
170.9089693454166
 21
82.26186523216727
 31
0.0
  0
LINE
  5
65B
330
1B
100
AcDbEntity
 67
     1
  8
0
 62
     0
 48
0.5
100
AcDbLine
 10
171.17569625732
 20
83.78446118182255
 30
0.0
 11
172.23269625732
 21
84.84146118182254
 31
0.0
  0
LINE
  5
65C
330
1B
100
AcDbEntity
 67
     1
  8
0
 62
     0
 48
0.5
100
AcDbLine
 10
167.31869625732
 20
84.84146118182254
 30
0.0
 11
168.37569625732
 21
83.78446118182255
 31
0.0
  0
CIRCLE
  5
65D
330
1B
100
AcDbEntity
 67
     1
  8
0
 62
     0
 48
0.2
100
AcDbCircle
 10
149.740698657078
 20
123.4560539836823
 30
0.0
 40
1.7
  0
CIRCLE
  5
65E
330
1B
100
AcDbEntity
 67
     1
  8
0
 62
     0
 48
0.2
100
AcDbCircle
 10
149.740698657078
 20
123.4560539836823
 30
0.0
 40
3.0
  0
LEADER
  5
65F
330
1B
100
AcDbEntity
 67
     1
  8
0
 62
     0
 48
0.5
100
AcDbLeader
  3
ISO-25
 73
     0
 40
2.5
 41
25.16666666666666
 76
     3
 10
139.740698657078
 20
133.4560539836823
 30
0.0
 10
149.2143809307662
 20
143.5143900233069
 30
0.0
 10
154.3275677221082
 20
143.5143900233069
 30
0.0
340
621
213
0.0
223
-1.25
233
0.0
1001
ACAD
1000
DSTYLE
1002
{
1070
   147
1040
0.625
1070
    77
1070
     0
1002
}
  0
CIRCLE
  5
660
330
1B
100
AcDbEntity
 67
     1
  8
0
 62
     0
 48
0.2
100
AcDbCircle
 10
139.740698657078
 20
133.4560539836823
 30
0.0
 40
1.7
  0
CIRCLE
  5
661
330
1B
100
AcDbEntity
 67
     1
  8
0
 62
     0
 48
0.2
100
AcDbCircle
 10
139.740698657078
 20
133.4560539836823
 30
0.0
 40
3.0
  0
LINE
  5
662
330
1B
100
AcDbEntity
 67
     1
  8
0
 62
     0
 48
0.2
100
AcDbLine
 10
135.240698657078
 20
138.4560539836823
 30
0.0
 11
134.740698657078
 21
137.9560539836823
 31
0.0
  0
CIRCLE
  5
663
330
1B
100
AcDbEntity
 67
     1
  8
0
 62
     0
 48
0.2
100
AcDbCircle
 10
169.740698657078
 20
133.4560539836823
 30
0.0
 40
1.7
  0
CIRCLE
  5
664
330
1B
100
AcDbEntity
 67
     1
  8
0
 62
     0
 48
0.2
100
AcDbCircle
 10
169.740698657078
 20
133.4560539836823
 30
0.0
 40
3.0
  0
MTEXT
  5
665
330
1B
100
AcDbEntity
 67
     1
  8
0
 62
     0
 48
0.5
100
AcDbMText
 10
155.0341972710352
 20
152.2208263167992
 30
0.0
 40
2.5
 41
49.9322
 71
     5
 72
     5
  1
UIA-SA
 73
     1
 44
1.0
  0
LINE
  5
666
330
1B
100
AcDbEntity
 67
     1
  8
0
 62
     0
 48
0.2
100
AcDbLine
 10
184.740698657078
 20
137.9560539836823
 30
0.0
 11
184.740698657078
 21
118.9560539836823
 31
0.0
  0
LINE
  5
667
330
1B
100
AcDbEntity
 67
     1
  8
0
 62
     0
 48
0.5
100
AcDbLine
 10
181.6967872453299
 20
85.05732481470765
 30
0.0
 11
182.23269625732
 21
85.05732481470765
 31
0.0
  0
LINE
  5
668
330
1B
100
AcDbEntity
 67
     1
  8
0
 62
     0
 48
0.5
100
AcDbLine
 10
181.17569625732
 20
83.78446118182251
 30
0.0
 11
182.23269625732
 21
84.8414611818225
 31
0.0
  0
LINE
  5
669
330
1B
100
AcDbEntity
 67
     1
  8
0
 62
     0
 48
0.5
100
AcDbLine
 10
179.42569625732
 20
85.05732481470765
 30
0.0
 11
177.31869625732
 21
85.05732481470765
 31
0.0
  0
LINE
  5
66A
330
1B
100
AcDbEntity
 67
     1
  8
0
 62
     0
 48
0.5
100
AcDbLine
 10
179.42569625732
 20
85.05732481470765
 30
0.0
 11
177.31869625732
 21
85.05732481470765
 31
0.0
  0
LINE
  5
66B
330
1B
100
AcDbEntity
 67
     1
  8
0
 62
     0
 48
0.5
100
AcDbLine
 10
177.31869625732
 20
85.05732481470765
 30
0.0
 11
177.31869625732
 21
84.8414611818225
 31
0.0
  0
LINE
  5
66C
330
1B
100
AcDbEntity
 67
     1
  8
0
 62
     0
 48
0.5
100
AcDbLine
 10
179.42569625732
 20
84.35732481470765
 30
0.0
 11
179.42569625732
 21
85.05732481470765
 31
0.0
  0
LINE
  5
66D
330
1B
100
AcDbEntity
 67
     1
  8
0
 62
     0
 48
0.5
100
AcDbLine
 10
180.12569625732
 20
84.35732481470765
 30
0.0
 11
179.42569625732
 21
84.35732481470765
 31
0.0
  0
LINE
  5
66E
330
1B
100
AcDbEntity
 67
     1
  8
0
 62
     0
 48
0.5
100
AcDbLine
 10
180.12569625732
 20
85.05732481470765
 30
0.0
 11
180.12569625732
 21
84.35732481470765
 31
0.0
  0
LINE
  5
66F
330
1B
100
AcDbEntity
 67
     1
  8
0
 62
     0
 48
0.5
100
AcDbLine
 10
178.5787940461465
 20
82.67006312728748
 30
0.0
 11
180.9089693454167
 21
82.26186523216723
 31
0.0
  0
LINE
  5
670
330
1B
100
AcDbEntity
 67
     1
  8
0
 62
     0
 48
0.5
100
AcDbLine
 10
178.37569625732
 20
83.78446118182251
 30
0.0
 11
181.0923290465298
 21
83.30856403077241
 31
0.0
  0
LINE
  5
671
330
1B
100
AcDbEntity
 67
     1
  8
0
 62
     0
 48
0.5
100
AcDbLine
 10
178.7766518988639
 20
81.58441661475333
 30
0.0
 11
180.7303403364707
 21
81.24217133037426
 31
0.0
  0
LINE
  5
672
330
1B
100
AcDbEntity
 67
     1
  8
0
 62
     0
 48
0.5
100
AcDbLine
 10
178.9538562095045
 20
80.61209613714414
 30
0.0
 11
180.570357652155
 21
80.32891895019368
 31
0.0
  0
LINE
  5
673
330
1B
100
AcDbEntity
 67
     1
  8
0
 62
     0
 48
0.5
100
AcDbLine
 10
179.3538183894562
 20
78.41750269621488
 30
0.0
 11
180.209265853981
 21
78.2676462221057
 31
0.0
  0
LINE
  5
674
330
1B
100
AcDbEntity
 67
     1
  8
0
 62
     0
 48
0.5
100
AcDbLine
 10
179.1634965353702
 20
79.46179916617876
 30
0.0
 11
180.3810912514024
 21
79.24850208061204
 31
0.0
  0
LINE
  5
675
330
1B
100
AcDbEntity
 67
     1
  8
0
 62
     0
 48
0.5
100
AcDbLine
 10
177.31869625732
 20
84.8414611818225
 30
0.0
 11
178.37569625732
 21
83.78446118182251
 31
0.0
  0
LINE
  5
676
330
1B
100
AcDbEntity
 67
     1
  8
0
 62
     0
 48
0.5
100
AcDbLine
 10
180.12569625732
 20
85.05732481470765
 30
0.0
 11
181.964741751325
 21
85.05732481470765
 31
0.0
  0
LINE
  5
677
330
1B
100
AcDbEntity
 67
     1
  8
0
 62
     0
 48
0.5
100
AcDbLine
 10
182.23269625732
 20
85.05732481470765
 30
0.0
 11
182.23269625732
 21
84.8414611818225
 31
0.0
  0
CIRCLE
  5
678
330
1B
100
AcDbEntity
 67
     1
  8
0
 62
     0
 48
0.2
100
AcDbCircle
 10
179.740698657078
 20
123.4560539836823
 30
0.0
 40
3.0
  0
CIRCLE
  5
679
330
1B
100
AcDbEntity
 67
     1
  8
0
 62
     0
 48
0.2
100
AcDbCircle
 10
179.740698657078
 20
123.4560539836823
 30
0.0
 40
1.7
  0
LINE
  5
67A
330
1B
100
AcDbEntity
 67
     1
  8
0
 62
     0
 48
0.2
100
AcDbLine
 10
184.740698657078
 20
118.9560539836823
 30
0.0
 11
184.240698657078
 21
118.4560539836823
 31
0.0
  0
LINE
  5
67B
330
1B
100
AcDbEntity
 67
     1
  8
0
 62
     0
 48
0.2
100
AcDbLine
 10
184.240698657078
 20
138.4560539836823
 30
0.0
 11
184.740698657078
 21
137.9560539836823
 31
0.0
  0
LWPOLYLINE
  5
825
330
1B
100
AcDbEntity
 67
     1
  8
0
 62
     0
 48
0.3
100
AcDbPolyline
 90
        4
 70
     1
 43
0.0
 10
146.4060162417848
 20
154.6087311362895
 10
163.2567523564515
 20
154.6087311362895
 10
163.2567523564515
 20
149.6253710356782
 10
146.4060162417848
 20
149.6253710356782
  0
LINE
  5
84F
330
1B
100
AcDbEntity
 67
     1
  8
Object
 62
     0
 48
0.5
100
AcDbLine
 10
188.7855764593683
 20
95.45674247533932
 30
0.0
 11
196.5129830696808
 21
97.52729483615951
 31
0.0
  0
LINE
  5
858
330
1B
100
AcDbEntity
 67
     1
  8
Object
 62
     0
 48
0.5
100
AcDbLine
 10
189.6137974036964
 20
92.36577983121426
 30
0.0
 11
189.4016653693403
 21
91.99835636979681
 31
0.0
  0
LINE
  5
859
330
1B
100
AcDbEntity
 67
     1
  8
Object
 62
     0
 48
0.5
100
AcDbLine
 10
176.8662971446759
 20
97.4393621106569
 30
0.0
 11
178.6780304603935
 21
90.67788132663343
 31
0.0
  0
LINE
  5
85A
330
1B
100
AcDbEntity
 67
     1
  8
Object
 62
     0
 48
0.2
100
AcDbLine
 10
176.4780685770221
 20
98.88825085009054
 30
0.0
 11
160.326580722796
 21
94.56047272298961
 31
0.0
  0
LINE
  5
85B
330
1B
100
AcDbEntity
 67
     1
  8
Object
 62
     0
 48
0.2
100
AcDbLine
 10
163.9379307035001
 20
85.17536922980461
 30
0.0
 11
179.0662590280473
 21
89.22899258719988
 31
0.0
  0
LINE
  5
85C
330
1B
100
AcDbEntity
 67
     1
  8
Object
 62
     0
 48
0.5
100
AcDbLine
 10
153.740698657078
 20
82.29468973962424
 30
0.0
 11
153.740698657078
 21
76.29468973962423
 31
0.0
  0
LINE
  5
85D
330
1B
100
AcDbEntity
 67
     1
  8
Object
 62
     0
 48
0.5
100
AcDbLine
 10
165.740698657078
 20
76.29468973962423
 30
0.0
 11
165.740698657078
 21
82.29468973962424
 31
0.0
  0
LINE
  5
85E
330
1B
100
AcDbEntity
 67
     1
  8
Object
 62
     0
 48
0.5
100
AcDbLine
 10
159.740698657078
 20
76.29468973962423
 30
0.0
 11
165.740698657078
 21
76.29468973962423
 31
0.0
  0
LINE
  5
860
330
1B
100
AcDbEntity
 67
     1
  8
Object
 62
     0
 48
0.5
100
AcDbLine
 10
163.740698657078
 20
85.29468973962423
 30
0.0
 11
155.740698657078
 21
85.29468973962423
 31
0.0
  0
ARC
  5
862
330
1B
100
AcDbEntity
 67
     1
  8
Object
 62
     0
 48
0.5
100
AcDbCircle
 10
157.7117124700589
 20
81.81401386430366
 30
0.0
 40
4.0
100
AcDbArc
 50
119.5217192951864
 51
173.0981456528547
  0
LINE
  5
863
330
1B
100
AcDbEntity
 67
     1
  8
Object
 62
     0
 48
0.5
100
AcDbLine
 10
158.839630763135
 20
87.40342234135237
 30
0.0
 11
158.2745975654488
 21
85.29468973962423
 31
0.0
  0
ARC
  5
864
330
1B
100
AcDbEntity
 67
     1
  8
Object
 62
     0
 48
0.5
100
AcDbCircle
 10
161.7696848440971
 20
81.81401386430366
 30
0.0
 40
4.0
100
AcDbArc
 50
6.901854347145232
 51
60.47828070481354
  0
LINE
  5
865
330
1B
100
AcDbEntity
 67
     1
  8
Object
 62
     0
 48
0.5
100
AcDbLine
 10
184.740698657078
 20
74.29468973962423
 30
0.0
 11
184.740698657078
 21
76.29468973962423
 31
0.0
  0
LINE
  5
866
330
1B
100
AcDbEntity
 67
     1
  8
Object
 62
     0
 48
0.5
100
AcDbLine
 10
179.0662590280473
 20
89.22899258719988
 30
0.0
 11
189.4016653693403
 21
91.99835636979681
 31
0.0
  0
LINE
  5
867
330
1B
100
AcDbEntity
 67
     1
  8
Object
 62
     0
 48
0.5
100
AcDbLine
 10
178.6780304603935
 20
90.67788132663343
 30
0.0
 11
179.0662590280473
 21
89.22899258719988
 31
0.0
  0
LINE
  5
868
330
1B
100
AcDbEntity
 67
     1
  8
Object
 62
     0
 48
0.5
100
AcDbLine
 10
186.8134749183152
 20
101.6576146326875
 30
0.0
 11
176.4780685770221
 21
98.88825085009054
 31
0.0
  0
LINE
  5
869
330
1B
100
AcDbEntity
 67
     1
  8
Object
 62
     0
 48
0.5
100
AcDbLine
 10
176.4780685770221
 20
98.88825085009054
 30
0.0
 11
176.8662971446759
 21
97.4393621106569
 31
0.0
  0
LINE
  5
86B
330
1B
100
AcDbEntity
 67
     1
  8
Object
 62
     0
 48
0.5
100
AcDbLine
 10
187.1808983797326
 20
101.4454825983315
 30
0.0
 11
186.8134749183152
 21
101.6576146326875
 31
0.0
  0
LINE
  5
86C
330
1B
100
AcDbEntity
 67
     1
  8
Object
 62
     0
 48
0.5
100
AcDbLine
 10
188.0091193240607
 20
98.35451995420655
 30
0.0
 11
188.7855764593683
 21
95.45674247533932
 31
0.0
  0
LINE
  5
86D
330
1B
100
AcDbEntity
 67
     1
  8
Object
 62
     0
 48
0.5
100
AcDbLine
 10
189.6137974036964
 20
92.36577983121426
 30
0.0
 11
188.7855764593683
 21
95.45674247533932
 31
0.0
  0
LINE
  5
86E
330
1B
100
AcDbEntity
 67
     1
  8
Object
 62
     0
 48
0.5
100
AcDbLine
 10
195.7365259343732
 20
100.4250723150267
 30
0.0
 11
188.0091193240607
 21
98.35451995420655
 31
0.0
  0
LINE
  5
86F
330
1B
100
AcDbEntity
 67
     1
  8
Object
 62
     0
 48
0.5
100
AcDbLine
 10
188.0091193240607
 20
98.35451995420655
 30
0.0
 11
187.1808983797326
 21
101.4454825983315
 31
0.0
  0
LINE
  5
871
330
1B
100
AcDbEntity
 67
     1
  8
Object
 62
     0
 48
0.5
100
AcDbLine
 10
252.9252938347581
 20
115.4692474231024
 30
0.0
 11
195.9322752307884
 21
99.69452599525933
 31
0.0
  0
LINE
  5
873
330
1B
100
AcDbEntity
 67
     1
  8
Object
 62
     0
 48
0.5
100
AcDbLine
 10
196.3509439997738
 20
98.26071983526908
 30
0.0
 11
253.2373003342012
 21
114.0020555664234
 31
0.0
  0
LINE
  5
874
330
1B
100
AcDbEntity
 67
     1
  8
0
 62
     0
 48
0.3
100
AcDbLine
 10
195.7365259343732
 20
100.4250723150267
 30
0.0
 11
196.5129830696808
 21
97.52729483615951
 31
0.0
  0
ARC
  5
8E6
330
1B
100
AcDbEntity
 67
     1
  8
0
 62
     0
 48
0.3
100
AcDbCircle
 10
164.4924244837529
 20
89.96198666640623
 30
0.0
 40
6.204863274343361
100
AcDbArc
 50
132.1739456961486
 51
228.7812925258883
  0
ENDSEC
  0
SECTION
  2
OBJECTS
  0
DICTIONARY
  5
C
330
0
100
AcDbDictionary
281
     1
  3
ACAD_GROUP
350
D
  3
ACAD_LAYOUT
350
1A
  3
ACAD_MLINESTYLE
350
17
  3
ACAD_PLOTSETTINGS
350
19
  3
ACAD_PLOTSTYLENAME
350
E
  3
AcadDim
350
2B0
  3
AcDbVariableDictionary
350
3B9
  0
DICTIONARY
  5
D
102
{ACAD_REACTORS
330
C
102
}
330
C
100
AcDbDictionary
281
     1
  0
DICTIONARY
  5
1A
102
{ACAD_REACTORS
330
C
102
}
330
C
100
AcDbDictionary
281
     1
  3
JIS A4 Title Block (landscape)
350
1E
  3
Model
350
22
  0
DICTIONARY
  5
17
102
{ACAD_REACTORS
330
C
102
}
330
C
100
AcDbDictionary
281
     1
  3
Standard
350
18
  0
DICTIONARY
  5
19
102
{ACAD_REACTORS
330
C
102
}
330
C
100
AcDbDictionary
281
     1
  3
JIS A4 title block (landscape) - no output device
350
B9
  0
ACDBDICTIONARYWDFLT
  5
E
102
{ACAD_REACTORS
330
C
102
}
330
C
100
AcDbDictionary
281
     1
  3
Normal
350
F
100
AcDbDictionaryWithDefault
340
F
  0
XRECORD
  5
2B0
102
{ACAD_REACTORS
330
C
102
}
330
C
100
AcDbXrecord
280
     1
 90
   990106
  3

 60
     0
 61
     0
 62
     1
 63
     3
 64
     0
 65
     0
 66
     0
 67
     3
 68
     1
 69
     0
 70
     0
 71
     0
 72
     0
 40
0.0
170
     0
340
0
  0
DICTIONARY
  5
3B9
102
{ACAD_REACTORS
330
C
102
}
330
C
100
AcDbDictionary
281
     1
  3
SORTENTS
350
3BA
  0
LAYOUT
  5
1E
102
{ACAD_REACTORS
330
1A
102
}
330
1A
100
AcDbPlotSettings
  1

  2
EPSON PM-870C
  4
A4
  6

 40
3.174999952316284
 41
3.174999952316284
 42
3.175003051757812
 43
3.17498779296875
 44
210.0
 45
297.0
 46
6.82
 47
14.31
 48
0.0
 49
0.0
140
0.0
141
0.0
142
1.0
143
1.0
 70
   660
 72
     1
 73
     1
 74
     1
  7

 75
    16
147
1.0
148
-36.80481564845297
149
-5.221453879718922
100
AcDbLayout
  1
JIS A4 Title Block (landscape)
 70
     1
 71
     1
 10
19.31982785548422
 20
-4.773546072597362
 11
316.3198278554842
 21
205.2264539274026
 12
0.0
 22
0.0
 32
0.0
 14
36.80374580367322
 24
5.217604330321989
 34
-0.0015258207003583
 15
298.8359112903091
 25
195.235304502372
 35
0.0000000349246037
146
0.0
 13
0.0
 23
0.0
 33
0.0
 16
1.0
 26
0.0
 36
0.0
 17
0.0
 27
1.0
 37
0.0
 76
     0
330
1B
331
2E
  0
LAYOUT
  5
22
102
{ACAD_REACTORS
330
1A
102
}
330
1A
100
AcDbPlotSettings
  1

  2
none_device
  4
Letter_(8.50_x_11.00_Inches)
  6

 40
6.349999904632568
 41
6.349999904632568
 42
6.350006103515625
 43
6.350006103515625
 44
215.8999938964843
 45
279.3999938964843
 46
0.0
 47
0.0
 48
0.0
 49
0.0
140
0.0
141
0.0
142
1.0
143
80.51211718508412
 70
 11920
 72
     0
 73
     1
 74
     0
  7

 75
     0
147
0.0124204906660344
148
51.18690022848504
149
577.6740347999296
100
AcDbLayout
  1
Model
 70
     1
 71
     0
 10
0.0
 20
0.0
 11
12.0
 21
9.0
 12
0.0
 22
0.0
 32
0.0
 14
0.0
 24
0.0
 34
0.0
 15
0.0
 25
0.0
 35
0.0
146
0.0
 13
0.0
 23
0.0
 33
0.0
 16
1.0
 26
0.0
 36
0.0
 17
0.0
 27
1.0
 37
0.0
 76
     0
330
1F
  0
MLINESTYLE
  5
18
102
{ACAD_REACTORS
330
17
102
}
330
17
100
AcDbMlineStyle
  2
STANDARD
 70
     0
  3

 62
   256
 51
90.0
 52
90.0
 71
     2
 49
0.5
 62
   256
  6
BYLAYER
 49
-0.5
 62
   256
  6
BYLAYER
  0
PLOTSETTINGS
  5
B9
102
{ACAD_REACTORS
330
19
102
}
330
19
100
AcDbPlotSettings
  1
JIS A4 title block (landscape) - no output device
  2
None
  4
ISO_A4_(210.00_x_297.00_MM)
  6

 40
7.549999999999999
 41
20.05
 42
7.549999999999999
 43
20.05
 44
210.0
 45
297.0
 46
-7.559999999999999
 47
-20.07
 48
0.0
 49
0.0
140
0.0
141
0.0
142
1.0
143
1.0
 70
   692
 72
     1
 73
     1
 74
     1
  7

 75
    16
147
1.0
148
0.0128164049386896
149
0.0090630292066862
  0
ACDBPLACEHOLDER
  5
F
102
{ACAD_REACTORS
330
E
102
}
330
E
  0
DICTIONARYVAR
  5
3BA
102
{ACAD_REACTORS
330
3B9
102
}
330
3B9
100
DictionaryVariables
280
     0
  1
96
  0
ENDSEC
  0
EOF
